  0
SECTION
  2
HEADER
  9
$ACADVER
  1
AC1009
  9
$INSBASE
 10
0.0
 20
0.0
 30
0.0
  9
$EXTMIN
 10
0.0
 20
0.0
 30
0.0
  9
$EXTMAX
 10
5250.0
 20
7375.0
 30
0.0
  9
$LIMMIN
 10
0.0
 20
0.0
  9
$LIMMAX
 10
297.0
 20
210.0
  9
$ORTHOMODE
 70
     0
  9
$REGENMODE
 70
     1
  9
$FILLMODE
 70
     0
  9
$QTEXTMODE
 70
     0
  9
$MIRRTEXT
 70
     1
  9
$DRAGMODE
 70
     2
  9
$LTSCALE
 40
100.0
  9
$OSMODE
 70
    37
  9
$ATTMODE
 70
     1
  9
$TEXTSIZE
 40
180.0
  9
$TRACEWID
 40
0.05
  9
$TEXTSTYLE
  7
STANDARD
  9
$CLAYER
  8
3
  9
$CELTYPE
  6
BYLAYER
  9
$CECOLOR
 62
   256
  9
$DIMSCALE
 40
25.0
  9
$DIMASZ
 40
2.0
  9
$DIMEXO
 40
0.5
  9
$DIMDLI
 40
10.0
  9
$DIMRND
 40
0.0
  9
$DIMDLE
 40
0.0
  9
$DIMEXE
 40
1.0
  9
$DIMTP
 40
1.0
  9
$DIMTM
 40
1.0
  9
$DIMTXT
 40
3.0
  9
$DIMCEN
 40
0.0
  9
$DIMTSZ
 40
0.0
  9
$DIMTOL
 70
     0
  9
$DIMLIM
 70
     0
  9
$DIMTIH
 70
     0
  9
$DIMTOH
 70
     0
  9
$DIMSE1
 70
     0
  9
$DIMSE2
 70
     0
  9
$DIMTAD
 70
     1
  9
$DIMZIN
 70
     8
  9
$DIMBLK
  1

  9
$DIMASO
 70
     1
  9
$DIMSHO
 70
     1
  9
$DIMPOST
  1

  9
$DIMAPOST
  1

  9
$DIMALT
 70
     0
  9
$DIMALTD
 70
     2
  9
$DIMALTF
 40
0.039
  9
$DIMLFAC
 40
1.0
  9
$DIMTOFL
 70
     1
  9
$DIMTVP
 40
0.0
  9
$DIMTIX
 70
     0
  9
$DIMSOXD
 70
     0
  9
$DIMSAH
 70
     1
  9
$DIMBLK1
  1
OPEN
  9
$DIMBLK2
  1
OPEN
  9
$DIMSTYLE
  2
IGA
  9
$DIMCLRD
 70
     0
  9
$DIMCLRE
 70
     0
  9
$DIMCLRT
 70
     0
  9
$DIMTFAC
 40
10.0
  9
$DIMGAP
 40
1.0
  9
$LUNITS
 70
     2
  9
$LUPREC
 70
     3
  9
$SKETCHINC
 40
0.1
  9
$FILLETRAD
 40
50.0
  9
$AUNITS
 70
     0
  9
$AUPREC
 70
     0
  9
$MENU
  1
acad
  9
$ELEVATION
 40
0.0
  9
$PELEVATION
 40
0.0
  9
$THICKNESS
 40
0.0
  9
$LIMCHECK
 70
     0
  9
$BLIPMODE
 70
     0
  9
$CHAMFERA
 40
0.5
  9
$CHAMFERB
 40
0.5
  9
$SKPOLY
 70
     0
  9
$TDCREATE
 40
2451694.6512332172
  9
$TDUPDATE
 40
2454953.7551097679
  9
$TDINDWG
 40
0.0541946181
  9
$TDUSRTIMER
 40
0.0541946181
  9
$USRTIMER
 70
     1
  9
$ANGBASE
 50
0.0
  9
$ANGDIR
 70
     0
  9
$PDMODE
 70
     0
  9
$PDSIZE
 40
0.0
  9
$PLINEWID
 40
0.0
  9
$COORDS
 70
     1
  9
$SPLFRAME
 70
     0
  9
$SPLINETYPE
 70
     6
  9
$SPLINESEGS
 70
     8
  9
$ATTDIA
 70
     0
  9
$ATTREQ
 70
     1
  9
$HANDLING
 70
 10241
  9
$HANDSEED
  5
81BD
  9
$SURFTAB1
 70
     6
  9
$SURFTAB2
 70
     6
  9
$SURFTYPE
 70
     6
  9
$SURFU
 70
     6
  9
$SURFV
 70
     6
  9
$UCSNAME
  2

  9
$UCSORG
 10
0.0
 20
0.0
 30
0.0
  9
$UCSXDIR
 10
1.0
 20
0.0
 30
0.0
  9
$UCSYDIR
 10
0.0
 20
1.0
 30
0.0
  9
$PUCSNAME
  2

  9
$PUCSORG
 10
0.0
 20
0.0
 30
0.0
  9
$PUCSXDIR
 10
1.0
 20
0.0
 30
0.0
  9
$PUCSYDIR
 10
0.0
 20
1.0
 30
0.0
  9
$USERI1
 70
     0
  9
$USERI2
 70
     0
  9
$USERI3
 70
     0
  9
$USERI4
 70
     0
  9
$USERI5
 70
     0
  9
$USERR1
 40
0.0
  9
$USERR2
 40
0.0
  9
$USERR3
 40
0.0
  9
$USERR4
 40
0.0
  9
$USERR5
 40
0.0
  9
$WORLDVIEW
 70
     1
  9
$SHADEDGE
 70
     3
  9
$SHADEDIF
 70
    70
  9
$TILEMODE
 70
     1
  9
$MAXACTVP
 70
    16
  9
$PLIMCHECK
 70
     0
  9
$PEXTMIN
 10
1.0000000000000000E+020
 20
1.0000000000000000E+020
 30
1.0000000000000000E+020
  9
$PEXTMAX
 10
-1.0000000000000000E+020
 20
-1.0000000000000000E+020
 30
-1.0000000000000000E+020
  9
$PLIMMIN
 10
0.0
 20
0.0
  9
$PLIMMAX
 10
12.0
 20
9.0
  9
$UNITMODE
 70
     0
  9
$VISRETAIN
 70
     0
  9
$PLINEGEN
 70
     0
  9
$PSLTSCALE
 70
     1
  0
ENDSEC
  0
SECTION
  2
TABLES
  0
TABLE
  2
VPORT
 70
     2
  0
VPORT
  2
*ACTIVE
 70
     0
 10
0.0
 20
0.0
 11
1.0
 21
1.0
 12
8841.5248971284218
 22
3687.5000171712591
 13
0.0
 23
0.0
 14
10.0
 24
10.0
 15
10.0
 25
10.0
 16
0.0
 26
0.0
 36
1.0
 17
0.0
 27
0.0
 37
0.0
 40
7431.5372075423384
 41
3.1666666666666661
 42
50.0
 43
0.0
 44
0.0
 50
0.0
 51
0.0
 71
     0
 72
   100
 73
     1
 74
     0
 75
     0
 76
     0
 77
     0
 78
     0
  0
ENDTAB
  0
TABLE
  2
LTYPE
 70
     2
  0
LTYPE
  2
CONTINUOUS
 70
     0
  3
Solid line
 72
    65
 73
     0
 40
0.0
  0
LTYPE
  2
CENTER
 70
     0
  3
____ _ ____ _ ____ _ ____ _ ____ _ ____ _ ____ 
 72
    65
 73
     4
 40
2.0
 49
1.25
 49
-0.25
 49
0.25
 49
-0.25
  0
ENDTAB
  0
TABLE
  2
LAYER
 70
     6
  0
LAYER
  2
0
 70
     0
 62
     7
  6
CONTINUOUS
  0
LAYER
  2
3
 70
     0
 62
     2
  6
CONTINUOUS
  0
LAYER
  2
2
 70
     0
 62
     3
  6
CENTER
  0
LAYER
  2
1
 70
     0
 62
     4
  6
CONTINUOUS
  0
LAYER
  2
4
 70
     0
 62
     7
  6
CONTINUOUS
  0
LAYER
  2
DEFPOINTS
 70
     0
 62
     7
  6
CONTINUOUS
  0
ENDTAB
  0
TABLE
  2
STYLE
 70
     1
  0
STYLE
  2
STANDARD
 70
     0
 40
0.0
 41
1.0
 50
0.0
 71
     0
 42
180.0
  3
simplex.shx
  4
extfont.shx
  0
ENDTAB
  0
TABLE
  2
VIEW
 70
     0
  0
ENDTAB
  0
TABLE
  2
UCS
 70
     0
  0
ENDTAB
  0
TABLE
  2
APPID
 70
     1
  0
APPID
  2
ACAD
 70
     0
  0
ENDTAB
  0
TABLE
  2
DIMSTYLE
 70
     2
  0
DIMSTYLE
  2
IGA
 70
     0
  3

  4

  5

  6
OPEN
  7
OPEN
 40
2.0
 41
2.0
 42
0.5
 43
10.0
 44
1.0
 45
0.0
 46
0.0
 47
1.0
 48
1.0
140
3.0
141
0.0
142
0.0
143
0.03937
144
1.0
145
0.0
146
10.0
147
1.0
 71
     0
 72
     0
 73
     0
 74
     0
 75
     0
 76
     0
 77
     1
 78
     8
170
     0
171
     2
172
     0
173
     1
174
     0
175
     0
176
     0
177
     0
178
     0
  0
DIMSTYLE
  2
MATSU
 70
     0
  3

  4

  5

  6
OPEN
  7
OPEN
 40
1.0
 41
2.0
 42
1.0
 43
10.0
 44
1.0
 45
0.0
 46
0.0
 47
0.0
 48
0.0
140
3.0
141
0.0
142
0.0
143
0.03937
144
1.0
145
0.0
146
1.0
147
0.5
 71
     0
 72
     0
 73
     0
 74
     0
 75
     0
 76
     0
 77
     1
 78
     8
170
     0
171
     2
172
     1
173
     1
174
     0
175
     0
176
   256
177
   256
178
   256
  0
ENDTAB
  0
ENDSEC
  0
SECTION
  2
BLOCKS
  0
BLOCK
  8
0
  2
$MODEL_SPACE
 70
     0
 10
0.0
 20
0.0
 30
0.0
  3
$MODEL_SPACE
  1

  0
ENDBLK
  5
1B
  8
0
  0
BLOCK
 67
     1
  8
0
  2
$PAPER_SPACE
 70
     0
 10
0.0
 20
0.0
 30
0.0
  3
$PAPER_SPACE
  1

  0
ENDBLK
  5
18
 67
     1
  8
0
  0
BLOCK
  8
0
  2
_OPEN
 70
     0
 10
0.0
 20
0.0
 30
0.0
  3
_OPEN
  1

  0
LINE
  5
79FD
  8
0
  6
BYBLOCK
 62
     0
 10
-1.0
 20
0.1666666666666666
 30
0.0
 11
0.0
 21
0.0
 31
0.0
  0
LINE
  5
79FE
  8
0
  6
BYBLOCK
 62
     0
 10
0.0
 20
0.0
 30
0.0
 11
-1.0
 21
-0.1666666666666666
 31
0.0
  0
LINE
  5
79FF
  8
0
  6
BYBLOCK
 62
     0
 10
0.0
 20
0.0
 30
0.0
 11
-1.0
 21
0.0
 31
0.0
  0
ENDBLK
  5
7A01
  8
0
  0
BLOCK
  8
0
  2
YA_N
 70
     0
 10
0.0
 20
0.0
 30
0.0
  3
YA_N
  1

  0
ENDBLK
  5
7A04
  8
0
  0
BLOCK
  8
0
  2
*D2
 70
     1
 10
0.0
 20
0.0
 30
0.0
  3
*D2
  1

  0
LINE
  5
7F01
  8
0
  6
BYBLOCK
 10
6073.9446176354259
 20
1545.19612752332
 30
0.0
 11
6257.2477088909873
 21
1545.19612752332
 31
0.0
  0
LINE
  5
7F02
  8
0
  6
BYBLOCK
 10
6073.9446176354259
 20
985.19612752332057
 30
0.0
 11
6257.2477088909873
 21
985.19612752332057
 31
0.0
  0
LINE
  5
7F03
  8
0
  6
BYBLOCK
 10
6232.2477088909873
 20
1495.19612752332
 30
0.0
 11
6232.2477088909873
 21
1035.19612752332
 31
0.0
  0
INSERT
  5
7F04
  8
0
  6
BYBLOCK
  2
_OPEN
 10
6232.2477088909873
 20
1545.19612752332
 30
0.0
 41
50.0
 42
50.0
 43
50.0
 50
90.0
  0
INSERT
  5
7F05
  8
0
  6
BYBLOCK
  2
_OPEN
 10
6232.2477088909873
 20
985.19612752332057
 30
0.0
 41
50.0
 42
50.0
 43
50.0
 50
270.0
  0
TEXT
  5
7F06
  8
3
 10
6219.7477088909873
 20
1131.2675560947489
 30
0.0
 40
75.0
  1
φ560
 50
90.0
  0
POINT
  5
7F07
  8
DEFPOINTS
  6
BYBLOCK
 62
     0
 10
6048.9446176354259
 20
1545.19612752332
 30
0.0
  0
POINT
  5
7F08
  8
DEFPOINTS
  6
BYBLOCK
 62
     0
 10
6048.9446176354259
 20
985.19612752332057
 30
0.0
  0
POINT
  5
7F09
  8
DEFPOINTS
  6
BYBLOCK
 62
     0
 10
6232.2477088909873
 20
985.19612752332057
 30
0.0
  0
ENDBLK
  5
7F0A
  8
0
  0
BLOCK
  8
0
  2
*D3
 70
     1
 10
0.0
 20
0.0
 30
0.0
  3
*D3
  1

  0
LINE
  5
7F0C
  8
0
  6
BYBLOCK
 10
3362.6021611074211
 20
3800.3550748993111
 30
0.0
 11
3362.6021611074211
 21
4001.6308188557591
 31
0.0
  0
LINE
  5
7F0D
  8
0
  6
BYBLOCK
 10
3862.6021611074211
 20
3800.3550748993111
 30
0.0
 11
3862.6021611074211
 21
4001.6308188557591
 31
0.0
  0
LINE
  5
7F0E
  8
0
  6
BYBLOCK
 10
3412.6021611074211
 20
3976.6308188557591
 30
0.0
 11
3812.6021611074211
 21
3976.6308188557591
 31
0.0
  0
INSERT
  5
7F0F
  8
0
  6
BYBLOCK
  2
_OPEN
 10
3362.6021611074211
 20
3976.6308188557591
 30
0.0
 41
50.0
 42
50.0
 43
50.0
 50
180.0
  0
INSERT
  5
7F10
  8
0
  6
BYBLOCK
  2
_OPEN
 10
3862.6021611074211
 20
3976.6308188557591
 30
0.0
 41
50.0
 42
50.0
 43
50.0
  0
TEXT
  5
7F11
  8
3
 10
3516.1735896788491
 20
3989.1308188557591
 30
0.0
 40
75.0
  1
500
  0
POINT
  5
7F12
  8
DEFPOINTS
  6
BYBLOCK
 62
     0
 10
3362.6021611074211
 20
3775.3550748993111
 30
0.0
  0
POINT
  5
7F13
  8
DEFPOINTS
  6
BYBLOCK
 62
     0
 10
3862.6021611074211
 20
3775.3550748993111
 30
0.0
  0
POINT
  5
7F14
  8
DEFPOINTS
  6
BYBLOCK
 62
     0
 10
3862.6021611074211
 20
3976.6308188557591
 30
0.0
  0
ENDBLK
  5
7F15
  8
0
  0
BLOCK
  8
0
  2
*D4
 70
     1
 10
0.0
 20
0.0
 30
0.0
  3
*D4
  1

  0
LINE
  5
8079
  8
0
  6
BYBLOCK
 10
1026.812900494238
 20
4108.3685117336536
 30
0.0
 11
1026.812900494238
 21
3769.754633339448
 31
0.0
  0
LINE
  5
807A
  8
0
  6
BYBLOCK
 10
2176.812900494238
 20
4108.3685117336536
 30
0.0
 11
2176.812900494238
 21
3769.754633339448
 31
0.0
  0
LINE
  5
807B
  8
0
  6
BYBLOCK
 10
1076.812900494238
 20
3794.754633339448
 30
0.0
 11
2126.812900494238
 21
3794.754633339448
 31
0.0
  0
INSERT
  5
807C
  8
0
  6
BYBLOCK
  2
_OPEN
 10
1026.812900494238
 20
3794.754633339448
 30
0.0
 41
50.0
 42
50.0
 43
50.0
 50
180.0
  0
INSERT
  5
807D
  8
0
  6
BYBLOCK
  2
_OPEN
 10
2176.812900494238
 20
3794.754633339448
 30
0.0
 41
50.0
 42
50.0
 43
50.0
  0
TEXT
  5
807E
  8
3
 10
1483.9557576370951
 20
3807.254633339448
 30
0.0
 40
75.0
  1
1150
  0
POINT
  5
807F
  8
DEFPOINTS
  6
BYBLOCK
 62
     0
 10
1026.812900494238
 20
4133.3685117336527
 30
0.0
  0
POINT
  5
8080
  8
DEFPOINTS
  6
BYBLOCK
 62
     0
 10
2176.812900494238
 20
4133.3685117336527
 30
0.0
  0
POINT
  5
8081
  8
DEFPOINTS
  6
BYBLOCK
 62
     0
 10
2176.812900494238
 20
3794.754633339448
 30
0.0
  0
ENDBLK
  5
8082
  8
0
  0
BLOCK
  8
0
  2
*D5
 70
     1
 10
0.0
 20
0.0
 30
0.0
  3
*D5
  1

  0
LINE
  5
7F22
  8
0
  6
BYBLOCK
 10
2687.6021611074211
 20
3275.3550748993111
 30
0.0
 11
2478.6660688166212
 21
3275.3550748993111
 31
0.0
  0
LINE
  5
7F23
  8
0
  6
BYBLOCK
 10
2687.6021611074211
 20
2675.3550748993098
 30
0.0
 11
2478.6660688166212
 21
2675.3550748993098
 31
0.0
  0
LINE
  5
7F24
  8
0
  6
BYBLOCK
 10
2503.6660688166212
 20
3225.3550748993111
 30
0.0
 11
2503.6660688166212
 21
2725.3550748993098
 31
0.0
  0
INSERT
  5
7F25
  8
0
  6
BYBLOCK
  2
_OPEN
 10
2503.6660688166212
 20
3275.3550748993111
 30
0.0
 41
50.0
 42
50.0
 43
50.0
 50
90.0
  0
INSERT
  5
7F26
  8
0
  6
BYBLOCK
  2
_OPEN
 10
2503.6660688166212
 20
2675.3550748993098
 30
0.0
 41
50.0
 42
50.0
 43
50.0
 50
270.0
  0
TEXT
  5
7F27
  8
3
 10
2491.1660688166212
 20
2878.92650347074
 30
0.0
 40
75.0
  1
600
 50
90.0
  0
POINT
  5
7F28
  8
DEFPOINTS
  6
BYBLOCK
 62
     0
 10
2712.6021611074211
 20
3275.3550748993111
 30
0.0
  0
POINT
  5
7F29
  8
DEFPOINTS
  6
BYBLOCK
 62
     0
 10
2712.6021611074211
 20
2675.3550748993098
 30
0.0
  0
POINT
  5
7F2A
  8
DEFPOINTS
  6
BYBLOCK
 62
     0
 10
2503.6660688166212
 20
2675.3550748993098
 30
0.0
  0
ENDBLK
  5
7F2B
  8
0
  0
BLOCK
  8
0
  2
*D6
 70
     1
 10
0.0
 20
0.0
 30
0.0
  3
*D6
  1

  0
LINE
  5
7F2D
  8
0
  6
BYBLOCK
 10
3887.6021611074211
 20
3775.3550748993111
 30
0.0
 11
4209.1348474286851
 21
3775.3550748993111
 31
0.0
  0
LINE
  5
7F2E
  8
0
  6
BYBLOCK
 10
3887.6021611074211
 20
2675.3550748993098
 30
0.0
 11
4209.1348474286851
 21
2675.3550748993098
 31
0.0
  0
LINE
  5
7F2F
  8
0
  6
BYBLOCK
 10
4184.1348474286842
 20
3725.3550748993111
 30
0.0
 11
4184.1348474286842
 21
2725.3550748993098
 31
0.0
  0
INSERT
  5
7F30
  8
0
  6
BYBLOCK
  2
_OPEN
 10
4184.1348474286842
 20
3775.3550748993111
 30
0.0
 41
50.0
 42
50.0
 43
50.0
 50
90.0
  0
INSERT
  5
7F31
  8
0
  6
BYBLOCK
  2
_OPEN
 10
4184.1348474286842
 20
2675.3550748993098
 30
0.0
 41
50.0
 42
50.0
 43
50.0
 50
270.0
  0
TEXT
  5
7F32
  8
3
 10
4171.6348474286842
 20
3107.497932042168
 30
0.0
 40
75.0
  1
1100
 50
90.0
  0
POINT
  5
7F33
  8
DEFPOINTS
  6
BYBLOCK
 62
     0
 10
3862.6021611074211
 20
3775.3550748993111
 30
0.0
  0
POINT
  5
7F34
  8
DEFPOINTS
  6
BYBLOCK
 62
     0
 10
3862.6021611074211
 20
2675.3550748993098
 30
0.0
  0
POINT
  5
7F35
  8
DEFPOINTS
  6
BYBLOCK
 62
     0
 10
4184.1348474286842
 20
2675.3550748993098
 30
0.0
  0
ENDBLK
  5
7F36
  8
0
  0
BLOCK
  8
0
  2
*D7
 70
     1
 10
0.0
 20
0.0
 30
0.0
  3
*D7
  1

  0
LINE
  5
7F43
  8
0
  6
BYBLOCK
 10
3362.6021611074211
 20
3800.3550748993111
 30
0.0
 11
3362.6021611074211
 21
4001.6308188557591
 31
0.0
  0
LINE
  5
7F44
  8
0
  6
BYBLOCK
 10
2712.6021611074211
 20
3300.3550748993111
 30
0.0
 11
2712.6021611074211
 21
4001.6308188557591
 31
0.0
  0
LINE
  5
7F45
  8
0
  6
BYBLOCK
 10
3312.6021611074211
 20
3976.6308188557591
 30
0.0
 11
2762.6021611074211
 21
3976.6308188557591
 31
0.0
  0
INSERT
  5
7F46
  8
0
  6
BYBLOCK
  2
_OPEN
 10
3362.6021611074211
 20
3976.6308188557591
 30
0.0
 41
50.0
 42
50.0
 43
50.0
  0
INSERT
  5
7F47
  8
0
  6
BYBLOCK
  2
_OPEN
 10
2712.6021611074211
 20
3976.6308188557591
 30
0.0
 41
50.0
 42
50.0
 43
50.0
 50
180.0
  0
TEXT
  5
7F48
  8
3
 10
2941.1735896788491
 20
3989.1308188557591
 30
0.0
 40
75.0
  1
650
  0
POINT
  5
7F49
  8
DEFPOINTS
  6
BYBLOCK
 62
     0
 10
3362.6021611074211
 20
3775.3550748993111
 30
0.0
  0
POINT
  5
7F4A
  8
DEFPOINTS
  6
BYBLOCK
 62
     0
 10
2712.6021611074211
 20
3275.3550748993111
 30
0.0
  0
POINT
  5
7F4B
  8
DEFPOINTS
  6
BYBLOCK
 62
     0
 10
2712.6021611074211
 20
3976.6308188557591
 30
0.0
  0
ENDBLK
  5
7F4C
  8
0
  0
BLOCK
  8
0
  2
*D8
 70
     1
 10
0.0
 20
0.0
 30
0.0
  3
*D8
  1

  0
LINE
  5
7F4E
  8
0
  6
BYBLOCK
 10
4027.6021611074211
 20
1865.196127523318
 30
0.0
 11
4185.1059329719747
 21
1865.196127523318
 31
0.0
  0
LINE
  5
7F4F
  8
0
  6
BYBLOCK
 10
4027.6021611074211
 20
1285.196127523318
 30
0.0
 11
4185.1059329719747
 21
1285.196127523318
 31
0.0
  0
LINE
  5
7F50
  8
0
  6
BYBLOCK
 10
4160.1059329719747
 20
1815.196127523318
 30
0.0
 11
4160.1059329719747
 21
1335.196127523317
 31
0.0
  0
INSERT
  5
7F51
  8
0
  6
BYBLOCK
  2
_OPEN
 10
4160.1059329719747
 20
1865.196127523318
 30
0.0
 41
50.0
 42
50.0
 43
50.0
 50
90.0
  0
INSERT
  5
7F52
  8
0
  6
BYBLOCK
  2
_OPEN
 10
4160.1059329719747
 20
1285.196127523318
 30
0.0
 41
50.0
 42
50.0
 43
50.0
 50
270.0
  0
TEXT
  5
7F53
  8
3
 10
4147.6059329719747
 20
1478.7675560947471
 30
0.0
 40
75.0
  1
580
 50
90.0
  0
POINT
  5
7F54
  8
DEFPOINTS
  6
BYBLOCK
 62
     0
 10
4002.6021611074211
 20
1865.196127523318
 30
0.0
  0
POINT
  5
7F55
  8
DEFPOINTS
  6
BYBLOCK
 62
     0
 10
4002.6021611074211
 20
1285.196127523318
 30
0.0
  0
POINT
  5
7F56
  8
DEFPOINTS
  6
BYBLOCK
 62
     0
 10
4160.1059329719747
 20
1285.196127523318
 30
0.0
  0
ENDBLK
  5
7F57
  8
0
  0
BLOCK
  8
0
  2
*D9
 70
     1
 10
0.0
 20
0.0
 30
0.0
  3
*D9
  1

  0
LINE
  5
7F59
  8
0
  6
BYBLOCK
 10
4074.953378833135
 20
1265.1961275233191
 30
0.0
 11
4310.2079109701026
 21
1265.1961275233191
 31
0.0
  0
LINE
  5
7F5A
  8
0
  6
BYBLOCK
 10
4027.6021611074211
 20
1865.196127523318
 30
0.0
 11
4310.2079109701026
 21
1865.196127523318
 31
0.0
  0
LINE
  5
7F5B
  8
0
  6
BYBLOCK
 10
4285.2079109701026
 20
1315.1961275233191
 30
0.0
 11
4285.2079109701026
 21
1815.196127523318
 31
0.0
  0
INSERT
  5
7F5C
  8
0
  6
BYBLOCK
  2
_OPEN
 10
4285.2079109701026
 20
1265.1961275233191
 30
0.0
 41
50.0
 42
50.0
 43
50.0
 50
270.0
  0
INSERT
  5
7F5D
  8
0
  6
BYBLOCK
  2
_OPEN
 10
4285.2079109701026
 20
1865.196127523318
 30
0.0
 41
50.0
 42
50.0
 43
50.0
 50
90.0
  0
TEXT
  5
7F5E
  8
3
 10
4272.7079109701044
 20
1468.7675560947471
 30
0.0
 40
75.0
  1
600
 50
90.0
  0
POINT
  5
7F5F
  8
DEFPOINTS
  6
BYBLOCK
 62
     0
 10
4049.953378833135
 20
1265.1961275233191
 30
0.0
  0
POINT
  5
7F60
  8
DEFPOINTS
  6
BYBLOCK
 62
     0
 10
4002.6021611074211
 20
1865.196127523318
 30
0.0
  0
POINT
  5
7F61
  8
DEFPOINTS
  6
BYBLOCK
 62
     0
 10
4285.2079109701026
 20
1865.196127523318
 30
0.0
  0
ENDBLK
  5
7F62
  8
0
  0
BLOCK
  8
0
  2
*D10
 70
     1
 10
0.0
 20
0.0
 30
0.0
  3
*D10
  1

  0
LINE
  5
7F64
  8
0
  6
BYBLOCK
 10
5599.1446176354248
 20
1890.196127523318
 30
0.0
 11
5599.1446176354248
 21
1979.0472920578759
 31
0.0
  0
LINE
  5
7F65
  8
0
  6
BYBLOCK
 10
6024.1446176354248
 20
1890.196127523318
 30
0.0
 11
6024.1446176354248
 21
1979.0472920578759
 31
0.0
  0
LINE
  5
7F66
  8
0
  6
BYBLOCK
 10
5649.1446176354248
 20
1954.0472920578759
 30
0.0
 11
5974.1446176354248
 21
1954.0472920578759
 31
0.0
  0
INSERT
  5
7F67
  8
0
  6
BYBLOCK
  2
_OPEN
 10
5599.1446176354248
 20
1954.0472920578759
 30
0.0
 41
50.0
 42
50.0
 43
50.0
 50
180.0
  0
INSERT
  5
7F68
  8
0
  6
BYBLOCK
  2
_OPEN
 10
6024.1446176354248
 20
1954.0472920578759
 30
0.0
 41
50.0
 42
50.0
 43
50.0
  0
TEXT
  5
7F69
  8
3
 10
5715.2160462068541
 20
1966.5472920578759
 30
0.0
 40
75.0
  1
425
  0
POINT
  5
7F6A
  8
DEFPOINTS
  6
BYBLOCK
 62
     0
 10
5599.1446176354248
 20
1865.196127523318
 30
0.0
  0
POINT
  5
7F6B
  8
DEFPOINTS
  6
BYBLOCK
 62
     0
 10
6024.1446176354248
 20
1865.196127523318
 30
0.0
  0
POINT
  5
7F6C
  8
DEFPOINTS
  6
BYBLOCK
 62
     0
 10
6024.1446176354248
 20
1954.0472920578759
 30
0.0
  0
ENDBLK
  5
7F6D
  8
0
  0
BLOCK
  8
0
  2
*D11
 70
     1
 10
0.0
 20
0.0
 30
0.0
  3
*D11
  1

  0
LINE
  5
806A
  8
0
  6
BYBLOCK
 10
4125.8553570222421
 20
3535.0696216374072
 30
0.0
 11
4125.8553570222421
 21
3628.4985929061768
 31
0.0
  0
LINE
  5
806B
  8
0
  6
BYBLOCK
 10
3175.3553570222421
 20
2968.2095643576608
 30
0.0
 11
3175.3553570222421
 21
3628.4985929061768
 31
0.0
  0
LINE
  5
806C
  8
0
  6
BYBLOCK
 10
4075.8553570222421
 20
3603.4985929061768
 30
0.0
 11
3225.3553570222421
 21
3603.4985929061768
 31
0.0
  0
INSERT
  5
806D
  8
0
  6
BYBLOCK
  2
_OPEN
 10
4125.8553570222421
 20
3603.4985929061768
 30
0.0
 41
50.0
 42
50.0
 43
50.0
  0
INSERT
  5
806E
  8
0
  6
BYBLOCK
  2
_OPEN
 10
3175.3553570222421
 20
3603.4985929061768
 30
0.0
 41
50.0
 42
50.0
 43
50.0
 50
180.0
  0
INSERT
  5
806F
  8
3
  2
*U23
 10
0.0
 20
0.0
 30
0.0
  0
POINT
  5
8070
  8
DEFPOINTS
  6
BYBLOCK
 62
     0
 10
4125.8553570222421
 20
3510.0696216374072
 30
0.0
  0
POINT
  5
8071
  8
DEFPOINTS
  6
BYBLOCK
 62
     0
 10
3175.3553570222421
 20
2943.2095643576608
 30
0.0
  0
POINT
  5
8072
  8
DEFPOINTS
  6
BYBLOCK
 62
     0
 10
3175.3553570222421
 20
3603.4985929061768
 30
0.0
  0
ENDBLK
  5
8073
  8
0
  0
BLOCK
  8
0
  2
*D12
 70
     1
 10
0.0
 20
0.0
 30
0.0
  3
*D12
  1

  0
LINE
  5
7F7A
  8
0
  6
BYBLOCK
 10
3612.6021611074211
 20
1904.2221462020109
 30
0.0
 11
3612.6021611074211
 21
1980.082934215051
 31
0.0
  0
LINE
  5
7F7B
  8
0
  6
BYBLOCK
 10
4002.6021611074211
 20
1915.196127523318
 30
0.0
 11
4002.6021611074211
 21
1980.082934215051
 31
0.0
  0
LINE
  5
7F7C
  8
0
  6
BYBLOCK
 10
3662.6021611074211
 20
1955.082934215051
 30
0.0
 11
3952.6021611074211
 21
1955.082934215051
 31
0.0
  0
INSERT
  5
7F7D
  8
0
  6
BYBLOCK
  2
_OPEN
 10
3612.6021611074211
 20
1955.082934215051
 30
0.0
 41
50.0
 42
50.0
 43
50.0
 50
180.0
  0
INSERT
  5
7F7E
  8
0
  6
BYBLOCK
  2
_OPEN
 10
4002.6021611074211
 20
1955.082934215051
 30
0.0
 41
50.0
 42
50.0
 43
50.0
  0
TEXT
  5
7F7F
  8
3
 10
3711.1735896788491
 20
1967.582934215051
 30
0.0
 40
75.0
  1
390
  0
POINT
  5
7F80
  8
DEFPOINTS
  6
BYBLOCK
 62
     0
 10
3612.6021611074211
 20
1879.2221462020109
 30
0.0
  0
POINT
  5
7F81
  8
DEFPOINTS
  6
BYBLOCK
 62
     0
 10
4002.6021611074211
 20
1890.196127523318
 30
0.0
  0
POINT
  5
7F82
  8
DEFPOINTS
  6
BYBLOCK
 62
     0
 10
4002.6021611074211
 20
1955.082934215051
 30
0.0
  0
ENDBLK
  5
7F83
  8
0
  0
BLOCK
  8
0
  2
*D13
 70
     1
 10
0.0
 20
0.0
 30
0.0
  3
*D13
  1

  0
LINE
  5
7F85
  8
0
  6
BYBLOCK
 10
3612.6021611074211
 20
1904.2221462020109
 30
0.0
 11
3612.6021611074211
 21
1980.082934215051
 31
0.0
  0
LINE
  5
7F86
  8
0
  6
BYBLOCK
 10
3128.6021690111452
 20
1332.2873126026061
 30
0.0
 11
3128.6021690111452
 21
1980.082934215051
 31
0.0
  0
LINE
  5
7F87
  8
0
  6
BYBLOCK
 10
3562.6021611074211
 20
1955.082934215051
 30
0.0
 11
3178.6021690111461
 21
1955.082934215051
 31
0.0
  0
INSERT
  5
7F88
  8
0
  6
BYBLOCK
  2
_OPEN
 10
3612.6021611074211
 20
1955.082934215051
 30
0.0
 41
50.0
 42
50.0
 43
50.0
  0
INSERT
  5
7F89
  8
0
  6
BYBLOCK
  2
_OPEN
 10
3128.6021690111452
 20
1955.082934215051
 30
0.0
 41
50.0
 42
50.0
 43
50.0
 50
180.0
  0
TEXT
  5
7F8A
  8
3
 10
3272.3878793449971
 20
1967.582934215051
 30
0.0
 40
75.0
  1
484
  0
POINT
  5
7F8B
  8
DEFPOINTS
  6
BYBLOCK
 62
     0
 10
3612.6021611074211
 20
1879.2221462020109
 30
0.0
  0
POINT
  5
7F8C
  8
DEFPOINTS
  6
BYBLOCK
 62
     0
 10
3128.6021690111452
 20
1307.2873126026061
 30
0.0
  0
POINT
  5
7F8D
  8
DEFPOINTS
  6
BYBLOCK
 62
     0
 10
3128.6021690111452
 20
1955.082934215051
 30
0.0
  0
ENDBLK
  5
7F8E
  8
0
  0
BLOCK
  8
0
  2
*D14
 70
     1
 10
0.0
 20
0.0
 30
0.0
  3
*D14
  1

  0
LINE
  5
7F90
  8
0
  6
BYBLOCK
 10
4074.953378833135
 20
1265.1961275233191
 30
0.0
 11
4310.2079109701026
 21
1265.1961275233191
 31
0.0
  0
LINE
  5
7F91
  8
0
  6
BYBLOCK
 10
3887.6021611074202
 20
790.19612752331886
 30
0.0
 11
4310.2079109701026
 21
790.19612752331886
 31
0.0
  0
LINE
  5
7F92
  8
0
  6
BYBLOCK
 10
4285.2079109701026
 20
1215.196127523318
 30
0.0
 11
4285.2079109701026
 21
840.19612752331886
 31
0.0
  0
INSERT
  5
7F93
  8
0
  6
BYBLOCK
  2
_OPEN
 10
4285.2079109701026
 20
1265.1961275233191
 30
0.0
 41
50.0
 42
50.0
 43
50.0
 50
90.0
  0
INSERT
  5
7F94
  8
0
  6
BYBLOCK
  2
_OPEN
 10
4285.2079109701026
 20
790.19612752331886
 30
0.0
 41
50.0
 42
50.0
 43
50.0
 50
270.0
  0
TEXT
  5
7F95
  8
3
 10
4272.7079109701044
 20
931.26755609474731
 30
0.0
 40
75.0
  1
475
 50
90.0
  0
POINT
  5
7F96
  8
DEFPOINTS
  6
BYBLOCK
 62
     0
 10
4049.953378833135
 20
1265.1961275233191
 30
0.0
  0
POINT
  5
7F97
  8
DEFPOINTS
  6
BYBLOCK
 62
     0
 10
3862.6021611074202
 20
790.19612752331886
 30
0.0
  0
POINT
  5
7F98
  8
DEFPOINTS
  6
BYBLOCK
 62
     0
 10
4285.2079109701026
 20
790.19612752331886
 30
0.0
  0
ENDBLK
  5
7F99
  8
0
  0
BLOCK
  8
0
  2
*D15
 70
     1
 10
0.0
 20
0.0
 30
0.0
  3
*D15
  1

  0
LINE
  5
7FBF
  8
0
  6
BYBLOCK
 10
4002.6021611074211
 20
1915.196127523318
 30
0.0
 11
4002.6021611074211
 21
2135.3636159593029
 31
0.0
  0
LINE
  5
7FC0
  8
0
  6
BYBLOCK
 10
2712.6021611074211
 20
890.19612752331886
 30
0.0
 11
2712.6021611074211
 21
2135.3636159593029
 31
0.0
  0
LINE
  5
7FC1
  8
0
  6
BYBLOCK
 10
3952.6021611074211
 20
2110.3636159593029
 30
0.0
 11
2762.6021611074211
 21
2110.3636159593029
 31
0.0
  0
INSERT
  5
7FC2
  8
0
  6
BYBLOCK
  2
_OPEN
 10
4002.6021611074211
 20
2110.3636159593029
 30
0.0
 41
50.0
 42
50.0
 43
50.0
  0
INSERT
  5
7FC3
  8
0
  6
BYBLOCK
  2
_OPEN
 10
2712.6021611074211
 20
2110.3636159593029
 30
0.0
 41
50.0
 42
50.0
 43
50.0
 50
180.0
  0
TEXT
  5
7FC4
  8
3
 10
3232.6021611074211
 20
2122.8636159593029
 30
0.0
 40
75.0
  1
1290
  0
POINT
  5
7FC5
  8
DEFPOINTS
  6
BYBLOCK
 62
     0
 10
4002.6021611074211
 20
1890.196127523318
 30
0.0
  0
POINT
  5
7FC6
  8
DEFPOINTS
  6
BYBLOCK
 62
     0
 10
2712.6021611074211
 20
865.19612752331886
 30
0.0
  0
POINT
  5
7FC7
  8
DEFPOINTS
  6
BYBLOCK
 62
     0
 10
2712.6021611074211
 20
2110.3636159593029
 30
0.0
  0
ENDBLK
  5
7FC8
  8
0
  0
BLOCK
  8
0
  2
_DOT
 70
     0
 10
0.0
 20
0.0
 30
0.0
  3
_DOT
  1

  0
LINE
  5
800D
  8
0
  6
BYBLOCK
 62
     0
 10
0.0
 20
0.0
 30
0.0
 11
-1.0
 21
-0.0000000000000284
 31
0.0
  0
POLYLINE
  5
800E
  8
0
  6
BYBLOCK
 62
     0
 66
     1
 10
0.0
 20
0.0
 30
0.0
 70
     1
 40
0.1666666666666666
 41
0.1666666666666666
  0
VERTEX
  5
8183
  8
0
  6
BYBLOCK
 62
     0
 10
-0.0833333333333286
 20
-0.0000000000000284
 30
0.0
 42
1.0
  0
VERTEX
  5
8184
  8
0
  6
BYBLOCK
 62
     0
 10
0.0833333333333286
 20
-0.0000000000000284
 30
0.0
 42
1.0
  0
SEQEND
  5
8185
  8
0
  6
BYBLOCK
 62
     0
  0
ENDBLK
  5
7FF3
  8
0
  0
BLOCK
  8
0
  2
*D17
 70
     1
 10
0.0
 20
0.0
 30
0.0
  3
*D17
  1

  0
LINE
  5
8060
  8
0
  6
BYBLOCK
 62
     0
 10
4340.8553570222421
 20
3335.7095643576608
 30
0.0
 11
4340.8553570222421
 21
3628.4985929061768
 31
0.0
  0
LINE
  5
8061
  8
0
  6
BYBLOCK
 62
     0
 10
4175.8553570222421
 20
3603.4985929061768
 30
0.0
 11
4290.8553570222421
 21
3603.4985929061768
 31
0.0
  0
TEXT
  5
8062
  8
3
 62
     0
 10
4144.0696427365283
 20
3637.3472626377802
 30
0.0
 40
75.0
  1
215
  0
INSERT
  5
8063
  8
0
  6
BYBLOCK
 62
     0
  2
_OPEN
 10
4125.8553570222421
 20
3603.4985929061768
 30
0.0
 41
50.0
 42
50.0
 43
50.0
 50
180.0
  0
INSERT
  5
8064
  8
0
  6
BYBLOCK
 62
     0
  2
_OPEN
 10
4340.8553570222421
 20
3603.4985929061768
 30
0.0
 41
50.0
 42
50.0
 43
50.0
  0
POINT
  5
8065
  8
DEFPOINTS
  6
BYBLOCK
 62
     0
 10
4125.8553570222421
 20
3510.0696216374072
 30
0.0
  0
POINT
  5
8066
  8
DEFPOINTS
  6
BYBLOCK
 62
     0
 10
4340.8553570222421
 20
3323.2095643576608
 30
0.0
  0
POINT
  5
8067
  8
DEFPOINTS
  6
BYBLOCK
 62
     0
 10
4340.8553570222421
 20
3603.4985929061768
 30
0.0
  0
ENDBLK
  5
8068
  8
0
  0
BLOCK
  8
0
  2
*D18
 70
     1
 10
0.0
 20
0.0
 30
0.0
  3
*D18
  1

  0
LINE
  5
818B
  8
3
 62
     0
 10
1026.812900494238
 20
2235.7095643576608
 30
0.0
 11
1026.812900494238
 21
2055.3033346767038
 31
0.0
  0
LINE
  5
818C
  8
3
 62
     0
 10
1926.812900494238
 20
2235.7095643576599
 30
0.0
 11
1926.812900494238
 21
2055.3033346767038
 31
0.0
  0
LINE
  5
818D
  8
3
 62
     0
 10
1076.812900494238
 20
2080.3033346767038
 30
0.0
 11
1876.812900494238
 21
2080.3033346767038
 31
0.0
  0
INSERT
  5
818E
  8
3
 62
     0
  2
_OPEN
 10
1026.812900494238
 20
2080.3033346767038
 30
0.0
 41
50.0
 42
50.0
 43
50.0
 50
180.0
  0
INSERT
  5
818F
  8
3
 62
     0
  2
_OPEN
 10
1926.812900494238
 20
2080.3033346767038
 30
0.0
 41
50.0
 42
50.0
 43
50.0
  0
TEXT
  8
3
  40
75
  5
81B8
  62
0
  72
0
  71
0
 10
1326.81
 20
2010.05
 30
0.000000
  1
900
  0
POINT
  5
8191
  8
DEFPOINTS
 62
     0
 10
1026.812900494238
 20
2248.2095643576608
 30
0.0
  0
POINT
  5
8192
  8
DEFPOINTS
 62
     0
 10
1926.812900494238
 20
2248.2095643576608
 30
0.0
  0
POINT
  5
8193
  8
DEFPOINTS
 62
     0
 10
1926.812900494238
 20
2080.3033346767038
 30
0.0
  0
ENDBLK
  5
8100
  8
0
  0
BLOCK
  8
0
  2
*D19
 70
     1
 10
0.0
 20
0.0
 30
0.0
  3
*D19
  1

  0
LINE
  5
8194
  8
3
 62
     0
 10
1926.812900494238
 20
2235.7095643576599
 30
0.0
 11
1926.812900494238
 21
2055.3033346767038
 31
0.0
  0
LINE
  5
8195
  8
3
 62
     0
 10
2176.8129004942371
 20
2235.7095643576608
 30
0.0
 11
2176.8129004942371
 21
2055.3033346767038
 31
0.0
  0
LINE
  5
8196
  8
3
 62
     0
 10
1976.812900494238
 20
2080.3033346767038
 30
0.0
 11
2126.8129004942371
 21
2080.3033346767038
 31
0.0
  0
INSERT
  5
8197
  8
3
 62
     0
  2
_OPEN
 10
1926.812900494238
 20
2080.3033346767038
 30
0.0
 41
50.0
 42
50.0
 43
50.0
 50
180.0
  0
INSERT
  5
8198
  8
3
 62
     0
  2
_OPEN
 10
2176.8129004942371
 20
2080.3033346767038
 30
0.0
 41
50.0
 42
50.0
 43
50.0
  0
TEXT
  8
3
  40
75
  5
81B9
  62
0
  72
0
  71
0
 10
1901.81
 20
2010.05
 30
0.000000
  1
250
  0
POINT
  5
819A
  8
DEFPOINTS
 62
     0
 10
1926.812900494238
 20
2248.2095643576608
 30
0.0
  0
POINT
  5
819B
  8
DEFPOINTS
 62
     0
 10
2176.8129004942371
 20
2248.2095643576608
 30
0.0
  0
POINT
  5
819C
  8
DEFPOINTS
 62
     0
 10
2176.8129004942371
 20
2080.3033346767038
 30
0.0
  0
ENDBLK
  5
810F
  8
0
  0
BLOCK
  8
0
  2
*D20
 70
     1
 10
0.0
 20
0.0
 30
0.0
  3
*D20
  1

  0
LINE
  5
819D
  8
3
 62
     0
 10
3280.8553570222412
 20
2235.7095643576608
 30
0.0
 11
3280.8553570222412
 21
2055.3033346767038
 31
0.0
  0
LINE
  5
819E
  8
3
 62
     0
 10
4125.855357022243
 20
2235.7095643576599
 30
0.0
 11
4125.855357022243
 21
2055.3033346767038
 31
0.0
  0
LINE
  5
819F
  8
3
 62
     0
 10
3330.8553570222412
 20
2080.3033346767038
 30
0.0
 11
4075.855357022243
 21
2080.3033346767038
 31
0.0
  0
INSERT
  5
81A0
  8
3
 62
     0
  2
_OPEN
 10
3280.8553570222412
 20
2080.3033346767038
 30
0.0
 41
50.0
 42
50.0
 43
50.0
 50
180.0
  0
INSERT
  5
81A1
  8
3
 62
     0
  2
_OPEN
 10
4125.855357022243
 20
2080.3033346767038
 30
0.0
 41
50.0
 42
50.0
 43
50.0
  0
TEXT
  8
3
  40
75
  5
81BA
  62
0
  72
0
  71
0
 10
3553.36
 20
2010.05
 30
0.000000
  1
845
  0
POINT
  5
81A3
  8
DEFPOINTS
 62
     0
 10
3280.8553570222412
 20
2248.2095643576608
 30
0.0
  0
POINT
  5
81A4
  8
DEFPOINTS
 62
     0
 10
4125.855357022243
 20
2248.2095643576608
 30
0.0
  0
POINT
  5
81A5
  8
DEFPOINTS
 62
     0
 10
4125.855357022243
 20
2080.3033346767038
 30
0.0
  0
ENDBLK
  5
811C
  8
0
  0
BLOCK
  8
0
  2
*D21
 70
     1
 10
0.0
 20
0.0
 30
0.0
  3
*D21
  1

  0
LINE
  5
81A6
  8
3
 62
     0
 10
4125.855357022243
 20
2235.7095643576599
 30
0.0
 11
4125.855357022243
 21
2055.3033346767038
 31
0.0
  0
LINE
  5
81A7
  8
3
 62
     0
 10
4380.8553570222421
 20
2235.7095643576608
 30
0.0
 11
4380.8553570222421
 21
2055.3033346767038
 31
0.0
  0
LINE
  5
81A8
  8
3
 62
     0
 10
4175.855357022243
 20
2080.3033346767038
 30
0.0
 11
4330.8553570222421
 21
2080.3033346767038
 31
0.0
  0
INSERT
  5
81A9
  8
3
 62
     0
  2
_OPEN
 10
4125.855357022243
 20
2080.3033346767038
 30
0.0
 41
50.0
 42
50.0
 43
50.0
 50
180.0
  0
INSERT
  5
81AA
  8
3
 62
     0
  2
_OPEN
 10
4380.8553570222421
 20
2080.3033346767038
 30
0.0
 41
50.0
 42
50.0
 43
50.0
  0
TEXT
  8
3
  40
75
  5
81BB
  62
0
  72
0
  71
0
 10
4103.36
 20
2010.05
 30
0.000000
  1
255
  0
POINT
  5
81AC
  8
DEFPOINTS
 62
     0
 10
4125.855357022243
 20
2248.2095643576608
 30
0.0
  0
POINT
  5
81AD
  8
DEFPOINTS
 62
     0
 10
4380.8553570222421
 20
2248.2095643576608
 30
0.0
  0
POINT
  5
81AE
  8
DEFPOINTS
 62
     0
 10
4380.8553570222421
 20
2080.3033346767038
 30
0.0
  0
ENDBLK
  5
812B
  8
0
  0
BLOCK
  8
0
  2
*D22
 70
     1
 10
0.0
 20
0.0
 30
0.0
  3
*D22
  1

  0
LINE
  5
81AF
  8
3
 62
     0
 10
2329.312900494238
 20
3348.2095643576608
 30
0.0
 11
2811.6886612846829
 21
3348.2095643576608
 31
0.0
  0
LINE
  5
81B0
  8
3
 62
     0
 10
2189.3129004942371
 20
2248.2095643576608
 30
0.0
 11
2811.6886612846829
 21
2248.2095643576608
 31
0.0
  0
LINE
  5
81B1
  8
3
 62
     0
 10
2786.6886612846829
 20
3298.2095643576608
 30
0.0
 11
2786.6886612846829
 21
2298.2095643576608
 31
0.0
  0
INSERT
  5
81B2
  8
3
 62
     0
  2
_OPEN
 10
2786.6886612846829
 20
3348.2095643576608
 30
0.0
 41
50.0
 42
50.0
 43
50.0
 50
90.0
  0
INSERT
  5
81B3
  8
3
 62
     0
  2
_OPEN
 10
2786.6886612846829
 20
2248.2095643576608
 30
0.0
 41
50.0
 42
50.0
 43
50.0
 50
270.0
  0
TEXT
  8
3
  40
75
  5
81BC
  62
0
  72
0
  71
0
 10
2574.19
 20
2665.46
 30
0.000000
  1
1100
  0
POINT
  5
81B5
  8
DEFPOINTS
 62
     0
 10
2316.812900494238
 20
3348.2095643576608
 30
0.0
  0
POINT
  5
81B6
  8
DEFPOINTS
 62
     0
 10
2176.8129004942371
 20
2248.2095643576608
 30
0.0
  0
POINT
  5
81B7
  8
DEFPOINTS
 62
     0
 10
2786.6886612846829
 20
2248.2095643576608
 30
0.0
  0
ENDBLK
  5
8138
  8
0
  0
BLOCK
  8
0
  2
*U23
 70
     1
 10
0.0
 20
0.0
 30
0.0
  3
*U23
  1

  0
TEXT
  5
8187
  8
3
 10
3543.4624998793852
 20
3740.9985929061768
 30
0.0
 40
75.0
  1
MAX
  0
TEXT
  5
8188
  8
3
 10
3525.6053570222421
 20
3615.9985929061768
 30
0.0
 40
75.0
  1
1020
  0
ENDBLK
  5
818A
  8
0
  0
ENDSEC
  0
SECTION
  2
ENTITIES
  0
INSERT
  5
7C74
  8
0
  2
YA_N
 10
292.32492250629377
 20
110.77256318265241
 30
0.0
  0
INSERT
  5
7C75
  8
0
  2
YA_N
 10
292.32492250629377
 20
110.77256318265241
 30
0.0
  0
INSERT
  5
7C76
  8
0
  2
YA_N
 10
292.32492250629377
 20
110.77256318265241
 30
0.0
  0
LINE
  5
7C77
  8
2
 10
1926.812900494238
 20
2248.2095643576608
 30
0.0
 11
1926.812900494238
 21
3337.235583036354
 31
0.0
  0
LINE
  5
7C78
  8
2
 10
4125.855357022243
 20
2248.2095643576608
 30
0.0
 11
4125.855357022243
 21
3402.2221283990598
 31
0.0
  0
LINE
  5
7C7A
  8
1
 10
2176.8129004942371
 20
2248.2095643576608
 30
0.0
 11
2176.8129004942371
 21
2323.2095643576608
 31
0.0
  0
LINE
  5
7C7B
  8
1
 10
1676.812900494238
 20
2660.009564357661
 30
0.0
 11
2176.8129004942371
 21
2660.009564357661
 31
0.0
  0
LINE
  5
7C7C
  8
1
 10
1026.812900494238
 20
2248.2095643576608
 30
0.0
 11
2176.8129004942371
 21
2248.2095643576608
 31
0.0
  0
LINE
  5
7C7D
  8
1
 10
1026.812900494238
 20
2323.2095643576608
 30
0.0
 11
2176.8129004942371
 21
2323.2095643576608
 31
0.0
  0
LINE
  5
7C7E
  8
1
 10
1026.812900494238
 20
2248.2095643576608
 30
0.0
 11
1026.812900494238
 21
2323.2095643576608
 31
0.0
  0
LINE
  5
7C7F
  8
1
 10
3313.3553570222421
 20
2660.009564357661
 30
0.0
 11
3828.3553570222421
 21
2660.009564357661
 31
0.0
  0
LINE
  5
7C80
  8
1
 10
3318.8553570222421
 20
2323.2095643576608
 30
0.0
 11
3318.855357022243
 21
2660.009564357661
 31
0.0
  0
LINE
  5
7C81
  8
1
 10
3822.8553570222421
 20
2323.2095643576608
 30
0.0
 11
3822.855357022243
 21
2660.009564357661
 31
0.0
  0
LINE
  5
7C82
  8
1
 10
3280.8553570222421
 20
2323.2095643576608
 30
0.0
 11
4380.8553570222421
 21
2323.2095643576608
 31
0.0
  0
LINE
  5
7C83
  8
1
 10
3280.8553570222421
 20
2248.2095643576608
 30
0.0
 11
4380.8553570222421
 21
2248.2095643576608
 31
0.0
  0
LINE
  5
7C84
  8
1
 10
4380.8553570222421
 20
2248.2095643576608
 30
0.0
 11
4380.8553570222421
 21
2323.2095643576608
 31
0.0
  0
LINE
  5
7C85
  8
1
 10
3822.8553570222421
 20
2595.009564357661
 30
0.0
 11
3910.8553570222421
 21
2595.0095643576619
 31
0.0
  0
LINE
  5
7C86
  8
1
 10
3822.8553570222421
 20
2601.009564357661
 30
0.0
 11
3910.8553570222421
 21
2601.009564357661
 31
0.0
  0
LINE
  5
7C87
  8
1
 10
1706.812900494238
 20
2323.2095643576608
 30
0.0
 11
1706.812900494238
 21
2660.009564357661
 31
0.0
  0
LINE
  5
7C88
  8
1
 10
2146.8129004942371
 20
2323.2095643576608
 30
0.0
 11
2146.812900494238
 21
2660.009564357661
 31
0.0
  0
LINE
  5
7C8E
  8
1
 10
2247.430999578547
 20
2601.009564357661
 30
0.0
 11
2146.812900494238
 21
2601.009564357661
 31
0.0
  0
LINE
  5
7C8F
  8
1
 10
2247.430999578547
 20
2592.009564357661
 30
0.0
 11
2146.812900494238
 21
2592.009564357661
 31
0.0
  0
LINE
  5
7C90
  8
1
 10
1706.812900494238
 20
2592.009564357661
 30
0.0
 11
1478.161010052301
 21
2592.009564357661
 31
0.0
  0
LINE
  5
7C91
  8
1
 10
1706.812900494238
 20
2601.009564357661
 30
0.0
 11
1478.1610100523019
 21
2601.009564357661
 31
0.0
  0
LINE
  5
7C92
  8
1
 10
3258.3553570222421
 20
2748.2095643576608
 30
0.0
 11
3910.8553570222421
 21
2748.2095643576608
 31
0.0
  0
LINE
  5
7C93
  8
1
 10
3258.3553570222421
 20
2698.2095643576608
 30
0.0
 11
3910.8553570222421
 21
2698.2095643576608
 31
0.0
  0
CIRCLE
  5
7C94
  8
1
 10
1226.812900494238
 20
2500.2095643576608
 30
0.0
 40
70.0
  0
CIRCLE
  5
7C95
  8
1
 10
1926.812900494238
 20
2723.2095643576608
 30
0.0
 40
127.0
  0
ARC
  5
7C96
  8
1
 10
1926.812900494238
 20
2723.2095643576608
 30
0.0
 40
220.0
 50
282.20285076444668
 51
113.1379347502013
  0
ARC
  5
7C97
  8
1
 10
1226.812900494238
 20
2500.2095643576608
 30
0.0
 40
150.0
 50
113.1379347502013
 51
282.20285076444668
  0
LINE
  5
7C98
  8
1
 10
1167.8709957285321
 20
2638.1437945639109
 30
0.0
 11
1840.364773504537
 21
2925.5131019934929
 31
0.0
  0
LINE
  5
7C99
  8
1
 10
1258.518914655584
 20
2353.598757573166
 30
0.0
 11
1973.315054597545
 21
2508.1803810737351
 31
0.0
  0
LINE
  5
7C9A
  8
1
 10
1200.454278842886
 20
2565.0572556399329
 30
0.0
 11
1878.990829783927
 21
2840.8618042554981
 31
0.0
  0
LINE
  5
7C9B
  8
1
 10
1242.8218837159329
 20
2432.064773975656
 30
0.0
 11
1955.8577700536
 21
2599.5754446645942
 31
0.0
  0
LINE
  5
7C9D
  8
1
 10
3258.3553570222421
 20
2430.2095643576608
 30
0.0
 11
3258.3553570222421
 21
2850.2095643576608
 31
0.0
  0
LINE
  5
7C9E
  8
1
 10
3195.3553570222421
 20
2430.2095643576608
 30
0.0
 11
3195.3553570222421
 21
2850.2095643576608
 31
0.0
  0
LINE
  5
7CA1
  8
1
 10
3195.3553570222421
 20
2850.2095643576608
 30
0.0
 11
3258.3553570222421
 21
2850.2095643576608
 31
0.0
  0
LINE
  5
7CA2
  8
1
 10
3195.3553570222421
 20
2596.2095643576608
 30
0.0
 11
3258.3553570222421
 21
2596.2095643576608
 31
0.0
  0
LINE
  5
7CA6
  8
1
 10
3195.3553570222421
 20
2570.2095643576608
 30
0.0
 11
3258.3553570222421
 21
2570.2095643576608
 31
0.0
  0
LINE
  5
7CA7
  8
1
 10
3195.3553570222421
 20
2430.2095643576608
 30
0.0
 11
3258.3553570222421
 21
2430.2095643576608
 31
0.0
  0
LINE
  5
7CAB
  8
1
 10
3175.3553570222421
 20
2943.2095643576608
 30
0.0
 11
3297.3553570222421
 21
2943.2095643576608
 31
0.0
  0
LINE
  5
7CAC
  8
1
 10
3175.355357022243
 20
2350.2095643576608
 30
0.0
 11
3297.3553570222421
 21
2350.2095643576608
 31
0.0
  0
LINE
  5
7CAD
  8
1
 10
3175.355357022243
 20
2350.2095643576608
 30
0.0
 11
3175.3553570222421
 21
2943.2095643576608
 31
0.0
  0
LINE
  5
7CAE
  8
1
 10
3297.3553570222421
 20
2350.2095643576608
 30
0.0
 11
3297.3553570222421
 21
2416.5448519147831
 31
0.0
  0
POLYLINE
  5
7CB0
  8
1
 66
     1
 10
0.0
 20
0.0
 30
0.0
 70
     1
  0
VERTEX
  5
8160
  8
1
 10
1051.812900494238
 20
2323.2095643576608
 30
0.0
  0
VERTEX
  5
8161
  8
1
 10
1401.812900494238
 20
2323.2095643576608
 30
0.0
  0
VERTEX
  5
8162
  8
1
 10
1391.812900494238
 20
2368.2095643576608
 30
0.0
  0
VERTEX
  5
8163
  8
1
 10
1061.812900494238
 20
2368.2095643576608
 30
0.0
  0
SEQEND
  5
8164
  8
1
  0
LINE
  5
7CB8
  8
2
 10
1226.812900494238
 20
2313.2071375047831
 30
0.0
 11
1226.812900494238
 21
2652.7095643576608
 31
0.0
  0
CIRCLE
  5
7CB9
  8
1
 10
1226.812900494238
 20
2500.2095643576608
 30
0.0
 40
19.0
  0
ARC
  5
7CBA
  8
1
 10
1226.812900494238
 20
2500.2095643576608
 30
0.0
 40
142.0
 50
296.41738025990082
 51
243.58261974009909
  0
LINE
  5
7CBB
  8
2
 10
1049.925143528056
 20
2500.2095643576608
 30
0.0
 11
1379.312900494238
 21
2500.2095643576608
 31
0.0
  0
LINE
  5
7CBC
  8
1
 10
1356.812900494238
 20
2368.2095643576608
 30
0.0
 11
1306.812900494238
 21
2368.2095643576608
 31
0.0
  0
LINE
  5
7CBD
  8
1
 10
1356.812900494238
 20
2368.2095643576608
 30
0.0
 11
1356.812900494238
 21
2383.2095643576608
 31
0.0
  0
LINE
  5
7CBE
  8
1
 10
1356.812900494238
 20
2383.2095643576608
 30
0.0
 11
1308.1593816719731
 21
2383.2095643576608
 31
0.0
  0
LINE
  5
7CBF
  8
1
 10
1306.812900494238
 20
2382.2848002069541
 30
0.0
 11
1306.812900494238
 21
2368.2095643576608
 31
0.0
  0
LINE
  5
7CC0
  8
1
 10
1356.812900494238
 20
2383.2095643576608
 30
0.0
 11
1342.783622914382
 21
2417.402308991057
 31
0.0
  0
LINE
  5
7CC1
  8
1
 10
1096.812900494238
 20
2383.2095643576608
 30
0.0
 11
1110.842178074095
 21
2417.402308991057
 31
0.0
  0
LINE
  5
7CC2
  8
1
 10
1163.41367203204
 20
2372.589864348623
 30
0.0
 11
1290.2121289564409
 21
2372.589864348623
 31
0.0
  0
LINE
  5
7CC3
  8
1
 10
1146.812900494238
 20
2382.2848002069541
 30
0.0
 11
1146.812900494238
 21
2368.2095643576608
 31
0.0
  0
LINE
  5
7CC4
  8
1
 10
1096.812900494238
 20
2383.2095643576608
 30
0.0
 11
1145.4664193165031
 21
2383.2095643576608
 31
0.0
  0
LINE
  5
7CC5
  8
1
 10
1096.812900494238
 20
2368.2095643576608
 30
0.0
 11
1096.812900494238
 21
2383.2095643576608
 31
0.0
  0
LINE
  5
7CC6
  8
1
 10
1096.8129004942391
 20
2368.2095643576608
 30
0.0
 11
1146.812900494238
 21
2368.2095643576608
 31
0.0
  0
DIMENSION
  5
7CC9
  8
3
  2
*D2
 10
4546.4584482778037
 20
2443.2095643576631
 30
0.0
 11
4496.4584482778037
 21
2723.2095643576631
 31
0.0
 12
-1685.789260613182
 22
1458.013436834342
 32
0.0
 70
     0
  1
φ560
 13
4363.1553570222422
 23
3003.2095643576631
 33
0.0
 14
4363.1553570222422
 24
2443.2095643576631
 34
0.0
 50
90.0
1001
ACAD
1000
DSTYLE
1002
{
1070
    40
1040
25.0
1002
}
  0
LINE
  5
7CD1
  8
2
 10
3144.4751153082029
 20
2723.2095643576608
 30
0.0
 11
4390.5280360187617
 21
2723.2095643576608
 31
0.0
  0
LINE
  5
7CD2
  8
2
 10
3144.4751153082029
 20
2500.2095643576608
 30
0.0
 11
3414.7250695290741
 21
2500.2095643576608
 31
0.0
  0
LINE
  5
7CD3
  8
1
 10
1026.812900494238
 20
4133.3685117336527
 30
0.0
 11
1084.812900494238
 21
4133.3685117336527
 31
0.0
  0
LINE
  5
7CD4
  8
1
 10
2176.812900494238
 20
4133.3685117336527
 30
0.0
 11
2176.812900494238
 21
4765.8685117336536
 31
0.0
  0
LINE
  5
7CD5
  8
1
 10
2176.812900494238
 20
5233.3685117336536
 30
0.0
 11
1676.812900494238
 21
5233.3685117336536
 31
0.0
  0
LINE
  5
7CD6
  8
1
 10
1026.812900494238
 20
4733.3685117336536
 30
0.0
 11
1026.812900494238
 21
4133.3685117336527
 31
0.0
  0
LINE
  5
7CD7
  8
1
 10
1676.812900494238
 20
4733.3685117336536
 30
0.0
 11
1676.8129004942371
 21
4765.8685117336527
 31
0.0
  0
LINE
  5
7CD8
  8
1
 10
1026.812900494238
 20
4733.3685117336536
 30
0.0
 11
1676.812900494238
 21
4733.3685117336536
 31
0.0
  0
LINE
  5
7CD9
  8
2
 10
2348.936227507776
 20
4978.3685117336536
 30
0.0
 11
1397.1581762707081
 21
4978.3685117336536
 31
0.0
  0
DIMENSION
  5
7CDA
  8
3
  2
*D3
 10
2176.812900494238
 20
5434.644255690102
 30
0.0
 11
1926.812900494238
 21
5484.6442556901029
 31
0.0
 12
-1685.789260613182
 22
1458.013436834342
 32
0.0
 70
     0
 13
1676.812900494238
 23
5233.3685117336536
 33
0.0
 14
2176.812900494238
 24
5233.3685117336536
 34
0.0
1001
ACAD
1000
DSTYLE
1002
{
1070
    40
1040
25.0
1002
}
  0
DIMENSION
  5
7CDB
  8
3
  2
*D4
 10
2176.812900494238
 20
3794.754633339448
 30
0.0
 11
1601.812900494238
 21
3794.754633339448
 31
0.0
 70
   128
 13
1026.812900494238
 23
4133.3685117336527
 33
0.0
 14
2176.812900494238
 24
4133.3685117336527
 34
0.0
1001
ACAD
1000
DSTYLE
1002
{
1070
    40
1040
25.0
1002
}
  0
DIMENSION
  5
7CDC
  8
3
  2
*D5
 10
817.87680820343837
 20
4133.3685117336527
 30
0.0
 11
767.87680820343849
 21
4433.3685117336527
 31
0.0
 12
-1685.789260613182
 22
1458.013436834342
 32
0.0
 70
     0
 13
1026.812900494238
 23
4733.3685117336536
 33
0.0
 14
1026.812900494238
 24
4133.3685117336527
 34
0.0
 50
90.0
1001
ACAD
1000
DSTYLE
1002
{
1070
    40
1040
25.0
1002
}
  0
DIMENSION
  5
7CDD
  8
3
  2
*D6
 10
2498.3455868155011
 20
4133.3685117336527
 30
0.0
 11
2448.3455868155011
 21
4683.3685117336527
 31
0.0
 12
-1685.789260613182
 22
1458.013436834342
 32
0.0
 70
     0
 13
2176.812900494238
 23
5233.3685117336536
 33
0.0
 14
2176.812900494238
 24
4133.3685117336527
 34
0.0
 50
90.0
1001
ACAD
1000
DSTYLE
1002
{
1070
    40
1040
25.0
1002
}
  0
LINE
  5
7CDE
  8
1
 10
3404.7884307492141
 20
2660.009564357661
 30
0.0
 11
3404.7884307492141
 21
2781.5837439387301
 31
0.0
  0
LINE
  5
7CDF
  8
1
 10
3404.7884307492141
 20
2781.5837439387301
 30
0.0
 11
3735.735937049486
 21
2781.5837439387301
 31
0.0
  0
LINE
  5
7CE0
  8
1
 10
3735.735937049486
 20
2781.5837439387301
 30
0.0
 11
3735.735937049486
 21
2660.009564357661
 31
0.0
  0
LINE
  5
7CE1
  8
2
 10
1226.812900494238
 20
4551.9319899805669
 30
0.0
 11
1226.812900494238
 21
3944.8585089190019
 31
0.0
  0
CIRCLE
  5
7CE2
  8
1
 10
3570.8553570222421
 20
2555.2827907268738
 30
0.0
 40
65.0
  0
LINE
  5
7CE3
  8
1
 10
3570.8553570222421
 20
2485.2827907268729
 30
0.0
 11
3570.8553570222421
 21
2625.2827907268738
 31
0.0
  0
LINE
  5
7CE4
  8
1
 10
3500.8553570222421
 20
2555.2827907268738
 30
0.0
 11
3640.8553570222421
 21
2555.2827907268738
 31
0.0
  0
INSERT
  5
7CE5
  8
0
  2
YA_N
 10
406.32492250629377
 20
205.77256318265239
 30
0.0
 41
20.0
 42
20.0
 43
20.0
  0
INSERT
  5
7CE6
  8
0
  2
YA_N
 10
4133.8008426675879
 20
2291.5019390342791
 30
0.0
  0
INSERT
  5
7CE7
  8
0
  2
YA_N
 10
4133.8008426675879
 20
2291.5019390342791
 30
0.0
  0
INSERT
  5
7CE8
  8
0
  2
YA_N
 10
4372.8801321749861
 20
4080.6188243223401
 30
0.0
  0
INSERT
  5
7CE9
  8
0
  2
YA_N
 10
4372.8801321749861
 20
4080.6188243223401
 30
0.0
  0
INSERT
  5
7CEA
  8
0
  2
YA_N
 10
5131.8317893806279
 20
5646.9743931550829
 30
0.0
  0
LINE
  5
7CEB
  8
2
 10
1392.163015273941
 20
2723.2095643576608
 30
0.0
 11
2364.1641182199528
 21
2723.2095643576608
 31
0.0
  0
POLYLINE
  5
7CEC
  8
1
 66
     1
 10
0.0
 20
0.0
 30
0.0
 70
     1
  0
VERTEX
  5
8165
  8
1
 10
4340.8553570222421
 20
3002.8379522093242
 30
0.0
  0
VERTEX
  5
8166
  8
1
 10
4365.8553570222421
 20
3002.8379522093242
 30
0.0
  0
VERTEX
  5
8167
  8
1
 10
4365.8553570222421
 20
3003.8379522093228
 30
0.0
 42
0.4142135623730951
  0
VERTEX
  5
8168
  8
1
 10
4363.8553570222421
 20
3005.8379522093228
 30
0.0
  0
VERTEX
  5
8169
  8
1
 10
4347.8553570222421
 20
3005.8379522093228
 30
0.0
 42
-0.4142135623730951
  0
VERTEX
  5
816A
  8
1
 10
4343.8553570222421
 20
3009.8379522093228
 30
0.0
  0
VERTEX
  5
816B
  8
1
 10
4343.8553570222421
 20
3025.8379522093228
 30
0.0
 42
0.4142135623730951
  0
VERTEX
  5
816C
  8
1
 10
4341.8553570222421
 20
3027.8379522093242
 30
0.0
  0
VERTEX
  5
816D
  8
1
 10
4340.8553570222421
 20
3027.8379522093242
 30
0.0
  0
SEQEND
  5
816E
  8
1
  0
DIMENSION
  5
7CF9
  8
3
  2
*D7
 10
1026.812900494238
 20
5434.644255690102
 30
0.0
 11
1351.812900494238
 21
5484.6442556901029
 31
0.0
 12
-1685.789260613182
 22
1458.013436834342
 32
0.0
 70
     0
 13
1676.812900494238
 23
5233.3685117336536
 33
0.0
 14
1026.812900494238
 24
4733.3685117336536
 34
0.0
1001
ACAD
1000
DSTYLE
1002
{
1070
    40
1040
25.0
1002
}
  0
LINE
  5
7CFA
  8
1
 10
4340.8553570222421
 20
2442.8379522093251
 30
0.0
 11
4365.8553570222421
 21
2442.8379522093251
 31
0.0
  0
LINE
  5
7CFB
  8
1
 10
4365.8553570222421
 20
2442.8379522093251
 30
0.0
 11
4365.8553570222421
 21
2441.837952209326
 31
0.0
  0
ARC
  5
7CFC
  8
1
 10
4363.8553570222421
 20
2441.837952209326
 30
0.0
 40
2.0
 50
270.0
 51
0.0
  0
LINE
  5
7CFD
  8
1
 10
4363.8553570222421
 20
2439.8379522093251
 30
0.0
 11
4347.8553570222421
 21
2439.8379522093251
 31
0.0
  0
ARC
  5
7CFE
  8
1
 10
4347.8553570222421
 20
2435.8379522093251
 30
0.0
 40
4.0
 50
90.0
 51
180.0
  0
LINE
  5
7CFF
  8
1
 10
4343.8553570222412
 20
3002.8379522093242
 30
0.0
 11
4343.8553570222421
 21
2419.8379522093251
 31
0.0
  0
ARC
  5
7D00
  8
1
 10
4341.8553570222421
 20
2419.8379522093251
 30
0.0
 40
2.0
 50
270.0
 51
0.0
  0
LINE
  5
7D01
  8
1
 10
4341.8553570222421
 20
2417.8379522093251
 30
0.0
 11
4340.8553570222421
 21
2417.8379522093251
 31
0.0
  0
LINE
  5
7D02
  8
1
 10
4340.8553570222421
 20
2417.8379522093251
 30
0.0
 11
4340.8553570222421
 21
2442.8379522093251
 31
0.0
  0
INSERT
  5
7D03
  8
0
  2
YA_N
 10
406.32492250629377
 20
205.77256318265239
 30
0.0
 41
20.0
 42
20.0
 43
20.0
  0
INSERT
  5
7D04
  8
0
  2
YA_N
 10
406.32492250629377
 20
205.77256318265239
 30
0.0
 41
20.0
 42
20.0
 43
20.0
  0
INSERT
  5
7D09
  8
0
  2
YA_N
 10
406.32492250629377
 20
205.77256318265239
 30
0.0
 41
20.0
 42
20.0
 43
20.0
  0
INSERT
  5
7D0E
  8
0
  2
YA_N
 10
406.32492250629377
 20
205.77256318265239
 30
0.0
 41
20.0
 42
20.0
 43
20.0
  0
INSERT
  5
7D0F
  8
0
  2
YA_N
 10
406.32492250629377
 20
205.77256318265239
 30
0.0
 41
20.0
 42
20.0
 43
20.0
  0
INSERT
  5
7D10
  8
0
  2
YA_N
 10
406.32492250629377
 20
205.77256318265239
 30
0.0
 41
20.0
 42
20.0
 43
20.0
  0
ARC
  5
7D15
  8
1
 10
1968.8129004942371
 20
2765.2095643576608
 30
0.0
 40
526.0
 50
95.266004297231973
 51
180.0
  0
ARC
  5
7D16
  8
1
 10
1884.8129004942371
 20
2765.2095643576608
 30
0.0
 40
442.0
 50
180.0
 51
246.2519879245103
  0
ARC
  5
7D17
  8
1
 10
1893.812900494238
 20
2690.2095643576608
 30
0.0
 40
367.0
 50
313.58052034890648
 51
0.0000000000007099
  0
ARC
  5
7D18
  8
1
 10
1959.8129004942371
 20
2690.2095643576622
 30
0.0
 40
301.0
 50
0.0000000000006925
 51
10.141498083784199
  0
LINE
  5
7D19
  8
1
 10
2316.812900494238
 20
3323.2095643576608
 30
0.0
 11
2316.812900494238
 21
2743.2095643576599
 31
0.0
  0
LINE
  5
7D1A
  8
1
 10
2256.110048641161
 20
2743.2095643576608
 30
0.0
 11
2291.812900494238
 21
2743.2095643576608
 31
0.0
  0
LINE
  5
7D1B
  8
1
 10
2291.812900494238
 20
3323.2095643576608
 30
0.0
 11
2291.812900494238
 21
2743.2095643576599
 31
0.0
  0
LINE
  5
7D1C
  8
1
 10
2291.812900494238
 20
3323.2095643576608
 30
0.0
 11
1920.5367409632599
 21
3288.9894918281011
 31
0.0
  0
POLYLINE
  5
7D1D
  8
1
 66
     1
 10
0.0
 20
0.0
 30
0.0
 70
     1
  0
VERTEX
  5
816F
  8
1
 10
2316.812900494238
 20
3323.2095643576608
 30
0.0
  0
VERTEX
  5
8170
  8
1
 10
2316.812900494238
 20
3348.2095643576608
 30
0.0
  0
VERTEX
  5
8171
  8
1
 10
2315.812900494238
 20
3348.2095643576608
 30
0.0
 42
0.4142135623730951
  0
VERTEX
  5
8172
  8
1
 10
2313.812900494238
 20
3346.2095643576608
 30
0.0
  0
VERTEX
  5
8173
  8
1
 10
2313.812900494238
 20
3330.2095643576608
 30
0.0
 42
-0.4142135623730951
  0
VERTEX
  5
8174
  8
1
 10
2309.812900494238
 20
3326.2095643576608
 30
0.0
  0
VERTEX
  5
8175
  8
1
 10
2293.812900494238
 20
3326.2095643576608
 30
0.0
 42
0.4142135623730951
  0
VERTEX
  5
8176
  8
1
 10
2291.812900494238
 20
3324.2095643576608
 30
0.0
  0
VERTEX
  5
8177
  8
1
 10
2291.812900494238
 20
3323.2095643576608
 30
0.0
  0
SEQEND
  5
8178
  8
1
  0
POLYLINE
  5
7D28
  8
1
 66
     1
 10
0.0
 20
0.0
 30
0.0
 70
     1
  0
VERTEX
  5
8179
  8
1
 10
2316.812900494238
 20
2743.2095643576599
 30
0.0
  0
VERTEX
  5
817A
  8
1
 10
2316.812900494238
 20
2718.2095643576599
 30
0.0
  0
VERTEX
  5
817B
  8
1
 10
2315.812900494238
 20
2718.2095643576599
 30
0.0
 42
-0.4142135623730951
  0
VERTEX
  5
817C
  8
1
 10
2313.812900494238
 20
2720.2095643576599
 30
0.0
  0
VERTEX
  5
817D
  8
1
 10
2313.812900494238
 20
2736.2095643576599
 30
0.0
 42
0.4142135623730951
  0
VERTEX
  5
817E
  8
1
 10
2309.812900494238
 20
2740.2095643576599
 30
0.0
  0
VERTEX
  5
817F
  8
1
 10
2293.812900494238
 20
2740.2095643576599
 30
0.0
 42
-0.4142135623730951
  0
VERTEX
  5
8180
  8
1
 10
2291.812900494238
 20
2742.2095643576599
 30
0.0
  0
VERTEX
  5
8181
  8
1
 10
2291.812900494238
 20
2743.2095643576599
 30
0.0
  0
SEQEND
  5
8182
  8
1
  0
LINE
  5
7D33
  8
1
 10
1478.1610100523019
 20
2592.009564357661
 30
0.0
 11
1478.1610100523019
 21
2601.009564357661
 31
0.0
  0
LINE
  5
7D34
  8
1
 10
2247.430999578547
 20
2592.009564357661
 30
0.0
 11
2247.430999578547
 21
2601.009564357661
 31
0.0
  0
DIMENSION
  5
7D35
  8
3
  2
*D8
 10
2474.3166723587929
 20
2743.2095643576599
 30
0.0
 11
2424.3166723587929
 21
3033.2095643576599
 31
0.0
 12
-1685.789260613182
 22
1458.013436834342
 32
0.0
 70
     0
 13
2316.812900494238
 23
3323.2095643576608
 33
0.0
 14
2316.812900494238
 24
2743.2095643576599
 34
0.0
 50
90.0
1001
ACAD
1000
DSTYLE
1002
{
1070
    40
1040
25.0
1002
}
  0
DIMENSION
  5
7D36
  8
3
  2
*D9
 10
2599.4186503569208
 20
3323.2095643576608
 30
0.0
 11
2549.4186503569208
 21
3023.2095643576608
 31
0.0
 12
-1685.789260613182
 22
1458.013436834342
 32
0.0
 70
     0
 13
2364.1641182199528
 23
2723.2095643576608
 33
0.0
 14
2316.812900494238
 24
3323.2095643576608
 34
0.0
 50
90.0
1001
ACAD
1000
DSTYLE
1002
{
1070
    40
1040
25.0
1002
}
  0
LINE
  5
7D37
  8
1
 10
4340.8553570222421
 20
2323.2095643576608
 30
0.0
 11
4340.8553570222439
 21
3002.8379522093242
 31
0.0
  0
LINE
  5
7D38
  8
1
 10
3910.8553570222421
 20
2323.2095643576608
 30
0.0
 11
3910.8553570222421
 21
2743.2095643576599
 31
0.0
  0
LINE
  5
7D39
  8
1
 10
4340.855357022243
 20
2743.2095643576599
 30
0.0
 11
4340.8553570222421
 21
3323.2095643576608
 31
0.0
  0
LINE
  5
7D3A
  8
1
 10
3910.8553570222421
 20
2743.2095643576599
 30
0.0
 11
3910.8553570222421
 21
3323.2095643576608
 31
0.0
  0
LINE
  5
7D3B
  8
1
 10
3910.8553570222421
 20
3323.2095643576608
 30
0.0
 11
4340.855357022243
 21
3323.2095643576608
 31
0.0
  0
LINE
  5
7D3C
  8
1
 10
3910.8553570222421
 20
2743.2095643576599
 30
0.0
 11
4340.855357022243
 21
2743.2095643576599
 31
0.0
  0
DIMENSION
  5
7D3D
  8
3
  2
*D10
 10
4338.3553570222421
 20
3412.0607288922188
 30
0.0
 11
4125.8553570222421
 21
3462.0607288922188
 31
0.0
 12
-1685.789260613182
 22
1458.013436834342
 32
0.0
 70
     0
 13
3913.3553570222421
 23
3323.2095643576608
 33
0.0
 14
4338.3553570222421
 24
3323.2095643576608
 34
0.0
1001
ACAD
1000
DSTYLE
1002
{
1070
    40
1040
25.0
1002
}
  0
DIMENSION
  5
7D3E
  8
3
  2
*D11
 10
3175.3553570222421
 20
3603.4985929061768
 30
0.0
 11
3650.6053570222421
 21
3715.9985929061768
 31
0.0
 70
     0
  1
MAX\P1020
 13
4125.8553570222421
 23
3510.0696216374072
 33
0.0
 14
3175.3553570222421
 24
2943.2095643576608
 34
0.0
1001
ACAD
1000
DSTYLE
1002
{
1070
    40
1040
25.0
1002
}
  0
DIMENSION
  5
7D3F
  8
3
  2
*D12
 10
2316.812900494238
 20
3413.0963710493929
 30
0.0
 11
2121.812900494238
 21
3463.0963710493938
 31
0.0
 12
-1685.789260613182
 22
1458.013436834342
 32
0.0
 70
     0
 13
1926.812900494238
 23
3337.235583036354
 33
0.0
 14
2316.812900494238
 24
3348.2095643576608
 34
0.0
1001
ACAD
1000
DSTYLE
1002
{
1070
    40
1040
25.0
1002
}
  0
DIMENSION
  5
7D40
  8
3
  2
*D13
 10
1442.8129083979629
 20
3413.0963710493929
 30
0.0
 11
1684.8129044461
 21
3463.0963710493938
 31
0.0
 12
-1685.789260613182
 22
1458.013436834342
 32
0.0
 70
     0
 13
1926.812900494238
 23
3337.235583036354
 33
0.0
 14
1442.8129083979629
 24
2765.3007494369481
 34
0.0
1001
ACAD
1000
DSTYLE
1002
{
1070
    40
1040
25.0
1002
}
  0
INSERT
  5
7D41
  8
0
  2
YA_N
 10
106.491420368554
 20
-66.127812308967123
 30
0.0
 41
1.538461538
 42
1.538461538
 43
1.538461538
  0
INSERT
  5
7D42
  8
0
  2
YA_N
 10
315.55569424829349
 20
133.46487264865129
 30
0.0
 41
1.538461538
 42
1.538461538
 43
1.538461538
  0
INSERT
  5
7D43
  8
0
  2
YA_N
 10
315.55569424829349
 20
133.46487264865129
 30
0.0
 41
1.538461538
 42
1.538461538
 43
1.538461538
  0
INSERT
  5
7D44
  8
0
  2
YA_N
 10
315.55569424829349
 20
133.46487264865129
 30
0.0
 41
1.538461538
 42
1.538461538
 43
1.538461538
  0
INSERT
  5
7D45
  8
0
  2
YA_N
 10
315.55569424829349
 20
133.46487264865129
 30
0.0
 41
1.538461538
 42
1.538461538
 43
1.538461538
  0
INSERT
  5
7D46
  8
0
  2
YA_N
 10
315.55569424829349
 20
133.46487264865129
 30
0.0
 41
1.538461538
 42
1.538461538
 43
1.538461538
  0
INSERT
  5
7D47
  8
0
  2
YA_N
 10
1051.0096589721841
 20
4747.5932499627615
 30
0.0
 41
1.538461538
 42
1.538461538
 43
1.538461538
  0
INSERT
  5
7D48
  8
0
  2
YA_N
 10
6747.0759360986658
 20
4703.7778434175052
 30
0.0
 41
1.538461538
 42
1.538461538
 43
1.538461538
  0
INSERT
  5
7D49
  8
0
  2
YA_N
 10
6747.0759360986658
 20
4703.7778434175052
 30
0.0
 41
1.538461538
 42
1.538461538
 43
1.538461538
  0
INSERT
  5
7D4A
  8
0
  2
YA_N
 10
6747.0759360986658
 20
4703.7778434175052
 30
0.0
 41
1.538461538
 42
1.538461538
 43
1.538461538
  0
INSERT
  5
7D4B
  8
0
  2
YA_N
 10
6747.0759360986658
 20
4703.7778434175052
 30
0.0
 41
1.538461538
 42
1.538461538
 43
1.538461538
  0
INSERT
  5
7D4C
  8
0
  2
YA_N
 10
10431.53718818881
 20
7886.6813990777318
 30
0.0
 41
1.538461538
 42
1.538461538
 43
1.538461538
  0
INSERT
  5
7D4D
  8
0
  2
YA_N
 10
10431.53718818881
 20
7886.6813990777318
 30
0.0
 41
1.538461538
 42
1.538461538
 43
1.538461538
  0
INSERT
  5
7D4E
  8
0
  2
YA_N
 10
5646.9552672550208
 20
3988.813306179245
 30
0.0
 41
1.538461538
 42
1.538461538
 43
1.538461538
  0
INSERT
  5
7D4F
  8
0
  2
YA_N
 10
-714.68609468245882
 20
-882.79288817992074
 30
0.0
 41
1.538461538
 42
1.538461538
 43
1.538461538
  0
INSERT
  5
7D50
  8
0
  2
YA_N
 10
426.32492498429349
 20
225.77256492865129
 30
0.0
 41
19.999999994
 42
19.999999994
 43
19.999999994
  0
INSERT
  5
7D52
  8
0
  2
YA_N
 10
426.32492498429349
 20
225.77256492865129
 30
0.0
 41
19.999999994
 42
19.999999994
 43
19.999999994
  0
INSERT
  5
7D57
  8
0
  2
YA_N
 10
426.32492498429349
 20
225.77256492865129
 30
0.0
 41
19.999999994
 42
19.999999994
 43
19.999999994
  0
INSERT
  5
7D58
  8
0
  2
YA_N
 10
426.32492498429349
 20
225.77256492865129
 30
0.0
 41
19.999999994
 42
19.999999994
 43
19.999999994
  0
INSERT
  5
7D59
  8
0
  2
YA_N
 10
426.32492498429349
 20
225.77256492865129
 30
0.0
 41
19.999999994
 42
19.999999994
 43
19.999999994
  0
INSERT
  5
7D5E
  8
0
  2
YA_N
 10
106.491420368554
 20
-66.127812308967123
 30
0.0
 41
1.538461538
 42
1.538461538
 43
1.538461538
  0
INSERT
  5
7D5F
  8
0
  2
YA_N
 10
315.55569424829349
 20
133.46487264865129
 30
0.0
 41
1.538461538
 42
1.538461538
 43
1.538461538
  0
INSERT
  5
7D60
  8
0
  2
YA_N
 10
315.55569424829349
 20
133.46487264865129
 30
0.0
 41
1.538461538
 42
1.538461538
 43
1.538461538
  0
INSERT
  5
7D61
  8
0
  2
YA_N
 10
315.55569424829349
 20
133.46487264865129
 30
0.0
 41
1.538461538
 42
1.538461538
 43
1.538461538
  0
INSERT
  5
7D62
  8
0
  2
YA_N
 10
315.55569424829349
 20
133.46487264865129
 30
0.0
 41
1.538461538
 42
1.538461538
 43
1.538461538
  0
INSERT
  5
7D63
  8
0
  2
YA_N
 10
315.55569424829349
 20
133.46487264865129
 30
0.0
 41
1.538461538
 42
1.538461538
 43
1.538461538
  0
INSERT
  5
7D64
  8
0
  2
YA_N
 10
1051.0096589721841
 20
4747.5932499627615
 30
0.0
 41
1.538461538
 42
1.538461538
 43
1.538461538
  0
INSERT
  5
7D65
  8
0
  2
YA_N
 10
6747.0759360986658
 20
4703.7778434175052
 30
0.0
 41
1.538461538
 42
1.538461538
 43
1.538461538
  0
INSERT
  5
7D66
  8
0
  2
YA_N
 10
6747.0759360986658
 20
4703.7778434175052
 30
0.0
 41
1.538461538
 42
1.538461538
 43
1.538461538
  0
INSERT
  5
7D67
  8
0
  2
YA_N
 10
6747.0759360986658
 20
4703.7778434175052
 30
0.0
 41
1.538461538
 42
1.538461538
 43
1.538461538
  0
INSERT
  5
7D68
  8
0
  2
YA_N
 10
6747.0759360986658
 20
4703.7778434175052
 30
0.0
 41
1.538461538
 42
1.538461538
 43
1.538461538
  0
INSERT
  5
7D69
  8
0
  2
YA_N
 10
10431.53718818881
 20
7886.6813990777318
 30
0.0
 41
1.538461538
 42
1.538461538
 43
1.538461538
  0
INSERT
  5
7D6A
  8
0
  2
YA_N
 10
10431.53718818881
 20
7886.6813990777318
 30
0.0
 41
1.538461538
 42
1.538461538
 43
1.538461538
  0
INSERT
  5
7D6B
  8
0
  2
YA_N
 10
5646.9552672550208
 20
3988.813306179245
 30
0.0
 41
1.538461538
 42
1.538461538
 43
1.538461538
  0
INSERT
  5
7D6C
  8
0
  2
YA_N
 10
-714.68609468245882
 20
-882.79288817992074
 30
0.0
 41
1.538461538
 42
1.538461538
 43
1.538461538
  0
INSERT
  5
7D6D
  8
0
  2
YA_N
 10
426.32492498429349
 20
225.77256492865129
 30
0.0
 41
19.999999994
 42
19.999999994
 43
19.999999994
  0
INSERT
  5
7D6F
  8
0
  2
YA_N
 10
426.32492498429349
 20
225.77256492865129
 30
0.0
 41
19.999999994
 42
19.999999994
 43
19.999999994
  0
INSERT
  5
7D74
  8
0
  2
YA_N
 10
426.32492498429349
 20
225.77256492865129
 30
0.0
 41
19.999999994
 42
19.999999994
 43
19.999999994
  0
INSERT
  5
7D75
  8
0
  2
YA_N
 10
426.32492498429349
 20
225.77256492865129
 30
0.0
 41
19.999999994
 42
19.999999994
 43
19.999999994
  0
INSERT
  5
7D76
  8
0
  2
YA_N
 10
426.32492498429349
 20
225.77256492865129
 30
0.0
 41
19.999999994
 42
19.999999994
 43
19.999999994
  0
LINE
  5
7D7B
  8
1
 10
4365.8553570222421
 20
2442.8379522093251
 30
0.0
 11
4365.8553570222402
 21
3002.8379522093242
 31
0.0
  0
DIMENSION
  5
7D7C
  8
3
  2
*D14
 10
2599.4186503569208
 20
2248.2095643576608
 30
0.0
 11
2549.4186503569208
 21
2485.7095643576608
 31
0.0
 12
-1685.789260613182
 22
1458.013436834342
 32
0.0
 70
     0
 13
2364.1641182199528
 23
2723.2095643576608
 33
0.0
 14
2176.8129004942371
 24
2248.2095643576608
 34
0.0
 50
90.0
1001
ACAD
1000
DSTYLE
1002
{
1070
    40
1040
25.0
1002
}
  0
LINE
  5
7D80
  8
1
 10
3280.8553570222412
 20
2248.2095643576608
 30
0.0
 11
3280.8553570222421
 21
2323.2095643576608
 31
0.0
  0
DIMENSION
  5
7D82
  8
3
  2
*D15
 10
1026.812900494238
 20
3568.3770527936458
 30
0.0
 11
1671.812900494238
 21
3618.3770527936458
 31
0.0
 12
-1685.789260613182
 22
1458.013436834342
 32
0.0
 70
     0
 13
2316.812900494238
 23
3348.2095643576608
 33
0.0
 14
1026.812900494238
 24
2323.2095643576608
 34
0.0
1001
ACAD
1000
DSTYLE
1002
{
1070
    40
1040
25.0
1002
}
  0
LINE
  5
7D83
  8
1
 10
4340.8553570222421
 20
3323.2095643576608
 30
0.0
 11
3910.8553570222421
 21
2743.2095643576599
 31
0.0
  0
LINE
  5
7D84
  8
1
 10
3910.8553570222421
 20
3323.2095643576608
 30
0.0
 11
4340.855357022243
 21
2743.2095643576599
 31
0.0
  0
LINE
  5
7D85
  8
1
 10
2316.812900494238
 20
5190.8685117336536
 30
0.0
 11
1442.812900494238
 21
5190.8685117336536
 31
0.0
  0
LINE
  5
7D86
  8
1
 10
2316.812900494238
 20
4765.8685117336536
 30
0.0
 11
1442.812900494238
 21
4765.8685117336527
 31
0.0
  0
LINE
  5
7D87
  8
1
 10
2316.8129004942389
 20
4740.8685117336536
 30
0.0
 11
2316.812900494238
 21
5215.8685117336536
 31
0.0
  0
LINE
  5
7D88
  8
1
 10
1442.812900494238
 20
4765.8685117336527
 30
0.0
 11
1442.812900494238
 21
5190.8685117336536
 31
0.0
  0
LINE
  5
7D89
  8
1
 10
1676.8129004942371
 20
5190.8685117336536
 30
0.0
 11
1676.812900494238
 21
5233.3685117336536
 31
0.0
  0
LINE
  5
7D8A
  8
1
 10
2176.812900494238
 20
5190.8685117336536
 30
0.0
 11
2176.812900494238
 21
5233.3685117336536
 31
0.0
  0
LINE
  5
7D8B
  8
1
 10
2291.812900494238
 20
4765.8685117336536
 30
0.0
 11
2291.8129004942371
 21
5190.8685117336536
 31
0.0
  0
LINE
  5
7D8C
  8
1
 10
1901.812900494238
 20
4059.368511733654
 30
0.0
 11
1901.812900494238
 21
4765.8685117336527
 31
0.0
  0
LINE
  5
7D8D
  8
1
 10
1951.812900494238
 20
4059.368511733654
 30
0.0
 11
1951.812900494238
 21
4765.8685117336527
 31
0.0
  0
LINE
  5
7D8F
  8
2
 10
1926.812900494238
 20
3945.4882700196149
 30
0.0
 11
1926.812900494238
 21
5256.2680208124439
 31
0.0
  0
LINE
  5
7D90
  8
1
 10
1076.812900494238
 20
3976.368511733654
 30
0.0
 11
2146.812900494238
 21
3976.3685117336531
 31
0.0
  0
LINE
  5
7D91
  8
1
 10
1076.812900494238
 20
4098.3685117336527
 30
0.0
 11
2146.812900494238
 21
4098.3685117336527
 31
0.0
  0
LINE
  5
7D93
  8
1
 10
1156.812900494238
 20
4059.3685117336531
 30
0.0
 11
2053.812900494238
 21
4059.3685117336531
 31
0.0
  0
LINE
  5
7D94
  8
1
 10
1156.812900494238
 20
3996.368511733654
 30
0.0
 11
2053.812900494238
 21
3996.368511733654
 31
0.0
  0
LINE
  5
7D95
  8
1
 10
1076.812900494238
 20
3976.368511733654
 30
0.0
 11
1076.812900494238
 21
4098.3685117336527
 31
0.0
  0
LINE
  5
7D96
  8
1
 10
1156.812900494238
 20
3996.368511733654
 30
0.0
 11
1156.812900494238
 21
4059.3685117336531
 31
0.0
  0
LINE
  5
7D99
  8
1
 10
1799.812900494238
 20
3996.368511733654
 30
0.0
 11
1799.812900494238
 21
4059.3685117336531
 31
0.0
  0
LINE
  5
7D9A
  8
1
 10
1296.812900494238
 20
3996.368511733654
 30
0.0
 11
1296.812900494238
 21
4059.3685117336531
 31
0.0
  0
LINE
  5
7DA2
  8
1
 10
2053.812900494238
 20
3996.368511733654
 30
0.0
 11
2053.812900494238
 21
4059.3685117336531
 31
0.0
  0
LINE
  5
7DA3
  8
1
 10
2146.812900494238
 20
3976.3685117336531
 30
0.0
 11
2146.8129004942389
 21
4098.3685117336527
 31
0.0
  0
LINE
  5
7DA4
  8
1
 10
1368.812900494238
 20
4514.8685117336527
 30
0.0
 11
1368.812900494238
 21
4114.8685117336527
 31
0.0
  0
LINE
  5
7DA5
  8
1
 10
1084.8129004942371
 20
4514.8685117336527
 30
0.0
 11
1084.812900494238
 21
4114.8685117336536
 31
0.0
  0
LINE
  5
7DA6
  8
1
 10
1245.812900494238
 20
4114.8685117336527
 30
0.0
 11
1245.812900494238
 21
4059.3685117336531
 31
0.0
  0
LINE
  5
7DA7
  8
1
 10
1207.8129004942371
 20
4114.8685117336527
 30
0.0
 11
1207.8129004942371
 21
4059.3685117336531
 31
0.0
  0
LINE
  5
7DA8
  8
1
 10
1084.812900494238
 20
4514.8685117336527
 30
0.0
 11
1368.812900494238
 21
4514.8685117336527
 31
0.0
  0
LINE
  5
7DA9
  8
1
 10
1084.8129004942371
 20
4114.8685117336527
 30
0.0
 11
1368.8129004942371
 21
4114.8685117336527
 31
0.0
  0
LINE
  5
7DAA
  8
1
 10
3318.855357022243
 20
2642.2095643576608
 30
0.0
 11
3313.855357022243
 21
2642.2095643576608
 31
0.0
  0
LINE
  5
7DAB
  8
1
 10
3318.8553570222421
 20
2358.2095643576608
 30
0.0
 11
3313.8553570222421
 21
2358.2095643576608
 31
0.0
  0
LINE
  5
7DAC
  8
2
 10
3144.4751153082029
 20
2500.2095643576608
 30
0.0
 11
3414.7250695290741
 21
2500.2095643576608
 31
0.0
  0
LINE
  5
7DAD
  8
1
 10
3313.8553570222421
 20
2642.2095643576631
 30
0.0
 11
3313.8553570222421
 21
2358.2095643576622
 31
0.0
  0
LINE
  5
7DAE
  8
1
 10
3313.8553570222421
 20
2519.2095643576622
 30
0.0
 11
3258.3553570222421
 21
2519.2095643576622
 31
0.0
  0
LINE
  5
7DAF
  8
1
 10
3313.8553570222421
 20
2481.2095643576608
 30
0.0
 11
3258.3553570222421
 21
2481.2095643576608
 31
0.0
  0
LINE
  5
7DB0
  8
1
 10
1368.812900494238
 20
4133.3685117336527
 30
0.0
 11
1901.812900494238
 21
4133.3685117336527
 31
0.0
  0
LINE
  5
7DB1
  8
1
 10
1951.8129004942391
 20
4133.3685117336527
 30
0.0
 11
2176.812900494238
 21
4133.3685117336527
 31
0.0
  0
LINE
  5
7FC9
  8
4
 10
4625.0
 20
1250.0
 30
0.0
 11
4625.0
 21
750.0
 31
0.0
  0
LINE
  5
7FCA
  8
4
 10
2875.0
 20
1250.0
 30
0.0
 11
2875.0
 21
750.0
 31
0.0
  0
LINE
  5
7FCB
  8
4
 10
1625.0
 20
1250.0
 30
0.0
 11
1625.0
 21
750.0
 31
0.0
  0
LINE
  5
7FCE
  8
4
 10
1625.0
 20
750.0
 30
0.0
 11
4625.0
 21
750.0
 31
0.0
  0
LINE
  5
7FCF
  8
4
 10
1625.0
 20
1000.0
 30
0.0
 11
4625.0
 21
1000.0
 31
0.0
  0
TEXT
  5
7FD0
  8
4
 10
1721.2552021172539
 20
1078.857564666532
 30
0.0
 40
125.0
  1
機器名称
  0
TEXT
  5
7FD1
  8
4
 10
1715.6452650619931
 20
804.11289183002725
 30
0.0
 40
125.0
  1
機器型番
  0
TEXT
  5
7FD2
  8
4
 10
2944.1968637191621
 20
1056.429422393921
 30
0.0
 40
105.0
  1
ミツヤ多翼送風機
  0
TEXT
  5
7FD3
  8
4
 10
2966.6362389637011
 20
792.89896069985843
 30
0.0
 40
125.0
  1
MF#3 1/2-1
  0
TEXT
  5
7FD5
  8
4
 10
2049.4699762425189
 20
5958.5721033312893
 30
0.0
 40
135.0
  1
床置ベット
  0
TEXT
  5
7FD6
  8
4
 10
740.41898332361586
 20
6334.7024404982449
 30
0.0
 40
180.0
  1
遠心式片吸込片持多翼ファン
  0
LINE
  5
7FD7
  8
4
 10
625.0
 20
6173.5218856620122
 30
0.0
 11
4625.0
 21
6173.5218856620122
 31
0.0
  0
LINE
  5
7FD8
  8
4
 10
625.0
 20
6673.5218856620122
 30
0.0
 11
4625.0
 21
6673.5218856620122
 31
0.0
  0
LINE
  5
7FD9
  8
4
 10
1625.0
 20
1250.0
 30
0.0
 11
4625.0
 21
1250.0
 31
0.0
  0
LINE
  5
7FDA
  8
4
 10
625.0
 20
6673.5218856620122
 30
0.0
 11
625.0
 21
6173.5218856620122
 31
0.0
  0
TEXT
  5
7FDB
  8
4
 10
903.15771232309635
 20
5955.7986938658578
 30
0.0
 40
135.0
  1
右回転右横向
  0
TEXT
  5
7FDC
  8
4
 10
3672.4238981232238
 20
6765.1527037382721
 30
0.0
 40
140.0
  1
No.
  0
TEXT
  5
7FDD
  8
4
 10
3278.2401565000318
 20
5958.5721033312893
 30
0.0
 40
135.0
  1
縮尺：1/25
  0
LINE
  5
7FDE
  8
4
 10
4625.0
 20
6673.5218856620122
 30
0.0
 11
4625.0
 21
6173.5218856620122
 31
0.0
  0
LINE
  5
7FDF
  8
4
 10
5250.0
 20
7375.0
 30
0.0
 11
5250.0
 21
7375.0
 31
0.0
  0
LINE
  5
7FE0
  8
4
 10
3601.543555899661
 20
6703.1589578135026
 30
0.0
 11
3601.543555899661
 21
6966.6306538743811
 31
0.0
  0
LINE
  5
7FE1
  8
4
 10
3601.543555899661
 20
6966.6306538743811
 30
0.0
 11
4625.0
 21
6966.6306538743811
 31
0.0
  0
LINE
  5
7FE2
  8
4
 10
4625.0
 20
6966.6306538743811
 30
0.0
 11
4625.0
 21
6703.1589578135026
 31
0.0
  0
LINE
  5
7FE3
  8
4
 10
4625.0
 20
6703.1589578135026
 30
0.0
 11
3601.543555899661
 21
6703.1589578135026
 31
0.0
  0
LINE
  5
7FE4
  8
4
 10
0.0
 20
0.0
 30
0.0
 11
0.0
 21
7375.0
 31
0.0
  0
LINE
  5
7FE5
  8
4
 10
0.0
 20
7375.0
 30
0.0
 11
5250.0
 21
7375.0
 31
0.0
  0
LINE
  5
7FE6
  8
4
 10
5250.0
 20
7375.0
 30
0.0
 11
5250.0
 21
0.0
 31
0.0
  0
LINE
  5
7FE7
  8
4
 10
5250.0
 20
0.0
 30
0.0
 11
0.0
 21
0.0
 31
0.0
  0
LINE
  5
8020
  8
1
 10
3297.3553570222421
 20
2860.8541059816271
 30
0.0
 11
3297.3553570222421
 21
2943.2095643576608
 31
0.0
  0
DIMENSION
  5
803E
  8
3
  2
*D17
 10
4340.8553570222421
 20
3603.4985929061768
 30
0.0
 11
4233.3553570222421
 21
3674.8472626377802
 31
0.0
 70
   128
 13
4125.8553570222421
 23
3510.0696216374072
 33
0.0
 14
4340.8553570222421
 24
3323.2095643576608
 34
0.0
1001
ACAD
1000
DSTYLE
1002
{
1070
   288
1070
     1
1070
   172
1070
     1
1070
    75
1070
     1
1070
    40
1040
25.0
1070
   271
1070
     0
1070
   143
1040
0.039
1002
}
  0
DIMENSION
  5
8101
  8
3
  2
*D18
 10
1926.812900494238
 20
2080.3033346767038
 30
0.0
 11
1476.812900494238
 21
2142.8033346767038
 31
0.0
 70
     0
 13
1026.812900494238
 23
2248.2095643576608
 33
0.0
 14
1926.812900494238
 24
2248.2095643576608
 34
0.0
1001
ACAD
1000
DSTYLE
1002
{
1070
   287
1070
     3
1070
    40
1040
25.0
1070
   143
1040
0.039
1070
   172
1070
     1
1070
   271
1070
     0
1070
   279
1070
     0
1002
}
  0
DIMENSION
  5
8110
  8
3
  2
*D19
 10
2176.8129004942371
 20
2080.3033346767038
 30
0.0
 11
2051.812900494238
 21
2142.8033346767038
 31
0.0
 70
     0
 13
1926.812900494238
 23
2248.2095643576608
 33
0.0
 14
2176.8129004942371
 24
2248.2095643576608
 34
0.0
1001
ACAD
1000
DSTYLE
1002
{
1070
   287
1070
     3
1070
    40
1040
25.0
1070
   143
1040
0.039
1070
   172
1070
     1
1070
   271
1070
     0
1070
   279
1070
     0
1002
}
  0
DIMENSION
  5
811D
  8
3
  2
*D20
 10
4125.855357022243
 20
2080.3033346767038
 30
0.0
 11
3703.3553570222421
 21
2142.8033346767038
 31
0.0
 70
     0
 13
3280.8553570222412
 23
2248.2095643576608
 33
0.0
 14
4125.855357022243
 24
2248.2095643576608
 34
0.0
1001
ACAD
1000
DSTYLE
1002
{
1070
   287
1070
     3
1070
    40
1040
25.0
1070
   143
1040
0.039
1070
   172
1070
     1
1070
   271
1070
     0
1070
   279
1070
     0
1002
}
  0
DIMENSION
  5
812C
  8
3
  2
*D21
 10
4380.8553570222421
 20
2080.3033346767038
 30
0.0
 11
4253.3553570222421
 21
2142.8033346767038
 31
0.0
 70
     0
 13
4125.855357022243
 23
2248.2095643576608
 33
0.0
 14
4380.8553570222421
 24
2248.2095643576608
 34
0.0
1001
ACAD
1000
DSTYLE
1002
{
1070
   287
1070
     3
1070
    40
1040
25.0
1070
   143
1040
0.039
1070
   172
1070
     1
1070
   271
1070
     0
1070
   279
1070
     0
1002
}
  0
DIMENSION
  5
8139
  8
3
  2
*D22
 10
2786.6886612846829
 20
2248.2095643576608
 30
0.0
 11
2724.188661284682
 21
2798.2095643576608
 31
0.0
 70
     0
 13
2316.812900494238
 23
3348.2095643576608
 33
0.0
 14
2176.8129004942371
 24
2248.2095643576608
 34
0.0
 50
90.0
1001
ACAD
1000
DSTYLE
1002
{
1070
   287
1070
     3
1070
    40
1040
25.0
1070
   143
1040
0.039
1070
   172
1070
     1
1070
   271
1070
     0
1070
   279
1070
     0
1002
}
  0
ENDSEC
  0
EOF
