  0
SECTION
  2
HEADER
  9
$ACADVER
  1
AC1009
  9
$INSBASE
 10
0.0
 20
0.0
 30
0.0
  9
$EXTMIN
 10
500.0
 20
600.0
 30
0.0
  9
$EXTMAX
 10
3700.0
 20
5573.3045229999998
 30
0.0
  9
$LIMMIN
 10
0.0
 20
0.0
  9
$LIMMAX
 10
297.0
 20
210.0
  9
$ORTHOMODE
 70
     0
  9
$REGENMODE
 70
     1
  9
$FILLMODE
 70
     0
  9
$QTEXTMODE
 70
     0
  9
$MIRRTEXT
 70
     1
  9
$DRAGMODE
 70
     2
  9
$LTSCALE
 40
100.0
  9
$OSMODE
 70
    37
  9
$ATTMODE
 70
     1
  9
$TEXTSIZE
 40
180.0
  9
$TRACEWID
 40
0.05
  9
$TEXTSTYLE
  7
STANDARD
  9
$CLAYER
  8
3
  9
$CELTYPE
  6
BYLAYER
  9
$CECOLOR
 62
   256
  9
$DIMSCALE
 40
20.0
  9
$DIMASZ
 40
2.0
  9
$DIMEXO
 40
0.5
  9
$DIMDLI
 40
10.0
  9
$DIMRND
 40
0.0
  9
$DIMDLE
 40
0.0
  9
$DIMEXE
 40
1.0
  9
$DIMTP
 40
1.0
  9
$DIMTM
 40
1.0
  9
$DIMTXT
 40
3.0
  9
$DIMCEN
 40
0.0
  9
$DIMTSZ
 40
0.0
  9
$DIMTOL
 70
     0
  9
$DIMLIM
 70
     0
  9
$DIMTIH
 70
     0
  9
$DIMTOH
 70
     0
  9
$DIMSE1
 70
     0
  9
$DIMSE2
 70
     0
  9
$DIMTAD
 70
     1
  9
$DIMZIN
 70
     8
  9
$DIMBLK
  1

  9
$DIMASO
 70
     1
  9
$DIMSHO
 70
     1
  9
$DIMPOST
  1
(<>)
  9
$DIMAPOST
  1

  9
$DIMALT
 70
     0
  9
$DIMALTD
 70
     2
  9
$DIMALTF
 40
0.039
  9
$DIMLFAC
 40
1.0
  9
$DIMTOFL
 70
     1
  9
$DIMTVP
 40
0.0
  9
$DIMTIX
 70
     0
  9
$DIMSOXD
 70
     0
  9
$DIMSAH
 70
     1
  9
$DIMBLK1
  1
DOT
  9
$DIMBLK2
  1
OPEN
  9
$DIMSTYLE
  2
IGA
  9
$DIMCLRD
 70
     0
  9
$DIMCLRE
 70
     0
  9
$DIMCLRT
 70
     0
  9
$DIMTFAC
 40
10.0
  9
$DIMGAP
 40
1.0
  9
$LUNITS
 70
     2
  9
$LUPREC
 70
     3
  9
$SKETCHINC
 40
0.1
  9
$FILLETRAD
 40
50.0
  9
$AUNITS
 70
     0
  9
$AUPREC
 70
     0
  9
$MENU
  1
acad
  9
$ELEVATION
 40
0.0
  9
$PELEVATION
 40
0.0
  9
$THICKNESS
 40
0.0
  9
$LIMCHECK
 70
     0
  9
$BLIPMODE
 70
     0
  9
$CHAMFERA
 40
0.5
  9
$CHAMFERB
 40
0.5
  9
$SKPOLY
 70
     0
  9
$TDCREATE
 40
2450731.4789349539
  9
$TDUPDATE
 40
2454953.7684148839
  9
$TDINDWG
 40
0.0059585301
  9
$TDUSRTIMER
 40
0.0059585301
  9
$USRTIMER
 70
     1
  9
$ANGBASE
 50
0.0
  9
$ANGDIR
 70
     0
  9
$PDMODE
 70
     0
  9
$PDSIZE
 40
0.0
  9
$PLINEWID
 40
0.0
  9
$COORDS
 70
     1
  9
$SPLFRAME
 70
     0
  9
$SPLINETYPE
 70
     6
  9
$SPLINESEGS
 70
     8
  9
$ATTDIA
 70
     0
  9
$ATTREQ
 70
     1
  9
$HANDLING
 70
 10241
  9
$HANDSEED
  5
7F33
  9
$SURFTAB1
 70
     6
  9
$SURFTAB2
 70
     6
  9
$SURFTYPE
 70
     6
  9
$SURFU
 70
     6
  9
$SURFV
 70
     6
  9
$UCSNAME
  2

  9
$UCSORG
 10
0.0
 20
0.0
 30
0.0
  9
$UCSXDIR
 10
1.0
 20
0.0
 30
0.0
  9
$UCSYDIR
 10
0.0
 20
1.0
 30
0.0
  9
$PUCSNAME
  2

  9
$PUCSORG
 10
0.0
 20
0.0
 30
0.0
  9
$PUCSXDIR
 10
1.0
 20
0.0
 30
0.0
  9
$PUCSYDIR
 10
0.0
 20
1.0
 30
0.0
  9
$USERI1
 70
     0
  9
$USERI2
 70
     0
  9
$USERI3
 70
     0
  9
$USERI4
 70
     0
  9
$USERI5
 70
     0
  9
$USERR1
 40
0.0
  9
$USERR2
 40
0.0
  9
$USERR3
 40
0.0
  9
$USERR4
 40
0.0
  9
$USERR5
 40
0.0
  9
$WORLDVIEW
 70
     1
  9
$SHADEDGE
 70
     3
  9
$SHADEDIF
 70
    70
  9
$TILEMODE
 70
     1
  9
$MAXACTVP
 70
    16
  9
$PLIMCHECK
 70
     0
  9
$PEXTMIN
 10
1.0000000000000000E+020
 20
1.0000000000000000E+020
 30
1.0000000000000000E+020
  9
$PEXTMAX
 10
-1.0000000000000000E+020
 20
-1.0000000000000000E+020
 30
-1.0000000000000000E+020
  9
$PLIMMIN
 10
0.0
 20
0.0
  9
$PLIMMAX
 10
12.0
 20
9.0
  9
$UNITMODE
 70
     0
  9
$VISRETAIN
 70
     0
  9
$PLINEGEN
 70
     0
  9
$PSLTSCALE
 70
     1
  0
ENDSEC
  0
SECTION
  2
TABLES
  0
TABLE
  2
VPORT
 70
     2
  0
VPORT
  2
*ACTIVE
 70
     0
 10
0.0
 20
0.0
 11
1.0
 21
1.0
 12
6292.1124769529506
 22
3086.6374998146398
 13
0.0
 23
0.0
 14
10.0
 24
10.0
 15
10.0
 25
10.0
 16
0.0
 26
0.0
 36
1.0
 17
0.0
 27
0.0
 37
0.0
 40
5011.4968576296578
 41
3.1666666666666661
 42
50.0
 43
0.0
 44
0.0
 50
0.0
 51
0.0
 71
     0
 72
   100
 73
     1
 74
     0
 75
     0
 76
     0
 77
     0
 78
     0
  0
ENDTAB
  0
TABLE
  2
LTYPE
 70
     2
  0
LTYPE
  2
CONTINUOUS
 70
     0
  3
Solid line
 72
    65
 73
     0
 40
0.0
  0
LTYPE
  2
CENTER
 70
     0
  3
____ _ ____ _ ____ _ ____ _ ____ _ ____ _ ____ 
 72
    65
 73
     4
 40
2.0
 49
1.25
 49
-0.25
 49
0.25
 49
-0.25
  0
ENDTAB
  0
TABLE
  2
LAYER
 70
     6
  0
LAYER
  2
0
 70
     0
 62
     7
  6
CONTINUOUS
  0
LAYER
  2
3
 70
     0
 62
     2
  6
CONTINUOUS
  0
LAYER
  2
2
 70
     0
 62
     3
  6
CENTER
  0
LAYER
  2
1
 70
     0
 62
     4
  6
CONTINUOUS
  0
LAYER
  2
4
 70
     0
 62
     7
  6
CONTINUOUS
  0
LAYER
  2
DEFPOINTS
 70
     0
 62
     7
  6
CONTINUOUS
  0
ENDTAB
  0
TABLE
  2
STYLE
 70
     1
  0
STYLE
  2
STANDARD
 70
     0
 40
0.0
 41
1.0
 50
0.0
 71
     0
 42
180.0
  3
simplex.shx
  4
extfont.shx
  0
ENDTAB
  0
TABLE
  2
VIEW
 70
     0
  0
ENDTAB
  0
TABLE
  2
UCS
 70
     0
  0
ENDTAB
  0
TABLE
  2
APPID
 70
     1
  0
APPID
  2
ACAD
 70
     0
  0
ENDTAB
  0
TABLE
  2
DIMSTYLE
 70
     1
  0
DIMSTYLE
  2
IGA
 70
     0
  3

  4

  5

  6
OPEN
  7
OPEN
 40
2.0
 41
2.0
 42
0.5
 43
10.0
 44
1.0
 45
0.0
 46
0.0
 47
1.0
 48
1.0
140
3.0
141
0.0
142
0.0
143
0.03937
144
1.0
145
0.0
146
10.0
147
1.0
 71
     0
 72
     0
 73
     0
 74
     0
 75
     0
 76
     0
 77
     1
 78
     8
170
     0
171
     2
172
     0
173
     1
174
     0
175
     0
176
     0
177
     0
178
     0
  0
ENDTAB
  0
ENDSEC
  0
SECTION
  2
BLOCKS
  0
BLOCK
  8
0
  2
$MODEL_SPACE
 70
     0
 10
0.0
 20
0.0
 30
0.0
  3
$MODEL_SPACE
  1

  0
ENDBLK
  5
1B
  8
0
  0
BLOCK
 67
     1
  8
0
  2
$PAPER_SPACE
 70
     0
 10
0.0
 20
0.0
 30
0.0
  3
$PAPER_SPACE
  1

  0
ENDBLK
  5
18
 67
     1
  8
0
  0
BLOCK
  8
0
  2
_OPEN
 70
     0
 10
0.0
 20
0.0
 30
0.0
  3
_OPEN
  1

  0
LINE
  5
7B06
  8
0
  6
BYBLOCK
 62
     0
 10
-1.0
 20
0.166667
 30
0.0
 11
0.0
 21
0.0
 31
0.0
  0
LINE
  5
7B07
  8
0
  6
BYBLOCK
 62
     0
 10
0.0
 20
0.0
 30
0.0
 11
-1.0
 21
-0.166667
 31
0.0
  0
LINE
  5
7B08
  8
0
  6
BYBLOCK
 62
     0
 10
0.0
 20
0.0
 30
0.0
 11
-1.0
 21
0.0
 31
0.0
  0
ENDBLK
  5
7B09
  8
0
  0
BLOCK
  8
0
  2
*D1
 70
     1
 10
0.0
 20
0.0
 30
0.0
  3
*D1
  1

  0
LINE
  5
7E9B
  8
3
  6
CONTINUOUS
 62
     0
 10
1293.2977000000001
 20
2712.050639
 30
0.0
 11
1293.2977000000001
 21
2987.207465
 31
0.0
  0
LINE
  5
7E9C
  8
3
  6
CONTINUOUS
 62
     0
 10
1755.2977000000001
 20
2935.5902689999998
 30
0.0
 11
1755.2977000000001
 21
2987.207465
 31
0.0
  0
LINE
  5
7E9D
  8
3
  6
CONTINUOUS
 62
     0
 10
1333.2977000000001
 20
2967.207464999999
 30
0.0
 11
1715.2976999999989
 21
2967.207464999999
 31
0.0
  0
INSERT
  5
7E9E
  8
3
  6
CONTINUOUS
 62
     0
  2
_OPEN
 10
1293.2977000000001
 20
2967.207464999999
 30
0.0
 41
40.0
 42
40.0
 43
40.0
 50
180.0
  0
INSERT
  5
7E9F
  8
3
  6
CONTINUOUS
 62
     0
  2
_OPEN
 10
1755.2977000000001
 20
2967.207464999999
 30
0.0
 41
40.0
 42
40.0
 43
40.0
  0
TEXT
  8
3
  40
60
  5
7F23
  62
0
  72
0
  71
0
 10
1387.93
 20
2911.01
 30
0.000000
  1
462
  0
POINT
  5
7EA1
  8
DEFPOINTS
  6
CONTINUOUS
 62
     0
 10
1293.2977000000001
 20
2702.050639
 30
0.0
  0
POINT
  5
7EA2
  8
DEFPOINTS
  6
CONTINUOUS
 62
     0
 10
1755.2977000000001
 20
2925.5902689999998
 30
0.0
  0
POINT
  5
7EA3
  8
DEFPOINTS
  6
CONTINUOUS
 62
     0
 10
1755.2977000000001
 20
2967.207464999999
 30
0.0
  0
ENDBLK
  5
7D0E
  8
0
  0
BLOCK
  8
0
  2
*D2
 70
     1
 10
0.0
 20
0.0
 30
0.0
  3
*D2
  1

  0
LINE
  5
7EA4
  8
3
  6
CONTINUOUS
 62
     0
 10
2110.2977000000001
 20
2667.050639
 30
0.0
 11
2110.2977000000001
 21
2987.207465
 31
0.0
  0
LINE
  5
7EA5
  8
3
  6
CONTINUOUS
 62
     0
 10
1795.2977000000001
 20
2967.207464999999
 30
0.0
 11
2070.2977000000001
 21
2967.207464999999
 31
0.0
  0
INSERT
  5
7EA6
  8
3
  6
CONTINUOUS
 62
     0
  2
_OPEN
 10
1755.2977000000001
 20
2967.207464999999
 30
0.0
 41
40.0
 42
40.0
 43
40.0
 50
180.0
  0
INSERT
  5
7EA7
  8
3
  6
CONTINUOUS
 62
     0
  2
_OPEN
 10
2110.2977000000001
 20
2967.207464999999
 30
0.0
 41
40.0
 42
40.0
 43
40.0
  0
TEXT
  8
3
  40
60
  5
7F24
  62
0
  72
0
  71
0
 10
1812.80
 20
2911.01
 30
0.000000
  1
355
  0
POINT
  5
7EA9
  8
DEFPOINTS
  6
CONTINUOUS
 62
     0
 10
1755.2977000000001
 20
2925.5902689999998
 30
0.0
  0
POINT
  5
7EAA
  8
DEFPOINTS
  6
CONTINUOUS
 62
     0
 10
2110.2977000000001
 20
2657.050639
 30
0.0
  0
POINT
  5
7EAB
  8
DEFPOINTS
  6
CONTINUOUS
 62
     0
 10
2110.2977000000001
 20
2967.207464999999
 30
0.0
  0
ENDBLK
  5
7D03
  8
0
  0
BLOCK
  8
0
  2
*D3
 70
     1
 10
0.0
 20
0.0
 30
0.0
  3
*D3
  1

  0
LINE
  5
7EAC
  8
3
  6
CONTINUOUS
 62
     0
 10
2065.2976999999992
 20
1857.050639
 30
0.0
 11
2272.1515100000001
 21
1857.050639
 31
0.0
  0
LINE
  5
7EAD
  8
3
  6
CONTINUOUS
 62
     0
 10
2252.1515100000001
 20
2307.050639
 30
0.0
 11
2252.1515100000001
 21
1897.050639
 31
0.0
  0
INSERT
  5
7EAE
  8
3
  6
CONTINUOUS
 62
     0
  2
_OPEN
 10
2252.1515100000001
 20
2347.050639
 30
0.0
 41
40.0
 42
40.0
 43
40.0
 50
90.0
  0
INSERT
  5
7EAF
  8
3
  6
CONTINUOUS
 62
     0
  2
_OPEN
 10
2252.1515100000001
 20
1857.050639
 30
0.0
 41
40.0
 42
40.0
 43
40.0
 50
270.0
  0
TEXT
  8
3
  40
60
  5
7F25
  62
0
  72
0
  71
0
 10
2082.15
 20
1995.85
 30
0.000000
  1
490
  0
POINT
  5
7EB1
  8
DEFPOINTS
  6
CONTINUOUS
 62
     0
 10
2224.2304210000002
 20
2347.050639
 30
0.0
  0
POINT
  5
7EB2
  8
DEFPOINTS
  6
CONTINUOUS
 62
     0
 10
2055.2977000000001
 20
1857.050639
 30
0.0
  0
POINT
  5
7EB3
  8
DEFPOINTS
  6
CONTINUOUS
 62
     0
 10
2252.1515100000001
 20
1857.050639
 30
0.0
  0
ENDBLK
  5
7B48
  8
0
  0
BLOCK
  8
0
  2
*D4
 70
     1
 10
0.0
 20
0.0
 30
0.0
  3
*D4
  1

  0
LINE
  5
7EB4
  8
3
  6
CONTINUOUS
 62
     0
 10
3140.6677
 20
2712.050639
 30
0.0
 11
3140.6677
 21
2787.7599438252382
 31
0.0
  0
LINE
  5
7EB5
  8
3
  6
CONTINUOUS
 62
     0
 10
2780.6677
 20
2712.050639
 30
0.0
 11
2780.6677
 21
2787.7599438252382
 31
0.0
  0
LINE
  5
7EB6
  8
3
  6
CONTINUOUS
 62
     0
 10
3100.6677
 20
2767.7599438252382
 30
0.0
 11
2820.6676999999991
 21
2767.7599438252382
 31
0.0
  0
INSERT
  5
7EB7
  8
3
  6
CONTINUOUS
 62
     0
  2
_OPEN
 10
3140.6677
 20
2767.7599438252382
 30
0.0
 41
40.0
 42
40.0
 43
40.0
  0
INSERT
  5
7EB8
  8
3
  6
CONTINUOUS
 62
     0
  2
_OPEN
 10
2780.6677
 20
2767.7599438252382
 30
0.0
 41
40.0
 42
40.0
 43
40.0
 50
180.0
  0
TEXT
  8
3
  40
60
  5
7F26
  62
0
  72
0
  71
0
 10
2831.88
 20
2711.56
 30
0.000000
  1
360
  0
POINT
  5
7EBA
  8
DEFPOINTS
  6
CONTINUOUS
 62
     0
 10
3140.6677
 20
2702.050639
 30
0.0
  0
POINT
  5
7EBB
  8
DEFPOINTS
  6
CONTINUOUS
 62
     0
 10
2780.6677
 20
2702.050639
 30
0.0
  0
POINT
  5
7EBC
  8
DEFPOINTS
  6
CONTINUOUS
 62
     0
 10
2780.6677
 20
2767.7599438252382
 30
0.0
  0
ENDBLK
  5
7E06
  8
0
  0
BLOCK
  8
0
  2
*D5
 70
     1
 10
0.0
 20
0.0
 30
0.0
  3
*D5
  1

  0
LINE
  5
7EBD
  8
3
  6
CONTINUOUS
 62
     0
 10
3151.6677
 20
2597.050639
 30
0.0
 11
3299.496967
 21
2597.050639
 31
0.0
  0
LINE
  5
7EBE
  8
3
  6
CONTINUOUS
 62
     0
 10
3151.6677
 20
2097.050639
 30
0.0
 11
3299.496967
 21
2097.050639
 31
0.0
  0
LINE
  5
7EBF
  8
3
  6
CONTINUOUS
 62
     0
 10
3279.496967
 20
2557.050639
 30
0.0
 11
3279.496967
 21
2137.0506389999991
 31
0.0
  0
INSERT
  5
7EC0
  8
3
  6
CONTINUOUS
 62
     0
  2
_OPEN
 10
3279.496967
 20
2597.050639
 30
0.0
 41
40.0
 42
40.0
 43
40.0
 50
90.0
  0
INSERT
  5
7EC1
  8
3
  6
CONTINUOUS
 62
     0
  2
_OPEN
 10
3279.496967
 20
2097.050639
 30
0.0
 41
40.0
 42
40.0
 43
40.0
 50
270.0
  0
TEXT
  8
3
  40
60
  5
7F27
  62
0
  72
0
  71
0
 10
3109.50
 20
2251.68
 30
0.000000
  1
φ500
  0
POINT
  5
7EC3
  8
DEFPOINTS
  6
CONTINUOUS
 62
     0
 10
3141.6677
 20
2597.050639
 30
0.0
  0
POINT
  5
7EC4
  8
DEFPOINTS
  6
CONTINUOUS
 62
     0
 10
3141.6677
 20
2097.050639
 30
0.0
  0
POINT
  5
7EC5
  8
DEFPOINTS
  6
CONTINUOUS
 62
     0
 10
3279.496967
 20
2097.050639
 30
0.0
  0
ENDBLK
  5
7DDB
  8
0
  0
BLOCK
  8
0
  2
*D6
 70
     1
 10
0.0
 20
0.0
 30
0.0
  3
*D6
  1

  0
LINE
  5
7DC7
  8
0
  6
BYBLOCK
 62
     0
 10
3141.6677
 20
2607.050639
 30
0.0
 11
3141.6677
 21
2956.4171379999989
 31
0.0
  0
LINE
  5
7DC8
  8
0
  6
BYBLOCK
 62
     0
 10
2960.6677
 20
2853.482117
 30
0.0
 11
2960.6677
 21
2956.4171379999989
 31
0.0
  0
LINE
  5
7DC9
  8
0
  6
BYBLOCK
 62
     0
 10
3101.6677
 20
2936.4171379999989
 30
0.0
 11
3000.6677
 21
2936.4171379999989
 31
0.0
  0
TEXT
  5
7DCA
  8
3
 62
     0
 10
2992.5962714285711
 20
2975.8824240029862
 30
0.0
 40
60.0
  1
181
  0
INSERT
  5
7DCB
  8
0
  6
BYBLOCK
 62
     0
  2
_OPEN
 10
3141.6677
 20
2936.4171379999989
 30
0.0
 41
40.0
 42
40.0
 43
40.0
  0
INSERT
  5
7DCC
  8
0
  6
BYBLOCK
 62
     0
  2
_OPEN
 10
2960.6677
 20
2936.4171379999989
 30
0.0
 41
40.0
 42
40.0
 43
40.0
 50
180.0
  0
POINT
  5
7DCD
  8
DEFPOINTS
  6
BYBLOCK
 62
     0
 10
3141.6677
 20
2597.050639
 30
0.0
  0
POINT
  5
7DCE
  8
DEFPOINTS
  6
BYBLOCK
 62
     0
 10
2960.6677
 20
2843.482117
 30
0.0
  0
POINT
  5
7DCF
  8
DEFPOINTS
  6
BYBLOCK
 62
     0
 10
2960.6677
 20
2936.4171379999989
 30
0.0
  0
ENDBLK
  5
7DD0
  8
0
  0
BLOCK
  8
0
  2
*D7
 70
     1
 10
0.0
 20
0.0
 30
0.0
  3
*D7
  1

  0
LINE
  5
7EC6
  8
3
  6
CONTINUOUS
 62
     0
 10
2590.6677
 20
2692.050639
 30
0.0
 11
2590.6677
 21
2956.4171379999989
 31
0.0
  0
LINE
  5
7EC7
  8
3
  6
CONTINUOUS
 62
     0
 10
2920.6677
 20
2936.4171379999989
 30
0.0
 11
2630.6677
 21
2936.4171379999989
 31
0.0
  0
INSERT
  5
7EC8
  8
3
  6
CONTINUOUS
 62
     0
  2
_OPEN
 10
2960.6677
 20
2936.4171379999989
 30
0.0
 41
40.0
 42
40.0
 43
40.0
  0
INSERT
  5
7EC9
  8
3
  6
CONTINUOUS
 62
     0
  2
_OPEN
 10
2590.6677
 20
2936.4171379999989
 30
0.0
 41
40.0
 42
40.0
 43
40.0
 50
180.0
  0
TEXT
  8
3
  40
60
  5
7F28
  62
0
  72
0
  71
0
 10
2655.67
 20
2930.22
 30
0.000000
  1
MAX
  0
TEXT
  8
3
  40
60
  5
7F29
  62
0
  72
0
  71
0
 10
2655.67
 20
2852.22
 30
0.000000
  1
430
  0
POINT
  5
7ECB
  8
DEFPOINTS
  6
CONTINUOUS
 62
     0
 10
2960.6677
 20
2843.482117
 30
0.0
  0
POINT
  5
7ECC
  8
DEFPOINTS
  6
CONTINUOUS
 62
     0
 10
2590.6677
 20
2682.050639
 30
0.0
  0
POINT
  5
7ECD
  8
DEFPOINTS
  6
CONTINUOUS
 62
     0
 10
2590.6677
 20
2936.4171379999989
 30
0.0
  0
ENDBLK
  5
7DFB
  8
0
  0
BLOCK
  8
0
  2
*D8
 70
     1
 10
0.0
 20
0.0
 30
0.0
  3
*D8
  1

  0
LINE
  5
7ECE
  8
3
  6
CONTINUOUS
 62
     0
 10
935.29769999999985
 20
4129.1806390000002
 30
0.0
 11
935.29769999999985
 21
4319.5254249999998
 31
0.0
  0
LINE
  5
7ECF
  8
3
  6
CONTINUOUS
 62
     0
 10
2055.2977000000001
 20
4129.1806390000002
 30
0.0
 11
2055.2977000000001
 21
4319.5254249999998
 31
0.0
  0
LINE
  5
7ED0
  8
3
  6
CONTINUOUS
 62
     0
 10
975.29769999999985
 20
4299.5254249999998
 30
0.0
 11
2015.2977000000001
 21
4299.5254249999998
 31
0.0
  0
INSERT
  5
7ED1
  8
3
  6
CONTINUOUS
 62
     0
  2
_OPEN
 10
935.29769999999985
 20
4299.5254249999998
 30
0.0
 41
40.0
 42
40.0
 43
40.0
 50
180.0
  0
INSERT
  5
7ED2
  8
3
  6
CONTINUOUS
 62
     0
  2
_OPEN
 10
2055.2977000000001
 20
4299.5254249999998
 30
0.0
 41
40.0
 42
40.0
 43
40.0
  0
TEXT
  8
3
  40
60
  5
7F2A
  62
0
  72
0
  71
0
 10
1375.80
 20
4243.33
 30
0.000000
  1
1120
  0
POINT
  5
7ED4
  8
DEFPOINTS
  6
CONTINUOUS
 62
     0
 10
935.29769999999985
 20
4119.1806390000002
 30
0.0
  0
POINT
  5
7ED5
  8
DEFPOINTS
  6
CONTINUOUS
 62
     0
 10
2055.2977000000001
 20
4119.1806390000002
 30
0.0
  0
POINT
  5
7ED6
  8
DEFPOINTS
  6
CONTINUOUS
 62
     0
 10
2055.2977000000001
 20
4299.5254249999998
 30
0.0
  0
ENDBLK
  5
7D2F
  8
0
  0
BLOCK
  8
0
  2
*D9
 70
     1
 10
0.0
 20
0.0
 30
0.0
  3
*D9
  1

  0
LINE
  5
7ED7
  8
3
  6
CONTINUOUS
 62
     0
 10
925.29769999999985
 20
4119.1806390000002
 30
0.0
 11
771.04388100000062
 21
4119.1806390000002
 31
0.0
  0
LINE
  5
7ED8
  8
3
  6
CONTINUOUS
 62
     0
 10
925.29769999999985
 20
3671.1806390000002
 30
0.0
 11
771.04388100000051
 21
3671.1806390000002
 31
0.0
  0
LINE
  5
7ED9
  8
3
  6
CONTINUOUS
 62
     0
 10
791.04388100000062
 20
4079.1806390000002
 30
0.0
 11
791.0438810000004
 21
3711.1806390000002
 31
0.0
  0
INSERT
  5
7EDA
  8
3
  6
CONTINUOUS
 62
     0
  2
_OPEN
 10
791.04388100000062
 20
4119.1806390000002
 30
0.0
 41
40.0
 42
40.0
 43
40.0
 50
90.0
  0
INSERT
  5
7EDB
  8
3
  6
CONTINUOUS
 62
     0
  2
_OPEN
 10
791.0438810000004
 20
3671.1806390000002
 30
0.0
 41
40.0
 42
40.0
 43
40.0
 50
270.0
  0
TEXT
  8
3
  40
60
  5
7F2B
  62
0
  72
0
  71
0
 10
621.044
 20
3789.92
 30
0.000000
  1
448
  0
POINT
  5
7EDD
  8
DEFPOINTS
  6
CONTINUOUS
 62
     0
 10
935.29769999999985
 20
4119.1806390000002
 30
0.0
  0
POINT
  5
7EDE
  8
DEFPOINTS
  6
CONTINUOUS
 62
     0
 10
935.29769999999985
 20
3671.1806390000002
 30
0.0
  0
POINT
  5
7EDF
  8
DEFPOINTS
  6
CONTINUOUS
 62
     0
 10
791.0438810000004
 20
3671.1806390000002
 30
0.0
  0
ENDBLK
  5
7D24
  8
0
  0
BLOCK
  8
0
  2
*D10
 70
     1
 10
0.0
 20
0.0
 30
0.0
  3
*D10
  1

  0
LINE
  5
7EE0
  8
3
  6
CONTINUOUS
 62
     0
 10
1800.2977000000001
 20
2702.050639
 30
0.0
 11
2272.1515100000001
 21
2702.050639
 31
0.0
  0
LINE
  5
7EE1
  8
3
  6
CONTINUOUS
 62
     0
 10
2252.1515100000001
 20
2387.0506389999991
 30
0.0
 11
2252.1515100000001
 21
2662.050639
 31
0.0
  0
INSERT
  5
7EE2
  8
3
  6
CONTINUOUS
 62
     0
  2
_OPEN
 10
2252.1515100000001
 20
2347.050639
 30
0.0
 41
40.0
 42
40.0
 43
40.0
 50
270.0
  0
INSERT
  5
7EE3
  8
3
  6
CONTINUOUS
 62
     0
  2
_OPEN
 10
2252.1515100000001
 20
2702.050639
 30
0.0
 41
40.0
 42
40.0
 43
40.0
 50
90.0
  0
TEXT
  8
3
  40
60
  5
7F2C
  62
0
  72
0
  71
0
 10
2082.15
 20
2418.35
 30
0.000000
  1
355
  0
POINT
  5
7EE5
  8
DEFPOINTS
  6
CONTINUOUS
 62
     0
 10
2224.2304210000002
 20
2347.050639
 30
0.0
  0
POINT
  5
7EE6
  8
DEFPOINTS
  6
CONTINUOUS
 62
     0
 10
1790.2976999999989
 20
2702.050639
 30
0.0
  0
POINT
  5
7EE7
  8
DEFPOINTS
  6
CONTINUOUS
 62
     0
 10
2252.1515100000001
 20
2702.050639
 30
0.0
  0
ENDBLK
  5
7CCA
  8
0
  0
BLOCK
  8
0
  2
*D11
 70
     1
 10
0.0
 20
0.0
 30
0.0
  3
*D11
  1

  0
LINE
  5
7EE8
  8
3
  6
CONTINUOUS
 62
     0
 10
1293.2977000000001
 20
2712.050639
 30
0.0
 11
1293.2977000000001
 21
2877.4866619999998
 31
0.0
  0
LINE
  5
7EE9
  8
3
  6
CONTINUOUS
 62
     0
 10
1773.2977000000001
 20
2712.050639
 30
0.0
 11
1773.2977000000001
 21
2877.4866619999998
 31
0.0
  0
LINE
  5
7EEA
  8
3
  6
CONTINUOUS
 62
     0
 10
1333.2977000000001
 20
2857.4866619999998
 30
0.0
 11
1733.2977000000001
 21
2857.4866619999998
 31
0.0
  0
INSERT
  5
7EEB
  8
3
  6
CONTINUOUS
 62
     0
  2
_OPEN
 10
1293.2977000000001
 20
2857.4866619999998
 30
0.0
 41
40.0
 42
40.0
 43
40.0
 50
180.0
  0
INSERT
  5
7EEC
  8
3
  6
CONTINUOUS
 62
     0
  2
_OPEN
 10
1773.2977000000001
 20
2857.4866619999998
 30
0.0
 41
40.0
 42
40.0
 43
40.0
  0
TEXT
  8
3
  40
60
  5
7F2D
  62
0
  72
0
  71
0
 10
1421.40
 20
2801.29
 30
0.000000
  1
480
  0
POINT
  5
7EEE
  8
DEFPOINTS
  6
CONTINUOUS
 62
     0
 10
1293.2977000000001
 20
2702.050639
 30
0.0
  0
POINT
  5
7EEF
  8
DEFPOINTS
  6
CONTINUOUS
 62
     0
 10
1773.2977000000001
 20
2702.050639
 30
0.0
  0
POINT
  5
7EF0
  8
DEFPOINTS
  6
CONTINUOUS
 62
     0
 10
1773.2977000000001
 20
2857.4866619999998
 30
0.0
  0
ENDBLK
  5
7D19
  8
0
  0
BLOCK
  8
0
  2
*D12
 70
     1
 10
0.0
 20
0.0
 30
0.0
  3
*D12
  1

  0
LINE
  5
7EF1
  8
3
 62
     0
 10
935.29769999999996
 20
1687.0506389999989
 30
0.0
 11
935.29769999999996
 21
1546.559689341233
 31
0.0
  0
LINE
  5
7EF2
  8
3
 62
     0
 10
1755.2976999999989
 20
1687.0506389999989
 30
0.0
 11
1755.2976999999989
 21
1546.559689341233
 31
0.0
  0
LINE
  5
7EF3
  8
3
 62
     0
 10
975.29770000000008
 20
1566.5596893412319
 30
0.0
 11
1715.2976999999989
 21
1566.5596893412319
 31
0.0
  0
INSERT
  5
7EF4
  8
3
 62
     0
  2
_OPEN
 10
935.29769999999996
 20
1566.5596893412319
 30
0.0
 41
40.0
 42
40.0
 43
40.0
 50
180.0
  0
INSERT
  5
7EF5
  8
3
 62
     0
  2
_OPEN
 10
1755.2976999999989
 20
1566.5596893412319
 30
0.0
 41
40.0
 42
40.0
 43
40.0
  0
TEXT
  8
3
  40
60
  5
7F2E
  62
0
  72
0
  71
0
 10
1225.30
 20
1510.36
 30
0.000000
  1
820
  0
POINT
  5
7EF7
  8
DEFPOINTS
 62
     0
 10
935.29769999999996
 20
1697.050639
 30
0.0
  0
POINT
  5
7EF8
  8
DEFPOINTS
 62
     0
 10
1755.2976999999989
 20
1697.050639
 30
0.0
  0
POINT
  5
7EF9
  8
DEFPOINTS
 62
     0
 10
1755.2976999999989
 20
1566.5596893412319
 30
0.0
  0
ENDBLK
  5
7E1A
  8
0
  0
BLOCK
  8
0
  2
*D13
 70
     1
 10
0.0
 20
0.0
 30
0.0
  3
*D13
  1

  0
LINE
  5
7EFA
  8
3
 62
     0
 10
1755.2976999999989
 20
1687.0506389999989
 30
0.0
 11
1755.2976999999989
 21
1546.559689341233
 31
0.0
  0
LINE
  5
7EFB
  8
3
 62
     0
 10
2055.2977000000001
 20
1687.0506389999989
 30
0.0
 11
2055.2977000000001
 21
1546.559689341233
 31
0.0
  0
LINE
  5
7EFC
  8
3
 62
     0
 10
1795.2977000000001
 20
1566.5596893412319
 30
0.0
 11
2015.2977000000001
 21
1566.5596893412319
 31
0.0
  0
INSERT
  5
7EFD
  8
3
 62
     0
  2
_OPEN
 10
1755.2976999999989
 20
1566.5596893412319
 30
0.0
 41
40.0
 42
40.0
 43
40.0
 50
180.0
  0
INSERT
  5
7EFE
  8
3
 62
     0
  2
_OPEN
 10
2055.2977000000001
 20
1566.5596893412319
 30
0.0
 41
40.0
 42
40.0
 43
40.0
  0
TEXT
  8
3
  40
60
  5
7F2F
  62
0
  72
0
  71
0
 10
1785.30
 20
1510.36
 30
0.000000
  1
300
  0
POINT
  5
7F00
  8
DEFPOINTS
 62
     0
 10
1755.2976999999989
 20
1697.050639
 30
0.0
  0
POINT
  5
7F01
  8
DEFPOINTS
 62
     0
 10
2055.2977000000001
 20
1697.050639
 30
0.0
  0
POINT
  5
7F02
  8
DEFPOINTS
 62
     0
 10
2055.2977000000001
 20
1566.5596893412319
 30
0.0
  0
ENDBLK
  5
7E27
  8
0
  0
BLOCK
  8
0
  2
*D14
 70
     1
 10
0.0
 20
0.0
 30
0.0
  3
*D14
  1

  0
LINE
  5
7F03
  8
3
 62
     0
 10
2736.6676999999991
 20
1687.0506389999989
 30
0.0
 11
2736.6676999999991
 21
1540.775661983047
 31
0.0
  0
LINE
  5
7F04
  8
3
 62
     0
 10
2960.6677
 20
1687.0506389999989
 30
0.0
 11
2960.6677
 21
1540.775661983047
 31
0.0
  0
LINE
  5
7F05
  8
3
 62
     0
 10
2776.6677
 20
1560.775661983047
 30
0.0
 11
2920.6677
 21
1560.775661983047
 31
0.0
  0
INSERT
  5
7F06
  8
3
 62
     0
  2
_OPEN
 10
2736.6676999999991
 20
1560.775661983047
 30
0.0
 41
40.0
 42
40.0
 43
40.0
 50
180.0
  0
INSERT
  5
7F07
  8
3
 62
     0
  2
_OPEN
 10
2960.6677
 20
1560.775661983047
 30
0.0
 41
40.0
 42
40.0
 43
40.0
  0
TEXT
  8
3
  40
60
  5
7F30
  62
0
  72
0
  71
0
 10
2728.67
 20
1504.58
 30
0.000000
  1
224
  0
POINT
  5
7F09
  8
DEFPOINTS
 62
     0
 10
2736.6676999999991
 20
1697.050639
 30
0.0
  0
POINT
  5
7F0A
  8
DEFPOINTS
 62
     0
 10
2960.6677
 20
1697.050639
 30
0.0
  0
POINT
  5
7F0B
  8
DEFPOINTS
 62
     0
 10
2960.6677
 20
1560.775661983047
 30
0.0
  0
ENDBLK
  5
7E45
  8
0
  0
BLOCK
  8
0
  2
*D15
 70
     1
 10
0.0
 20
0.0
 30
0.0
  3
*D15
  1

  0
LINE
  5
7F0C
  8
3
 62
     0
 10
2960.6677
 20
1687.0506389999989
 30
0.0
 11
2960.6677
 21
1540.775661983047
 31
0.0
  0
LINE
  5
7F0D
  8
3
 62
     0
 10
3184.6677
 20
1687.0506389999989
 30
0.0
 11
3184.6677
 21
1540.775661983047
 31
0.0
  0
LINE
  5
7F0E
  8
3
 62
     0
 10
3000.6677
 20
1560.775661983047
 30
0.0
 11
3144.6677
 21
1560.775661983047
 31
0.0
  0
INSERT
  5
7F0F
  8
3
 62
     0
  2
_OPEN
 10
2960.6677
 20
1560.775661983047
 30
0.0
 41
40.0
 42
40.0
 43
40.0
 50
180.0
  0
INSERT
  5
7F10
  8
3
 62
     0
  2
_OPEN
 10
3184.6677
 20
1560.775661983047
 30
0.0
 41
40.0
 42
40.0
 43
40.0
  0
TEXT
  8
3
  40
60
  5
7F31
  62
0
  72
0
  71
0
 10
2952.67
 20
1504.58
 30
0.000000
  1
224
  0
POINT
  5
7F12
  8
DEFPOINTS
 62
     0
 10
2960.6677
 20
1697.050639
 30
0.0
  0
POINT
  5
7F13
  8
DEFPOINTS
 62
     0
 10
3184.6677
 20
1697.050639
 30
0.0
  0
POINT
  5
7F14
  8
DEFPOINTS
 62
     0
 10
3184.6677
 20
1560.775661983047
 30
0.0
  0
ENDBLK
  5
7E54
  8
0
  0
BLOCK
  8
0
  2
_DOT
 70
     0
 10
0.0
 20
0.0
 30
0.0
  3
_DOT
  1

  0
POLYLINE
  5
7E58
  8
0
  6
BYBLOCK
 62
     0
 66
     1
 10
0.0
 20
0.0
 30
0.0
 70
     1
 40
0.5
 41
0.5
  0
VERTEX
  5
7F15
  8
0
  6
BYBLOCK
 62
     0
 10
-0.25
 20
0.0
 30
0.0
 42
1.0
  0
VERTEX
  5
7F16
  8
0
  6
BYBLOCK
 62
     0
 10
0.25
 20
0.0
 30
0.0
 42
1.0
  0
SEQEND
  5
7F17
  8
0
  6
BYBLOCK
 62
     0
  0
LINE
  5
7E5C
  8
0
  6
BYBLOCK
 62
     0
 10
-0.5
 20
0.0
 30
0.0
 11
-1.0
 21
0.0
 31
0.0
  0
ENDBLK
  5
7E5D
  8
0
  0
BLOCK
  8
0
  2
*D17
 70
     1
 10
0.0
 20
0.0
 30
0.0
  3
*D17
  1

  0
LINE
  5
7F18
  8
3
 62
     0
 10
2065.2976999999992
 20
1762.0506389999989
 30
0.0
 11
2271.325477185615
 21
1762.0506389999989
 31
0.0
  0
LINE
  5
7F19
  8
3
 62
     0
 10
2065.2976999999992
 20
1697.050639
 30
0.0
 11
2271.325477185615
 21
1697.050639
 31
0.0
  0
LINE
  5
7F1A
  8
3
 62
     0
 10
2251.325477185615
 20
1802.050639
 30
0.0
 11
2251.325477185615
 21
1842.0506389999989
 31
0.0
  0
LINE
  5
7F1B
  8
3
 62
     0
 10
2251.325477185615
 20
1657.050639
 30
0.0
 11
2251.325477185615
 21
1479.9077818571429
 31
0.0
  0
LINE
  5
7F1C
  8
3
 62
     0
 10
2251.325477185615
 20
1762.0506389999989
 30
0.0
 11
2251.325477185615
 21
1697.050639
 31
0.0
  0
INSERT
  5
7F1D
  8
3
 62
     0
  2
_DOT
 10
2251.325477185615
 20
1762.0506389999989
 30
0.0
 41
40.0
 42
40.0
 43
40.0
 50
270.0
  0
INSERT
  5
7F1E
  8
3
 62
     0
  2
_OPEN
 10
2251.325477185615
 20
1697.050639
 30
0.0
 41
40.0
 42
40.0
 43
40.0
 50
90.0
  0
TEXT
  8
3
  40
60
  5
7F32
  62
0
  72
0
  71
0
 10
2081.33
 20
1442.28
 30
0.000000
  1
65
  0
POINT
  5
7F20
  8
DEFPOINTS
 62
     0
 10
2055.2977000000001
 20
1762.0506389999989
 30
0.0
  0
POINT
  5
7F21
  8
DEFPOINTS
 62
     0
 10
2055.2977000000001
 20
1697.050639
 30
0.0
  0
POINT
  5
7F22
  8
DEFPOINTS
 62
     0
 10
2251.325477185615
 20
1697.050639
 30
0.0
  0
ENDBLK
  5
7E6B
  8
0
  0
BLOCK
  8
0
  2
*D18
 70
     1
 10
0.0
 20
0.0
 30
0.0
  3
*D18
  1

  0
LINE
  5
7E6F
  8
0
  6
BYBLOCK
 62
     0
 10
2065.2976999999992
 20
1762.0506389999989
 30
0.0
 11
2271.325477185615
 21
1762.0506389999989
 31
0.0
  0
LINE
  5
7E70
  8
0
  6
BYBLOCK
 62
     0
 10
2065.2976999999992
 20
1857.050639
 30
0.0
 11
2271.325477185615
 21
1857.050639
 31
0.0
  0
LINE
  5
7E71
  8
0
  6
BYBLOCK
 62
     0
 10
2251.325477185615
 20
1722.050639
 30
0.0
 11
2251.325477185615
 21
1682.050639
 31
0.0
  0
LINE
  5
7E72
  8
0
  6
BYBLOCK
 62
     0
 10
2251.325477185615
 20
1897.050639
 30
0.0
 11
2251.325477185615
 21
1937.0506389999989
 31
0.0
  0
TEXT
  5
7E73
  8
3
 62
     0
 10
2367.0397628999008
 20
1722.4077818571429
 30
0.0
 40
60.0
  1
(95)
 50
90.0
  0
LINE
  5
7E74
  8
0
  6
BYBLOCK
 62
     0
 10
2251.325477185615
 20
1762.0506389999989
 30
0.0
 11
2251.325477185615
 21
1857.050639
 31
0.0
  0
INSERT
  5
7E75
  8
0
  6
BYBLOCK
 62
     0
  2
_DOT
 10
2251.325477185615
 20
1762.0506389999989
 30
0.0
 41
40.0
 42
40.0
 43
40.0
 50
90.0
  0
INSERT
  5
7E76
  8
0
  6
BYBLOCK
 62
     0
  2
_OPEN
 10
2251.325477185615
 20
1857.050639
 30
0.0
 41
40.0
 42
40.0
 43
40.0
 50
270.0
  0
POINT
  5
7E77
  8
DEFPOINTS
  6
BYBLOCK
 62
     0
 10
2055.2977000000001
 20
1762.0506389999989
 30
0.0
  0
POINT
  5
7E78
  8
DEFPOINTS
  6
BYBLOCK
 62
     0
 10
2055.2977000000001
 20
1857.050639
 30
0.0
  0
POINT
  5
7E79
  8
DEFPOINTS
  6
BYBLOCK
 62
     0
 10
2251.325477185615
 20
1857.050639
 30
0.0
  0
ENDBLK
  5
7E7A
  8
0
  0
ENDSEC
  0
SECTION
  2
ENTITIES
  0
LINE
  5
7A71
  8
1
  6
CONTINUOUS
 10
2590.6677
 20
2682.050639
 30
0.0
 11
2710.6677
 21
2682.050639
 31
0.0
  0
LINE
  5
7A72
  8
1
  6
CONTINUOUS
 10
2710.6677
 20
1937.0506389999989
 30
0.0
 11
2590.6677
 21
1937.0506389999989
 31
0.0
  0
ARC
  5
7A75
  8
1
  6
CONTINUOUS
 10
1724.834282
 20
2370.1302679999999
 30
0.0
 40
431.17249299999992
 50
183.12053399999999
 51
274.7365549999999
  0
LINE
  5
7A76
  8
1
  6
CONTINUOUS
 10
1773.2977000000001
 20
2677.050639
 30
0.0
 11
1293.3677
 21
2677.050639
 31
0.0
  0
LINE
  5
7A77
  8
1
  6
CONTINUOUS
 10
935.29769999999985
 20
1937.0506389999989
 30
0.0
 11
2110.2977000000001
 21
1937.0506389999989
 31
0.0
  0
LINE
  5
7A78
  8
1
  6
CONTINUOUS
 10
935.29769999999985
 20
1857.050639
 30
0.0
 11
2055.2977000000001
 21
1857.050639
 31
0.0
  0
LINE
  5
7A79
  8
1
  6
CONTINUOUS
 10
1790.2976999999989
 20
2702.050639
 30
0.0
 11
1276.2977000000001
 21
2702.050639
 31
0.0
  0
LINE
  5
7A7A
  8
1
  6
CONTINUOUS
 10
935.29769999999996
 20
1697.050639
 30
0.0
 11
2055.2977000000001
 21
1697.050639
 31
0.0
  0
LINE
  5
7A7B
  8
1
  6
CONTINUOUS
 10
935.29769999999996
 20
1762.0506389999989
 30
0.0
 11
2055.2977000000001
 21
1762.0506389999989
 31
0.0
  0
ARC
  5
7A7C
  8
1
  6
CONTINUOUS
 10
1724.834282
 20
2370.1302679999999
 30
0.0
 40
431.17249299999992
 50
183.12053399999999
 51
274.7365549999999
  0
LINE
  5
7A84
  8
1
  6
CONTINUOUS
 10
1128.8377
 20
2172.900638999999
 30
0.0
 11
1702.3676999999991
 21
2454.7506389999999
 31
0.0
  0
LINE
  5
7A85
  8
1
  6
CONTINUOUS
 10
1171.2777000000001
 20
2061.2206390000001
 30
0.0
 11
1787.247699999999
 21
2231.380639
 31
0.0
  0
ARC
  5
7A86
  8
1
  6
CONTINUOUS
 10
1155.2976999999989
 20
2119.050639
 30
0.0
 40
122.0
 50
324.60000000000002
 51
215.39999999999989
  0
LINE
  5
7A87
  8
1
  6
CONTINUOUS
 10
1025.2977000000001
 20
1987.0506389999989
 30
0.0
 11
1285.2977000000001
 21
1987.0506389999989
 31
0.0
  0
LINE
  5
7A88
  8
1
  6
CONTINUOUS
 10
935.29769999999985
 20
1937.0506389999989
 30
0.0
 11
935.29769999999985
 21
1857.050639
 31
0.0
  0
LINE
  5
7A89
  8
1
  6
CONTINUOUS
 10
935.29769999999996
 20
1762.0506389999989
 30
0.0
 11
935.29769999999996
 21
1697.050639
 31
0.0
  0
LINE
  5
7A8A
  8
1
  6
CONTINUOUS
 10
1025.2977000000001
 20
1987.0506389999989
 30
0.0
 11
1075.2977000000001
 21
1987.0506389999989
 31
0.0
  0
LINE
  5
7A8B
  8
1
  6
CONTINUOUS
 10
1025.2977000000001
 20
1937.0506389999989
 30
0.0
 11
1025.2977000000001
 21
1987.0506389999989
 31
0.0
  0
LINE
  5
7A8C
  8
1
  6
CONTINUOUS
 10
1025.2977000000001
 20
1987.0506389999989
 30
0.0
 11
1055.8577
 21
2048.3706390000002
 31
0.0
  0
LINE
  5
7A8D
  8
1
  6
CONTINUOUS
 10
1285.2977000000001
 20
1987.0506389999989
 30
0.0
 11
1235.2977000000001
 21
1987.0506389999989
 31
0.0
  0
LINE
  5
7A8E
  8
2
  6
CENTER
 10
1155.2976999999989
 20
2059.050639
 30
0.0
 11
1155.2976999999989
 21
2179.050639
 31
0.0
  0
LINE
  5
7A8F
  8
2
  6
CENTER
 10
1215.2977000000001
 20
2119.050639
 30
0.0
 11
1095.2977000000001
 21
2119.050639
 31
0.0
  0
CIRCLE
  5
7A90
  8
1
  6
CONTINUOUS
 10
1155.2976999999989
 20
2119.050639
 30
0.0
 40
60.0
  0
LINE
  5
7A91
  8
1
  6
CONTINUOUS
 10
1285.2977000000001
 20
1987.0506389999989
 30
0.0
 11
1254.737699999999
 21
2048.3706390000002
 31
0.0
  0
LINE
  5
7A92
  8
1
  6
CONTINUOUS
 10
1285.2977000000001
 20
1937.0506389999989
 30
0.0
 11
1285.2977000000001
 21
1987.0506389999989
 31
0.0
  0
LINE
  5
7A93
  8
1
  6
CONTINUOUS
 10
1293.2977000000001
 20
2702.050639
 30
0.0
 11
1294.2977000000001
 21
2346.6606390000002
 31
0.0
  0
CIRCLE
  5
7A94
  8
1
  6
CONTINUOUS
 10
1755.2977000000001
 20
2347.050639
 30
0.0
 40
275.0
  0
LINE
  5
7A95
  8
1
  6
CONTINUOUS
 10
1400.2977000000001
 20
2657.050639
 30
0.0
 11
2110.2977000000001
 21
2657.050639
 31
0.0
  0
ARC
  5
7A96
  8
1
  6
CONTINUOUS
 10
1766.4267090000001
 20
2316.5894960000001
 30
0.0
 40
343.89392400000003
 50
9.976388
 51
88.859720999999993
  0
ARC
  5
7A97
  8
1
  6
CONTINUOUS
 10
1728.2977000000001
 20
2320.050639
 30
0.0
 40
380.98000000000002
 50
274.83999999999992
 51
8.4700000000000006
  0
CIRCLE
  5
7A98
  8
1
  6
CONTINUOUS
 10
1755.2977000000001
 20
2347.050639
 30
0.0
 40
250.0
  0
LINE
  5
7A99
  8
1
  6
CONTINUOUS
 10
1400.2977000000001
 20
2657.050639
 30
0.0
 11
1400.2977000000001
 21
1937.0506389999989
 31
0.0
  0
CIRCLE
  5
7A9A
  8
1
  6
CONTINUOUS
 10
1755.2977000000001
 20
2347.050639
 30
0.0
 40
120.0
  0
LINE
  5
7A9B
  8
2
  6
CENTER
 10
1755.2976999999989
 20
1697.050639
 30
0.0
 11
1755.2977000000001
 21
2925.5902689999998
 31
0.0
  0
LINE
  5
7A9C
  8
2
  6
CENTER
 10
1085.2366862400261
 20
2347.050639
 30
0.0
 11
2224.2304210000002
 21
2347.050639
 31
0.0
  0
LINE
  5
7A9D
  8
1
  6
CONTINUOUS
 10
1773.2977000000001
 20
2660.4206389999999
 30
0.0
 11
1773.2977000000001
 21
2702.050639
 31
0.0
  0
LINE
  5
7A9E
  8
1
  6
CONTINUOUS
 10
2110.2977000000001
 20
2657.050639
 30
0.0
 11
2110.2977000000001
 21
1937.0506389999989
 31
0.0
  0
LINE
  5
7A9F
  8
1
  6
CONTINUOUS
 10
2590.6677
 20
1937.0506389999989
 30
0.0
 11
2590.6677
 21
2682.050639
 31
0.0
  0
LINE
  5
7AA0
  8
1
  6
CONTINUOUS
 10
2055.2977000000001
 20
1937.0506389999989
 30
0.0
 11
2055.2977000000001
 21
1857.050639
 31
0.0
  0
LINE
  5
7AA1
  8
1
  6
CONTINUOUS
 10
2055.2977000000001
 20
1762.0506389999989
 30
0.0
 11
2055.2977000000001
 21
1697.050639
 31
0.0
  0
LINE
  5
7AA2
  8
1
  6
CONTINUOUS
 10
1266.2977000000001
 20
3713.1806390000002
 30
0.0
 11
1800.2977000000001
 21
4077.1806390000002
 31
0.0
  0
LINE
  5
7AA3
  8
1
  6
CONTINUOUS
 10
1800.2977000000001
 20
3713.1806390000002
 30
0.0
 11
1266.2977000000001
 21
4077.1806390000002
 31
0.0
  0
LINE
  5
7AA4
  8
1
  6
CONTINUOUS
 10
1144.2977000000001
 20
3671.1806390000002
 30
0.0
 11
1736.2977000000001
 21
3671.1806390000002
 31
0.0
  0
LINE
  5
7AA5
  8
1
  6
CONTINUOUS
 10
935.29769999999985
 20
4119.1806390000002
 30
0.0
 11
2055.2977000000001
 21
4119.1806390000002
 31
0.0
  0
LINE
  5
7AA6
  8
1
  6
CONTINUOUS
 10
1266.2977000000001
 20
4077.1806390000002
 30
0.0
 11
2110.2977000000001
 21
4077.1806390000002
 31
0.0
  0
LINE
  5
7AA7
  8
1
  6
CONTINUOUS
 10
1266.2977000000001
 20
3713.1806390000002
 30
0.0
 11
2110.2977000000001
 21
3713.1806390000002
 31
0.0
  0
LINE
  5
7AA8
  8
1
  6
CONTINUOUS
 10
980.79769999999985
 20
3525.1806390000002
 30
0.0
 11
1980.7977000000001
 21
3525.1806390000002
 31
0.0
  0
LINE
  5
7AA9
  8
1
  6
CONTINUOUS
 10
1980.7977000000001
 20
3645.1806390000002
 30
0.0
 11
980.79769999999985
 21
3645.1806390000002
 31
0.0
  0
LINE
  5
7AAA
  8
1
  6
CONTINUOUS
 10
935.29769999999985
 20
4119.1806390000002
 30
0.0
 11
935.29769999999985
 21
3671.1806390000002
 31
0.0
  0
LINE
  5
7AAB
  8
1
  6
CONTINUOUS
 10
1003.2977
 20
4045.4206389999999
 30
0.0
 11
1247.2977000000001
 21
4045.4206389999999
 31
0.0
  0
LINE
  5
7AAC
  8
1
  6
CONTINUOUS
 10
1003.2977
 20
3695.4206389999999
 30
0.0
 11
1247.2977000000001
 21
3695.4206389999999
 31
0.0
  0
LINE
  5
7AAD
  8
1
  6
CONTINUOUS
 10
935.29769999999985
 20
3671.1806390000002
 30
0.0
 11
1106.2977000000001
 21
3671.1806390000002
 31
0.0
  0
LINE
  5
7AAE
  8
1
  6
CONTINUOUS
 10
1075.2977000000001
 20
3555.1806390000002
 30
0.0
 11
1175.2977000000001
 21
3555.1806390000002
 31
0.0
  0
LINE
  5
7AAF
  8
1
  6
CONTINUOUS
 10
1175.2977000000001
 20
3615.1806390000002
 30
0.0
 11
1075.2977000000001
 21
3615.1806390000002
 31
0.0
  0
LINE
  5
7AB0
  8
1
  6
CONTINUOUS
 10
1075.2977000000001
 20
3615.1806390000002
 30
0.0
 11
1075.2977000000001
 21
3555.1806390000002
 31
0.0
  0
LINE
  5
7AB1
  8
1
  6
CONTINUOUS
 10
980.79769999999985
 20
3645.1806390000002
 30
0.0
 11
980.79769999999985
 21
3525.1806390000002
 31
0.0
  0
LINE
  5
7AB2
  8
1
  6
CONTINUOUS
 10
1003.2977
 20
3695.4206389999999
 30
0.0
 11
1003.2977
 21
4045.4206389999999
 31
0.0
  0
LINE
  5
7AB3
  8
1
  6
CONTINUOUS
 10
1144.2977000000001
 20
3615.1806390000002
 30
0.0
 11
1144.2977000000001
 21
3695.4206389999999
 31
0.0
  0
LINE
  5
7AB4
  8
1
  6
CONTINUOUS
 10
1106.2977000000001
 20
3615.1806390000002
 30
0.0
 11
1106.2977000000001
 21
3695.4206389999999
 31
0.0
  0
LINE
  5
7AB5
  8
1
  6
CONTINUOUS
 10
1175.2977000000001
 20
3555.1806390000002
 30
0.0
 11
1175.2977000000001
 21
3615.1806390000002
 31
0.0
  0
LINE
  5
7AB6
  8
1
  6
CONTINUOUS
 10
1247.2977000000001
 20
3695.4206389999999
 30
0.0
 11
1247.2977000000001
 21
4045.4206389999999
 31
0.0
  0
LINE
  5
7AB7
  8
1
  6
CONTINUOUS
 10
1266.2977000000001
 20
4077.1806390000002
 30
0.0
 11
1266.2977000000001
 21
3713.1806390000002
 31
0.0
  0
LINE
  5
7AB8
  8
1
  6
CONTINUOUS
 10
1774.2976999999989
 20
3671.1806390000002
 30
0.0
 11
2055.2977000000001
 21
3671.1806390000002
 31
0.0
  0
LINE
  5
7AB9
  8
1
  6
CONTINUOUS
 10
1875.2977000000001
 20
3615.1806390000002
 30
0.0
 11
1635.2977000000001
 21
3615.1806390000002
 31
0.0
  0
LINE
  5
7ABA
  8
1
  6
CONTINUOUS
 10
1635.2977000000001
 20
3555.1806390000002
 30
0.0
 11
1875.2977000000001
 21
3555.1806390000002
 31
0.0
  0
LINE
  5
7ABB
  8
1
  6
CONTINUOUS
 10
1635.2977000000001
 20
3555.1806390000002
 30
0.0
 11
1635.2977000000001
 21
3615.1806390000002
 31
0.0
  0
LINE
  5
7ABC
  8
1
  6
CONTINUOUS
 10
1736.2977000000001
 20
3615.1806390000002
 30
0.0
 11
1736.2977000000001
 21
3713.1806390000002
 31
0.0
  0
LINE
  5
7ABD
  8
1
  6
CONTINUOUS
 10
1774.2976999999989
 20
3615.1806390000002
 30
0.0
 11
1774.2976999999989
 21
3713.1806390000002
 31
0.0
  0
LINE
  5
7ABE
  8
1
  6
CONTINUOUS
 10
1875.2977000000001
 20
3555.1806390000002
 30
0.0
 11
1875.2977000000001
 21
3615.1806390000002
 31
0.0
  0
LINE
  5
7ABF
  8
1
  6
CONTINUOUS
 10
1980.7977000000001
 20
3525.1806390000002
 30
0.0
 11
1980.7977000000001
 21
3645.1806390000002
 31
0.0
  0
LINE
  5
7AC0
  8
1
  6
CONTINUOUS
 10
1800.2977000000001
 20
3713.1806390000002
 30
0.0
 11
1800.2977000000001
 21
4077.1806390000002
 31
0.0
  0
LINE
  5
7AC1
  8
1
  6
CONTINUOUS
 10
2055.2977000000001
 20
4119.1806390000002
 30
0.0
 11
2055.2977000000001
 21
4077.1806390000002
 31
0.0
  0
LINE
  5
7AC2
  8
1
  6
CONTINUOUS
 10
2055.2977000000001
 20
3713.1806390000002
 30
0.0
 11
2055.2977000000001
 21
3671.1806390000002
 31
0.0
  0
LINE
  5
7AC3
  8
1
  6
CONTINUOUS
 10
2110.2977000000001
 20
3713.1806390000002
 30
0.0
 11
2110.2977000000001
 21
4077.1806390000002
 31
0.0
  0
LINE
  5
7AC4
  8
1
  6
CONTINUOUS
 10
2680.6677
 20
2227.050639
 30
0.0
 11
2680.6677
 21
2467.0506389999991
 31
0.0
  0
LINE
  5
7AC5
  8
1
  6
CONTINUOUS
 10
2620.6677
 20
2467.0506389999991
 30
0.0
 11
2620.6677
 21
2227.050639
 31
0.0
  0
LINE
  5
7AC6
  8
1
  6
CONTINUOUS
 10
2780.6677
 20
2702.050639
 30
0.0
 11
2780.6677
 21
1937.0506389999989
 31
0.0
  0
LINE
  5
7AC7
  8
1
  6
CONTINUOUS
 10
3140.6677
 20
2702.050639
 30
0.0
 11
3140.6677
 21
1937.0506389999989
 31
0.0
  0
LINE
  5
7AC8
  8
1
  6
CONTINUOUS
 10
2710.6677
 20
2682.050639
 30
0.0
 11
2710.6677
 21
1937.0506389999989
 31
0.0
  0
LINE
  5
7AC9
  8
1
  6
CONTINUOUS
 10
2736.6676999999991
 20
1937.0506389999989
 30
0.0
 11
3184.6677
 21
1937.0506389999989
 31
0.0
  0
LINE
  5
7ACA
  8
1
  6
CONTINUOUS
 10
2736.6676999999991
 20
1857.050639
 30
0.0
 11
3184.6677
 21
1857.050639
 31
0.0
  0
LINE
  5
7ACB
  8
1
  6
CONTINUOUS
 10
2736.6676999999991
 20
1697.050639
 30
0.0
 11
3184.6677
 21
1697.050639
 31
0.0
  0
LINE
  5
7ACC
  8
1
  6
CONTINUOUS
 10
2736.6676999999991
 20
1762.0506389999989
 30
0.0
 11
3184.6677
 21
1762.0506389999989
 31
0.0
  0
LINE
  5
7ACD
  8
1
  6
CONTINUOUS
 10
2736.6676999999991
 20
1937.0506389999989
 30
0.0
 11
2736.6676999999991
 21
1857.050639
 31
0.0
  0
LINE
  5
7ACE
  8
1
  6
CONTINUOUS
 10
2736.6676999999991
 20
1762.0506389999989
 30
0.0
 11
2736.6676999999991
 21
1697.050639
 31
0.0
  0
LINE
  5
7ACF
  8
1
  6
CONTINUOUS
 10
2680.6677
 20
2100.050639
 30
0.0
 11
2780.6677
 21
2100.050639
 31
0.0
  0
LINE
  5
7AD0
  8
1
  6
CONTINUOUS
 10
2680.6677
 20
2138.050639
 30
0.0
 11
2780.6677
 21
2138.050639
 31
0.0
  0
LINE
  5
7AD1
  8
1
  6
CONTINUOUS
 10
2620.6677
 20
2227.050639
 30
0.0
 11
2680.6677
 21
2227.050639
 31
0.0
  0
LINE
  5
7AD2
  8
1
  6
CONTINUOUS
 10
2620.6677
 20
2069.0506389999991
 30
0.0
 11
2680.6677
 21
2069.0506389999991
 31
0.0
  0
LINE
  5
7AD3
  8
1
  6
CONTINUOUS
 10
2680.6677
 20
2169.0506389999991
 30
0.0
 11
2620.6677
 21
2169.0506389999991
 31
0.0
  0
LINE
  5
7AD4
  8
1
  6
CONTINUOUS
 10
2620.6677
 20
2169.0506389999991
 30
0.0
 11
2620.6677
 21
2069.0506389999991
 31
0.0
  0
LINE
  5
7AD5
  8
1
  6
CONTINUOUS
 10
2680.6677
 20
2069.0506389999991
 30
0.0
 11
2680.6677
 21
2169.0506389999991
 31
0.0
  0
LINE
  5
7AD6
  8
1
  6
CONTINUOUS
 10
3184.6677
 20
1937.0506389999989
 30
0.0
 11
3184.6677
 21
1857.050639
 31
0.0
  0
LINE
  5
7AD7
  8
1
  6
CONTINUOUS
 10
3184.6677
 20
1762.0506389999989
 30
0.0
 11
3184.6677
 21
1697.050639
 31
0.0
  0
LINE
  5
7AD8
  8
1
  6
CONTINUOUS
 10
2780.6677
 20
2677.050639
 30
0.0
 11
3140.6677
 21
2677.050639
 31
0.0
  0
LINE
  5
7AD9
  8
1
  6
CONTINUOUS
 10
3165.6677
 20
2702.050639
 30
0.0
 11
2753.6677
 21
2702.050639
 31
0.0
  0
LINE
  5
7ADA
  8
1
  6
CONTINUOUS
 10
2680.6677
 20
2328.050639
 30
0.0
 11
2780.6677
 21
2328.050639
 31
0.0
  0
LINE
  5
7ADB
  8
1
  6
CONTINUOUS
 10
2680.6677
 20
2366.050639
 30
0.0
 11
2780.6677
 21
2366.050639
 31
0.0
  0
LINE
  5
7ADC
  8
1
  6
CONTINUOUS
 10
2680.6677
 20
2467.0506389999991
 30
0.0
 11
2620.6677
 21
2467.0506389999991
 31
0.0
  0
LINE
  5
7ADD
  8
2
  6
CENTER
 10
2197.4032449999991
 20
3895.1806390000002
 30
0.0
 11
909.32202599999982
 21
3895.1806390000002
 31
0.0
  0
LINE
  5
7ADE
  8
2
  6
CENTER
 10
2960.6677
 20
2765.4184969999992
 30
0.0
 11
2960.6677
 21
1697.050639
 31
0.0
  0
LINE
  5
7ADF
  8
2
  6
CENTER
 10
1755.2977000000001
 20
3429.243485
 30
0.0
 11
1755.2977000000001
 21
4312.7749329999997
 31
0.0
  0
LINE
  5
7AE0
  8
2
  6
CENTER
 10
2531.2335360000002
 20
2347.050639
 30
0.0
 11
3174.3356250000002
 21
2347.050639
 31
0.0
  0
LINE
  5
7AE1
  8
1
  6
CONTINUOUS
 10
1980.7977000000001
 20
1937.0506389999989
 30
0.0
 11
1980.7977000000001
 21
2607.050639
 31
0.0
  0
LINE
  5
7AE2
  8
1
  6
CONTINUOUS
 10
1980.7977000000001
 20
2607.050639
 30
0.0
 11
1740.7977000000001
 21
2682.050639
 31
0.0
  0
LINE
  5
7AE3
  8
1
  6
CONTINUOUS
 10
1740.7977000000001
 20
2682.050639
 30
0.0
 11
980.79769999999985
 21
2172.050639
 31
0.0
  0
LINE
  5
7AE4
  8
1
  6
CONTINUOUS
 10
980.79769999999985
 20
2172.050639
 30
0.0
 11
980.79769999999985
 21
1937.0506389999989
 31
0.0
  0
LINE
  5
7AE5
  8
4
  6
CONTINUOUS
 10
3700.0
 20
1000.0
 30
0.0
 11
3700.0
 21
600.0
 31
0.0
  0
LINE
  5
7AE6
  8
4
  6
CONTINUOUS
 10
2300.0
 20
1000.0
 30
0.0
 11
2300.0
 21
600.0
 31
0.0
  0
LINE
  5
7AE7
  8
4
  6
CONTINUOUS
 10
1300.0
 20
1000.0
 30
0.0
 11
1300.0
 21
600.0
 31
0.0
  0
LINE
  5
7AEA
  8
4
  6
CONTINUOUS
 10
1300.0
 20
600.0
 30
0.0
 11
3700.0
 21
600.0
 31
0.0
  0
LINE
  5
7AEB
  8
4
  6
CONTINUOUS
 10
1300.0
 20
800.0
 30
0.0
 11
3700.0
 21
800.0
 31
0.0
  0
TEXT
  5
7AEC
  8
4
  6
CONTINUOUS
 10
1377.004162
 20
863.086052
 30
0.0
 40
100.0
  1
機器名称
  0
TEXT
  5
7AED
  8
4
  6
CONTINUOUS
 10
1372.516212
 20
643.29031299999986
 30
0.0
 40
100.0
  1
機器型番
  0
TEXT
  5
7AEE
  8
4
  6
CONTINUOUS
 10
2355.3574910000002
 20
845.14353800000015
 30
0.0
 40
100.0
  1
ミツヤ多翼送風機
  0
TEXT
  5
7AEF
  8
4
  6
CONTINUOUS
 10
2373.3089909999999
 20
634.31916899999999
 30
0.0
 40
100.0
  1
MF#3-4
  0
TEXT
  5
7AF1
  8
4
  6
CONTINUOUS
 10
1456.657183999999
 20
4766.8576830000002
 30
0.0
 40
108.0
  1
床置防振ベット
  0
TEXT
  5
7AF2
  8
4
  6
CONTINUOUS
 10
632.33518700000002
 20
5067.7619520000007
 30
0.0
 40
144.0
  1
ベルト駆動式片吸込両持多翼ファン
  0
LINE
  5
7AF3
  8
4
  6
CONTINUOUS
 10
500.0
 20
4938.8175090000004
 30
0.0
 11
3700.0
 21
4938.8175090000004
 31
0.0
  0
LINE
  5
7AF4
  8
4
  6
CONTINUOUS
 10
500.0
 20
5338.8175090000004
 30
0.0
 11
3700.0
 21
5338.8175090000004
 31
0.0
  0
LINE
  5
7AF5
  8
4
  6
CONTINUOUS
 10
1300.0
 20
1000.0
 30
0.0
 11
3700.0
 21
1000.0
 31
0.0
  0
LINE
  5
7AF6
  8
4
  6
CONTINUOUS
 10
500.0
 20
5338.8175090000004
 30
0.0
 11
500.0
 21
4938.8175090000004
 31
0.0
  0
TEXT
  5
7AF7
  8
4
  6
CONTINUOUS
 10
643.75856399999986
 20
4764.6389549999994
 30
0.0
 40
108.0
  1
右回転上向
  0
TEXT
  5
7AF8
  8
4
  6
CONTINUOUS
 10
2937.9391179999998
 20
5412.122163
 30
0.0
 40
112.0
  1
No.
  0
TEXT
  5
7AF9
  8
4
  6
CONTINUOUS
 10
2622.5921250000001
 20
4766.8576830000002
 30
0.0
 40
108.0
  1
縮尺：1/20
  0
LINE
  5
7AFA
  8
4
  6
CONTINUOUS
 10
3700.0
 20
5338.8175090000004
 30
0.0
 11
3700.0
 21
4938.8175090000004
 31
0.0
  0
LINE
  5
7AFC
  8
4
  6
CONTINUOUS
 10
2881.234845
 20
5362.5271659999999
 30
0.0
 11
2881.234845
 21
5573.3045229999998
 31
0.0
  0
LINE
  5
7AFD
  8
4
  6
CONTINUOUS
 10
2881.234845
 20
5573.3045229999998
 30
0.0
 11
3700.0
 21
5573.3045229999998
 31
0.0
  0
LINE
  5
7AFE
  8
4
  6
CONTINUOUS
 10
3700.0
 20
5573.3045229999998
 30
0.0
 11
3700.0
 21
5362.5271659999999
 31
0.0
  0
LINE
  5
7AFF
  8
4
  6
CONTINUOUS
 10
3700.0
 20
5362.5271659999999
 30
0.0
 11
2881.234845
 21
5362.5271659999999
 31
0.0
  0
DIMENSION
  5
7B24
  8
3
  6
CONTINUOUS
  2
*D1
 10
1755.2977000000001
 20
2967.207464999999
 30
0.0
 11
1507.932765999999
 21
2967.207464999999
 31
0.0
 70
   128
 13
1293.2977000000001
 23
2702.050639
 33
0.0
 14
1755.2977000000001
 24
2925.5902689999998
 34
0.0
1001
ACAD
1000
DSTYLE
1002
{
1070
   287
1070
     3
1070
    40
1040
20.0
1070
   143
1040
0.039
1070
   172
1070
     1
1070
   271
1070
     0
1070
   279
1070
     0
1070
   288
1070
     1
1002
}
  0
DIMENSION
  5
7B30
  8
3
  6
CONTINUOUS
  2
*D2
 10
2110.2977000000001
 20
2967.207464999999
 30
0.0
 11
1932.7977000000001
 21
3017.207465
 31
0.0
 70
     0
 13
1755.2977000000001
 23
2925.5902689999998
 33
0.0
 14
2110.2977000000001
 24
2657.050639
 34
0.0
1001
ACAD
1000
DSTYLE
1002
{
1070
   287
1070
     4
1070
    40
1040
20.0
1070
    75
1070
     1
1070
   143
1040
0.039
1070
   172
1070
     1
1070
   271
1070
     0
1070
   279
1070
     1
1070
   288
1070
     1
1002
}
  0
DIMENSION
  5
7B49
  8
3
  6
CONTINUOUS
  2
*D3
 10
2252.1515100000001
 20
1857.050639
 30
0.0
 11
2202.1515099999988
 21
2102.050639
 31
0.0
 70
     0
 13
2224.2304210000002
 23
2347.050639
 33
0.0
 14
2055.2977000000001
 24
1857.050639
 34
0.0
 50
90.0
1001
ACAD
1000
DSTYLE
1002
{
1070
   287
1070
     4
1070
    40
1040
20.0
1070
    75
1070
     1
1070
   143
1040
0.039
1070
   172
1070
     1
1070
   271
1070
     0
1070
   279
1070
     1
1070
   288
1070
     1
1002
}
  0
DIMENSION
  5
7B80
  8
3
  6
CONTINUOUS
  2
*D4
 10
2780.6677
 20
2767.7599438252382
 30
0.0
 11
2951.8789309999988
 21
2767.7599438252382
 31
0.0
 70
   128
 13
3140.6677
 23
2702.050639
 33
0.0
 14
2780.6677
 24
2702.050639
 34
0.0
1001
ACAD
1000
DSTYLE
1002
{
1070
   287
1070
     3
1070
    40
1040
20.0
1070
   143
1040
0.039
1070
   172
1070
     1
1070
   271
1070
     0
1070
   279
1070
     0
1070
   288
1070
     1
1002
}
  0
LINE
  5
7B97
  8
1
  6
CONTINUOUS
 10
3141.6677
 20
2597.050639
 30
0.0
 11
3141.6677
 21
2097.050639
 31
0.0
  0
DIMENSION
  5
7BA6
  8
3
  6
CONTINUOUS
  2
*D5
 10
3279.496967
 20
2097.050639
 30
0.0
 11
3279.496967
 21
2357.882693
 31
0.0
 70
   128
 13
3141.6677
 23
2597.050639
 33
0.0
 14
3141.6677
 24
2097.050639
 34
0.0
 50
90.0
1001
ACAD
1000
DSTYLE
1002
{
1070
   287
1070
     3
1070
     3
1000
φ<>
1070
    40
1040
20.0
1070
   143
1040
0.039
1070
   172
1070
     1
1070
   271
1070
     0
1070
   279
1070
     0
1070
   288
1070
     1
1002
}
  0
DIMENSION
  5
7BB5
  8
3
  6
CONTINUOUS
  2
*D6
 10
2960.6677
 20
2936.4171379999989
 30
0.0
 11
3051.1677
 21
3005.8824240029862
 31
0.0
 70
   128
 13
3141.6677
 23
2597.050639
 33
0.0
 14
2960.6677
 24
2843.482117
 34
0.0
1001
ACAD
1000
DSTYLE
1002
{
1070
   288
1070
     1
1070
   172
1070
     1
1070
    40
1040
20.0
1070
   271
1070
     0
1070
   143
1040
0.039
1002
}
  0
DIMENSION
  5
7BC1
  8
3
  6
CONTINUOUS
  2
*D7
 10
2590.6677
 20
2936.4171379999989
 30
0.0
 11
2775.6677
 21
3036.4171379999998
 31
0.0
 70
     0
  1
MAX\P430
 13
2960.6677
 23
2843.482117
 33
0.0
 14
2590.6677
 24
2682.050639
 34
0.0
1001
ACAD
1000
DSTYLE
1002
{
1070
   287
1070
     4
1070
    40
1040
20.0
1070
    75
1070
     1
1070
   143
1040
0.039
1070
   172
1070
     1
1070
   271
1070
     0
1070
   279
1070
     1
1070
   288
1070
     1
1002
}
  0
DIMENSION
  5
7BEB
  8
3
  6
CONTINUOUS
  2
*D8
 10
2055.2977000000001
 20
4299.5254249999998
 30
0.0
 11
1495.798757
 21
4299.5254249999998
 31
0.0
 70
   128
 13
935.29769999999985
 23
4119.1806390000002
 33
0.0
 14
2055.2977000000001
 24
4119.1806390000002
 34
0.0
1001
ACAD
1000
DSTYLE
1002
{
1070
   287
1070
     3
1070
    40
1040
20.0
1070
   143
1040
0.039
1070
   172
1070
     1
1070
   271
1070
     0
1070
   279
1070
     0
1070
   288
1070
     1
1002
}
  0
DIMENSION
  5
7BF8
  8
3
  6
CONTINUOUS
  2
*D9
 10
791.0438810000004
 20
3671.1806390000002
 30
0.0
 11
791.04388099999994
 21
3896.1168979999989
 31
0.0
 70
   128
 13
935.29769999999985
 23
4119.1806390000002
 33
0.0
 14
935.29769999999985
 24
3671.1806390000002
 34
0.0
 50
90.0
1001
ACAD
1000
DSTYLE
1002
{
1070
   287
1070
     3
1070
    40
1040
20.0
1070
   143
1040
0.039
1070
   172
1070
     1
1070
   271
1070
     0
1070
   279
1070
     0
1070
   288
1070
     1
1002
}
  0
DIMENSION
  5
7C0A
  8
3
  6
CONTINUOUS
  2
*D10
 10
2252.1515100000001
 20
2702.050639
 30
0.0
 11
2202.1515099999988
 21
2524.550639
 31
0.0
 70
     0
 13
2224.2304210000002
 23
2347.050639
 33
0.0
 14
1790.2976999999989
 24
2702.050639
 34
0.0
 50
90.0
1001
ACAD
1000
DSTYLE
1002
{
1070
   287
1070
     4
1070
    40
1040
20.0
1070
    75
1070
     1
1070
   143
1040
0.039
1070
   172
1070
     1
1070
   271
1070
     0
1070
   279
1070
     1
1070
   288
1070
     1
1002
}
  0
DIMENSION
  5
7C3C
  8
3
  6
CONTINUOUS
  2
*D11
 10
1773.2977000000001
 20
2857.4866619999998
 30
0.0
 11
1541.398721
 21
2857.4866619999998
 31
0.0
 70
   128
 13
1293.2977000000001
 23
2702.050639
 33
0.0
 14
1773.2977000000001
 24
2702.050639
 34
0.0
1001
ACAD
1000
DSTYLE
1002
{
1070
   287
1070
     3
1070
    40
1040
20.0
1070
   143
1040
0.039
1070
   172
1070
     1
1070
   271
1070
     0
1070
   279
1070
     0
1070
   288
1070
     1
1002
}
  0
DIMENSION
  5
7E1B
  8
3
  2
*D12
 10
1755.2976999999989
 20
1566.5596893412319
 30
0.0
 11
1345.2977000000001
 21
1616.559689341233
 31
0.0
 70
     0
 13
935.29769999999996
 23
1697.050639
 33
0.0
 14
1755.2976999999989
 24
1697.050639
 34
0.0
1001
ACAD
1000
DSTYLE
1002
{
1070
   287
1070
     3
1070
    40
1040
20.0
1070
   143
1040
0.039
1070
   172
1070
     1
1070
   271
1070
     0
1070
   279
1070
     0
1002
}
  0
DIMENSION
  5
7E28
  8
3
  2
*D13
 10
2055.2977000000001
 20
1566.5596893412319
 30
0.0
 11
1905.2977000000001
 21
1616.559689341233
 31
0.0
 70
     0
 13
1755.2976999999989
 23
1697.050639
 33
0.0
 14
2055.2977000000001
 24
1697.050639
 34
0.0
1001
ACAD
1000
DSTYLE
1002
{
1070
   287
1070
     3
1070
    40
1040
20.0
1070
   143
1040
0.039
1070
   172
1070
     1
1070
   271
1070
     0
1070
   279
1070
     0
1002
}
  0
DIMENSION
  5
7E46
  8
3
  2
*D14
 10
2960.6677
 20
1560.775661983047
 30
0.0
 11
2848.6677
 21
1610.775661983047
 31
0.0
 70
     0
 13
2736.6676999999991
 23
1697.050639
 33
0.0
 14
2960.6677
 24
1697.050639
 34
0.0
1001
ACAD
1000
DSTYLE
1002
{
1070
   287
1070
     3
1070
    40
1040
20.0
1070
   143
1040
0.039
1070
   172
1070
     1
1070
   271
1070
     0
1070
   279
1070
     0
1002
}
  0
DIMENSION
  5
7E55
  8
3
  2
*D15
 10
3184.6677
 20
1560.775661983047
 30
0.0
 11
3072.6677
 21
1610.775661983047
 31
0.0
 70
     0
 13
2960.6677
 23
1697.050639
 33
0.0
 14
3184.6677
 24
1697.050639
 34
0.0
1001
ACAD
1000
DSTYLE
1002
{
1070
   287
1070
     3
1070
    40
1040
20.0
1070
   143
1040
0.039
1070
   172
1070
     1
1070
   271
1070
     0
1070
   279
1070
     0
1002
}
  0
DIMENSION
  5
7E6C
  8
3
  2
*D17
 10
2251.325477185615
 20
1697.050639
 30
0.0
 11
2201.325477185615
 21
1548.4792104285709
 31
0.0
 70
     0
 13
2055.2977000000001
 23
1762.0506389999989
 33
0.0
 14
2055.2977000000001
 24
1697.050639
 34
0.0
 50
90.0
1001
ACAD
1000
DSTYLE
1002
{
1070
   287
1070
     3
1070
    40
1040
20.0
1070
   143
1040
0.039
1070
   172
1070
     1
1070
   271
1070
     0
1070
   279
1070
     0
1070
     6
1000
DOT
1002
}
  0
DIMENSION
  5
7E7B
  8
3
  2
*D18
 10
2251.325477185615
 20
1857.050639
 30
0.0
 11
2347.0397628999008
 21
1809.550639
 31
0.0
 70
     0
 13
2055.2977000000001
 23
1762.0506389999989
 33
0.0
 14
2055.2977000000001
 24
1857.050639
 34
0.0
 50
90.0
1001
ACAD
1000
DSTYLE
1002
{
1070
   172
1070
     1
1070
    40
1040
20.0
1070
     3
1000
(<>)
1070
   271
1070
     0
1070
     6
1000
_DOT
1070
   143
1040
0.039
1002
}
  0
ENDSEC
  0
EOF
