  0
SECTION
  2
HEADER
  9
$ACADVER
  1
AC1009
  9
$INSBASE
 10
0.0
 20
0.0
 30
0.0
  9
$EXTMIN
 10
500.0
 20
600.0
 30
0.0
  9
$EXTMAX
 10
3700.0
 20
5573.3045229999998
 30
0.0
  9
$LIMMIN
 10
0.0
 20
0.0
  9
$LIMMAX
 10
297.0
 20
210.0
  9
$ORTHOMODE
 70
     0
  9
$REGENMODE
 70
     1
  9
$FILLMODE
 70
     0
  9
$QTEXTMODE
 70
     0
  9
$MIRRTEXT
 70
     1
  9
$DRAGMODE
 70
     2
  9
$LTSCALE
 40
100.0
  9
$OSMODE
 70
    37
  9
$ATTMODE
 70
     1
  9
$TEXTSIZE
 40
180.0
  9
$TRACEWID
 40
0.05
  9
$TEXTSTYLE
  7
STANDARD
  9
$CLAYER
  8
3
  9
$CELTYPE
  6
BYLAYER
  9
$CECOLOR
 62
   256
  9
$DIMSCALE
 40
20.0
  9
$DIMASZ
 40
2.0
  9
$DIMEXO
 40
0.5
  9
$DIMDLI
 40
10.0
  9
$DIMRND
 40
0.0
  9
$DIMDLE
 40
0.0
  9
$DIMEXE
 40
1.0
  9
$DIMTP
 40
1.0
  9
$DIMTM
 40
1.0
  9
$DIMTXT
 40
3.0
  9
$DIMCEN
 40
0.0
  9
$DIMTSZ
 40
0.0
  9
$DIMTOL
 70
     0
  9
$DIMLIM
 70
     0
  9
$DIMTIH
 70
     0
  9
$DIMTOH
 70
     0
  9
$DIMSE1
 70
     0
  9
$DIMSE2
 70
     0
  9
$DIMTAD
 70
     1
  9
$DIMZIN
 70
     8
  9
$DIMBLK
  1

  9
$DIMASO
 70
     1
  9
$DIMSHO
 70
     1
  9
$DIMPOST
  1
(<>)
  9
$DIMAPOST
  1

  9
$DIMALT
 70
     0
  9
$DIMALTD
 70
     2
  9
$DIMALTF
 40
0.039
  9
$DIMLFAC
 40
1.0
  9
$DIMTOFL
 70
     1
  9
$DIMTVP
 40
0.0
  9
$DIMTIX
 70
     0
  9
$DIMSOXD
 70
     0
  9
$DIMSAH
 70
     1
  9
$DIMBLK1
  1
DOT
  9
$DIMBLK2
  1
OPEN
  9
$DIMSTYLE
  2
IGA
  9
$DIMCLRD
 70
     0
  9
$DIMCLRE
 70
     0
  9
$DIMCLRT
 70
     0
  9
$DIMTFAC
 40
10.0
  9
$DIMGAP
 40
1.0
  9
$LUNITS
 70
     2
  9
$LUPREC
 70
     3
  9
$SKETCHINC
 40
0.1
  9
$FILLETRAD
 40
50.0
  9
$AUNITS
 70
     0
  9
$AUPREC
 70
     0
  9
$MENU
  1
acad
  9
$ELEVATION
 40
0.0
  9
$PELEVATION
 40
0.0
  9
$THICKNESS
 40
0.0
  9
$LIMCHECK
 70
     0
  9
$BLIPMODE
 70
     0
  9
$CHAMFERA
 40
0.5
  9
$CHAMFERB
 40
0.5
  9
$SKPOLY
 70
     0
  9
$TDCREATE
 40
2450731.4606086798
  9
$TDUPDATE
 40
2454953.7682597218
  9
$TDINDWG
 40
0.0167737731
  9
$TDUSRTIMER
 40
0.0167737731
  9
$USRTIMER
 70
     1
  9
$ANGBASE
 50
0.0
  9
$ANGDIR
 70
     0
  9
$PDMODE
 70
     0
  9
$PDSIZE
 40
0.0
  9
$PLINEWID
 40
0.0
  9
$COORDS
 70
     1
  9
$SPLFRAME
 70
     0
  9
$SPLINETYPE
 70
     6
  9
$SPLINESEGS
 70
     8
  9
$ATTDIA
 70
     0
  9
$ATTREQ
 70
     1
  9
$HANDLING
 70
 10241
  9
$HANDSEED
  5
8035
  9
$SURFTAB1
 70
     6
  9
$SURFTAB2
 70
     6
  9
$SURFTYPE
 70
     6
  9
$SURFU
 70
     6
  9
$SURFV
 70
     6
  9
$UCSNAME
  2

  9
$UCSORG
 10
0.0
 20
0.0
 30
0.0
  9
$UCSXDIR
 10
1.0
 20
0.0
 30
0.0
  9
$UCSYDIR
 10
0.0
 20
1.0
 30
0.0
  9
$PUCSNAME
  2

  9
$PUCSORG
 10
0.0
 20
0.0
 30
0.0
  9
$PUCSXDIR
 10
1.0
 20
0.0
 30
0.0
  9
$PUCSYDIR
 10
0.0
 20
1.0
 30
0.0
  9
$USERI1
 70
     0
  9
$USERI2
 70
     0
  9
$USERI3
 70
     0
  9
$USERI4
 70
     0
  9
$USERI5
 70
     0
  9
$USERR1
 40
0.0
  9
$USERR2
 40
0.0
  9
$USERR3
 40
0.0
  9
$USERR4
 40
0.0
  9
$USERR5
 40
0.0
  9
$WORLDVIEW
 70
     1
  9
$SHADEDGE
 70
     3
  9
$SHADEDIF
 70
    70
  9
$TILEMODE
 70
     1
  9
$MAXACTVP
 70
    16
  9
$PLIMCHECK
 70
     0
  9
$PEXTMIN
 10
1.0000000000000000E+020
 20
1.0000000000000000E+020
 30
1.0000000000000000E+020
  9
$PEXTMAX
 10
-1.0000000000000000E+020
 20
-1.0000000000000000E+020
 30
-1.0000000000000000E+020
  9
$PLIMMIN
 10
0.0
 20
0.0
  9
$PLIMMAX
 10
12.0
 20
9.0
  9
$UNITMODE
 70
     0
  9
$VISRETAIN
 70
     0
  9
$PLINEGEN
 70
     0
  9
$PSLTSCALE
 70
     1
  0
ENDSEC
  0
SECTION
  2
TABLES
  0
TABLE
  2
VPORT
 70
     2
  0
VPORT
  2
*ACTIVE
 70
     0
 10
0.0
 20
0.0
 11
1.0
 21
1.0
 12
6292.1124769529506
 22
3086.6374998146398
 13
0.0
 23
0.0
 14
10.0
 24
10.0
 15
10.0
 25
10.0
 16
0.0
 26
0.0
 36
1.0
 17
0.0
 27
0.0
 37
0.0
 40
5011.4968576296578
 41
3.1666666666666661
 42
50.0
 43
0.0
 44
0.0
 50
0.0
 51
0.0
 71
     0
 72
   100
 73
     1
 74
     0
 75
     0
 76
     0
 77
     0
 78
     0
  0
ENDTAB
  0
TABLE
  2
LTYPE
 70
     2
  0
LTYPE
  2
CONTINUOUS
 70
     0
  3
Solid line
 72
    65
 73
     0
 40
0.0
  0
LTYPE
  2
CENTER
 70
     0
  3
____ _ ____ _ ____ _ ____ _ ____ _ ____ _ ____ 
 72
    65
 73
     4
 40
2.0
 49
1.25
 49
-0.25
 49
0.25
 49
-0.25
  0
ENDTAB
  0
TABLE
  2
LAYER
 70
     6
  0
LAYER
  2
0
 70
     0
 62
     7
  6
CONTINUOUS
  0
LAYER
  2
3
 70
     0
 62
     2
  6
CONTINUOUS
  0
LAYER
  2
2
 70
     0
 62
     3
  6
CENTER
  0
LAYER
  2
1
 70
     0
 62
     4
  6
CONTINUOUS
  0
LAYER
  2
4
 70
     0
 62
     7
  6
CONTINUOUS
  0
LAYER
  2
DEFPOINTS
 70
     0
 62
     7
  6
CONTINUOUS
  0
ENDTAB
  0
TABLE
  2
STYLE
 70
     1
  0
STYLE
  2
STANDARD
 70
     0
 40
0.0
 41
1.0
 50
0.0
 71
     0
 42
180.0
  3
simplex.shx
  4
extfont.shx
  0
ENDTAB
  0
TABLE
  2
VIEW
 70
     0
  0
ENDTAB
  0
TABLE
  2
UCS
 70
     0
  0
ENDTAB
  0
TABLE
  2
APPID
 70
     1
  0
APPID
  2
ACAD
 70
     0
  0
ENDTAB
  0
TABLE
  2
DIMSTYLE
 70
     1
  0
DIMSTYLE
  2
IGA
 70
     0
  3

  4

  5

  6
OPEN
  7
OPEN
 40
2.0
 41
2.0
 42
0.5
 43
10.0
 44
1.0
 45
0.0
 46
0.0
 47
1.0
 48
1.0
140
3.0
141
0.0
142
0.0
143
0.03937
144
1.0
145
0.0
146
10.0
147
1.0
 71
     0
 72
     0
 73
     0
 74
     0
 75
     0
 76
     0
 77
     1
 78
     8
170
     0
171
     2
172
     0
173
     1
174
     0
175
     0
176
     0
177
     0
178
     0
  0
ENDTAB
  0
ENDSEC
  0
SECTION
  2
BLOCKS
  0
BLOCK
  8
0
  2
$MODEL_SPACE
 70
     0
 10
0.0
 20
0.0
 30
0.0
  3
$MODEL_SPACE
  1

  0
ENDBLK
  5
1B
  8
0
  0
BLOCK
 67
     1
  8
0
  2
$PAPER_SPACE
 70
     0
 10
0.0
 20
0.0
 30
0.0
  3
$PAPER_SPACE
  1

  0
ENDBLK
  5
18
 67
     1
  8
0
  0
BLOCK
  8
0
  2
_OPEN
 70
     0
 10
0.0
 20
0.0
 30
0.0
  3
_OPEN
  1

  0
LINE
  5
7BA0
  8
0
  6
BYBLOCK
 62
     0
 10
-1.0
 20
0.166667
 30
0.0
 11
0.0
 21
0.0
 31
0.0
  0
LINE
  5
7BA1
  8
0
  6
BYBLOCK
 62
     0
 10
0.0
 20
0.0
 30
0.0
 11
-1.0
 21
-0.166667
 31
0.0
  0
LINE
  5
7BA2
  8
0
  6
BYBLOCK
 62
     0
 10
0.0
 20
0.0
 30
0.0
 11
-1.0
 21
0.0
 31
0.0
  0
ENDBLK
  5
7BA3
  8
0
  0
BLOCK
  8
0
  2
*D1
 70
     1
 10
0.0
 20
0.0
 30
0.0
  3
*D1
  1

  0
LINE
  5
7F9C
  8
3
  6
CONTINUOUS
 62
     0
 10
1747.644340999999
 20
2608.166369
 30
0.0
 11
1747.644340999999
 21
2755.700855
 31
0.0
  0
LINE
  5
7F9D
  8
3
  6
CONTINUOUS
 62
     0
 10
1267.6443409999999
 20
2608.166369
 30
0.0
 11
1267.6443409999999
 21
2755.700855
 31
0.0
  0
LINE
  5
7F9E
  8
3
  6
CONTINUOUS
 62
     0
 10
1707.644340999999
 20
2735.700855
 30
0.0
 11
1307.6443409999999
 21
2735.700855
 31
0.0
  0
INSERT
  5
7F9F
  8
3
  6
CONTINUOUS
 62
     0
  2
_OPEN
 10
1747.644340999999
 20
2735.700855
 30
0.0
 41
40.0
 42
40.0
 43
40.0
  0
INSERT
  5
7FA0
  8
3
  6
CONTINUOUS
 62
     0
  2
_OPEN
 10
1267.6443409999999
 20
2735.700855
 30
0.0
 41
40.0
 42
40.0
 43
40.0
 50
180.0
  0
TEXT
  8
3
  40
60
  5
8025
  62
0
  72
0
  71
0
 10
1388.31
 20
2679.50
 30
0.000000
  1
480
  0
POINT
  5
7FA2
  8
DEFPOINTS
  6
CONTINUOUS
 62
     0
 10
1747.644340999999
 20
2598.166369
 30
0.0
  0
POINT
  5
7FA3
  8
DEFPOINTS
  6
CONTINUOUS
 62
     0
 10
1267.6443409999999
 20
2598.166369
 30
0.0
  0
POINT
  5
7FA4
  8
DEFPOINTS
  6
CONTINUOUS
 62
     0
 10
1267.6443409999999
 20
2735.700855
 30
0.0
  0
ENDBLK
  5
7D8D
  8
0
  0
BLOCK
  8
0
  2
*D2
 70
     1
 10
0.0
 20
0.0
 30
0.0
  3
*D2
  1

  0
LINE
  5
7FA5
  8
3
  6
CONTINUOUS
 62
     0
 10
1747.644340999999
 20
2608.166369
 30
0.0
 11
1747.644340999999
 21
2863.4582599999999
 31
0.0
  0
LINE
  5
7FA6
  8
3
  6
CONTINUOUS
 62
     0
 10
1285.6443409999999
 20
2776.3226300000001
 30
0.0
 11
1285.6443409999999
 21
2863.4582599999999
 31
0.0
  0
LINE
  5
7FA7
  8
3
  6
CONTINUOUS
 62
     0
 10
1707.644340999999
 20
2843.4582599999999
 30
0.0
 11
1325.6443409999999
 21
2843.4582599999999
 31
0.0
  0
INSERT
  5
7FA8
  8
3
  6
CONTINUOUS
 62
     0
  2
_OPEN
 10
1747.644340999999
 20
2843.4582599999999
 30
0.0
 41
40.0
 42
40.0
 43
40.0
  0
INSERT
  5
7FA9
  8
3
  6
CONTINUOUS
 62
     0
  2
_OPEN
 10
1285.6443409999999
 20
2843.4582599999999
 30
0.0
 41
40.0
 42
40.0
 43
40.0
 50
180.0
  0
TEXT
  8
3
  40
60
  5
8026
  62
0
  72
0
  71
0
 10
1380.01
 20
2787.26
 30
0.000000
  1
462
  0
POINT
  5
7FAB
  8
DEFPOINTS
  6
CONTINUOUS
 62
     0
 10
1747.644340999999
 20
2598.166369
 30
0.0
  0
POINT
  5
7FAC
  8
DEFPOINTS
  6
CONTINUOUS
 62
     0
 10
1285.6443409999999
 20
2766.3226300000001
 30
0.0
  0
POINT
  5
7FAD
  8
DEFPOINTS
  6
CONTINUOUS
 62
     0
 10
1285.6443409999999
 20
2843.4582599999999
 30
0.0
  0
ENDBLK
  5
7D82
  8
0
  0
BLOCK
  8
0
  2
*D3
 70
     1
 10
0.0
 20
0.0
 30
0.0
  3
*D3
  1

  0
LINE
  5
7FAE
  8
3
  6
CONTINUOUS
 62
     0
 10
930.64434099999994
 20
2563.166369
 30
0.0
 11
930.64434099999994
 21
2863.4582599999999
 31
0.0
  0
LINE
  5
7FAF
  8
3
  6
CONTINUOUS
 62
     0
 10
1245.6443409999999
 20
2843.4582599999999
 30
0.0
 11
970.64434100000005
 21
2843.4582599999999
 31
0.0
  0
INSERT
  5
7FB0
  8
3
  6
CONTINUOUS
 62
     0
  2
_OPEN
 10
1285.6443409999999
 20
2843.4582599999999
 30
0.0
 41
40.0
 42
40.0
 43
40.0
  0
INSERT
  5
7FB1
  8
3
  6
CONTINUOUS
 62
     0
  2
_OPEN
 10
930.64434099999994
 20
2843.4582599999999
 30
0.0
 41
40.0
 42
40.0
 43
40.0
 50
180.0
  0
TEXT
  8
3
  40
60
  5
8027
  62
0
  72
0
  71
0
 10
988.144
 20
2787.26
 30
0.000000
  1
355
  0
POINT
  5
7FB3
  8
DEFPOINTS
  6
CONTINUOUS
 62
     0
 10
1285.6443409999999
 20
2766.3226300000001
 30
0.0
  0
POINT
  5
7FB4
  8
DEFPOINTS
  6
CONTINUOUS
 62
     0
 10
930.64434099999994
 20
2553.166369
 30
0.0
  0
POINT
  5
7FB5
  8
DEFPOINTS
  6
CONTINUOUS
 62
     0
 10
930.64434099999994
 20
2843.4582599999999
 30
0.0
  0
ENDBLK
  5
7D97
  8
0
  0
BLOCK
  8
0
  2
*D4
 70
     1
 10
0.0
 20
0.0
 30
0.0
  3
*D4
  1

  0
LINE
  5
7FB6
  8
3
  6
CONTINUOUS
 62
     0
 10
1240.6443409999999
 20
2598.166369
 30
0.0
 11
775.96711600000049
 21
2598.166369
 31
0.0
  0
LINE
  5
7FB7
  8
3
  6
CONTINUOUS
 62
     0
 10
809.70977693841996
 20
2243.166369
 30
0.0
 11
775.96711600000037
 21
2243.166369
 31
0.0
  0
LINE
  5
7FB8
  8
3
  6
CONTINUOUS
 62
     0
 10
795.96711600000049
 20
2558.166369
 30
0.0
 11
795.96711600000026
 21
2283.1663689999991
 31
0.0
  0
INSERT
  5
7FB9
  8
3
  6
CONTINUOUS
 62
     0
  2
_OPEN
 10
795.96711600000049
 20
2598.166369
 30
0.0
 41
40.0
 42
40.0
 43
40.0
 50
90.0
  0
INSERT
  5
7FBA
  8
3
  6
CONTINUOUS
 62
     0
  2
_OPEN
 10
795.96711600000026
 20
2243.166369
 30
0.0
 41
40.0
 42
40.0
 43
40.0
 50
270.0
  0
TEXT
  8
3
  40
60
  5
8028
  62
0
  72
0
  71
0
 10
625.967
 20
2274.11
 30
0.000000
  1
355
  0
POINT
  5
7FBC
  8
DEFPOINTS
  6
CONTINUOUS
 62
     0
 10
1250.6443409999999
 20
2598.166369
 30
0.0
  0
POINT
  5
7FBD
  8
DEFPOINTS
  6
CONTINUOUS
 62
     0
 10
819.70977693841996
 20
2243.166369
 30
0.0
  0
POINT
  5
7FBE
  8
DEFPOINTS
  6
CONTINUOUS
 62
     0
 10
795.96711600000026
 20
2243.166369
 30
0.0
  0
ENDBLK
  5
7EC7
  8
0
  0
BLOCK
  8
0
  2
*D5
 70
     1
 10
0.0
 20
0.0
 30
0.0
  3
*D5
  1

  0
LINE
  5
7FBF
  8
3
  6
CONTINUOUS
 62
     0
 10
975.64434100000005
 20
1753.166369
 30
0.0
 11
775.96711600000003
 21
1753.166369
 31
0.0
  0
LINE
  5
7FC0
  8
3
  6
CONTINUOUS
 62
     0
 10
795.96711600000015
 20
2203.166369
 30
0.0
 11
795.96711600000015
 21
1793.166369
 31
0.0
  0
INSERT
  5
7FC1
  8
3
  6
CONTINUOUS
 62
     0
  2
_OPEN
 10
795.96711600000015
 20
2243.166369
 30
0.0
 41
40.0
 42
40.0
 43
40.0
 50
90.0
  0
INSERT
  5
7FC2
  8
3
  6
CONTINUOUS
 62
     0
  2
_OPEN
 10
795.96711600000003
 20
1753.166369
 30
0.0
 41
40.0
 42
40.0
 43
40.0
 50
270.0
  0
TEXT
  8
3
  40
60
  5
8029
  62
0
  72
0
  71
0
 10
625.967
 20
1891.97
 30
0.000000
  1
490
  0
POINT
  5
7FC4
  8
DEFPOINTS
  6
CONTINUOUS
 62
     0
 10
823.12783385779755
 20
2243.166369
 30
0.0
  0
POINT
  5
7FC5
  8
DEFPOINTS
  6
CONTINUOUS
 62
     0
 10
985.64434100000005
 20
1753.166369
 30
0.0
  0
POINT
  5
7FC6
  8
DEFPOINTS
  6
CONTINUOUS
 62
     0
 10
795.96711600000003
 20
1753.166369
 30
0.0
  0
ENDBLK
  5
7ED1
  8
0
  0
BLOCK
  8
0
  2
*D6
 70
     1
 10
0.0
 20
0.0
 30
0.0
  3
*D6
  1

  0
LINE
  5
7FC7
  8
3
  6
CONTINUOUS
 62
     0
 10
3457.1023416851222
 20
2608.166369
 30
0.0
 11
3457.1023416851222
 21
2692.963377
 31
0.0
  0
LINE
  5
7FC8
  8
3
  6
CONTINUOUS
 62
     0
 10
3097.1023416851222
 20
2608.166369
 30
0.0
 11
3097.1023416851222
 21
2692.963377
 31
0.0
  0
LINE
  5
7FC9
  8
3
  6
CONTINUOUS
 62
     0
 10
3417.1023416851222
 20
2672.963377
 30
0.0
 11
3137.1023416851222
 21
2672.963377
 31
0.0
  0
INSERT
  5
7FCA
  8
3
  6
CONTINUOUS
 62
     0
  2
_OPEN
 10
3457.1023416851222
 20
2672.963377
 30
0.0
 41
40.0
 42
40.0
 43
40.0
  0
INSERT
  5
7FCB
  8
3
  6
CONTINUOUS
 62
     0
  2
_OPEN
 10
3097.1023416851222
 20
2672.963377
 30
0.0
 41
40.0
 42
40.0
 43
40.0
 50
180.0
  0
TEXT
  8
3
  40
60
  5
802A
  62
0
  72
0
  71
0
 10
3140.63
 20
2616.76
 30
0.000000
  1
360
  0
POINT
  5
7FCD
  8
DEFPOINTS
  6
CONTINUOUS
 62
     0
 10
3457.1023416851222
 20
2598.166369
 30
0.0
  0
POINT
  5
7FCE
  8
DEFPOINTS
  6
CONTINUOUS
 62
     0
 10
3097.1023416851222
 20
2598.166369
 30
0.0
  0
POINT
  5
7FCF
  8
DEFPOINTS
  6
CONTINUOUS
 62
     0
 10
3097.1023416851222
 20
2672.963377
 30
0.0
  0
ENDBLK
  5
7CC7
  8
0
  0
BLOCK
  8
0
  2
*D7
 70
     1
 10
0.0
 20
0.0
 30
0.0
  3
*D7
  1

  0
LINE
  5
7FD0
  8
3
  6
CONTINUOUS
 62
     0
 10
3468.1023416851222
 20
2493.166369
 30
0.0
 11
3664.0778596851219
 21
2493.166369
 31
0.0
  0
LINE
  5
7FD1
  8
3
  6
CONTINUOUS
 62
     0
 10
3468.1023416851222
 20
1993.166369
 30
0.0
 11
3664.0778596851219
 21
1993.1663689999989
 31
0.0
  0
LINE
  5
7FD2
  8
3
  6
CONTINUOUS
 62
     0
 10
3644.0778596851228
 20
2453.166369
 30
0.0
 11
3644.0778596851228
 21
2033.1663689999989
 31
0.0
  0
INSERT
  5
7FD3
  8
3
  6
CONTINUOUS
 62
     0
  2
_OPEN
 10
3644.0778596851228
 20
2493.166369
 30
0.0
 41
40.0
 42
40.0
 43
40.0
 50
90.0
  0
INSERT
  5
7FD4
  8
3
  6
CONTINUOUS
 62
     0
  2
_OPEN
 10
3644.0778596851228
 20
1993.1663689999989
 30
0.0
 41
40.0
 42
40.0
 43
40.0
 50
270.0
  0
TEXT
  8
3
  40
60
  5
802B
  62
0
  72
0
  71
0
 10
3474.08
 20
2135.73
 30
0.000000
  1
φ500
  0
POINT
  5
7FD6
  8
DEFPOINTS
  6
CONTINUOUS
 62
     0
 10
3458.1023416851222
 20
2493.166369
 30
0.0
  0
POINT
  5
7FD7
  8
DEFPOINTS
  6
CONTINUOUS
 62
     0
 10
3458.1023416851222
 20
1993.166369
 30
0.0
  0
POINT
  5
7FD8
  8
DEFPOINTS
  6
CONTINUOUS
 62
     0
 10
3644.0778596851228
 20
1993.1663689999989
 30
0.0
  0
ENDBLK
  5
7E82
  8
0
  0
BLOCK
  8
0
  2
*D8
 70
     1
 10
0.0
 20
0.0
 30
0.0
  3
*D8
  1

  0
LINE
  5
7E6E
  8
0
  6
BYBLOCK
 62
     0
 10
3458.1023416851222
 20
2503.166369
 30
0.0
 11
3458.1023416851222
 21
2813.1543390000002
 31
0.0
  0
LINE
  5
7E6F
  8
0
  6
BYBLOCK
 62
     0
 10
3277.1023416851222
 20
2780.213891508934
 30
0.0
 11
3277.1023416851222
 21
2813.1543390000002
 31
0.0
  0
LINE
  5
7E70
  8
0
  6
BYBLOCK
 62
     0
 10
3418.1023416851222
 20
2793.1543390000002
 30
0.0
 11
3317.1023416851222
 21
2793.1543390000002
 31
0.0
  0
TEXT
  5
7E71
  8
3
 62
     0
 10
3309.0309131136942
 20
2813.7118114123182
 30
0.0
 40
60.0
  1
181
  0
INSERT
  5
7E72
  8
0
  6
BYBLOCK
 62
     0
  2
_OPEN
 10
3458.1023416851222
 20
2793.1543390000002
 30
0.0
 41
40.0
 42
40.0
 43
40.0
  0
INSERT
  5
7E73
  8
0
  6
BYBLOCK
 62
     0
  2
_OPEN
 10
3277.1023416851222
 20
2793.1543390000002
 30
0.0
 41
40.0
 42
40.0
 43
40.0
 50
180.0
  0
POINT
  5
7E74
  8
DEFPOINTS
  6
BYBLOCK
 62
     0
 10
3458.1023416851222
 20
2493.166369
 30
0.0
  0
POINT
  5
7E75
  8
DEFPOINTS
  6
BYBLOCK
 62
     0
 10
3277.1023416851222
 20
2770.213891508934
 30
0.0
  0
POINT
  5
7E76
  8
DEFPOINTS
  6
BYBLOCK
 62
     0
 10
3277.1023416851222
 20
2793.1543390000002
 30
0.0
  0
ENDBLK
  5
7E77
  8
0
  0
BLOCK
  8
0
  2
*D9
 70
     1
 10
0.0
 20
0.0
 30
0.0
  3
*D9
  1

  0
LINE
  5
7FD9
  8
3
  6
CONTINUOUS
 62
     0
 10
2907.1023416851222
 20
2588.166369
 30
0.0
 11
2907.1023416851222
 21
2813.1543390000002
 31
0.0
  0
LINE
  5
7FDA
  8
3
  6
CONTINUOUS
 62
     0
 10
3237.1023416851222
 20
2793.1543390000002
 30
0.0
 11
2947.1023416851222
 21
2793.1543390000002
 31
0.0
  0
INSERT
  5
7FDB
  8
3
  6
CONTINUOUS
 62
     0
  2
_OPEN
 10
3277.1023416851222
 20
2793.1543390000002
 30
0.0
 41
40.0
 42
40.0
 43
40.0
  0
INSERT
  5
7FDC
  8
3
  6
CONTINUOUS
 62
     0
  2
_OPEN
 10
2907.1023416851222
 20
2793.1543390000002
 30
0.0
 41
40.0
 42
40.0
 43
40.0
 50
180.0
  0
TEXT
  8
3
  40
60
  5
802C
  62
0
  72
0
  71
0
 10
2972.10
 20
2786.95
 30
0.000000
  1
MAX
  0
TEXT
  8
3
  40
60
  5
802D
  62
0
  72
0
  71
0
 10
2972.10
 20
2708.95
 30
0.000000
  1
430
  0
POINT
  5
7FDE
  8
DEFPOINTS
  6
CONTINUOUS
 62
     0
 10
3277.1023416851222
 20
2799.8757639999999
 30
0.0
  0
POINT
  5
7FDF
  8
DEFPOINTS
  6
CONTINUOUS
 62
     0
 10
2907.1023416851222
 20
2578.166369
 30
0.0
  0
POINT
  5
7FE0
  8
DEFPOINTS
  6
CONTINUOUS
 62
     0
 10
2907.1023416851222
 20
2793.1543390000002
 30
0.0
  0
ENDBLK
  5
7EAF
  8
0
  0
BLOCK
  8
0
  2
*D10
 70
     1
 10
0.0
 20
0.0
 30
0.0
  3
*D10
  1

  0
LINE
  5
7FE1
  8
3
  6
CONTINUOUS
 62
     0
 10
985.64434100000005
 20
4025.2963689999988
 30
0.0
 11
985.64434100000005
 21
4183.9270120000001
 31
0.0
  0
LINE
  5
7FE2
  8
3
  6
CONTINUOUS
 62
     0
 10
2105.6443410000002
 20
4025.2963689999988
 30
0.0
 11
2105.6443410000002
 21
4183.9270120000001
 31
0.0
  0
LINE
  5
7FE3
  8
3
  6
CONTINUOUS
 62
     0
 10
1025.6443409999999
 20
4163.9270120000001
 30
0.0
 11
2065.6443410000002
 21
4163.9270120000001
 31
0.0
  0
INSERT
  5
7FE4
  8
3
  6
CONTINUOUS
 62
     0
  2
_OPEN
 10
985.64434100000005
 20
4163.9270120000001
 30
0.0
 41
40.0
 42
40.0
 43
40.0
 50
180.0
  0
INSERT
  5
7FE5
  8
3
  6
CONTINUOUS
 62
     0
  2
_OPEN
 10
2105.6443410000002
 20
4163.9270120000001
 30
0.0
 41
40.0
 42
40.0
 43
40.0
  0
TEXT
  8
3
  40
60
  5
802E
  62
0
  72
0
  71
0
 10
1425.65
 20
4107.73
 30
0.000000
  1
1120
  0
POINT
  5
7FE7
  8
DEFPOINTS
  6
CONTINUOUS
 62
     0
 10
985.64434100000005
 20
4015.2963690000001
 30
0.0
  0
POINT
  5
7FE8
  8
DEFPOINTS
  6
CONTINUOUS
 62
     0
 10
2105.6443410000002
 20
4015.2963690000001
 30
0.0
  0
POINT
  5
7FE9
  8
DEFPOINTS
  6
CONTINUOUS
 62
     0
 10
2105.6443410000002
 20
4163.9270120000001
 30
0.0
  0
ENDBLK
  5
7DA2
  8
0
  0
BLOCK
  8
0
  2
*D11
 70
     1
 10
0.0
 20
0.0
 30
0.0
  3
*D11
  1

  0
LINE
  5
7FEA
  8
3
  6
CONTINUOUS
 62
     0
 10
2115.6443410000002
 20
4015.2963690000001
 30
0.0
 11
2324.1011469999999
 21
4015.2963690000001
 31
0.0
  0
LINE
  5
7FEB
  8
3
  6
CONTINUOUS
 62
     0
 10
2115.6443410000002
 20
3567.2963689999988
 30
0.0
 11
2324.1011469999999
 21
3567.2963689999988
 31
0.0
  0
LINE
  5
7FEC
  8
3
  6
CONTINUOUS
 62
     0
 10
2304.1011469999999
 20
3975.2963689999988
 30
0.0
 11
2304.1011469999999
 21
3607.2963689999988
 31
0.0
  0
INSERT
  5
7FED
  8
3
  6
CONTINUOUS
 62
     0
  2
_OPEN
 10
2304.1011469999999
 20
4015.2963690000001
 30
0.0
 41
40.0
 42
40.0
 43
40.0
 50
90.0
  0
INSERT
  5
7FEE
  8
3
  6
CONTINUOUS
 62
     0
  2
_OPEN
 10
2304.1011469999999
 20
3567.2963689999988
 30
0.0
 41
40.0
 42
40.0
 43
40.0
 50
270.0
  0
TEXT
  8
3
  40
60
  5
802F
  62
0
  72
0
  71
0
 10
2134.10
 20
3700.67
 30
0.000000
  1
448
  0
POINT
  5
7FF0
  8
DEFPOINTS
  6
CONTINUOUS
 62
     0
 10
2105.6443410000002
 20
4015.2963690000001
 30
0.0
  0
POINT
  5
7FF1
  8
DEFPOINTS
  6
CONTINUOUS
 62
     0
 10
2105.6443410000002
 20
3567.2963689999988
 30
0.0
  0
POINT
  5
7FF2
  8
DEFPOINTS
  6
CONTINUOUS
 62
     0
 10
2304.1011469999999
 20
3567.2963689999988
 30
0.0
  0
ENDBLK
  5
7DAD
  8
0
  0
BLOCK
  8
0
  2
*D12
 70
     1
 10
0.0
 20
0.0
 30
0.0
  3
*D12
  1

  0
LINE
  5
7FF3
  8
3
 62
     0
 10
985.64434100000017
 20
1583.166369
 30
0.0
 11
985.64434100000017
 21
1447.9421553795671
 31
0.0
  0
LINE
  5
7FF4
  8
3
 62
     0
 10
1285.6443409999999
 20
1583.166369
 30
0.0
 11
1285.6443409999999
 21
1447.9421553795671
 31
0.0
  0
LINE
  5
7FF5
  8
3
 62
     0
 10
1025.6443409999999
 20
1467.9421553795671
 30
0.0
 11
1245.6443409999999
 21
1467.9421553795671
 31
0.0
  0
INSERT
  5
7FF6
  8
3
 62
     0
  2
_OPEN
 10
985.64434100000017
 20
1467.9421553795671
 30
0.0
 41
40.0
 42
40.0
 43
40.0
 50
180.0
  0
INSERT
  5
7FF7
  8
3
 62
     0
  2
_OPEN
 10
1285.6443409999999
 20
1467.9421553795671
 30
0.0
 41
40.0
 42
40.0
 43
40.0
  0
TEXT
  8
3
  40
60
  5
8030
  62
0
  72
0
  71
0
 10
1015.64
 20
1411.74
 30
0.000000
  1
300
  0
POINT
  5
7FF9
  8
DEFPOINTS
 62
     0
 10
985.64434100000017
 20
1593.166369
 30
0.0
  0
POINT
  5
7FFA
  8
DEFPOINTS
 62
     0
 10
1285.6443409999999
 20
1593.166369
 30
0.0
  0
POINT
  5
7FFB
  8
DEFPOINTS
 62
     0
 10
1285.6443409999999
 20
1467.9421553795671
 30
0.0
  0
ENDBLK
  5
7F24
  8
0
  0
BLOCK
  8
0
  2
*D13
 70
     1
 10
0.0
 20
0.0
 30
0.0
  3
*D13
  1

  0
LINE
  5
7FFC
  8
3
 62
     0
 10
1285.6443409999999
 20
1583.166369
 30
0.0
 11
1285.6443409999999
 21
1447.9421553795671
 31
0.0
  0
LINE
  5
7FFD
  8
3
 62
     0
 10
2105.6443410000002
 20
1583.166369
 30
0.0
 11
2105.6443410000002
 21
1447.9421553795671
 31
0.0
  0
LINE
  5
7FFE
  8
3
 62
     0
 10
1325.6443409999999
 20
1467.9421553795671
 30
0.0
 11
2065.6443410000002
 21
1467.9421553795671
 31
0.0
  0
INSERT
  5
7FFF
  8
3
 62
     0
  2
_OPEN
 10
1285.6443409999999
 20
1467.9421553795671
 30
0.0
 41
40.0
 42
40.0
 43
40.0
 50
180.0
  0
INSERT
  5
8000
  8
3
 62
     0
  2
_OPEN
 10
2105.6443410000002
 20
1467.9421553795671
 30
0.0
 41
40.0
 42
40.0
 43
40.0
  0
TEXT
  8
3
  40
60
  5
8031
  62
0
  72
0
  71
0
 10
1575.64
 20
1411.74
 30
0.000000
  1
820
  0
POINT
  5
8002
  8
DEFPOINTS
 62
     0
 10
1285.6443409999999
 20
1593.166369
 30
0.0
  0
POINT
  5
8003
  8
DEFPOINTS
 62
     0
 10
2105.6443410000002
 20
1593.166369
 30
0.0
  0
POINT
  5
8004
  8
DEFPOINTS
 62
     0
 10
2105.6443410000002
 20
1467.9421553795671
 30
0.0
  0
ENDBLK
  5
7F31
  8
0
  0
BLOCK
  8
0
  2
*D14
 70
     1
 10
0.0
 20
0.0
 30
0.0
  3
*D14
  1

  0
LINE
  5
8005
  8
3
 62
     0
 10
3053.1023416851222
 20
1583.166369
 30
0.0
 11
3053.1023416851222
 21
1447.9421553795671
 31
0.0
  0
LINE
  5
8006
  8
3
 62
     0
 10
3277.1023416851222
 20
1583.166369
 30
0.0
 11
3277.1023416851222
 21
1447.9421553795671
 31
0.0
  0
LINE
  5
8007
  8
3
 62
     0
 10
3093.1023416851222
 20
1467.9421553795671
 30
0.0
 11
3237.1023416851222
 21
1467.9421553795671
 31
0.0
  0
INSERT
  5
8008
  8
3
 62
     0
  2
_OPEN
 10
3053.1023416851222
 20
1467.9421553795671
 30
0.0
 41
40.0
 42
40.0
 43
40.0
 50
180.0
  0
INSERT
  5
8009
  8
3
 62
     0
  2
_OPEN
 10
3277.1023416851222
 20
1467.9421553795671
 30
0.0
 41
40.0
 42
40.0
 43
40.0
  0
TEXT
  8
3
  40
60
  5
8032
  62
0
  72
0
  71
0
 10
3045.10
 20
1411.74
 30
0.000000
  1
224
  0
POINT
  5
800B
  8
DEFPOINTS
 62
     0
 10
3053.1023416851222
 20
1593.166369
 30
0.0
  0
POINT
  5
800C
  8
DEFPOINTS
 62
     0
 10
3277.1023416851222
 20
1593.166369
 30
0.0
  0
POINT
  5
800D
  8
DEFPOINTS
 62
     0
 10
3277.1023416851222
 20
1467.9421553795671
 30
0.0
  0
ENDBLK
  5
7F40
  8
0
  0
BLOCK
  8
0
  2
*D15
 70
     1
 10
0.0
 20
0.0
 30
0.0
  3
*D15
  1

  0
LINE
  5
800E
  8
3
 62
     0
 10
3277.1023416851222
 20
1583.166369
 30
0.0
 11
3277.1023416851222
 21
1447.9421553795671
 31
0.0
  0
LINE
  5
800F
  8
3
 62
     0
 10
3501.1023416851222
 20
1583.166369
 30
0.0
 11
3501.1023416851222
 21
1447.9421553795671
 31
0.0
  0
LINE
  5
8010
  8
3
 62
     0
 10
3317.1023416851222
 20
1467.9421553795671
 30
0.0
 11
3461.1023416851222
 21
1467.9421553795671
 31
0.0
  0
INSERT
  5
8011
  8
3
 62
     0
  2
_OPEN
 10
3277.1023416851222
 20
1467.9421553795671
 30
0.0
 41
40.0
 42
40.0
 43
40.0
 50
180.0
  0
INSERT
  5
8012
  8
3
 62
     0
  2
_OPEN
 10
3501.1023416851222
 20
1467.9421553795671
 30
0.0
 41
40.0
 42
40.0
 43
40.0
  0
TEXT
  8
3
  40
60
  5
8033
  62
0
  72
0
  71
0
 10
3269.10
 20
1411.74
 30
0.000000
  1
224
  0
POINT
  5
8014
  8
DEFPOINTS
 62
     0
 10
3277.1023416851222
 20
1593.166369
 30
0.0
  0
POINT
  5
8015
  8
DEFPOINTS
 62
     0
 10
3501.1023416851222
 20
1593.166369
 30
0.0
  0
POINT
  5
8016
  8
DEFPOINTS
 62
     0
 10
3501.1023416851222
 20
1467.9421553795671
 30
0.0
  0
ENDBLK
  5
7F4F
  8
0
  0
BLOCK
  8
0
  2
_DOT
 70
     0
 10
0.0
 20
0.0
 30
0.0
  3
_DOT
  1

  0
POLYLINE
  5
7F53
  8
0
  6
BYBLOCK
 62
     0
 66
     1
 10
0.0
 20
0.0
 30
0.0
 70
     1
 40
0.5
 41
0.5
  0
VERTEX
  5
8017
  8
0
  6
BYBLOCK
 62
     0
 10
-0.25
 20
0.0
 30
0.0
 42
1.0
  0
VERTEX
  5
8018
  8
0
  6
BYBLOCK
 62
     0
 10
0.25
 20
0.0
 30
0.0
 42
1.0
  0
SEQEND
  5
8019
  8
0
  6
BYBLOCK
 62
     0
  0
LINE
  5
7F57
  8
0
  6
BYBLOCK
 62
     0
 10
-0.5
 20
0.0
 30
0.0
 11
-1.0
 21
0.0
 31
0.0
  0
ENDBLK
  5
7F58
  8
0
  0
BLOCK
  8
0
  2
*D17
 70
     1
 10
0.0
 20
0.0
 30
0.0
  3
*D17
  1

  0
LINE
  5
801A
  8
3
 62
     0
 10
975.64434100000005
 20
1658.1663689999989
 30
0.0
 11
774.30276978405163
 21
1658.1663689999989
 31
0.0
  0
LINE
  5
801B
  8
3
 62
     0
 10
975.64434100000005
 20
1593.166369
 30
0.0
 11
774.30276978405163
 21
1593.166369
 31
0.0
  0
LINE
  5
801C
  8
3
 62
     0
 10
794.30276978405163
 20
1698.166369
 30
0.0
 11
794.30276978405163
 21
1738.1663689999989
 31
0.0
  0
LINE
  5
801D
  8
3
 62
     0
 10
794.30276978405163
 20
1553.166369
 30
0.0
 11
794.30276978405163
 21
1376.023511857142
 31
0.0
  0
LINE
  5
801E
  8
3
 62
     0
 10
794.30276978405163
 20
1658.1663689999989
 30
0.0
 11
794.30276978405163
 21
1593.166369
 31
0.0
  0
INSERT
  5
801F
  8
3
 62
     0
  2
_DOT
 10
794.30276978405163
 20
1658.1663689999989
 30
0.0
 41
40.0
 42
40.0
 43
40.0
 50
270.0
  0
INSERT
  5
8020
  8
3
 62
     0
  2
_OPEN
 10
794.30276978405163
 20
1593.166369
 30
0.0
 41
40.0
 42
40.0
 43
40.0
 50
90.0
  0
TEXT
  8
3
  40
60
  5
8034
  62
0
  72
0
  71
0
 10
624.303
 20
1338.39
 30
0.000000
  1
65
  0
POINT
  5
8022
  8
DEFPOINTS
 62
     0
 10
985.64434100000017
 20
1658.1663689999989
 30
0.0
  0
POINT
  5
8023
  8
DEFPOINTS
 62
     0
 10
985.64434100000017
 20
1593.166369
 30
0.0
  0
POINT
  5
8024
  8
DEFPOINTS
 62
     0
 10
794.30276978405163
 20
1593.166369
 30
0.0
  0
ENDBLK
  5
7F66
  8
0
  0
BLOCK
  8
0
  2
*D18
 70
     1
 10
0.0
 20
0.0
 30
0.0
  3
*D18
  1

  0
LINE
  5
7F6A
  8
0
  6
BYBLOCK
 62
     0
 10
975.64434100000005
 20
1658.1663689999989
 30
0.0
 11
774.30276978405163
 21
1658.1663689999989
 31
0.0
  0
LINE
  5
7F6B
  8
0
  6
BYBLOCK
 62
     0
 10
975.64434100000005
 20
1753.166369
 30
0.0
 11
774.30276978405163
 21
1753.166369
 31
0.0
  0
LINE
  5
7F6C
  8
0
  6
BYBLOCK
 62
     0
 10
794.30276978405163
 20
1618.166369
 30
0.0
 11
794.30276978405163
 21
1578.166369
 31
0.0
  0
LINE
  5
7F6D
  8
0
  6
BYBLOCK
 62
     0
 10
794.30276978405163
 20
1793.166369
 30
0.0
 11
794.30276978405163
 21
1833.1663689999989
 31
0.0
  0
TEXT
  5
7F6E
  8
3
 62
     0
 10
718.58848406976585
 20
1618.5235118571429
 30
0.0
 40
60.0
  1
(95)
 50
90.0
  0
LINE
  5
7F6F
  8
0
  6
BYBLOCK
 62
     0
 10
794.30276978405163
 20
1658.1663689999989
 30
0.0
 11
794.30276978405163
 21
1753.166369
 31
0.0
  0
INSERT
  5
7F70
  8
0
  6
BYBLOCK
 62
     0
  2
_DOT
 10
794.30276978405163
 20
1658.1663689999989
 30
0.0
 41
40.0
 42
40.0
 43
40.0
 50
90.0
  0
INSERT
  5
7F71
  8
0
  6
BYBLOCK
 62
     0
  2
_OPEN
 10
794.30276978405163
 20
1753.166369
 30
0.0
 41
40.0
 42
40.0
 43
40.0
 50
270.0
  0
POINT
  5
7F72
  8
DEFPOINTS
  6
BYBLOCK
 62
     0
 10
985.64434100000017
 20
1658.1663689999989
 30
0.0
  0
POINT
  5
7F73
  8
DEFPOINTS
  6
BYBLOCK
 62
     0
 10
985.64434100000005
 20
1753.166369
 30
0.0
  0
POINT
  5
7F74
  8
DEFPOINTS
  6
BYBLOCK
 62
     0
 10
794.30276978405163
 20
1753.166369
 30
0.0
  0
ENDBLK
  5
7F75
  8
0
  0
ENDSEC
  0
SECTION
  2
ENTITIES
  0
LINE
  5
7AC0
  8
1
  6
CONTINUOUS
 10
2105.6443410000002
 20
1753.166369
 30
0.0
 11
985.64434100000005
 21
1753.166369
 31
0.0
  0
LINE
  5
7AC1
  8
1
  6
CONTINUOUS
 10
2105.6443410000002
 20
1833.1663689999989
 30
0.0
 11
930.64434099999994
 21
1833.1663689999989
 31
0.0
  0
LINE
  5
7AC2
  8
1
  6
CONTINUOUS
 10
2105.6443410000002
 20
4015.2963690000001
 30
0.0
 11
985.64434100000005
 21
4015.2963690000001
 31
0.0
  0
LINE
  5
7AC3
  8
1
  6
CONTINUOUS
 10
2037.6443409999999
 20
3591.536368999999
 30
0.0
 11
1793.6443409999999
 21
3591.536368999999
 31
0.0
  0
LINE
  5
7AC4
  8
1
  6
CONTINUOUS
 10
2037.6443409999999
 20
3941.536368999999
 30
0.0
 11
1793.6443409999999
 21
3941.536368999999
 31
0.0
  0
LINE
  5
7AC5
  8
1
  6
CONTINUOUS
 10
1896.6443409999999
 20
3567.2963689999988
 30
0.0
 11
1304.6443409999999
 21
3567.2963689999988
 31
0.0
  0
LINE
  5
7AC6
  8
1
  6
CONTINUOUS
 10
2105.6443410000002
 20
1593.166369
 30
0.0
 11
985.64434100000017
 21
1593.166369
 31
0.0
  0
LINE
  5
7AC7
  8
1
  6
CONTINUOUS
 10
2105.6443410000002
 20
1658.1663689999989
 30
0.0
 11
985.64434100000017
 21
1658.1663689999989
 31
0.0
  0
LINE
  5
7AC8
  8
1
  6
CONTINUOUS
 10
1865.6443409999999
 20
3511.2963690000001
 30
0.0
 11
1965.6443409999999
 21
3511.2963690000001
 31
0.0
  0
LINE
  5
7AC9
  8
1
  6
CONTINUOUS
 10
1965.6443409999999
 20
3451.2963690000001
 30
0.0
 11
1865.6443409999999
 21
3451.2963690000001
 31
0.0
  0
LINE
  5
7ACA
  8
2
  6
CENTER
 10
1825.6443409999999
 20
2015.166369
 30
0.0
 11
1945.644340999999
 21
2015.166369
 31
0.0
  0
CIRCLE
  5
7ACB
  8
1
  6
CONTINUOUS
 10
1885.6443409999999
 20
2015.166369
 30
0.0
 40
60.0
  0
ARC
  5
7ACC
  8
1
  6
CONTINUOUS
 10
1885.6443409999999
 20
2015.166369
 30
0.0
 40
122.0
 50
324.60000000000002
 51
215.39999999999989
  0
LINE
  5
7ACD
  8
1
  6
CONTINUOUS
 10
2015.6443409999999
 20
1883.1663689999989
 30
0.0
 11
1755.644340999999
 21
1883.1663689999989
 31
0.0
  0
POLYLINE
  5
7ACE
  8
1
  6
CONTINUOUS
 66
     1
 10
0.0
 20
0.0
 30
0.0
  0
VERTEX
  5
7F96
  8
1
  6
CONTINUOUS
 10
1060.144340999999
 20
1833.1663689999989
 30
0.0
  0
VERTEX
  5
7F97
  8
1
  6
CONTINUOUS
 10
1060.144340999999
 20
2503.166369
 30
0.0
  0
VERTEX
  5
7F98
  8
1
  6
CONTINUOUS
 10
1310.144340999999
 20
2578.166369
 30
0.0
  0
VERTEX
  5
7F99
  8
1
  6
CONTINUOUS
 10
2060.1443410000002
 20
2068.166369
 30
0.0
  0
VERTEX
  5
7F9A
  8
1
  6
CONTINUOUS
 10
2060.1443410000002
 20
1833.1663689999989
 30
0.0
  0
SEQEND
  5
7F9B
  8
1
  6
CONTINUOUS
  0
LINE
  5
7AD5
  8
1
  6
CONTINUOUS
 10
1912.104341
 20
2069.016368999999
 30
0.0
 11
1338.574341
 21
2350.8663689999998
 31
0.0
  0
LINE
  5
7AD6
  8
1
  6
CONTINUOUS
 10
1060.144340999999
 20
3421.2963689999988
 30
0.0
 11
2060.1443410000002
 21
3421.2963689999988
 31
0.0
  0
LINE
  5
7AD7
  8
1
  6
CONTINUOUS
 10
2060.1443410000002
 20
3541.2963689999988
 30
0.0
 11
1060.144340999999
 21
3541.2963689999988
 31
0.0
  0
LINE
  5
7AD8
  8
1
  6
CONTINUOUS
 10
1250.6443409999999
 20
2598.166369
 30
0.0
 11
1764.6443409999999
 21
2598.166369
 31
0.0
  0
LINE
  5
7AD9
  8
1
  6
CONTINUOUS
 10
1267.6443409999999
 20
2573.166369
 30
0.0
 11
1747.5743409999991
 21
2573.166369
 31
0.0
  0
ARC
  5
7ADA
  8
1
  6
CONTINUOUS
 10
1312.6443409999999
 20
2216.166369
 30
0.0
 40
380.98000000000002
 50
171.53
 51
265.16000000000003
  0
LINE
  5
7ADB
  8
1
  6
CONTINUOUS
 10
1640.6443409999999
 20
2553.166369
 30
0.0
 11
930.64434099999994
 21
2553.166369
 31
0.0
  0
CIRCLE
  5
7ADC
  8
1
  6
CONTINUOUS
 10
1285.6443409999999
 20
2243.166369
 30
0.0
 40
275.0
  0
CIRCLE
  5
7ADD
  8
1
  6
CONTINUOUS
 10
1285.6443409999999
 20
2243.166369
 30
0.0
 40
120.0
  0
LINE
  5
7ADE
  8
2
  6
CENTER
 10
3488.8078576851221
 20
2243.166369
 30
0.0
 11
2863.4581160851189
 21
2243.166369
 31
0.0
  0
LINE
  5
7ADF
  8
1
  6
CONTINUOUS
 10
1869.6643409999999
 20
1957.3363690000001
 30
0.0
 11
1253.6943409999999
 21
2127.496369
 31
0.0
  0
CIRCLE
  5
7AE0
  8
1
  6
CONTINUOUS
 10
1285.6443409999999
 20
2243.166369
 30
0.0
 40
250.0
  0
LINE
  5
7AE1
  8
1
  6
CONTINUOUS
 10
930.64434099999994
 20
2553.166369
 30
0.0
 11
930.64434099999994
 21
1833.1663689999989
 31
0.0
  0
LINE
  5
7AE2
  8
1
  6
CONTINUOUS
 10
985.64434100000005
 20
1833.1663689999989
 30
0.0
 11
985.64434100000005
 21
1753.166369
 31
0.0
  0
LINE
  5
7AE3
  8
1
  6
CONTINUOUS
 10
985.64434100000017
 20
1658.1663689999989
 30
0.0
 11
985.64434100000017
 21
1593.166369
 31
0.0
  0
ARC
  5
7AE4
  8
1
  6
CONTINUOUS
 10
1274.5153319999999
 20
2212.705226
 30
0.0
 40
343.89392400000003
 50
91.140279000000007
 51
170.02361200000001
  0
LINE
  5
7AE5
  8
1
  6
CONTINUOUS
 10
1267.6443409999999
 20
2556.536368999999
 30
0.0
 11
1267.6443409999999
 21
2598.166369
 31
0.0
  0
LINE
  5
7AE6
  8
1
  6
CONTINUOUS
 10
1640.6443409999999
 20
2553.166369
 30
0.0
 11
1640.6443409999999
 21
1833.1663689999989
 31
0.0
  0
ARC
  5
7AE7
  8
1
  6
CONTINUOUS
 10
1316.107759
 20
2266.2459979999999
 30
0.0
 40
431.17249299999992
 50
265.26344499999999
 51
356.87946599999998
  0
LINE
  5
7AE8
  8
2
  6
CENTER
 10
1285.6443409999999
 20
1593.166369
 30
0.0
 11
1285.6443409999999
 21
2766.3226300000001
 31
0.0
  0
LINE
  5
7AE9
  8
1
  6
CONTINUOUS
 10
1755.644340999999
 20
1883.1663689999989
 30
0.0
 11
1786.2043410000001
 21
1944.486369
 31
0.0
  0
LINE
  5
7AEA
  8
1
  6
CONTINUOUS
 10
1755.644340999999
 20
1833.1663689999989
 30
0.0
 11
1755.644340999999
 21
1883.1663689999989
 31
0.0
  0
LINE
  5
7AEB
  8
1
  6
CONTINUOUS
 10
1755.644340999999
 20
1883.1663689999989
 30
0.0
 11
1805.644340999999
 21
1883.1663689999989
 31
0.0
  0
LINE
  5
7AEC
  8
1
  6
CONTINUOUS
 10
1747.644340999999
 20
2598.166369
 30
0.0
 11
1746.6443409999999
 21
2242.7763690000002
 31
0.0
  0
LINE
  5
7AED
  8
1
  6
CONTINUOUS
 10
1774.6443409999999
 20
3609.2963689999988
 30
0.0
 11
930.64434099999994
 21
3609.2963689999988
 31
0.0
  0
LINE
  5
7AEE
  8
1
  6
CONTINUOUS
 10
1774.6443409999999
 20
3973.2963689999988
 30
0.0
 11
930.64434099999994
 21
3973.2963689999988
 31
0.0
  0
LINE
  5
7AEF
  8
1
  6
CONTINUOUS
 10
1240.6443409999999
 20
3609.2963689999988
 30
0.0
 11
1774.6443409999999
 21
3973.2963689999988
 31
0.0
  0
LINE
  5
7AF0
  8
1
  6
CONTINUOUS
 10
1774.6443409999999
 20
3609.2963689999988
 30
0.0
 11
1240.6443409999999
 21
3973.2963689999988
 31
0.0
  0
LINE
  5
7AF1
  8
1
  6
CONTINUOUS
 10
1405.6443409999999
 20
3451.2963690000001
 30
0.0
 11
1165.644340999999
 21
3451.2963690000001
 31
0.0
  0
LINE
  5
7AF2
  8
1
  6
CONTINUOUS
 10
1165.644340999999
 20
3511.2963690000001
 30
0.0
 11
1405.6443409999999
 21
3511.2963690000001
 31
0.0
  0
LINE
  5
7AF3
  8
1
  6
CONTINUOUS
 10
985.64434100000005
 20
4015.2963690000001
 30
0.0
 11
985.64434100000005
 21
3973.2963689999988
 31
0.0
  0
LINE
  5
7AF4
  8
1
  6
CONTINUOUS
 10
930.64434099999994
 20
3609.2963689999988
 30
0.0
 11
930.64434099999994
 21
3973.2963689999988
 31
0.0
  0
LINE
  5
7AF5
  8
1
  6
CONTINUOUS
 10
1266.6443409999999
 20
3511.2963690000001
 30
0.0
 11
1266.6443409999999
 21
3609.2963689999988
 31
0.0
  0
LINE
  5
7AF6
  8
1
  6
CONTINUOUS
 10
1060.144340999999
 20
3541.2963689999988
 30
0.0
 11
1060.144340999999
 21
3421.2963689999988
 31
0.0
  0
LINE
  5
7AF7
  8
1
  6
CONTINUOUS
 10
1165.644340999999
 20
3451.2963690000001
 30
0.0
 11
1165.644340999999
 21
3511.2963690000001
 31
0.0
  0
LINE
  5
7AF8
  8
1
  6
CONTINUOUS
 10
1266.6443409999999
 20
3567.2963689999988
 30
0.0
 11
985.64434100000005
 21
3567.2963689999988
 31
0.0
  0
LINE
  5
7AF9
  8
1
  6
CONTINUOUS
 10
985.64434100000005
 20
3609.2963689999988
 30
0.0
 11
985.64434100000005
 21
3567.2963689999988
 31
0.0
  0
LINE
  5
7AFA
  8
1
  6
CONTINUOUS
 10
1240.6443409999999
 20
3609.2963689999988
 30
0.0
 11
1240.6443409999999
 21
3973.2963689999988
 31
0.0
  0
LINE
  5
7AFB
  8
1
  6
CONTINUOUS
 10
1304.6443409999999
 20
3511.2963690000001
 30
0.0
 11
1304.6443409999999
 21
3609.2963689999988
 31
0.0
  0
LINE
  5
7AFC
  8
1
  6
CONTINUOUS
 10
1405.6443409999999
 20
3451.2963690000001
 30
0.0
 11
1405.6443409999999
 21
3511.2963690000001
 31
0.0
  0
LINE
  5
7AFD
  8
1
  6
CONTINUOUS
 10
1865.6443409999999
 20
3451.2963690000001
 30
0.0
 11
1865.6443409999999
 21
3511.2963690000001
 31
0.0
  0
LINE
  5
7AFE
  8
1
  6
CONTINUOUS
 10
1774.6443409999999
 20
3973.2963689999988
 30
0.0
 11
1774.6443409999999
 21
3609.2963689999988
 31
0.0
  0
LINE
  5
7AFF
  8
1
  6
CONTINUOUS
 10
1793.6443409999999
 20
3591.536368999999
 30
0.0
 11
1793.6443409999999
 21
3941.536368999999
 31
0.0
  0
LINE
  5
7B00
  8
1
  6
CONTINUOUS
 10
2907.1023416851222
 20
2578.166369
 30
0.0
 11
3027.1023416851222
 21
2578.166369
 31
0.0
  0
LINE
  5
7B01
  8
1
  6
CONTINUOUS
 10
3027.1023416851222
 20
1833.1663689999989
 30
0.0
 11
2907.1023416851222
 21
1833.1663689999989
 31
0.0
  0
LINE
  5
7B15
  8
1
  6
CONTINUOUS
 10
2105.6443410000002
 20
1833.1663689999989
 30
0.0
 11
2105.6443410000002
 21
1753.166369
 31
0.0
  0
LINE
  5
7B16
  8
1
  6
CONTINUOUS
 10
2105.6443410000002
 20
1658.1663689999989
 30
0.0
 11
2105.6443410000002
 21
1593.166369
 31
0.0
  0
LINE
  5
7B17
  8
2
  6
CENTER
 10
1885.6443409999999
 20
1955.166369
 30
0.0
 11
1885.6443409999999
 21
2075.166369
 31
0.0
  0
LINE
  5
7B18
  8
1
  6
CONTINUOUS
 10
2015.6443409999999
 20
1883.1663689999989
 30
0.0
 11
1965.6443409999999
 21
1883.1663689999989
 31
0.0
  0
LINE
  5
7B19
  8
1
  6
CONTINUOUS
 10
2015.6443409999999
 20
1833.1663689999989
 30
0.0
 11
2015.6443409999999
 21
1883.1663689999989
 31
0.0
  0
LINE
  5
7B1A
  8
1
  6
CONTINUOUS
 10
2015.6443409999999
 20
1883.1663689999989
 30
0.0
 11
1985.084341
 21
1944.486369
 31
0.0
  0
LINE
  5
7B36
  8
1
  6
CONTINUOUS
 10
2907.1023416851222
 20
1833.1663689999989
 30
0.0
 11
2907.1023416851222
 21
2578.166369
 31
0.0
  0
LINE
  5
7B41
  8
1
  6
CONTINUOUS
 10
2105.6443410000002
 20
4015.2963690000001
 30
0.0
 11
2105.6443410000002
 21
3567.2963689999988
 31
0.0
  0
LINE
  5
7B42
  8
1
  6
CONTINUOUS
 10
1934.6443409999999
 20
3511.2963690000001
 30
0.0
 11
1934.6443409999999
 21
3591.536368999999
 31
0.0
  0
LINE
  5
7B43
  8
1
  6
CONTINUOUS
 10
1896.6443409999999
 20
3511.2963690000001
 30
0.0
 11
1896.6443409999999
 21
3591.536368999999
 31
0.0
  0
LINE
  5
7B44
  8
1
  6
CONTINUOUS
 10
1965.6443409999999
 20
3511.2963690000001
 30
0.0
 11
1965.6443409999999
 21
3451.2963690000001
 31
0.0
  0
LINE
  5
7B45
  8
1
  6
CONTINUOUS
 10
2060.1443410000002
 20
3421.2963689999988
 30
0.0
 11
2060.1443410000002
 21
3541.2963689999988
 31
0.0
  0
LINE
  5
7B46
  8
1
  6
CONTINUOUS
 10
2105.6443410000002
 20
3567.2963689999988
 30
0.0
 11
1934.6443409999999
 21
3567.2963689999988
 31
0.0
  0
LINE
  5
7B47
  8
1
  6
CONTINUOUS
 10
2037.6443409999999
 20
3591.536368999999
 30
0.0
 11
2037.6443409999999
 21
3941.536368999999
 31
0.0
  0
LINE
  5
7B62
  8
1
  6
CONTINUOUS
 10
2997.1023416851222
 20
2123.166369
 30
0.0
 11
2997.1023416851222
 21
2363.1663689999991
 31
0.0
  0
LINE
  5
7B63
  8
1
  6
CONTINUOUS
 10
2937.1023416851222
 20
2363.1663689999991
 30
0.0
 11
2937.1023416851222
 21
2123.166369
 31
0.0
  0
LINE
  5
7B64
  8
1
  6
CONTINUOUS
 10
3097.1023416851222
 20
2598.166369
 30
0.0
 11
3097.1023416851222
 21
1833.1663689999989
 31
0.0
  0
LINE
  5
7B65
  8
1
  6
CONTINUOUS
 10
3457.1023416851222
 20
2598.166369
 30
0.0
 11
3457.1023416851222
 21
1833.1663689999989
 31
0.0
  0
LINE
  5
7B66
  8
1
  6
CONTINUOUS
 10
3027.1023416851222
 20
2578.166369
 30
0.0
 11
3027.1023416851222
 21
1833.1663689999989
 31
0.0
  0
LINE
  5
7B67
  8
1
  6
CONTINUOUS
 10
3053.1023416851222
 20
1833.1663689999989
 30
0.0
 11
3501.1023416851222
 21
1833.1663689999989
 31
0.0
  0
LINE
  5
7B68
  8
1
  6
CONTINUOUS
 10
3053.1023416851222
 20
1753.166369
 30
0.0
 11
3501.1023416851222
 21
1753.166369
 31
0.0
  0
LINE
  5
7B69
  8
1
  6
CONTINUOUS
 10
3053.1023416851222
 20
1593.166369
 30
0.0
 11
3501.1023416851222
 21
1593.166369
 31
0.0
  0
LINE
  5
7B6A
  8
1
  6
CONTINUOUS
 10
3053.1023416851222
 20
1658.1663689999989
 30
0.0
 11
3501.1023416851222
 21
1658.1663689999989
 31
0.0
  0
LINE
  5
7B6B
  8
1
  6
CONTINUOUS
 10
3053.1023416851222
 20
1833.1663689999989
 30
0.0
 11
3053.1023416851222
 21
1753.166369
 31
0.0
  0
LINE
  5
7B6C
  8
1
  6
CONTINUOUS
 10
3053.1023416851222
 20
1658.1663689999989
 30
0.0
 11
3053.1023416851222
 21
1593.166369
 31
0.0
  0
LINE
  5
7B6D
  8
1
  6
CONTINUOUS
 10
2997.1023416851222
 20
1996.166369
 30
0.0
 11
3097.1023416851222
 21
1996.166369
 31
0.0
  0
LINE
  5
7B6E
  8
1
  6
CONTINUOUS
 10
2997.1023416851222
 20
2034.166369
 30
0.0
 11
3097.1023416851222
 21
2034.166369
 31
0.0
  0
LINE
  5
7B6F
  8
1
  6
CONTINUOUS
 10
2937.1023416851222
 20
2123.166369
 30
0.0
 11
2997.1023416851222
 21
2123.166369
 31
0.0
  0
LINE
  5
7B70
  8
1
  6
CONTINUOUS
 10
2937.1023416851222
 20
1965.166369
 30
0.0
 11
2997.1023416851222
 21
1965.166369
 31
0.0
  0
LINE
  5
7B71
  8
1
  6
CONTINUOUS
 10
2997.1023416851222
 20
2065.1663689999991
 30
0.0
 11
2937.1023416851222
 21
2065.1663689999991
 31
0.0
  0
LINE
  5
7B72
  8
1
  6
CONTINUOUS
 10
2937.1023416851222
 20
2065.1663689999991
 30
0.0
 11
2937.1023416851222
 21
1965.166369
 31
0.0
  0
LINE
  5
7B73
  8
1
  6
CONTINUOUS
 10
2997.1023416851222
 20
1965.166369
 30
0.0
 11
2997.1023416851222
 21
2065.1663689999991
 31
0.0
  0
LINE
  5
7B74
  8
1
  6
CONTINUOUS
 10
3501.1023416851222
 20
1833.1663689999989
 30
0.0
 11
3501.1023416851222
 21
1753.166369
 31
0.0
  0
LINE
  5
7B75
  8
1
  6
CONTINUOUS
 10
3501.1023416851222
 20
1658.1663689999989
 30
0.0
 11
3501.1023416851222
 21
1593.166369
 31
0.0
  0
LINE
  5
7B76
  8
1
  6
CONTINUOUS
 10
3097.1023416851222
 20
2573.166369
 30
0.0
 11
3457.1023416851222
 21
2573.166369
 31
0.0
  0
LINE
  5
7B77
  8
1
  6
CONTINUOUS
 10
3483.1023416851222
 20
2598.166369
 30
0.0
 11
3071.1023416851222
 21
2598.166369
 31
0.0
  0
LINE
  5
7B78
  8
1
  6
CONTINUOUS
 10
2997.1023416851222
 20
2224.166369
 30
0.0
 11
3097.1023416851222
 21
2224.166369
 31
0.0
  0
LINE
  5
7B79
  8
1
  6
CONTINUOUS
 10
2997.1023416851222
 20
2262.166369
 30
0.0
 11
3097.1023416851222
 21
2262.166369
 31
0.0
  0
LINE
  5
7B7A
  8
1
  6
CONTINUOUS
 10
2997.1023416851222
 20
2363.1663689999991
 30
0.0
 11
2937.1023416851222
 21
2363.1663689999991
 31
0.0
  0
LINE
  5
7B7B
  8
2
  6
CENTER
 10
852.82597099999998
 20
3791.2963689999988
 30
0.0
 11
2163.794010999999
 21
3791.2963689999988
 31
0.0
  0
LINE
  5
7B7D
  8
2
  6
CENTER
 10
1285.6443409999999
 20
3379.9805000000001
 30
0.0
 11
1285.6443409999999
 21
4078.4542090722539
 31
0.0
  0
LINE
  5
7B7E
  8
2
  6
CENTER
 10
1924.5996324582629
 20
2243.166369
 30
0.0
 11
819.70977693841996
 21
2243.166369
 31
0.0
  0
LINE
  5
7B7F
  8
4
  6
CONTINUOUS
 10
3700.0
 20
1000.0
 30
0.0
 11
3700.0
 21
600.0
 31
0.0
  0
LINE
  5
7B80
  8
4
  6
CONTINUOUS
 10
2300.0
 20
1000.0
 30
0.0
 11
2300.0
 21
600.0
 31
0.0
  0
LINE
  5
7B81
  8
4
  6
CONTINUOUS
 10
1300.0
 20
1000.0
 30
0.0
 11
1300.0
 21
600.0
 31
0.0
  0
LINE
  5
7B84
  8
4
  6
CONTINUOUS
 10
1300.0
 20
600.0
 30
0.0
 11
3700.0
 21
600.0
 31
0.0
  0
LINE
  5
7B85
  8
4
  6
CONTINUOUS
 10
1300.0
 20
800.0
 30
0.0
 11
3700.0
 21
800.0
 31
0.0
  0
TEXT
  5
7B86
  8
4
  6
CONTINUOUS
 10
1377.004162
 20
863.086052
 30
0.0
 40
100.0
  1
機器名称
  0
TEXT
  5
7B87
  8
4
  6
CONTINUOUS
 10
1372.516212
 20
643.29031299999986
 30
0.0
 40
100.0
  1
機器型番
  0
TEXT
  5
7B88
  8
4
  6
CONTINUOUS
 10
2355.3574910000002
 20
845.14353800000015
 30
0.0
 40
100.0
  1
ミツヤ多翼送風機
  0
TEXT
  5
7B89
  8
4
  6
CONTINUOUS
 10
2373.3089909999999
 20
634.31916899999999
 30
0.0
 40
100.0
  1
MF#3-4
  0
TEXT
  5
7B8B
  8
4
  6
CONTINUOUS
 10
1491.948631
 20
4766.8576830000002
 30
0.0
 40
108.0
  1
床置防振ベット
  0
TEXT
  5
7B8C
  8
4
  6
CONTINUOUS
 10
632.33518700000002
 20
5067.7619520000007
 30
0.0
 40
144.0
  1
ベルト駆動式片吸込両持多翼ファン
  0
LINE
  5
7B8D
  8
4
  6
CONTINUOUS
 10
500.0
 20
4938.8175090000004
 30
0.0
 11
3700.0
 21
4938.8175090000004
 31
0.0
  0
LINE
  5
7B8E
  8
4
  6
CONTINUOUS
 10
500.0
 20
5338.8175090000004
 30
0.0
 11
3700.0
 21
5338.8175090000004
 31
0.0
  0
LINE
  5
7B8F
  8
4
  6
CONTINUOUS
 10
1300.0
 20
1000.0
 30
0.0
 11
3700.0
 21
1000.0
 31
0.0
  0
LINE
  5
7B90
  8
4
  6
CONTINUOUS
 10
500.0
 20
5338.8175090000004
 30
0.0
 11
500.0
 21
4938.8175090000004
 31
0.0
  0
TEXT
  5
7B91
  8
4
  6
CONTINUOUS
 10
714.34145899999987
 20
4764.6389549999994
 30
0.0
 40
108.0
  1
左回転上向
  0
TEXT
  5
7B92
  8
4
  6
CONTINUOUS
 10
2937.9391179999998
 20
5412.122163
 30
0.0
 40
112.0
  1
No.
  0
TEXT
  5
7B93
  8
4
  6
CONTINUOUS
 10
2622.5921250000001
 20
4766.8576830000002
 30
0.0
 40
108.0
  1
縮尺：1/20
  0
LINE
  5
7B94
  8
4
  6
CONTINUOUS
 10
3700.0
 20
5338.8175090000004
 30
0.0
 11
3700.0
 21
4938.8175090000004
 31
0.0
  0
LINE
  5
7B96
  8
4
  6
CONTINUOUS
 10
2881.234845
 20
5362.5271659999999
 30
0.0
 11
2881.234845
 21
5573.3045229999998
 31
0.0
  0
LINE
  5
7B97
  8
4
  6
CONTINUOUS
 10
2881.234845
 20
5573.3045229999998
 30
0.0
 11
3700.0
 21
5573.3045229999998
 31
0.0
  0
LINE
  5
7B98
  8
4
  6
CONTINUOUS
 10
3700.0
 20
5573.3045229999998
 30
0.0
 11
3700.0
 21
5362.5271659999999
 31
0.0
  0
LINE
  5
7B99
  8
4
  6
CONTINUOUS
 10
3700.0
 20
5362.5271659999999
 30
0.0
 11
2881.234845
 21
5362.5271659999999
 31
0.0
  0
DIMENSION
  5
7BB1
  8
3
  6
CONTINUOUS
  2
*D1
 10
1267.6443409999999
 20
2735.700855
 30
0.0
 11
1508.3100039999999
 21
2735.700855
 31
0.0
 70
   128
 13
1747.644340999999
 23
2598.166369
 33
0.0
 14
1267.6443409999999
 24
2598.166369
 34
0.0
1001
ACAD
1000
DSTYLE
1002
{
1070
   287
1070
     3
1070
    40
1040
20.0
1070
   143
1040
0.039
1070
   172
1070
     1
1070
   271
1070
     0
1070
   279
1070
     0
1070
   288
1070
     1
1002
}
  0
DIMENSION
  5
7BCA
  8
3
  6
CONTINUOUS
  2
*D2
 10
1285.6443409999999
 20
2843.4582599999999
 30
0.0
 11
1500.012735
 21
2843.4582599999999
 31
0.0
 70
   128
 13
1747.644340999999
 23
2598.166369
 33
0.0
 14
1285.6443409999999
 24
2766.3226300000001
 34
0.0
1001
ACAD
1000
DSTYLE
1002
{
1070
   287
1070
     3
1070
    40
1040
20.0
1070
   143
1040
0.039
1070
   172
1070
     1
1070
   271
1070
     0
1070
   279
1070
     0
1070
   288
1070
     1
1002
}
  0
DIMENSION
  5
7BD6
  8
3
  6
CONTINUOUS
  2
*D3
 10
930.64434099999994
 20
2843.4582599999999
 30
0.0
 11
1108.1443409999999
 21
2893.4582599999999
 31
0.0
 70
     0
 13
1285.6443409999999
 23
2766.3226300000001
 33
0.0
 14
930.64434099999994
 24
2553.166369
 34
0.0
1001
ACAD
1000
DSTYLE
1002
{
1070
   287
1070
     4
1070
    40
1040
20.0
1070
    75
1070
     1
1070
   143
1040
0.039
1070
   172
1070
     1
1070
   271
1070
     0
1070
   279
1070
     1
1070
   288
1070
     1
1002
}
  0
DIMENSION
  5
7BF0
  8
3
  6
CONTINUOUS
  2
*D4
 10
795.96711600000026
 20
2243.166369
 30
0.0
 11
795.96711600000003
 21
2380.3092261428569
 31
0.0
 70
   128
 13
1250.6443409999999
 23
2598.166369
 33
0.0
 14
819.70977693841996
 24
2243.166369
 34
0.0
 50
90.0
1001
ACAD
1000
DSTYLE
1002
{
1070
   287
1070
     3
1070
    40
1040
20.0
1070
   143
1040
0.039
1070
   172
1070
     1
1070
   271
1070
     0
1070
   279
1070
     0
1070
   288
1070
     1
1002
}
  0
DIMENSION
  5
7BFC
  8
3
  6
CONTINUOUS
  2
*D5
 10
795.96711600000003
 20
1753.166369
 30
0.0
 11
745.96711599999981
 21
1998.166369
 31
0.0
 70
     0
 13
823.12783385779755
 23
2243.166369
 33
0.0
 14
985.64434100000005
 24
1753.166369
 34
0.0
 50
90.0
1001
ACAD
1000
DSTYLE
1002
{
1070
   287
1070
     4
1070
    40
1040
20.0
1070
    75
1070
     1
1070
   143
1040
0.039
1070
   172
1070
     1
1070
   271
1070
     0
1070
   279
1070
     1
1070
   288
1070
     1
1002
}
  0
DIMENSION
  5
7CB1
  8
3
  6
CONTINUOUS
  2
*D6
 10
3097.1023416851222
 20
2672.963377
 30
0.0
 11
3260.6330536851228
 21
2672.963377
 31
0.0
 70
   128
 13
3457.1023416851222
 23
2598.166369
 33
0.0
 14
3097.1023416851222
 24
2598.166369
 34
0.0
1001
ACAD
1000
DSTYLE
1002
{
1070
   287
1070
     3
1070
    40
1040
20.0
1070
   143
1040
0.039
1070
   172
1070
     1
1070
   271
1070
     0
1070
   279
1070
     0
1070
   288
1070
     1
1002
}
  0
LINE
  5
7CC8
  8
1
  6
CONTINUOUS
 10
3458.1023416851222
 20
2493.166369
 30
0.0
 11
3458.1023416851222
 21
1993.166369
 31
0.0
  0
DIMENSION
  5
7CD7
  8
3
  6
CONTINUOUS
  2
*D7
 10
3644.0778596851228
 20
1993.1663689999989
 30
0.0
 11
3644.0778596851219
 21
2241.9337189999992
 31
0.0
 70
   128
 13
3458.1023416851222
 23
2493.166369
 33
0.0
 14
3458.1023416851222
 24
1993.166369
 34
0.0
 50
90.0
1001
ACAD
1000
DSTYLE
1002
{
1070
   287
1070
     3
1070
     3
1000
φ<>
1070
    40
1040
20.0
1070
   143
1040
0.039
1070
   172
1070
     1
1070
   271
1070
     0
1070
   279
1070
     0
1070
   288
1070
     1
1002
}
  0
DIMENSION
  5
7CE6
  8
3
  6
CONTINUOUS
  2
*D8
 10
3277.1023416851222
 20
2793.1543390000002
 30
0.0
 11
3367.6023416851222
 21
2843.7118114123191
 31
0.0
 70
   128
 13
3458.1023416851222
 23
2493.166369
 33
0.0
 14
3277.1023416851222
 24
2770.213891508934
 34
0.0
1001
ACAD
1000
DSTYLE
1002
{
1070
   288
1070
     1
1070
   172
1070
     1
1070
    40
1040
20.0
1070
   271
1070
     0
1070
   143
1040
0.039
1002
}
  0
DIMENSION
  5
7CF2
  8
3
  6
CONTINUOUS
  2
*D9
 10
2907.1023416851222
 20
2793.1543390000002
 30
0.0
 11
3092.1023416851222
 21
2893.1543390000002
 31
0.0
 70
     0
  1
MAX\P430
 13
3277.1023416851222
 23
2799.8757639999999
 33
0.0
 14
2907.1023416851222
 24
2578.166369
 34
0.0
1001
ACAD
1000
DSTYLE
1002
{
1070
   287
1070
     4
1070
    40
1040
20.0
1070
    75
1070
     1
1070
   143
1040
0.039
1070
   172
1070
     1
1070
   271
1070
     0
1070
   279
1070
     1
1070
   288
1070
     1
1002
}
  0
DIMENSION
  5
7CFF
  8
3
  6
CONTINUOUS
  2
*D10
 10
2105.6443410000002
 20
4163.9270120000001
 30
0.0
 11
1545.6477010000001
 21
4163.9270120000001
 31
0.0
 70
   128
 13
985.64434100000005
 23
4015.2963690000001
 33
0.0
 14
2105.6443410000002
 24
4015.2963690000001
 34
0.0
1001
ACAD
1000
DSTYLE
1002
{
1070
   287
1070
     3
1070
    40
1040
20.0
1070
   143
1040
0.039
1070
   172
1070
     1
1070
   271
1070
     0
1070
   279
1070
     0
1070
   288
1070
     1
1002
}
  0
DIMENSION
  5
7D0C
  8
3
  6
CONTINUOUS
  2
*D11
 10
2304.1011469999999
 20
3567.2963689999988
 30
0.0
 11
2304.1011469999989
 21
3806.8656479999991
 31
0.0
 70
   128
 13
2105.6443410000002
 23
4015.2963690000001
 33
0.0
 14
2105.6443410000002
 24
3567.2963689999988
 34
0.0
 50
90.0
1001
ACAD
1000
DSTYLE
1002
{
1070
   287
1070
     3
1070
    40
1040
20.0
1070
   143
1040
0.039
1070
   172
1070
     1
1070
   271
1070
     0
1070
   279
1070
     0
1070
   288
1070
     1
1002
}
  0
LINE
  5
7E04
  8
2
  6
CENTER
 10
3277.1023416851222
 20
2682.8630213170431
 30
0.0
 11
3277.1023416851222
 21
1593.166369
 31
0.0
  0
DIMENSION
  5
7F25
  8
3
  2
*D12
 10
1285.6443409999999
 20
1467.9421553795671
 30
0.0
 11
1135.6443409999999
 21
1517.9421553795671
 31
0.0
 70
     0
 13
985.64434100000017
 23
1593.166369
 33
0.0
 14
1285.6443409999999
 24
1593.166369
 34
0.0
1001
ACAD
1000
DSTYLE
1002
{
1070
   287
1070
     3
1070
    40
1040
20.0
1070
   143
1040
0.039
1070
   172
1070
     1
1070
   271
1070
     0
1070
   279
1070
     0
1002
}
  0
DIMENSION
  5
7F32
  8
3
  2
*D13
 10
2105.6443410000002
 20
1467.9421553795671
 30
0.0
 11
1695.6443409999999
 21
1517.9421553795671
 31
0.0
 70
     0
 13
1285.6443409999999
 23
1593.166369
 33
0.0
 14
2105.6443410000002
 24
1593.166369
 34
0.0
1001
ACAD
1000
DSTYLE
1002
{
1070
   287
1070
     3
1070
    40
1040
20.0
1070
   143
1040
0.039
1070
   172
1070
     1
1070
   271
1070
     0
1070
   279
1070
     0
1002
}
  0
DIMENSION
  5
7F41
  8
3
  2
*D14
 10
3277.1023416851222
 20
1467.9421553795671
 30
0.0
 11
3165.1023416851222
 21
1517.9421553795671
 31
0.0
 70
     0
 13
3053.1023416851222
 23
1593.166369
 33
0.0
 14
3277.1023416851222
 24
1593.166369
 34
0.0
1001
ACAD
1000
DSTYLE
1002
{
1070
   287
1070
     3
1070
    40
1040
20.0
1070
   143
1040
0.039
1070
   172
1070
     1
1070
   271
1070
     0
1070
   279
1070
     0
1002
}
  0
DIMENSION
  5
7F50
  8
3
  2
*D15
 10
3501.1023416851222
 20
1467.9421553795671
 30
0.0
 11
3389.1023416851222
 21
1517.9421553795671
 31
0.0
 70
     0
 13
3277.1023416851222
 23
1593.166369
 33
0.0
 14
3501.1023416851222
 24
1593.166369
 34
0.0
1001
ACAD
1000
DSTYLE
1002
{
1070
   287
1070
     3
1070
    40
1040
20.0
1070
   143
1040
0.039
1070
   172
1070
     1
1070
   271
1070
     0
1070
   279
1070
     0
1002
}
  0
DIMENSION
  5
7F67
  8
3
  2
*D17
 10
794.30276978405163
 20
1593.166369
 30
0.0
 11
744.30276978405141
 21
1444.5949404285709
 31
0.0
 70
     0
 13
985.64434100000017
 23
1658.1663689999989
 33
0.0
 14
985.64434100000017
 24
1593.166369
 34
0.0
 50
90.0
1001
ACAD
1000
DSTYLE
1002
{
1070
   287
1070
     3
1070
    40
1040
20.0
1070
   143
1040
0.039
1070
   172
1070
     1
1070
   271
1070
     0
1070
   279
1070
     0
1070
     6
1000
DOT
1002
}
  0
DIMENSION
  5
7F76
  8
3
  2
*D18
 10
794.30276978405163
 20
1753.166369
 30
0.0
 11
698.58848406976585
 21
1705.666369
 31
0.0
 70
     0
 13
985.64434100000017
 23
1658.1663689999989
 33
0.0
 14
985.64434100000005
 24
1753.166369
 34
0.0
 50
90.0
1001
ACAD
1000
DSTYLE
1002
{
1070
   172
1070
     1
1070
    40
1040
20.0
1070
     3
1000
(<>)
1070
   271
1070
     0
1070
     6
1000
_DOT
1070
   143
1040
0.039
1002
}
  0
ENDSEC
  0
EOF
