  0
SECTION
  2
HEADER
  9
$ACADVER
  1
AC1009
  9
$INSBASE
 10
0.0
 20
0.0
 30
0.0
  9
$EXTMIN
 10
500.0
 20
600.0
 30
0.0
  9
$EXTMAX
 10
3700.0
 20
5573.3045229999998
 30
0.0
  9
$LIMMIN
 10
0.0
 20
0.0
  9
$LIMMAX
 10
297.0
 20
210.0
  9
$ORTHOMODE
 70
     0
  9
$REGENMODE
 70
     1
  9
$FILLMODE
 70
     0
  9
$QTEXTMODE
 70
     0
  9
$MIRRTEXT
 70
     1
  9
$DRAGMODE
 70
     2
  9
$LTSCALE
 40
100.0
  9
$OSMODE
 70
    37
  9
$ATTMODE
 70
     1
  9
$TEXTSIZE
 40
180.0
  9
$TRACEWID
 40
0.05
  9
$TEXTSTYLE
  7
STANDARD
  9
$CLAYER
  8
3
  9
$CELTYPE
  6
BYLAYER
  9
$CECOLOR
 62
   256
  9
$DIMSCALE
 40
20.0
  9
$DIMASZ
 40
2.0
  9
$DIMEXO
 40
0.5
  9
$DIMDLI
 40
10.0
  9
$DIMRND
 40
0.0
  9
$DIMDLE
 40
0.0
  9
$DIMEXE
 40
1.0
  9
$DIMTP
 40
1.0
  9
$DIMTM
 40
1.0
  9
$DIMTXT
 40
3.0
  9
$DIMCEN
 40
0.0
  9
$DIMTSZ
 40
0.0
  9
$DIMTOL
 70
     0
  9
$DIMLIM
 70
     0
  9
$DIMTIH
 70
     0
  9
$DIMTOH
 70
     0
  9
$DIMSE1
 70
     0
  9
$DIMSE2
 70
     0
  9
$DIMTAD
 70
     1
  9
$DIMZIN
 70
     8
  9
$DIMBLK
  1

  9
$DIMASO
 70
     1
  9
$DIMSHO
 70
     1
  9
$DIMPOST
  1
(<>)
  9
$DIMAPOST
  1

  9
$DIMALT
 70
     0
  9
$DIMALTD
 70
     2
  9
$DIMALTF
 40
0.039
  9
$DIMLFAC
 40
1.0
  9
$DIMTOFL
 70
     1
  9
$DIMTVP
 40
0.0
  9
$DIMTIX
 70
     0
  9
$DIMSOXD
 70
     0
  9
$DIMSAH
 70
     1
  9
$DIMBLK1
  1
DOT
  9
$DIMBLK2
  1
OPEN
  9
$DIMSTYLE
  2
IGA
  9
$DIMCLRD
 70
     0
  9
$DIMCLRE
 70
     0
  9
$DIMCLRT
 70
     0
  9
$DIMTFAC
 40
10.0
  9
$DIMGAP
 40
1.0
  9
$LUNITS
 70
     2
  9
$LUPREC
 70
     3
  9
$SKETCHINC
 40
0.1
  9
$FILLETRAD
 40
50.0
  9
$AUNITS
 70
     0
  9
$AUPREC
 70
     0
  9
$MENU
  1
acad
  9
$ELEVATION
 40
0.0
  9
$PELEVATION
 40
0.0
  9
$THICKNESS
 40
0.0
  9
$LIMCHECK
 70
     0
  9
$BLIPMODE
 70
     0
  9
$CHAMFERA
 40
0.5
  9
$CHAMFERB
 40
0.5
  9
$SKPOLY
 70
     0
  9
$TDCREATE
 40
2450731.4051530091
  9
$TDUPDATE
 40
2454953.7682049298
  9
$TDINDWG
 40
0.0049699884
  9
$TDUSRTIMER
 40
0.0049699884
  9
$USRTIMER
 70
     1
  9
$ANGBASE
 50
0.0
  9
$ANGDIR
 70
     0
  9
$PDMODE
 70
     0
  9
$PDSIZE
 40
0.0
  9
$PLINEWID
 40
0.0
  9
$COORDS
 70
     1
  9
$SPLFRAME
 70
     0
  9
$SPLINETYPE
 70
     6
  9
$SPLINESEGS
 70
     8
  9
$ATTDIA
 70
     0
  9
$ATTREQ
 70
     1
  9
$HANDLING
 70
 10241
  9
$HANDSEED
  5
7F96
  9
$SURFTAB1
 70
     6
  9
$SURFTAB2
 70
     6
  9
$SURFTYPE
 70
     6
  9
$SURFU
 70
     6
  9
$SURFV
 70
     6
  9
$UCSNAME
  2

  9
$UCSORG
 10
0.0
 20
0.0
 30
0.0
  9
$UCSXDIR
 10
1.0
 20
0.0
 30
0.0
  9
$UCSYDIR
 10
0.0
 20
1.0
 30
0.0
  9
$PUCSNAME
  2

  9
$PUCSORG
 10
0.0
 20
0.0
 30
0.0
  9
$PUCSXDIR
 10
1.0
 20
0.0
 30
0.0
  9
$PUCSYDIR
 10
0.0
 20
1.0
 30
0.0
  9
$USERI1
 70
     0
  9
$USERI2
 70
     0
  9
$USERI3
 70
     0
  9
$USERI4
 70
     0
  9
$USERI5
 70
     0
  9
$USERR1
 40
0.0
  9
$USERR2
 40
0.0
  9
$USERR3
 40
0.0
  9
$USERR4
 40
0.0
  9
$USERR5
 40
0.0
  9
$WORLDVIEW
 70
     1
  9
$SHADEDGE
 70
     3
  9
$SHADEDIF
 70
    70
  9
$TILEMODE
 70
     1
  9
$MAXACTVP
 70
    16
  9
$PLIMCHECK
 70
     0
  9
$PEXTMIN
 10
1.0000000000000000E+020
 20
1.0000000000000000E+020
 30
1.0000000000000000E+020
  9
$PEXTMAX
 10
-1.0000000000000000E+020
 20
-1.0000000000000000E+020
 30
-1.0000000000000000E+020
  9
$PLIMMIN
 10
0.0
 20
0.0
  9
$PLIMMAX
 10
12.0
 20
9.0
  9
$UNITMODE
 70
     0
  9
$VISRETAIN
 70
     0
  9
$PLINEGEN
 70
     0
  9
$PSLTSCALE
 70
     1
  0
ENDSEC
  0
SECTION
  2
TABLES
  0
TABLE
  2
VPORT
 70
     2
  0
VPORT
  2
*ACTIVE
 70
     0
 10
0.0
 20
0.0
 11
1.0
 21
1.0
 12
6292.1124769529506
 22
3086.6374998146398
 13
0.0
 23
0.0
 14
10.0
 24
10.0
 15
10.0
 25
10.0
 16
0.0
 26
0.0
 36
1.0
 17
0.0
 27
0.0
 37
0.0
 40
5011.4968576296578
 41
3.1666666666666661
 42
50.0
 43
0.0
 44
0.0
 50
0.0
 51
0.0
 71
     0
 72
   100
 73
     1
 74
     0
 75
     0
 76
     0
 77
     0
 78
     0
  0
ENDTAB
  0
TABLE
  2
LTYPE
 70
     2
  0
LTYPE
  2
CONTINUOUS
 70
     0
  3
Solid line
 72
    65
 73
     0
 40
0.0
  0
LTYPE
  2
CENTER
 70
     0
  3
____ _ ____ _ ____ _ ____ _ ____ _ ____ _ ____ 
 72
    65
 73
     4
 40
2.0
 49
1.25
 49
-0.25
 49
0.25
 49
-0.25
  0
ENDTAB
  0
TABLE
  2
LAYER
 70
     6
  0
LAYER
  2
0
 70
     0
 62
     7
  6
CONTINUOUS
  0
LAYER
  2
3
 70
     0
 62
     2
  6
CONTINUOUS
  0
LAYER
  2
2
 70
     0
 62
     3
  6
CENTER
  0
LAYER
  2
1
 70
     0
 62
     4
  6
CONTINUOUS
  0
LAYER
  2
4
 70
     0
 62
     7
  6
CONTINUOUS
  0
LAYER
  2
DEFPOINTS
 70
     0
 62
     7
  6
CONTINUOUS
  0
ENDTAB
  0
TABLE
  2
STYLE
 70
     1
  0
STYLE
  2
STANDARD
 70
     0
 40
0.0
 41
1.0
 50
0.0
 71
     0
 42
180.0
  3
simplex.shx
  4
extfont.shx
  0
ENDTAB
  0
TABLE
  2
VIEW
 70
     0
  0
ENDTAB
  0
TABLE
  2
UCS
 70
     0
  0
ENDTAB
  0
TABLE
  2
APPID
 70
     1
  0
APPID
  2
ACAD
 70
     0
  0
ENDTAB
  0
TABLE
  2
DIMSTYLE
 70
     1
  0
DIMSTYLE
  2
IGA
 70
     0
  3

  4

  5

  6
OPEN
  7
OPEN
 40
2.0
 41
2.0
 42
0.5
 43
10.0
 44
1.0
 45
0.0
 46
0.0
 47
1.0
 48
1.0
140
3.0
141
0.0
142
0.0
143
0.03937
144
1.0
145
0.0
146
10.0
147
1.0
 71
     0
 72
     0
 73
     0
 74
     0
 75
     0
 76
     0
 77
     1
 78
     8
170
     0
171
     2
172
     0
173
     1
174
     0
175
     0
176
     0
177
     0
178
     0
  0
ENDTAB
  0
ENDSEC
  0
SECTION
  2
BLOCKS
  0
BLOCK
  8
0
  2
$MODEL_SPACE
 70
     0
 10
0.0
 20
0.0
 30
0.0
  3
$MODEL_SPACE
  1

  0
ENDBLK
  5
1B
  8
0
  0
BLOCK
 67
     1
  8
0
  2
$PAPER_SPACE
 70
     0
 10
0.0
 20
0.0
 30
0.0
  3
$PAPER_SPACE
  1

  0
ENDBLK
  5
18
 67
     1
  8
0
  0
BLOCK
  8
0
  2
_OPEN
 70
     0
 10
0.0
 20
0.0
 30
0.0
  3
_OPEN
  1

  0
LINE
  5
7BA0
  8
0
  6
BYBLOCK
 62
     0
 10
-1.0
 20
0.166667
 30
0.0
 11
0.0
 21
0.0
 31
0.0
  0
LINE
  5
7BA1
  8
0
  6
BYBLOCK
 62
     0
 10
0.0
 20
0.0
 30
0.0
 11
-1.0
 21
-0.166667
 31
0.0
  0
LINE
  5
7BA2
  8
0
  6
BYBLOCK
 62
     0
 10
0.0
 20
0.0
 30
0.0
 11
-1.0
 21
0.0
 31
0.0
  0
ENDBLK
  5
7BA3
  8
0
  0
BLOCK
  8
0
  2
*D1
 70
     1
 10
0.0
 20
0.0
 30
0.0
  3
*D1
  1

  0
LINE
  5
7EFD
  8
3
  6
CONTINUOUS
 62
     0
 10
979.55653800000005
 20
2857.0976649999989
 30
0.0
 11
905.6071450000004
 21
2857.0976649999989
 31
0.0
  0
LINE
  5
7EFE
  8
3
  6
CONTINUOUS
 62
     0
 10
979.55653800000005
 20
2377.0976649999989
 30
0.0
 11
905.6071450000004
 21
2377.0976649999989
 31
0.0
  0
LINE
  5
7EFF
  8
3
  6
CONTINUOUS
 62
     0
 10
925.60714500000051
 20
2817.0976649999998
 30
0.0
 11
925.60714500000029
 21
2417.0976649999998
 31
0.0
  0
INSERT
  5
7F00
  8
3
  6
CONTINUOUS
 62
     0
  2
_OPEN
 10
925.60714500000051
 20
2857.0976649999989
 30
0.0
 41
40.0
 42
40.0
 43
40.0
 50
90.0
  0
INSERT
  5
7F01
  8
3
  6
CONTINUOUS
 62
     0
  2
_OPEN
 10
925.60714500000029
 20
2377.0976649999989
 30
0.0
 41
40.0
 42
40.0
 43
40.0
 50
270.0
  0
TEXT
  8
3
  40
60
  5
7F86
  62
0
  72
0
  71
0
 10
755.607
 20
2477.64
 30
0.000000
  1
480
  0
POINT
  5
7F03
  8
DEFPOINTS
  6
CONTINUOUS
 62
     0
 10
989.55653800000005
 20
2857.0976649999989
 30
0.0
  0
POINT
  5
7F04
  8
DEFPOINTS
  6
CONTINUOUS
 62
     0
 10
989.55653800000005
 20
2377.0976649999989
 30
0.0
  0
POINT
  5
7F05
  8
DEFPOINTS
  6
CONTINUOUS
 62
     0
 10
925.60714500000029
 20
2377.0976649999989
 30
0.0
  0
ENDBLK
  5
7C51
  8
0
  0
BLOCK
  8
0
  2
*D2
 70
     1
 10
0.0
 20
0.0
 30
0.0
  3
*D2
  1

  0
LINE
  5
7F06
  8
3
  6
CONTINUOUS
 62
     0
 10
915.60714499999983
 20
2857.0976649999989
 30
0.0
 11
771.17408600000056
 21
2857.0976649999989
 31
0.0
  0
LINE
  5
7F07
  8
3
  6
CONTINUOUS
 62
     0
 10
859.5339449999999
 20
2395.0976649999989
 30
0.0
 11
771.17408600000044
 21
2395.0976649999989
 31
0.0
  0
LINE
  5
7F08
  8
3
  6
CONTINUOUS
 62
     0
 10
791.17408600000044
 20
2817.0976649999998
 30
0.0
 11
791.17408600000044
 21
2435.0976649999998
 31
0.0
  0
INSERT
  5
7F09
  8
3
  6
CONTINUOUS
 62
     0
  2
_OPEN
 10
791.17408600000044
 20
2857.0976649999989
 30
0.0
 41
40.0
 42
40.0
 43
40.0
 50
90.0
  0
INSERT
  5
7F0A
  8
3
  6
CONTINUOUS
 62
     0
  2
_OPEN
 10
791.17408600000044
 20
2395.0976649999989
 30
0.0
 41
40.0
 42
40.0
 43
40.0
 50
270.0
  0
TEXT
  8
3
  40
60
  5
7F87
  62
0
  72
0
  71
0
 10
621.174
 20
2463.16
 30
0.000000
  1
462
  0
POINT
  5
7F0C
  8
DEFPOINTS
  6
CONTINUOUS
 62
     0
 10
925.60714499999995
 20
2857.0976649999989
 30
0.0
  0
POINT
  5
7F0D
  8
DEFPOINTS
  6
CONTINUOUS
 62
     0
 10
869.53394499999979
 20
2395.0976649999989
 30
0.0
  0
POINT
  5
7F0E
  8
DEFPOINTS
  6
CONTINUOUS
 62
     0
 10
791.17408600000044
 20
2395.0976649999989
 30
0.0
  0
ENDBLK
  5
7C46
  8
0
  0
BLOCK
  8
0
  2
*D3
 70
     1
 10
0.0
 20
0.0
 30
0.0
  3
*D3
  1

  0
LINE
  5
7F0F
  8
3
  6
CONTINUOUS
 62
     0
 10
1034.556538
 20
1960.097665
 30
0.0
 11
771.17408599999987
 21
1960.097665
 31
0.0
  0
LINE
  5
7F10
  8
3
  6
CONTINUOUS
 62
     0
 10
791.17408599999999
 20
2355.0976649999998
 30
0.0
 11
791.17408599999999
 21
2000.0976649999991
 31
0.0
  0
INSERT
  5
7F11
  8
3
  6
CONTINUOUS
 62
     0
  2
_OPEN
 10
791.17408599999999
 20
2395.0976649999989
 30
0.0
 41
40.0
 42
40.0
 43
40.0
 50
90.0
  0
INSERT
  5
7F12
  8
3
  6
CONTINUOUS
 62
     0
  2
_OPEN
 10
791.17408599999999
 20
1960.097665
 30
0.0
 41
40.0
 42
40.0
 43
40.0
 50
270.0
  0
TEXT
  8
3
  40
60
  5
7F88
  62
0
  72
0
  71
0
 10
621.174
 20
2071.40
 30
0.000000
  1
435
  0
POINT
  5
7F14
  8
DEFPOINTS
  6
CONTINUOUS
 62
     0
 10
869.53394499999979
 20
2395.0976649999989
 30
0.0
  0
POINT
  5
7F15
  8
DEFPOINTS
  6
CONTINUOUS
 62
     0
 10
1044.556538
 20
1960.097665
 30
0.0
  0
POINT
  5
7F16
  8
DEFPOINTS
  6
CONTINUOUS
 62
     0
 10
791.17408599999999
 20
1960.097665
 30
0.0
  0
ENDBLK
  5
7BC9
  8
0
  0
BLOCK
  8
0
  2
*D4
 70
     1
 10
0.0
 20
0.0
 30
0.0
  3
*D4
  1

  0
LINE
  5
7F17
  8
3
  6
CONTINUOUS
 62
     0
 10
989.55653800000005
 20
2884.0976649999998
 30
0.0
 11
989.55653800000005
 21
2960.9239520000001
 31
0.0
  0
LINE
  5
7F18
  8
3
  6
CONTINUOUS
 62
     0
 10
1344.556538
 20
2912.54053696648
 30
0.0
 11
1344.556538
 21
2960.9239520000001
 31
0.0
  0
LINE
  5
7F19
  8
3
  6
CONTINUOUS
 62
     0
 10
1029.556538
 20
2940.9239520000001
 30
0.0
 11
1304.556538
 21
2940.9239520000001
 31
0.0
  0
INSERT
  5
7F1A
  8
3
  6
CONTINUOUS
 62
     0
  2
_OPEN
 10
989.55653800000005
 20
2940.9239520000001
 30
0.0
 41
40.0
 42
40.0
 43
40.0
 50
180.0
  0
INSERT
  5
7F1B
  8
3
  6
CONTINUOUS
 62
     0
  2
_OPEN
 10
1344.556538
 20
2940.9239520000001
 30
0.0
 41
40.0
 42
40.0
 43
40.0
  0
TEXT
  8
3
  40
60
  5
7F89
  62
0
  72
0
  71
0
 10
1047.59
 20
2884.72
 30
0.000000
  1
355
  0
POINT
  5
7F1D
  8
DEFPOINTS
  6
CONTINUOUS
 62
     0
 10
989.55653800000005
 20
2874.0976649999989
 30
0.0
  0
POINT
  5
7F1E
  8
DEFPOINTS
  6
CONTINUOUS
 62
     0
 10
1344.556538
 20
2902.54053696648
 30
0.0
  0
POINT
  5
7F1F
  8
DEFPOINTS
  6
CONTINUOUS
 62
     0
 10
1344.556538
 20
2940.9239520000001
 30
0.0
  0
ENDBLK
  5
7E1E
  8
0
  0
BLOCK
  8
0
  2
*D5
 70
     1
 10
0.0
 20
0.0
 30
0.0
  3
*D5
  1

  0
LINE
  5
7F20
  8
3
  6
CONTINUOUS
 62
     0
 10
1754.556538
 20
2760.0976649999989
 30
0.0
 11
1754.556538
 21
2960.9239520000001
 31
0.0
  0
LINE
  5
7F21
  8
3
  6
CONTINUOUS
 62
     0
 10
1384.556538
 20
2940.9239520000001
 30
0.0
 11
1714.5565379999989
 21
2940.9239520000001
 31
0.0
  0
INSERT
  5
7F22
  8
3
  6
CONTINUOUS
 62
     0
  2
_OPEN
 10
1344.556538
 20
2940.9239520000001
 30
0.0
 41
40.0
 42
40.0
 43
40.0
 50
180.0
  0
INSERT
  5
7F23
  8
3
  6
CONTINUOUS
 62
     0
  2
_OPEN
 10
1754.556538
 20
2940.9239520000001
 30
0.0
 41
40.0
 42
40.0
 43
40.0
  0
TEXT
  8
3
  40
60
  5
7F8A
  62
0
  72
0
  71
0
 10
1429.56
 20
2884.72
 30
0.000000
  1
410
  0
POINT
  5
7F25
  8
DEFPOINTS
  6
CONTINUOUS
 62
     0
 10
1344.556538
 20
2909.4918971597181
 30
0.0
  0
POINT
  5
7F26
  8
DEFPOINTS
  6
CONTINUOUS
 62
     0
 10
1754.556538
 20
2750.0976649999998
 30
0.0
  0
POINT
  5
7F27
  8
DEFPOINTS
  6
CONTINUOUS
 62
     0
 10
1754.556538
 20
2940.9239520000001
 30
0.0
  0
ENDBLK
  5
7E13
  8
0
  0
BLOCK
  8
0
  2
*D6
 70
     1
 10
0.0
 20
0.0
 30
0.0
  3
*D6
  1

  0
LINE
  5
7F28
  8
3
  6
CONTINUOUS
 62
     0
 10
3475.0175439999989
 20
2894.0976649999998
 30
0.0
 11
3475.0175439999989
 21
2954.8475457871609
 31
0.0
  0
LINE
  5
7F29
  8
3
  6
CONTINUOUS
 62
     0
 10
3115.0175439999998
 20
2894.0976649999998
 30
0.0
 11
3115.0175439999998
 21
2954.8475457871609
 31
0.0
  0
LINE
  5
7F2A
  8
3
  6
CONTINUOUS
 62
     0
 10
3435.0175439999998
 20
2934.8475457871609
 30
0.0
 11
3155.0175439999998
 21
2934.8475457871609
 31
0.0
  0
INSERT
  5
7F2B
  8
3
  6
CONTINUOUS
 62
     0
  2
_OPEN
 10
3475.0175439999989
 20
2934.8475457871609
 30
0.0
 41
40.0
 42
40.0
 43
40.0
  0
INSERT
  5
7F2C
  8
3
  6
CONTINUOUS
 62
     0
  2
_OPEN
 10
3115.0175439999998
 20
2934.8475457871609
 30
0.0
 41
40.0
 42
40.0
 43
40.0
 50
180.0
  0
TEXT
  8
3
  40
60
  5
7F8B
  62
0
  72
0
  71
0
 10
3176.29
 20
2878.65
 30
0.000000
  1
360
  0
POINT
  5
7F2E
  8
DEFPOINTS
  6
CONTINUOUS
 62
     0
 10
3475.0175439999989
 20
2884.0976649999998
 30
0.0
  0
POINT
  5
7F2F
  8
DEFPOINTS
  6
CONTINUOUS
 62
     0
 10
3115.0175439999998
 20
2884.0976649999998
 30
0.0
  0
POINT
  5
7F30
  8
DEFPOINTS
  6
CONTINUOUS
 62
     0
 10
3115.0175439999998
 20
2934.8475457871609
 30
0.0
  0
ENDBLK
  5
7E62
  8
0
  0
BLOCK
  8
0
  2
*D7
 70
     1
 10
0.0
 20
0.0
 30
0.0
  3
*D7
  1

  0
LINE
  5
7F31
  8
3
  6
CONTINUOUS
 62
     0
 10
3486.0175439999998
 20
2645.0976649999989
 30
0.0
 11
3664.5524799999998
 21
2645.0976649999989
 31
0.0
  0
LINE
  5
7F32
  8
3
  6
CONTINUOUS
 62
     0
 10
3486.0175439999998
 20
2145.0976649999989
 30
0.0
 11
3664.5524799999998
 21
2145.0976649999989
 31
0.0
  0
LINE
  5
7F33
  8
3
  6
CONTINUOUS
 62
     0
 10
3644.5524799999998
 20
2605.0976649999998
 30
0.0
 11
3644.5524799999998
 21
2185.0976649999998
 31
0.0
  0
INSERT
  5
7F34
  8
3
  6
CONTINUOUS
 62
     0
  2
_OPEN
 10
3644.5524799999998
 20
2645.0976649999989
 30
0.0
 41
40.0
 42
40.0
 43
40.0
 50
90.0
  0
INSERT
  5
7F35
  8
3
  6
CONTINUOUS
 62
     0
  2
_OPEN
 10
3644.5524799999998
 20
2145.0976649999989
 30
0.0
 41
40.0
 42
40.0
 43
40.0
 50
270.0
  0
TEXT
  8
3
  40
60
  5
7F8C
  62
0
  72
0
  71
0
 10
3474.55
 20
2305.27
 30
0.000000
  1
φ500
  0
POINT
  5
7F37
  8
DEFPOINTS
  6
CONTINUOUS
 62
     0
 10
3476.0175439999989
 20
2645.0976649999989
 30
0.0
  0
POINT
  5
7F38
  8
DEFPOINTS
  6
CONTINUOUS
 62
     0
 10
3476.0175439999989
 20
2145.0976649999989
 30
0.0
  0
POINT
  5
7F39
  8
DEFPOINTS
  6
CONTINUOUS
 62
     0
 10
3644.5524799999998
 20
2145.0976649999989
 30
0.0
  0
ENDBLK
  5
7E09
  8
0
  0
BLOCK
  8
0
  2
*D8
 70
     1
 10
0.0
 20
0.0
 30
0.0
  3
*D8
  1

  0
LINE
  5
7E6E
  8
0
  6
BYBLOCK
 62
     0
 10
3476.0175439999989
 20
2655.0976649999989
 30
0.0
 11
3476.0175439999989
 21
3124.4816599999999
 31
0.0
  0
LINE
  5
7E6F
  8
0
  6
BYBLOCK
 62
     0
 10
3295.0175439999998
 20
3033.902503684968
 30
0.0
 11
3295.0175439999998
 21
3124.4816599999999
 31
0.0
  0
LINE
  5
7E70
  8
0
  6
BYBLOCK
 62
     0
 10
3436.0175439999998
 20
3104.4816599999999
 30
0.0
 11
3335.0175439999998
 21
3104.4816599999999
 31
0.0
  0
TEXT
  5
7E71
  8
3
 62
     0
 10
3326.9461154285709
 20
3132.4305813782871
 30
0.0
 40
60.0
  1
181
  0
INSERT
  5
7E72
  8
0
  6
BYBLOCK
 62
     0
  2
_OPEN
 10
3476.0175439999989
 20
3104.4816599999999
 30
0.0
 41
40.0
 42
40.0
 43
40.0
  0
INSERT
  5
7E73
  8
0
  6
BYBLOCK
 62
     0
  2
_OPEN
 10
3295.0175439999998
 20
3104.4816599999999
 30
0.0
 41
40.0
 42
40.0
 43
40.0
 50
180.0
  0
POINT
  5
7E74
  8
DEFPOINTS
  6
BYBLOCK
 62
     0
 10
3476.0175439999989
 20
2645.0976649999989
 30
0.0
  0
POINT
  5
7E75
  8
DEFPOINTS
  6
BYBLOCK
 62
     0
 10
3295.0175439999998
 20
3023.902503684968
 30
0.0
  0
POINT
  5
7E76
  8
DEFPOINTS
  6
BYBLOCK
 62
     0
 10
3295.0175439999998
 20
3104.4816599999999
 30
0.0
  0
ENDBLK
  5
7E77
  8
0
  0
BLOCK
  8
0
  2
*D9
 70
     1
 10
0.0
 20
0.0
 30
0.0
  3
*D9
  1

  0
LINE
  5
7F3A
  8
3
  6
CONTINUOUS
 62
     0
 10
2925.0175439999998
 20
2795.0976649999998
 30
0.0
 11
2925.0175439999998
 21
3124.4816599999999
 31
0.0
  0
LINE
  5
7F3B
  8
3
  6
CONTINUOUS
 62
     0
 10
3255.0175439999998
 20
3104.4816599999999
 30
0.0
 11
2965.0175439999998
 21
3104.4816599999999
 31
0.0
  0
INSERT
  5
7F3C
  8
3
  6
CONTINUOUS
 62
     0
  2
_OPEN
 10
3295.0175439999998
 20
3104.4816599999999
 30
0.0
 41
40.0
 42
40.0
 43
40.0
  0
INSERT
  5
7F3D
  8
3
  6
CONTINUOUS
 62
     0
  2
_OPEN
 10
2925.0175439999998
 20
3104.4816599999999
 30
0.0
 41
40.0
 42
40.0
 43
40.0
 50
180.0
  0
TEXT
  8
3
  40
60
  5
7F8D
  62
0
  72
0
  71
0
 10
2990.02
 20
3098.28
 30
0.000000
  1
MAX
  0
TEXT
  8
3
  40
60
  5
7F8E
  62
0
  72
0
  71
0
 10
2990.02
 20
3020.28
 30
0.000000
  1
430
  0
POINT
  5
7F3F
  8
DEFPOINTS
  6
CONTINUOUS
 62
     0
 10
3295.0175439999998
 20
3023.902503684968
 30
0.0
  0
POINT
  5
7F40
  8
DEFPOINTS
  6
CONTINUOUS
 62
     0
 10
2925.0175439999998
 20
2785.0976649999998
 30
0.0
  0
POINT
  5
7F41
  8
DEFPOINTS
  6
CONTINUOUS
 62
     0
 10
2925.0175439999998
 20
3104.4816599999999
 30
0.0
  0
ENDBLK
  5
7E6C
  8
0
  0
BLOCK
  8
0
  2
*D10
 70
     1
 10
0.0
 20
0.0
 30
0.0
  3
*D10
  1

  0
LINE
  5
7F42
  8
3
  6
CONTINUOUS
 62
     0
 10
1044.556538
 20
4232.2276649999994
 30
0.0
 11
1044.556538
 21
4388.0285370000001
 31
0.0
  0
LINE
  5
7F43
  8
3
  6
CONTINUOUS
 62
     0
 10
2164.5565379999989
 20
4232.2276649999994
 30
0.0
 11
2164.5565379999989
 21
4388.0285370000001
 31
0.0
  0
LINE
  5
7F44
  8
3
  6
CONTINUOUS
 62
     0
 10
1084.5565379999989
 20
4368.0285369999992
 30
0.0
 11
2124.5565379999989
 21
4368.0285369999992
 31
0.0
  0
INSERT
  5
7F45
  8
3
  6
CONTINUOUS
 62
     0
  2
_OPEN
 10
1044.556538
 20
4368.0285369999992
 30
0.0
 41
40.0
 42
40.0
 43
40.0
 50
180.0
  0
INSERT
  5
7F46
  8
3
  6
CONTINUOUS
 62
     0
  2
_OPEN
 10
2164.5565379999989
 20
4368.0285369999992
 30
0.0
 41
40.0
 42
40.0
 43
40.0
  0
TEXT
  8
3
  40
60
  5
7F8F
  62
0
  72
0
  71
0
 10
1481.22
 20
4311.83
 30
0.000000
  1
1120
  0
POINT
  5
7F48
  8
DEFPOINTS
  6
CONTINUOUS
 62
     0
 10
1044.556538
 20
4222.2276650000003
 30
0.0
  0
POINT
  5
7F49
  8
DEFPOINTS
  6
CONTINUOUS
 62
     0
 10
2164.5565379999989
 20
4222.2276650000003
 30
0.0
  0
POINT
  5
7F4A
  8
DEFPOINTS
  6
CONTINUOUS
 62
     0
 10
2164.5565379999989
 20
4368.0285369999992
 30
0.0
  0
ENDBLK
  5
7D56
  8
0
  0
BLOCK
  8
0
  2
*D11
 70
     1
 10
0.0
 20
0.0
 30
0.0
  3
*D11
  1

  0
LINE
  5
7F4B
  8
3
  6
CONTINUOUS
 62
     0
 10
2174.5565379999998
 20
4222.2276650000003
 30
0.0
 11
2377.0329849999998
 21
4222.2276650000003
 31
0.0
  0
LINE
  5
7F4C
  8
3
  6
CONTINUOUS
 62
     0
 10
2174.5565379999998
 20
3774.2276649999999
 30
0.0
 11
2377.0329849999998
 21
3774.2276649999999
 31
0.0
  0
LINE
  5
7F4D
  8
3
  6
CONTINUOUS
 62
     0
 10
2357.0329849999998
 20
4182.2276649999994
 30
0.0
 11
2357.0329849999998
 21
3814.2276649999999
 31
0.0
  0
INSERT
  5
7F4E
  8
3
  6
CONTINUOUS
 62
     0
  2
_OPEN
 10
2357.0329849999998
 20
4222.2276650000003
 30
0.0
 41
40.0
 42
40.0
 43
40.0
 50
90.0
  0
INSERT
  5
7F4F
  8
3
  6
CONTINUOUS
 62
     0
  2
_OPEN
 10
2357.0329849999998
 20
3774.2276649999999
 30
0.0
 41
40.0
 42
40.0
 43
40.0
 50
270.0
  0
TEXT
  8
3
  40
60
  5
7F90
  62
0
  72
0
  71
0
 10
2187.03
 20
3891.03
 30
0.000000
  1
448
  0
POINT
  5
7F51
  8
DEFPOINTS
  6
CONTINUOUS
 62
     0
 10
2164.5565379999989
 20
4222.2276650000003
 30
0.0
  0
POINT
  5
7F52
  8
DEFPOINTS
  6
CONTINUOUS
 62
     0
 10
2164.5565379999989
 20
3774.2276649999999
 30
0.0
  0
POINT
  5
7F53
  8
DEFPOINTS
  6
CONTINUOUS
 62
     0
 10
2357.0329849999998
 20
3774.2276649999999
 30
0.0
  0
ENDBLK
  5
7D61
  8
0
  0
BLOCK
  8
0
  2
*D12
 70
     1
 10
0.0
 20
0.0
 30
0.0
  3
*D12
  1

  0
LINE
  5
7F54
  8
3
 62
     0
 10
1044.556538
 20
1790.0976649999991
 30
0.0
 11
1044.556538
 21
1646.4111651993639
 31
0.0
  0
LINE
  5
7F55
  8
3
 62
     0
 10
1344.556538
 20
1790.097665
 30
0.0
 11
1344.556538
 21
1646.4111651993639
 31
0.0
  0
LINE
  5
7F56
  8
3
 62
     0
 10
1084.5565379999989
 20
1666.4111651993639
 30
0.0
 11
1304.556538
 21
1666.4111651993639
 31
0.0
  0
INSERT
  5
7F57
  8
3
 62
     0
  2
_OPEN
 10
1044.556538
 20
1666.4111651993639
 30
0.0
 41
40.0
 42
40.0
 43
40.0
 50
180.0
  0
INSERT
  5
7F58
  8
3
 62
     0
  2
_OPEN
 10
1344.556538
 20
1666.4111651993639
 30
0.0
 41
40.0
 42
40.0
 43
40.0
  0
TEXT
  8
3
  40
60
  5
7F91
  62
0
  72
0
  71
0
 10
1074.56
 20
1610.21
 30
0.000000
  1
300
  0
POINT
  5
7F5A
  8
DEFPOINTS
 62
     0
 10
1044.556538
 20
1800.097665
 30
0.0
  0
POINT
  5
7F5B
  8
DEFPOINTS
 62
     0
 10
1344.556538
 20
1800.097665
 30
0.0
  0
POINT
  5
7F5C
  8
DEFPOINTS
 62
     0
 10
1344.556538
 20
1666.4111651993639
 30
0.0
  0
ENDBLK
  5
7E8B
  8
0
  0
BLOCK
  8
0
  2
*D13
 70
     1
 10
0.0
 20
0.0
 30
0.0
  3
*D13
  1

  0
LINE
  5
7F5D
  8
3
 62
     0
 10
1344.556538
 20
1790.097665
 30
0.0
 11
1344.556538
 21
1646.4111651993639
 31
0.0
  0
LINE
  5
7F5E
  8
3
 62
     0
 10
2164.5565379999989
 20
1790.0976649999991
 30
0.0
 11
2164.5565379999989
 21
1646.4111651993639
 31
0.0
  0
LINE
  5
7F5F
  8
3
 62
     0
 10
1384.556538
 20
1666.4111651993639
 30
0.0
 11
2124.5565379999989
 21
1666.4111651993639
 31
0.0
  0
INSERT
  5
7F60
  8
3
 62
     0
  2
_OPEN
 10
1344.556538
 20
1666.4111651993639
 30
0.0
 41
40.0
 42
40.0
 43
40.0
 50
180.0
  0
INSERT
  5
7F61
  8
3
 62
     0
  2
_OPEN
 10
2164.5565379999989
 20
1666.4111651993639
 30
0.0
 41
40.0
 42
40.0
 43
40.0
  0
TEXT
  8
3
  40
60
  5
7F92
  62
0
  72
0
  71
0
 10
1634.56
 20
1610.21
 30
0.000000
  1
820
  0
POINT
  5
7F63
  8
DEFPOINTS
 62
     0
 10
1344.556538
 20
1800.097665
 30
0.0
  0
POINT
  5
7F64
  8
DEFPOINTS
 62
     0
 10
2164.5565379999989
 20
1800.097665
 30
0.0
  0
POINT
  5
7F65
  8
DEFPOINTS
 62
     0
 10
2164.5565379999989
 20
1666.4111651993639
 30
0.0
  0
ENDBLK
  5
7E98
  8
0
  0
BLOCK
  8
0
  2
*D14
 70
     1
 10
0.0
 20
0.0
 30
0.0
  3
*D14
  1

  0
LINE
  5
7F66
  8
3
 62
     0
 10
3071.0175439999998
 20
1790.0976649999991
 30
0.0
 11
3071.0175439999998
 21
1646.4111651993639
 31
0.0
  0
LINE
  5
7F67
  8
3
 62
     0
 10
3295.0175439999998
 20
1790.0976649999991
 30
0.0
 11
3295.0175439999998
 21
1646.4111651993639
 31
0.0
  0
LINE
  5
7F68
  8
3
 62
     0
 10
3111.0175439999998
 20
1666.4111651993639
 30
0.0
 11
3255.0175439999998
 21
1666.4111651993639
 31
0.0
  0
INSERT
  5
7F69
  8
3
 62
     0
  2
_OPEN
 10
3071.0175439999998
 20
1666.4111651993639
 30
0.0
 41
40.0
 42
40.0
 43
40.0
 50
180.0
  0
INSERT
  5
7F6A
  8
3
 62
     0
  2
_OPEN
 10
3295.0175439999998
 20
1666.4111651993639
 30
0.0
 41
40.0
 42
40.0
 43
40.0
  0
TEXT
  8
3
  40
60
  5
7F93
  62
0
  72
0
  71
0
 10
3063.02
 20
1610.21
 30
0.000000
  1
224
  0
POINT
  5
7F6C
  8
DEFPOINTS
 62
     0
 10
3071.0175439999998
 20
1800.097665
 30
0.0
  0
POINT
  5
7F6D
  8
DEFPOINTS
 62
     0
 10
3295.0175439999998
 20
1800.097665
 30
0.0
  0
POINT
  5
7F6E
  8
DEFPOINTS
 62
     0
 10
3295.0175439999998
 20
1666.4111651993639
 30
0.0
  0
ENDBLK
  5
7EA7
  8
0
  0
BLOCK
  8
0
  2
*D15
 70
     1
 10
0.0
 20
0.0
 30
0.0
  3
*D15
  1

  0
LINE
  5
7F6F
  8
3
 62
     0
 10
3295.0175439999998
 20
1790.0976649999991
 30
0.0
 11
3295.0175439999998
 21
1646.4111651993639
 31
0.0
  0
LINE
  5
7F70
  8
3
 62
     0
 10
3519.0175439999989
 20
1790.0976649999991
 30
0.0
 11
3519.0175439999989
 21
1646.4111651993639
 31
0.0
  0
LINE
  5
7F71
  8
3
 62
     0
 10
3335.0175439999998
 20
1666.4111651993639
 30
0.0
 11
3479.0175439999989
 21
1666.4111651993639
 31
0.0
  0
INSERT
  5
7F72
  8
3
 62
     0
  2
_OPEN
 10
3295.0175439999998
 20
1666.4111651993639
 30
0.0
 41
40.0
 42
40.0
 43
40.0
 50
180.0
  0
INSERT
  5
7F73
  8
3
 62
     0
  2
_OPEN
 10
3519.0175439999989
 20
1666.4111651993639
 30
0.0
 41
40.0
 42
40.0
 43
40.0
  0
TEXT
  8
3
  40
60
  5
7F94
  62
0
  72
0
  71
0
 10
3287.02
 20
1610.21
 30
0.000000
  1
224
  0
POINT
  5
7F75
  8
DEFPOINTS
 62
     0
 10
3295.0175439999998
 20
1800.097665
 30
0.0
  0
POINT
  5
7F76
  8
DEFPOINTS
 62
     0
 10
3519.0175439999989
 20
1800.097665
 30
0.0
  0
POINT
  5
7F77
  8
DEFPOINTS
 62
     0
 10
3519.0175439999989
 20
1666.4111651993639
 30
0.0
  0
ENDBLK
  5
7EB6
  8
0
  0
BLOCK
  8
0
  2
_DOT
 70
     0
 10
0.0
 20
0.0
 30
0.0
  3
_DOT
  1

  0
POLYLINE
  5
7EBA
  8
0
  6
BYBLOCK
 62
     0
 66
     1
 10
0.0
 20
0.0
 30
0.0
 70
     1
 40
0.5
 41
0.5
  0
VERTEX
  5
7F78
  8
0
  6
BYBLOCK
 62
     0
 10
-0.25
 20
0.0
 30
0.0
 42
1.0
  0
VERTEX
  5
7F79
  8
0
  6
BYBLOCK
 62
     0
 10
0.25
 20
0.0
 30
0.0
 42
1.0
  0
SEQEND
  5
7F7A
  8
0
  6
BYBLOCK
 62
     0
  0
LINE
  5
7EBE
  8
0
  6
BYBLOCK
 62
     0
 10
-0.5
 20
0.0
 30
0.0
 11
-1.0
 21
0.0
 31
0.0
  0
ENDBLK
  5
7EBF
  8
0
  0
BLOCK
  8
0
  2
*D17
 70
     1
 10
0.0
 20
0.0
 30
0.0
  3
*D17
  1

  0
LINE
  5
7F7B
  8
3
 62
     0
 10
1034.556538
 20
1865.0976649999991
 30
0.0
 11
769.98045557590012
 21
1865.0976649999991
 31
0.0
  0
LINE
  5
7F7C
  8
3
 62
     0
 10
1034.556538
 20
1800.097665
 30
0.0
 11
769.98045557590012
 21
1800.097665
 31
0.0
  0
LINE
  5
7F7D
  8
3
 62
     0
 10
789.98045557590012
 20
1905.0976649999991
 30
0.0
 11
789.98045557590012
 21
1945.0976649999991
 31
0.0
  0
LINE
  5
7F7E
  8
3
 62
     0
 10
789.98045557590001
 20
1760.0976649999991
 30
0.0
 11
789.98045557590001
 21
1582.954807857142
 31
0.0
  0
LINE
  5
7F7F
  8
3
 62
     0
 10
789.98045557590012
 20
1865.0976649999991
 30
0.0
 11
789.98045557590012
 21
1800.097665
 31
0.0
  0
INSERT
  5
7F80
  8
3
 62
     0
  2
_DOT
 10
789.98045557590012
 20
1865.0976649999991
 30
0.0
 41
40.0
 42
40.0
 43
40.0
 50
270.0
  0
INSERT
  5
7F81
  8
3
 62
     0
  2
_OPEN
 10
789.98045557590012
 20
1800.097665
 30
0.0
 41
40.0
 42
40.0
 43
40.0
 50
90.0
  0
TEXT
  8
3
  40
60
  5
7F95
  62
0
  72
0
  71
0
 10
619.980
 20
1545.33
 30
0.000000
  1
65
  0
POINT
  5
7F83
  8
DEFPOINTS
 62
     0
 10
1044.556538
 20
1865.0976649999991
 30
0.0
  0
POINT
  5
7F84
  8
DEFPOINTS
 62
     0
 10
1044.556538
 20
1800.097665
 30
0.0
  0
POINT
  5
7F85
  8
DEFPOINTS
 62
     0
 10
789.98045557590012
 20
1800.097665
 30
0.0
  0
ENDBLK
  5
7ECD
  8
0
  0
BLOCK
  8
0
  2
*D18
 70
     1
 10
0.0
 20
0.0
 30
0.0
  3
*D18
  1

  0
LINE
  5
7ED1
  8
0
  6
BYBLOCK
 62
     0
 10
1034.556538
 20
1865.0976649999991
 30
0.0
 11
769.98045557590012
 21
1865.0976649999991
 31
0.0
  0
LINE
  5
7ED2
  8
0
  6
BYBLOCK
 62
     0
 10
1034.556538
 20
1960.097665
 30
0.0
 11
769.98045557590012
 21
1960.097665
 31
0.0
  0
LINE
  5
7ED3
  8
0
  6
BYBLOCK
 62
     0
 10
789.98045557590012
 20
1825.0976649999991
 30
0.0
 11
789.98045557590012
 21
1785.097665
 31
0.0
  0
LINE
  5
7ED4
  8
0
  6
BYBLOCK
 62
     0
 10
789.98045557590012
 20
2000.0976649999991
 30
0.0
 11
789.98045557590012
 21
2040.0976649999991
 31
0.0
  0
TEXT
  5
7ED5
  8
3
 62
     0
 10
714.26616986161434
 20
1825.454807857142
 30
0.0
 40
60.0
  1
(95)
 50
90.0
  0
LINE
  5
7ED6
  8
0
  6
BYBLOCK
 62
     0
 10
789.98045557590012
 20
1865.0976649999991
 30
0.0
 11
789.98045557590012
 21
1960.097665
 31
0.0
  0
INSERT
  5
7ED7
  8
0
  6
BYBLOCK
 62
     0
  2
_DOT
 10
789.98045557590012
 20
1865.0976649999991
 30
0.0
 41
40.0
 42
40.0
 43
40.0
 50
90.0
  0
INSERT
  5
7ED8
  8
0
  6
BYBLOCK
 62
     0
  2
_OPEN
 10
789.98045557590012
 20
1960.097665
 30
0.0
 41
40.0
 42
40.0
 43
40.0
 50
270.0
  0
POINT
  5
7ED9
  8
DEFPOINTS
  6
BYBLOCK
 62
     0
 10
1044.556538
 20
1865.0976649999991
 30
0.0
  0
POINT
  5
7EDA
  8
DEFPOINTS
  6
BYBLOCK
 62
     0
 10
1044.556538
 20
1960.097665
 30
0.0
  0
POINT
  5
7EDB
  8
DEFPOINTS
  6
BYBLOCK
 62
     0
 10
789.98045557590012
 20
1960.097665
 30
0.0
  0
ENDBLK
  5
7EDC
  8
0
  0
ENDSEC
  0
SECTION
  2
ENTITIES
  0
LINE
  5
7ABE
  8
1
  6
CONTINUOUS
 10
1925.556538
 20
3774.2276649999999
 30
0.0
 11
1363.556538
 21
3774.2276649999999
 31
0.0
  0
LINE
  5
7ABF
  8
1
  6
CONTINUOUS
 10
2164.5565379999989
 20
4222.2276650000003
 30
0.0
 11
1044.556538
 21
4222.2276650000003
 31
0.0
  0
LINE
  5
7AC0
  8
1
  6
CONTINUOUS
 10
2164.5565379999989
 20
2040.0976649999991
 30
0.0
 11
1034.556538
 21
2040.0976649999991
 31
0.0
  0
LINE
  5
7AC1
  8
1
  6
CONTINUOUS
 10
2164.5565379999989
 20
1960.097665
 30
0.0
 11
1044.556538
 21
1960.097665
 31
0.0
  0
LINE
  5
7AC2
  8
1
  6
CONTINUOUS
 10
1752.7465380000001
 20
4180.2276649999994
 30
0.0
 11
989.55653800000005
 21
4180.2276649999994
 31
0.0
  0
LINE
  5
7AC3
  8
1
  6
CONTINUOUS
 10
1752.7465380000001
 20
3816.2276649999999
 30
0.0
 11
989.55653800000005
 21
3816.2276649999999
 31
0.0
  0
ARC
  5
7AC4
  8
1
  6
CONTINUOUS
 10
1321.476909
 20
2425.5610820000002
 30
0.0
 40
431.17249299999992
 50
355.26344499999999
 51
86.879466000000008
  0
ARC
  5
7AC5
  8
1
  6
CONTINUOUS
 10
1371.556538
 20
2422.0976649999989
 30
0.0
 40
380.98000000000002
 50
261.52999999999992
 51
355.16000000000003
  0
LINE
  5
7AC6
  8
1
  6
CONTINUOUS
 10
1754.556538
 20
2750.0976649999998
 30
0.0
 11
1034.556538
 21
2750.0976649999998
 31
0.0
  0
CIRCLE
  5
7AC7
  8
1
  6
CONTINUOUS
 10
1344.556538
 20
2395.0976649999989
 30
0.0
 40
275.0
  0
LINE
  5
7AC8
  8
1
  6
CONTINUOUS
 10
2164.5565379999989
 20
1800.097665
 30
0.0
 11
1044.556538
 21
1800.097665
 31
0.0
  0
LINE
  5
7AC9
  8
1
  6
CONTINUOUS
 10
2164.5565379999989
 20
1865.0976649999991
 30
0.0
 11
1044.556538
 21
1865.0976649999991
 31
0.0
  0
LINE
  5
7AD1
  8
1
  6
CONTINUOUS
 10
1388.7265379999999
 20
2506.6676649999999
 30
0.0
 11
1966.646538
 21
2277.8876649999988
 31
0.0
  0
LINE
  5
7AD2
  8
1
  6
CONTINUOUS
 10
1933.5465379999989
 20
2163.1176649999989
 30
0.0
 11
1322.5465380000001
 21
2277.1376649999988
 31
0.0
  0
LINE
  5
7AD3
  8
1
  6
CONTINUOUS
 10
1119.056538
 20
3628.2276649999999
 30
0.0
 11
2119.0565379999998
 21
3628.2276649999999
 31
0.0
  0
LINE
  5
7AD4
  8
1
  6
CONTINUOUS
 10
2119.0565379999998
 20
3748.2276649999999
 30
0.0
 11
1119.056538
 21
3748.2276649999999
 31
0.0
  0
LINE
  5
7AD5
  8
1
  6
CONTINUOUS
 10
1031.1865379999999
 20
2377.0976649999989
 30
0.0
 11
989.55653800000005
 21
2377.0976649999989
 31
0.0
  0
LINE
  5
7AD6
  8
1
  6
CONTINUOUS
 10
989.55653800000005
 20
2857.0976649999989
 30
0.0
 11
1344.9365379999999
 21
2856.0976649999998
 31
0.0
  0
ARC
  5
7AD7
  8
1
  6
CONTINUOUS
 10
1375.0176819999999
 20
2383.9686559999991
 30
0.0
 40
343.89392400000003
 50
181.14027899999991
 51
260.02361200000001
  0
LINE
  5
7AD8
  8
1
  6
CONTINUOUS
 10
989.55653800000005
 20
2874.0976649999989
 30
0.0
 11
989.55653800000005
 21
2360.0976649999998
 31
0.0
  0
LINE
  5
7AD9
  8
1
  6
CONTINUOUS
 10
1014.556538
 20
2377.0976649999989
 30
0.0
 11
1014.556538
 21
2857.0276650000001
 31
0.0
  0
CIRCLE
  5
7ADA
  8
1
  6
CONTINUOUS
 10
1344.556538
 20
2395.0976649999989
 30
0.0
 40
120.0
  0
LINE
  5
7ADB
  8
2
  6
CENTER
 10
1344.556538
 20
4249.9292539999997
 30
0.0
 11
1344.556538
 21
3576.062731
 31
0.0
  0
LINE
  5
7ADC
  8
1
  6
CONTINUOUS
 10
1034.556538
 20
2750.0976649999998
 30
0.0
 11
1034.556538
 21
2040.0976649999991
 31
0.0
  0
CIRCLE
  5
7ADD
  8
1
  6
CONTINUOUS
 10
1344.556538
 20
2395.0976649999989
 30
0.0
 40
250.0
  0
LINE
  5
7ADE
  8
2
  6
CENTER
 10
3524.733604
 20
2395.0976649999989
 30
0.0
 11
2774.2478909999991
 21
2395.0976649999989
 31
0.0
  0
LINE
  5
7ADF
  8
1
  6
CONTINUOUS
 10
1044.556538
 20
2040.0976649999991
 30
0.0
 11
1044.556538
 21
1960.097665
 31
0.0
  0
LINE
  5
7AE0
  8
1
  6
CONTINUOUS
 10
1044.556538
 20
1865.0976649999991
 30
0.0
 11
1044.556538
 21
1800.097665
 31
0.0
  0
LINE
  5
7AE1
  8
1
  6
CONTINUOUS
 10
989.55653800000005
 20
3791.2276649999999
 30
0.0
 11
989.55653800000005
 21
4205.2276649999994
 31
0.0
  0
LINE
  5
7AE2
  8
1
  6
CONTINUOUS
 10
1044.556538
 20
4222.2276650000003
 30
0.0
 11
1044.556538
 21
4180.2276649999994
 31
0.0
  0
LINE
  5
7AE3
  8
1
  6
CONTINUOUS
 10
1224.556538
 20
3718.2276649999999
 30
0.0
 11
1464.556538
 21
3718.2276649999999
 31
0.0
  0
LINE
  5
7AE4
  8
1
  6
CONTINUOUS
 10
1325.556538
 20
3774.2276649999999
 30
0.0
 11
1044.556538
 21
3774.2276649999999
 31
0.0
  0
LINE
  5
7AE5
  8
1
  6
CONTINUOUS
 10
1464.556538
 20
3658.2276649999999
 30
0.0
 11
1224.556538
 21
3658.2276649999999
 31
0.0
  0
LINE
  5
7AE6
  8
1
  6
CONTINUOUS
 10
1119.056538
 20
3748.2276649999999
 30
0.0
 11
1119.056538
 21
3628.2276649999999
 31
0.0
  0
LINE
  5
7AE7
  8
1
  6
CONTINUOUS
 10
1224.556538
 20
3658.2276649999999
 30
0.0
 11
1224.556538
 21
3718.2276649999999
 31
0.0
  0
LINE
  5
7AE8
  8
1
  6
CONTINUOUS
 10
1044.556538
 20
3816.2276649999999
 30
0.0
 11
1044.556538
 21
3774.2276649999999
 31
0.0
  0
LINE
  5
7AE9
  8
1
  6
CONTINUOUS
 10
1014.556538
 20
3816.2276649999999
 30
0.0
 11
1014.556538
 21
4180.2276649999994
 31
0.0
  0
LINE
  5
7AEA
  8
1
  6
CONTINUOUS
 10
1363.556538
 20
3718.2276649999999
 30
0.0
 11
1363.556538
 21
3816.2276649999999
 31
0.0
  0
LINE
  5
7AEB
  8
1
  6
CONTINUOUS
 10
1325.556538
 20
3718.2276649999999
 30
0.0
 11
1325.556538
 21
3816.2276649999999
 31
0.0
  0
LINE
  5
7AEC
  8
1
  6
CONTINUOUS
 10
1464.556538
 20
3658.2276649999999
 30
0.0
 11
1464.556538
 21
3718.2276649999999
 31
0.0
  0
LINE
  5
7AFD
  8
1
  6
CONTINUOUS
 10
1754.556538
 20
2750.0976649999998
 30
0.0
 11
1754.556538
 21
2040.0976649999991
 31
0.0
  0
ARC
  5
7AFE
  8
1
  6
CONTINUOUS
 10
1947.8365379999991
 20
2222.0976649999989
 30
0.0
 40
122.0
 50
324.60000000000002
 51
215.39999999999989
  0
LINE
  5
7AFF
  8
1
  6
CONTINUOUS
 10
2077.836538
 20
2090.0976649999989
 30
0.0
 11
1817.8365379999991
 21
2090.0976649999989
 31
0.0
  0
LINE
  5
7B00
  8
2
  6
CENTER
 10
2004.556538
 20
2222.0976649999989
 30
0.0
 11
1884.556538
 21
2222.0976649999989
 31
0.0
  0
CIRCLE
  5
7B01
  8
1
  6
CONTINUOUS
 10
1944.5565379999989
 20
2222.0976649999989
 30
0.0
 40
60.0
  0
LINE
  5
7B02
  8
1
  6
CONTINUOUS
 10
1817.8365379999991
 20
2090.0976649999989
 30
0.0
 11
1848.396538
 21
2151.417664999999
 31
0.0
  0
LINE
  5
7B03
  8
1
  6
CONTINUOUS
 10
1817.8365379999991
 20
2040.0976649999991
 30
0.0
 11
1817.8365379999991
 21
2090.0976649999989
 31
0.0
  0
LINE
  5
7B04
  8
1
  6
CONTINUOUS
 10
1817.8365379999991
 20
2090.0976649999989
 30
0.0
 11
1867.8365379999991
 21
2090.0976649999989
 31
0.0
  0
LINE
  5
7B05
  8
1
  6
CONTINUOUS
 10
2164.5565379999989
 20
2040.0976649999991
 30
0.0
 11
2164.5565379999989
 21
1960.097665
 31
0.0
  0
LINE
  5
7B06
  8
1
  6
CONTINUOUS
 10
2164.5565379999989
 20
1865.0976649999991
 30
0.0
 11
2164.5565379999989
 21
1800.097665
 31
0.0
  0
LINE
  5
7B07
  8
1
  6
CONTINUOUS
 10
2077.836538
 20
2090.0976649999989
 30
0.0
 11
2027.8365379999991
 21
2090.0976649999989
 31
0.0
  0
LINE
  5
7B08
  8
1
  6
CONTINUOUS
 10
2077.836538
 20
2090.0976649999989
 30
0.0
 11
2047.2865379999989
 21
2151.417664999999
 31
0.0
  0
LINE
  5
7B09
  8
2
  6
CENTER
 10
1944.5565379999989
 20
2162.0976649999998
 30
0.0
 11
1944.5565379999989
 21
2282.0976649999989
 31
0.0
  0
LINE
  5
7B0A
  8
1
  6
CONTINUOUS
 10
2077.836538
 20
2040.0976649999991
 30
0.0
 11
2077.836538
 21
2090.0976649999989
 31
0.0
  0
LINE
  5
7B2E
  8
1
  6
CONTINUOUS
 10
2164.5565379999989
 20
4222.2276650000003
 30
0.0
 11
2164.5565379999989
 21
3774.2276649999999
 31
0.0
  0
LINE
  5
7B2F
  8
1
  6
CONTINUOUS
 10
2066.5565379999989
 20
4148.4676650000001
 30
0.0
 11
1822.5565379999989
 21
4148.4676650000001
 31
0.0
  0
LINE
  5
7B30
  8
1
  6
CONTINUOUS
 10
2066.5565379999989
 20
3798.4676649999992
 30
0.0
 11
1822.5565379999989
 21
3798.4676649999992
 31
0.0
  0
LINE
  5
7B31
  8
1
  6
CONTINUOUS
 10
1894.5565379999989
 20
3718.2276649999999
 30
0.0
 11
1994.5565379999989
 21
3718.2276649999999
 31
0.0
  0
LINE
  5
7B32
  8
1
  6
CONTINUOUS
 10
1994.5565379999989
 20
3658.2276649999999
 30
0.0
 11
1894.5565379999989
 21
3658.2276649999999
 31
0.0
  0
LINE
  5
7B33
  8
1
  6
CONTINUOUS
 10
1894.5565379999989
 20
3658.2276649999999
 30
0.0
 11
1894.5565379999989
 21
3718.2276649999999
 31
0.0
  0
LINE
  5
7B34
  8
1
  6
CONTINUOUS
 10
1822.5565379999989
 20
3798.4676649999992
 30
0.0
 11
1822.5565379999989
 21
4148.4676650000001
 31
0.0
  0
LINE
  5
7B35
  8
1
  6
CONTINUOUS
 10
1752.7465380000001
 20
3816.2276649999999
 30
0.0
 11
1752.7465380000001
 21
4180.2276649999994
 31
0.0
  0
LINE
  5
7B36
  8
1
  6
CONTINUOUS
 10
1925.556538
 20
3718.2276649999999
 30
0.0
 11
1925.556538
 21
3798.4676649999992
 31
0.0
  0
LINE
  5
7B37
  8
1
  6
CONTINUOUS
 10
1963.5565379999989
 20
3718.2276649999999
 30
0.0
 11
1963.5565379999989
 21
3798.4676649999992
 31
0.0
  0
LINE
  5
7B38
  8
1
  6
CONTINUOUS
 10
1994.5565379999989
 20
3718.2276649999999
 30
0.0
 11
1994.5565379999989
 21
3658.2276649999999
 31
0.0
  0
LINE
  5
7B39
  8
1
  6
CONTINUOUS
 10
2119.0565379999998
 20
3628.2276649999999
 30
0.0
 11
2119.0565379999998
 21
3748.2276649999999
 31
0.0
  0
LINE
  5
7B3A
  8
1
  6
CONTINUOUS
 10
2164.5565379999989
 20
3774.2276649999999
 30
0.0
 11
1963.5565379999989
 21
3774.2276649999999
 31
0.0
  0
LINE
  5
7B3B
  8
1
  6
CONTINUOUS
 10
2066.5565379999989
 20
3798.4676649999992
 30
0.0
 11
2066.5565379999989
 21
4148.4676650000001
 31
0.0
  0
LINE
  5
7B57
  8
1
  6
CONTINUOUS
 10
3115.0175439999998
 20
2350.0976649999989
 30
0.0
 11
3475.0175439999989
 21
2884.0976649999998
 31
0.0
  0
LINE
  5
7B58
  8
1
  6
CONTINUOUS
 10
3475.0175439999989
 20
2350.0976649999989
 30
0.0
 11
3115.0175439999998
 21
2884.0976649999998
 31
0.0
  0
LINE
  5
7B59
  8
1
  6
CONTINUOUS
 10
3475.0175439999989
 20
2884.0976649999998
 30
0.0
 11
3115.0175439999998
 21
2884.0976649999998
 31
0.0
  0
LINE
  5
7B5A
  8
1
  6
CONTINUOUS
 10
3115.0175439999998
 20
2350.0976649999989
 30
0.0
 11
3475.0175439999989
 21
2350.0976649999989
 31
0.0
  0
LINE
  5
7B5B
  8
1
  6
CONTINUOUS
 10
3071.0175439999998
 20
1960.097665
 30
0.0
 11
3519.0175439999989
 21
1960.097665
 31
0.0
  0
LINE
  5
7B5C
  8
1
  6
CONTINUOUS
 10
3071.0175439999998
 20
2040.0976649999991
 30
0.0
 11
3519.0175439999989
 21
2040.0976649999991
 31
0.0
  0
LINE
  5
7B5D
  8
1
  6
CONTINUOUS
 10
3071.0175439999998
 20
1800.097665
 30
0.0
 11
3519.0175439999989
 21
1800.097665
 31
0.0
  0
LINE
  5
7B5E
  8
1
  6
CONTINUOUS
 10
3071.0175439999998
 20
1865.0976649999991
 30
0.0
 11
3519.0175439999989
 21
1865.0976649999991
 31
0.0
  0
LINE
  5
7B5F
  8
1
  6
CONTINUOUS
 10
3015.0175439999998
 20
2275.0976649999998
 30
0.0
 11
3015.0175439999998
 21
2515.0976649999989
 31
0.0
  0
LINE
  5
7B60
  8
1
  6
CONTINUOUS
 10
3115.0175439999998
 20
2884.0976649999998
 30
0.0
 11
3115.0175439999998
 21
2040.0976649999991
 31
0.0
  0
LINE
  5
7B61
  8
1
  6
CONTINUOUS
 10
2955.0175439999998
 20
2515.0976649999989
 30
0.0
 11
2955.0175439999998
 21
2275.0976649999998
 31
0.0
  0
LINE
  5
7B62
  8
1
  6
CONTINUOUS
 10
2925.0175439999998
 20
2040.0976649999991
 30
0.0
 11
2925.0175439999998
 21
2785.0976649999998
 31
0.0
  0
LINE
  5
7B63
  8
1
  6
CONTINUOUS
 10
3045.0175439999998
 20
2785.0976649999998
 30
0.0
 11
3045.0175439999998
 21
2040.0976649999991
 31
0.0
  0
LINE
  5
7B64
  8
1
  6
CONTINUOUS
 10
3015.0175439999998
 20
2275.0976649999998
 30
0.0
 11
2955.0175439999998
 21
2275.0976649999998
 31
0.0
  0
LINE
  5
7B65
  8
1
  6
CONTINUOUS
 10
2955.0175439999998
 20
2172.0976649999989
 30
0.0
 11
3015.0175439999998
 21
2172.0976649999989
 31
0.0
  0
LINE
  5
7B66
  8
1
  6
CONTINUOUS
 10
3015.0175439999998
 20
2272.0976649999989
 30
0.0
 11
2955.0175439999998
 21
2272.0976649999989
 31
0.0
  0
LINE
  5
7B67
  8
1
  6
CONTINUOUS
 10
3045.0175439999998
 20
2040.0976649999991
 30
0.0
 11
2925.0175439999998
 21
2040.0976649999991
 31
0.0
  0
LINE
  5
7B6A
  8
1
  6
CONTINUOUS
 10
2955.0175439999998
 20
2272.0976649999989
 30
0.0
 11
2955.0175439999998
 21
2172.0976649999989
 31
0.0
  0
LINE
  5
7B6B
  8
1
  6
CONTINUOUS
 10
3071.0175439999998
 20
2040.0976649999991
 30
0.0
 11
3071.0175439999998
 21
1960.097665
 31
0.0
  0
LINE
  5
7B6C
  8
1
  6
CONTINUOUS
 10
3071.0175439999998
 20
1865.0976649999991
 30
0.0
 11
3071.0175439999998
 21
1800.097665
 31
0.0
  0
LINE
  5
7B6D
  8
1
  6
CONTINUOUS
 10
3015.0175439999998
 20
2376.0976649999998
 30
0.0
 11
3115.0175439999998
 21
2376.0976649999998
 31
0.0
  0
LINE
  5
7B6E
  8
1
  6
CONTINUOUS
 10
3015.0175439999998
 20
2172.0976649999989
 30
0.0
 11
3015.0175439999998
 21
2272.0976649999989
 31
0.0
  0
LINE
  5
7B6F
  8
1
  6
CONTINUOUS
 10
3015.0175439999998
 20
2203.0976649999998
 30
0.0
 11
3115.0175439999998
 21
2203.0976649999998
 31
0.0
  0
LINE
  5
7B70
  8
1
  6
CONTINUOUS
 10
3015.0175439999998
 20
2241.0976649999989
 30
0.0
 11
3115.0175439999998
 21
2241.0976649999989
 31
0.0
  0
LINE
  5
7B71
  8
1
  6
CONTINUOUS
 10
3015.0175439999998
 20
2515.0976649999989
 30
0.0
 11
2955.0175439999998
 21
2515.0976649999989
 31
0.0
  0
LINE
  5
7B72
  8
1
  6
CONTINUOUS
 10
2925.0175439999998
 20
2785.0976649999998
 30
0.0
 11
3045.0175439999998
 21
2785.0976649999998
 31
0.0
  0
LINE
  5
7B73
  8
1
  6
CONTINUOUS
 10
3015.0175439999998
 20
2414.0976649999989
 30
0.0
 11
3115.0175439999998
 21
2414.0976649999989
 31
0.0
  0
LINE
  5
7B74
  8
1
  6
CONTINUOUS
 10
3475.0175439999989
 20
2884.0976649999998
 30
0.0
 11
3475.0175439999989
 21
2040.0976649999991
 31
0.0
  0
LINE
  5
7B75
  8
1
  6
CONTINUOUS
 10
3519.0175439999989
 20
2040.0976649999991
 30
0.0
 11
3519.0175439999989
 21
1960.097665
 31
0.0
  0
LINE
  5
7B76
  8
1
  6
CONTINUOUS
 10
3519.0175439999989
 20
1865.0976649999991
 30
0.0
 11
3519.0175439999989
 21
1800.097665
 31
0.0
  0
LINE
  5
7B77
  8
2
  6
CENTER
 10
2209.189891
 20
3998.2276649999999
 30
0.0
 11
935.5595219999999
 21
3998.2276649999999
 31
0.0
  0
LINE
  5
7B78
  8
2
  6
CENTER
 10
3295.0175439999998
 20
2918.6591060000001
 30
0.0
 11
3295.0175439999998
 21
1800.097665
 31
0.0
  0
LINE
  5
7B79
  8
2
  6
CENTER
 10
1344.556538
 20
2909.4918971597181
 30
0.0
 11
1344.556538
 21
1800.097665
 31
0.0
  0
LINE
  5
7B7A
  8
2
  6
CENTER
 10
2246.077139
 20
2395.0976649999989
 30
0.0
 11
869.53394499999979
 21
2395.0976649999989
 31
0.0
  0
LINE
  5
7B7B
  8
4
  6
CONTINUOUS
 10
3700.0
 20
1000.0
 30
0.0
 11
3700.0
 21
600.0
 31
0.0
  0
LINE
  5
7B7C
  8
4
  6
CONTINUOUS
 10
2300.0
 20
1000.0
 30
0.0
 11
2300.0
 21
600.0
 31
0.0
  0
LINE
  5
7B7D
  8
4
  6
CONTINUOUS
 10
1300.0
 20
1000.0
 30
0.0
 11
1300.0
 21
600.0
 31
0.0
  0
LINE
  5
7B80
  8
4
  6
CONTINUOUS
 10
1300.0
 20
600.0
 30
0.0
 11
3700.0
 21
600.0
 31
0.0
  0
LINE
  5
7B81
  8
4
  6
CONTINUOUS
 10
1300.0
 20
800.0
 30
0.0
 11
3700.0
 21
800.0
 31
0.0
  0
TEXT
  5
7B82
  8
4
  6
CONTINUOUS
 10
1377.004162
 20
863.086052
 30
0.0
 40
100.0
  1
機器名称
  0
TEXT
  5
7B83
  8
4
  6
CONTINUOUS
 10
1372.516212
 20
643.29031299999986
 30
0.0
 40
100.0
  1
機器型番
  0
TEXT
  5
7B84
  8
4
  6
CONTINUOUS
 10
2355.3574910000002
 20
845.14353800000015
 30
0.0
 40
100.0
  1
ミツヤ多翼送風機
  0
TEXT
  5
7B85
  8
4
  6
CONTINUOUS
 10
2373.3089909999999
 20
634.31916899999999
 30
0.0
 40
100.0
  1
MF#3-4
  0
TEXT
  5
7B87
  8
4
  6
CONTINUOUS
 10
1607.661746
 20
4766.8576830000002
 30
0.0
 40
108.0
  1
床置防振ベット
  0
TEXT
  5
7B88
  8
4
  6
CONTINUOUS
 10
632.33518700000002
 20
5067.7619520000007
 30
0.0
 40
144.0
  1
ベルト駆動式片吸込両持多翼ファン
  0
LINE
  5
7B89
  8
4
  6
CONTINUOUS
 10
500.0
 20
4938.8175090000004
 30
0.0
 11
3700.0
 21
4938.8175090000004
 31
0.0
  0
LINE
  5
7B8A
  8
4
  6
CONTINUOUS
 10
500.0
 20
5338.8175090000004
 30
0.0
 11
3700.0
 21
5338.8175090000004
 31
0.0
  0
LINE
  5
7B8B
  8
4
  6
CONTINUOUS
 10
1300.0
 20
1000.0
 30
0.0
 11
3700.0
 21
1000.0
 31
0.0
  0
LINE
  5
7B8C
  8
4
  6
CONTINUOUS
 10
500.0
 20
5338.8175090000004
 30
0.0
 11
500.0
 21
4938.8175090000004
 31
0.0
  0
TEXT
  5
7B8D
  8
4
  6
CONTINUOUS
 10
660.22790299999997
 20
4764.6389549999994
 30
0.0
 40
108.0
  1
左回転左横向
  0
TEXT
  5
7B8E
  8
4
  6
CONTINUOUS
 10
2937.9391179999998
 20
5412.122163
 30
0.0
 40
112.0
  1
No.
  0
TEXT
  5
7B8F
  8
4
  6
CONTINUOUS
 10
2622.5921250000001
 20
4766.8576830000002
 30
0.0
 40
108.0
  1
縮尺：1/20
  0
LINE
  5
7B90
  8
4
  6
CONTINUOUS
 10
3700.0
 20
5338.8175090000004
 30
0.0
 11
3700.0
 21
4938.8175090000004
 31
0.0
  0
LINE
  5
7B92
  8
4
  6
CONTINUOUS
 10
2881.234845
 20
5362.5271659999999
 30
0.0
 11
2881.234845
 21
5573.3045229999998
 31
0.0
  0
LINE
  5
7B93
  8
4
  6
CONTINUOUS
 10
2881.234845
 20
5573.3045229999998
 30
0.0
 11
3700.0
 21
5573.3045229999998
 31
0.0
  0
LINE
  5
7B94
  8
4
  6
CONTINUOUS
 10
3700.0
 20
5573.3045229999998
 30
0.0
 11
3700.0
 21
5362.5271659999999
 31
0.0
  0
LINE
  5
7B95
  8
4
  6
CONTINUOUS
 10
3700.0
 20
5362.5271659999999
 30
0.0
 11
2881.234845
 21
5362.5271659999999
 31
0.0
  0
LINE
  5
7B9A
  8
1
  6
CONTINUOUS
 10
1119.056538
 20
2040.0976649999991
 30
0.0
 11
1119.056538
 21
2710.0976649999998
 31
0.0
  0
LINE
  5
7B9B
  8
1
  6
CONTINUOUS
 10
1119.056538
 20
2710.0976649999998
 30
0.0
 11
1359.056538
 21
2785.0976649999998
 31
0.0
  0
LINE
  5
7B9C
  8
1
  6
CONTINUOUS
 10
1359.056538
 20
2785.0976649999998
 30
0.0
 11
2119.0565379999998
 21
2275.0976649999998
 31
0.0
  0
LINE
  5
7B9D
  8
1
  6
CONTINUOUS
 10
2119.0565379999998
 20
2275.0976649999998
 30
0.0
 11
2119.0565379999998
 21
2040.0976649999991
 31
0.0
  0
DIMENSION
  5
7BB1
  8
3
  6
CONTINUOUS
  2
*D1
 10
925.60714500000029
 20
2377.0976649999989
 30
0.0
 11
925.60714499999995
 21
2583.8382529999999
 31
0.0
 70
   128
 13
989.55653800000005
 23
2857.0976649999989
 33
0.0
 14
989.55653800000005
 24
2377.0976649999989
 34
0.0
 50
90.0
1001
ACAD
1000
DSTYLE
1002
{
1070
   287
1070
     3
1070
    40
1040
20.0
1070
   143
1040
0.039
1070
   172
1070
     1
1070
   271
1070
     0
1070
   279
1070
     0
1070
   288
1070
     1
1002
}
  0
DIMENSION
  5
7BBE
  8
3
  6
CONTINUOUS
  2
*D2
 10
791.17408600000044
 20
2395.0976649999989
 30
0.0
 11
791.17408599999999
 21
2569.3615960000002
 31
0.0
 70
   128
 13
925.60714499999995
 23
2857.0976649999989
 33
0.0
 14
869.53394499999979
 24
2395.0976649999989
 34
0.0
 50
90.0
1001
ACAD
1000
DSTYLE
1002
{
1070
   287
1070
     3
1070
    40
1040
20.0
1070
   143
1040
0.039
1070
   172
1070
     1
1070
   271
1070
     0
1070
   279
1070
     0
1070
   288
1070
     1
1002
}
  0
DIMENSION
  5
7BCA
  8
3
  6
CONTINUOUS
  2
*D3
 10
791.17408599999999
 20
1960.097665
 30
0.0
 11
741.17408599999965
 21
2177.5976649999989
 31
0.0
 70
     0
 13
869.53394499999979
 23
2395.0976649999989
 33
0.0
 14
1044.556538
 24
1960.097665
 34
0.0
 50
90.0
1001
ACAD
1000
DSTYLE
1002
{
1070
   287
1070
     4
1070
    40
1040
20.0
1070
    75
1070
     1
1070
   143
1040
0.039
1070
   172
1070
     1
1070
   271
1070
     0
1070
   279
1070
     1
1070
   288
1070
     1
1002
}
  0
DIMENSION
  5
7C0E
  8
3
  6
CONTINUOUS
  2
*D4
 10
1344.556538
 20
2940.9239520000001
 30
0.0
 11
1167.586634999999
 21
2940.9239520000001
 31
0.0
 70
   128
 13
989.55653800000005
 23
2874.0976649999989
 33
0.0
 14
1344.556538
 24
2902.54053696648
 34
0.0
1001
ACAD
1000
DSTYLE
1002
{
1070
   287
1070
     3
1070
    40
1040
20.0
1070
   143
1040
0.039
1070
   172
1070
     1
1070
   271
1070
     0
1070
   279
1070
     0
1070
   288
1070
     1
1002
}
  0
DIMENSION
  5
7C1A
  8
3
  6
CONTINUOUS
  2
*D5
 10
1754.556538
 20
2940.9239520000001
 30
0.0
 11
1549.556538
 21
2990.9239520000001
 31
0.0
 70
     0
 13
1344.556538
 23
2909.4918971597181
 33
0.0
 14
1754.556538
 24
2750.0976649999998
 34
0.0
1001
ACAD
1000
DSTYLE
1002
{
1070
   287
1070
     4
1070
    40
1040
20.0
1070
    75
1070
     1
1070
   143
1040
0.039
1070
   172
1070
     1
1070
   271
1070
     0
1070
   279
1070
     1
1070
   288
1070
     1
1002
}
  0
DIMENSION
  5
7C8A
  8
3
  6
CONTINUOUS
  2
*D6
 10
3115.0175439999998
 20
2934.8475457871609
 30
0.0
 11
3296.291346
 21
2934.8475457871609
 31
0.0
 70
   128
 13
3475.0175439999989
 23
2884.0976649999998
 33
0.0
 14
3115.0175439999998
 24
2884.0976649999998
 34
0.0
1001
ACAD
1000
DSTYLE
1002
{
1070
   287
1070
     3
1070
    40
1040
20.0
1070
   143
1040
0.039
1070
   172
1070
     1
1070
   271
1070
     0
1070
   279
1070
     0
1070
   288
1070
     1
1002
}
  0
LINE
  5
7CC7
  8
1
  6
CONTINUOUS
 10
3476.0175439999989
 20
2645.0976649999989
 30
0.0
 11
3476.0175439999989
 21
2145.0976649999989
 31
0.0
  0
DIMENSION
  5
7CD6
  8
3
  6
CONTINUOUS
  2
*D7
 10
3644.5524799999998
 20
2145.0976649999989
 30
0.0
 11
3644.5524799999998
 21
2411.472863
 31
0.0
 70
   128
 13
3476.0175439999989
 23
2645.0976649999989
 33
0.0
 14
3476.0175439999989
 24
2145.0976649999989
 34
0.0
 50
90.0
1001
ACAD
1000
DSTYLE
1002
{
1070
   287
1070
     3
1070
     3
1000
φ<>
1070
    40
1040
20.0
1070
   143
1040
0.039
1070
   172
1070
     1
1070
   271
1070
     0
1070
   279
1070
     0
1070
   288
1070
     1
1002
}
  0
DIMENSION
  5
7CE5
  8
3
  6
CONTINUOUS
  2
*D8
 10
3295.0175439999998
 20
3104.4816599999999
 30
0.0
 11
3385.5175439999989
 21
3162.4305813782862
 31
0.0
 70
   128
 13
3476.0175439999989
 23
2645.0976649999989
 33
0.0
 14
3295.0175439999998
 24
3023.902503684968
 34
0.0
1001
ACAD
1000
DSTYLE
1002
{
1070
   288
1070
     1
1070
   172
1070
     1
1070
    40
1040
20.0
1070
   271
1070
     0
1070
   143
1040
0.039
1002
}
  0
DIMENSION
  5
7CF1
  8
3
  6
CONTINUOUS
  2
*D9
 10
2925.0175439999998
 20
3104.4816599999999
 30
0.0
 11
3110.0175439999998
 21
3204.4816599999999
 31
0.0
 70
     0
  1
MAX\P430
 13
3295.0175439999998
 23
3023.902503684968
 33
0.0
 14
2925.0175439999998
 24
2785.0976649999998
 34
0.0
1001
ACAD
1000
DSTYLE
1002
{
1070
   287
1070
     4
1070
    40
1040
20.0
1070
    75
1070
     1
1070
   143
1040
0.039
1070
   172
1070
     1
1070
   271
1070
     0
1070
   279
1070
     1
1070
   288
1070
     1
1002
}
  0
DIMENSION
  5
7CFE
  8
3
  6
CONTINUOUS
  2
*D10
 10
2164.5565379999989
 20
4368.0285369999992
 30
0.0
 11
1601.2199880000001
 21
4368.0285369999992
 31
0.0
 70
   128
 13
1044.556538
 23
4222.2276650000003
 33
0.0
 14
2164.5565379999989
 24
4222.2276650000003
 34
0.0
1001
ACAD
1000
DSTYLE
1002
{
1070
   287
1070
     3
1070
    40
1040
20.0
1070
   143
1040
0.039
1070
   172
1070
     1
1070
   271
1070
     0
1070
   279
1070
     0
1070
   288
1070
     1
1002
}
  0
DIMENSION
  5
7D0B
  8
3
  6
CONTINUOUS
  2
*D11
 10
2357.0329849999998
 20
3774.2276649999999
 30
0.0
 11
2357.0329849999998
 21
3997.2293129999998
 31
0.0
 70
   128
 13
2164.5565379999989
 23
4222.2276650000003
 33
0.0
 14
2164.5565379999989
 24
3774.2276649999999
 34
0.0
 50
90.0
1001
ACAD
1000
DSTYLE
1002
{
1070
   287
1070
     3
1070
    40
1040
20.0
1070
   143
1040
0.039
1070
   172
1070
     1
1070
   271
1070
     0
1070
   279
1070
     0
1070
   288
1070
     1
1002
}
  0
DIMENSION
  5
7E8C
  8
3
  2
*D12
 10
1344.556538
 20
1666.4111651993639
 30
0.0
 11
1194.556538
 21
1716.4111651993639
 31
0.0
 70
     0
 13
1044.556538
 23
1800.097665
 33
0.0
 14
1344.556538
 24
1800.097665
 34
0.0
1001
ACAD
1000
DSTYLE
1002
{
1070
   287
1070
     3
1070
    40
1040
20.0
1070
   143
1040
0.039
1070
   172
1070
     1
1070
   271
1070
     0
1070
   279
1070
     0
1002
}
  0
DIMENSION
  5
7E99
  8
3
  2
*D13
 10
2164.5565379999989
 20
1666.4111651993639
 30
0.0
 11
1754.556538
 21
1716.4111651993639
 31
0.0
 70
     0
 13
1344.556538
 23
1800.097665
 33
0.0
 14
2164.5565379999989
 24
1800.097665
 34
0.0
1001
ACAD
1000
DSTYLE
1002
{
1070
   287
1070
     3
1070
    40
1040
20.0
1070
   143
1040
0.039
1070
   172
1070
     1
1070
   271
1070
     0
1070
   279
1070
     0
1002
}
  0
DIMENSION
  5
7EA8
  8
3
  2
*D14
 10
3295.0175439999998
 20
1666.4111651993639
 30
0.0
 11
3183.0175439999998
 21
1716.4111651993639
 31
0.0
 70
     0
 13
3071.0175439999998
 23
1800.097665
 33
0.0
 14
3295.0175439999998
 24
1800.097665
 34
0.0
1001
ACAD
1000
DSTYLE
1002
{
1070
   287
1070
     3
1070
    40
1040
20.0
1070
   143
1040
0.039
1070
   172
1070
     1
1070
   271
1070
     0
1070
   279
1070
     0
1002
}
  0
DIMENSION
  5
7EB7
  8
3
  2
*D15
 10
3519.0175439999989
 20
1666.4111651993639
 30
0.0
 11
3407.0175439999998
 21
1716.4111651993639
 31
0.0
 70
     0
 13
3295.0175439999998
 23
1800.097665
 33
0.0
 14
3519.0175439999989
 24
1800.097665
 34
0.0
1001
ACAD
1000
DSTYLE
1002
{
1070
   287
1070
     3
1070
    40
1040
20.0
1070
   143
1040
0.039
1070
   172
1070
     1
1070
   271
1070
     0
1070
   279
1070
     0
1002
}
  0
DIMENSION
  5
7ECE
  8
3
  2
*D17
 10
789.98045557590012
 20
1800.097665
 30
0.0
 11
739.98045557589967
 21
1651.5262364285711
 31
0.0
 70
     0
 13
1044.556538
 23
1865.0976649999991
 33
0.0
 14
1044.556538
 24
1800.097665
 34
0.0
 50
90.0
1001
ACAD
1000
DSTYLE
1002
{
1070
   287
1070
     3
1070
    40
1040
20.0
1070
   143
1040
0.039
1070
   172
1070
     1
1070
   271
1070
     0
1070
   279
1070
     0
1070
     6
1000
DOT
1002
}
  0
DIMENSION
  5
7EDD
  8
3
  2
*D18
 10
789.98045557590012
 20
1960.097665
 30
0.0
 11
694.26616986161434
 21
1912.5976649999991
 31
0.0
 70
     0
 13
1044.556538
 23
1865.0976649999991
 33
0.0
 14
1044.556538
 24
1960.097665
 34
0.0
 50
90.0
1001
ACAD
1000
DSTYLE
1002
{
1070
   172
1070
     1
1070
    40
1040
20.0
1070
     3
1000
(<>)
1070
   271
1070
     0
1070
     6
1000
_DOT
1070
   143
1040
0.039
1002
}
  0
ENDSEC
  0
EOF
