  0
SECTION
  2
HEADER
  9
$ACADVER
  1
AC1009
  9
$INSBASE
 10
0.0
 20
0.0
 30
0.0
  9
$EXTMIN
 10
500.0
 20
600.0
 30
0.0
  9
$EXTMAX
 10
3700.0
 20
5573.3045229999998
 30
0.0
  9
$LIMMIN
 10
0.0
 20
0.0
  9
$LIMMAX
 10
297.0
 20
210.0
  9
$ORTHOMODE
 70
     0
  9
$REGENMODE
 70
     1
  9
$FILLMODE
 70
     0
  9
$QTEXTMODE
 70
     0
  9
$MIRRTEXT
 70
     1
  9
$DRAGMODE
 70
     2
  9
$LTSCALE
 40
100.0
  9
$OSMODE
 70
    37
  9
$ATTMODE
 70
     1
  9
$TEXTSIZE
 40
180.0
  9
$TRACEWID
 40
0.05
  9
$TEXTSTYLE
  7
STANDARD
  9
$CLAYER
  8
3
  9
$CELTYPE
  6
BYLAYER
  9
$CECOLOR
 62
   256
  9
$DIMSCALE
 40
20.0
  9
$DIMASZ
 40
2.0
  9
$DIMEXO
 40
0.5
  9
$DIMDLI
 40
10.0
  9
$DIMRND
 40
0.0
  9
$DIMDLE
 40
0.0
  9
$DIMEXE
 40
1.0
  9
$DIMTP
 40
1.0
  9
$DIMTM
 40
1.0
  9
$DIMTXT
 40
3.0
  9
$DIMCEN
 40
0.0
  9
$DIMTSZ
 40
0.0
  9
$DIMTOL
 70
     0
  9
$DIMLIM
 70
     0
  9
$DIMTIH
 70
     0
  9
$DIMTOH
 70
     0
  9
$DIMSE1
 70
     0
  9
$DIMSE2
 70
     0
  9
$DIMTAD
 70
     1
  9
$DIMZIN
 70
     8
  9
$DIMBLK
  1

  9
$DIMASO
 70
     1
  9
$DIMSHO
 70
     1
  9
$DIMPOST
  1

  9
$DIMAPOST
  1

  9
$DIMALT
 70
     0
  9
$DIMALTD
 70
     2
  9
$DIMALTF
 40
0.039
  9
$DIMLFAC
 40
1.0
  9
$DIMTOFL
 70
     1
  9
$DIMTVP
 40
0.0
  9
$DIMTIX
 70
     0
  9
$DIMSOXD
 70
     0
  9
$DIMSAH
 70
     1
  9
$DIMBLK1
  1
OPEN
  9
$DIMBLK2
  1
OPEN
  9
$DIMSTYLE
  2
IGA
  9
$DIMCLRD
 70
     0
  9
$DIMCLRE
 70
     0
  9
$DIMCLRT
 70
     0
  9
$DIMTFAC
 40
10.0
  9
$DIMGAP
 40
1.0
  9
$LUNITS
 70
     2
  9
$LUPREC
 70
     3
  9
$SKETCHINC
 40
0.1
  9
$FILLETRAD
 40
50.0
  9
$AUNITS
 70
     0
  9
$AUPREC
 70
     0
  9
$MENU
  1
acad
  9
$ELEVATION
 40
0.0
  9
$PELEVATION
 40
0.0
  9
$THICKNESS
 40
0.0
  9
$LIMCHECK
 70
     0
  9
$BLIPMODE
 70
     0
  9
$CHAMFERA
 40
0.5
  9
$CHAMFERB
 40
0.5
  9
$SKPOLY
 70
     0
  9
$TDCREATE
 40
2450731.4789349539
  9
$TDUPDATE
 40
2454953.7681052778
  9
$TDINDWG
 40
0.0044564236
  9
$TDUSRTIMER
 40
0.0044564236
  9
$USRTIMER
 70
     1
  9
$ANGBASE
 50
0.0
  9
$ANGDIR
 70
     0
  9
$PDMODE
 70
     0
  9
$PDSIZE
 40
0.0
  9
$PLINEWID
 40
0.0
  9
$COORDS
 70
     1
  9
$SPLFRAME
 70
     0
  9
$SPLINETYPE
 70
     6
  9
$SPLINESEGS
 70
     8
  9
$ATTDIA
 70
     0
  9
$ATTREQ
 70
     1
  9
$HANDLING
 70
 10241
  9
$HANDSEED
  5
7EC6
  9
$SURFTAB1
 70
     6
  9
$SURFTAB2
 70
     6
  9
$SURFTYPE
 70
     6
  9
$SURFU
 70
     6
  9
$SURFV
 70
     6
  9
$UCSNAME
  2

  9
$UCSORG
 10
0.0
 20
0.0
 30
0.0
  9
$UCSXDIR
 10
1.0
 20
0.0
 30
0.0
  9
$UCSYDIR
 10
0.0
 20
1.0
 30
0.0
  9
$PUCSNAME
  2

  9
$PUCSORG
 10
0.0
 20
0.0
 30
0.0
  9
$PUCSXDIR
 10
1.0
 20
0.0
 30
0.0
  9
$PUCSYDIR
 10
0.0
 20
1.0
 30
0.0
  9
$USERI1
 70
     0
  9
$USERI2
 70
     0
  9
$USERI3
 70
     0
  9
$USERI4
 70
     0
  9
$USERI5
 70
     0
  9
$USERR1
 40
0.0
  9
$USERR2
 40
0.0
  9
$USERR3
 40
0.0
  9
$USERR4
 40
0.0
  9
$USERR5
 40
0.0
  9
$WORLDVIEW
 70
     1
  9
$SHADEDGE
 70
     3
  9
$SHADEDIF
 70
    70
  9
$TILEMODE
 70
     1
  9
$MAXACTVP
 70
    16
  9
$PLIMCHECK
 70
     0
  9
$PEXTMIN
 10
1.0000000000000000E+020
 20
1.0000000000000000E+020
 30
1.0000000000000000E+020
  9
$PEXTMAX
 10
-1.0000000000000000E+020
 20
-1.0000000000000000E+020
 30
-1.0000000000000000E+020
  9
$PLIMMIN
 10
0.0
 20
0.0
  9
$PLIMMAX
 10
12.0
 20
9.0
  9
$UNITMODE
 70
     0
  9
$VISRETAIN
 70
     0
  9
$PLINEGEN
 70
     0
  9
$PSLTSCALE
 70
     1
  0
ENDSEC
  0
SECTION
  2
TABLES
  0
TABLE
  2
VPORT
 70
     2
  0
VPORT
  2
*ACTIVE
 70
     0
 10
0.0
 20
0.0
 11
1.0
 21
1.0
 12
6292.1124769529506
 22
3086.6374998146398
 13
0.0
 23
0.0
 14
10.0
 24
10.0
 15
10.0
 25
10.0
 16
0.0
 26
0.0
 36
1.0
 17
0.0
 27
0.0
 37
0.0
 40
5011.4968576296578
 41
3.1666666666666661
 42
50.0
 43
0.0
 44
0.0
 50
0.0
 51
0.0
 71
     0
 72
   100
 73
     1
 74
     0
 75
     0
 76
     0
 77
     0
 78
     0
  0
ENDTAB
  0
TABLE
  2
LTYPE
 70
     2
  0
LTYPE
  2
CONTINUOUS
 70
     0
  3
Solid line
 72
    65
 73
     0
 40
0.0
  0
LTYPE
  2
CENTER
 70
     0
  3
____ _ ____ _ ____ _ ____ _ ____ _ ____ _ ____ 
 72
    65
 73
     4
 40
2.0
 49
1.25
 49
-0.25
 49
0.25
 49
-0.25
  0
ENDTAB
  0
TABLE
  2
LAYER
 70
     6
  0
LAYER
  2
0
 70
     0
 62
     7
  6
CONTINUOUS
  0
LAYER
  2
3
 70
     0
 62
     2
  6
CONTINUOUS
  0
LAYER
  2
2
 70
     0
 62
     3
  6
CENTER
  0
LAYER
  2
1
 70
     0
 62
     4
  6
CONTINUOUS
  0
LAYER
  2
4
 70
     0
 62
     7
  6
CONTINUOUS
  0
LAYER
  2
DEFPOINTS
 70
     0
 62
     7
  6
CONTINUOUS
  0
ENDTAB
  0
TABLE
  2
STYLE
 70
     1
  0
STYLE
  2
STANDARD
 70
     0
 40
0.0
 41
1.0
 50
0.0
 71
     0
 42
180.0
  3
simplex.shx
  4
extfont.shx
  0
ENDTAB
  0
TABLE
  2
VIEW
 70
     0
  0
ENDTAB
  0
TABLE
  2
UCS
 70
     0
  0
ENDTAB
  0
TABLE
  2
APPID
 70
     1
  0
APPID
  2
ACAD
 70
     0
  0
ENDTAB
  0
TABLE
  2
DIMSTYLE
 70
     1
  0
DIMSTYLE
  2
IGA
 70
     0
  3

  4

  5

  6
OPEN
  7
OPEN
 40
2.0
 41
2.0
 42
0.5
 43
10.0
 44
1.0
 45
0.0
 46
0.0
 47
1.0
 48
1.0
140
3.0
141
0.0
142
0.0
143
0.03937
144
1.0
145
0.0
146
10.0
147
1.0
 71
     0
 72
     0
 73
     0
 74
     0
 75
     0
 76
     0
 77
     1
 78
     8
170
     0
171
     2
172
     0
173
     1
174
     0
175
     0
176
     0
177
     0
178
     0
  0
ENDTAB
  0
ENDSEC
  0
SECTION
  2
BLOCKS
  0
BLOCK
  8
0
  2
$MODEL_SPACE
 70
     0
 10
0.0
 20
0.0
 30
0.0
  3
$MODEL_SPACE
  1

  0
ENDBLK
  5
1B
  8
0
  0
BLOCK
 67
     1
  8
0
  2
$PAPER_SPACE
 70
     0
 10
0.0
 20
0.0
 30
0.0
  3
$PAPER_SPACE
  1

  0
ENDBLK
  5
18
 67
     1
  8
0
  0
BLOCK
  8
0
  2
_OPEN
 70
     0
 10
0.0
 20
0.0
 30
0.0
  3
_OPEN
  1

  0
LINE
  5
7B06
  8
0
  6
BYBLOCK
 62
     0
 10
-1.0
 20
0.166667
 30
0.0
 11
0.0
 21
0.0
 31
0.0
  0
LINE
  5
7B07
  8
0
  6
BYBLOCK
 62
     0
 10
0.0
 20
0.0
 30
0.0
 11
-1.0
 21
-0.166667
 31
0.0
  0
LINE
  5
7B08
  8
0
  6
BYBLOCK
 62
     0
 10
0.0
 20
0.0
 30
0.0
 11
-1.0
 21
0.0
 31
0.0
  0
ENDBLK
  5
7B09
  8
0
  0
BLOCK
  8
0
  2
*D1
 70
     1
 10
0.0
 20
0.0
 30
0.0
  3
*D1
  1

  0
LINE
  5
7E29
  8
3
  6
CONTINUOUS
 62
     0
 10
1293.2977000000001
 20
2712.050639
 30
0.0
 11
1293.2977000000001
 21
2987.207465
 31
0.0
  0
LINE
  5
7E2A
  8
3
  6
CONTINUOUS
 62
     0
 10
1755.2977000000001
 20
2935.5902689999998
 30
0.0
 11
1755.2977000000001
 21
2987.207465
 31
0.0
  0
LINE
  5
7E2B
  8
3
  6
CONTINUOUS
 62
     0
 10
1333.2977000000001
 20
2967.207464999999
 30
0.0
 11
1715.2976999999989
 21
2967.207464999999
 31
0.0
  0
INSERT
  5
7E2C
  8
3
  6
CONTINUOUS
 62
     0
  2
_OPEN
 10
1293.2977000000001
 20
2967.207464999999
 30
0.0
 41
40.0
 42
40.0
 43
40.0
 50
180.0
  0
INSERT
  5
7E2D
  8
3
  6
CONTINUOUS
 62
     0
  2
_OPEN
 10
1755.2977000000001
 20
2967.207464999999
 30
0.0
 41
40.0
 42
40.0
 43
40.0
  0
TEXT
  8
3
  40
60
  5
7EB5
  62
0
  72
0
  71
0
 10
1387.93
 20
2911.01
 30
0.000000
  1
462
  0
POINT
  5
7E2F
  8
DEFPOINTS
  6
CONTINUOUS
 62
     0
 10
1293.2977000000001
 20
2702.050639
 30
0.0
  0
POINT
  5
7E30
  8
DEFPOINTS
  6
CONTINUOUS
 62
     0
 10
1755.2977000000001
 20
2925.5902689999998
 30
0.0
  0
POINT
  5
7E31
  8
DEFPOINTS
  6
CONTINUOUS
 62
     0
 10
1755.2977000000001
 20
2967.207464999999
 30
0.0
  0
ENDBLK
  5
7D0E
  8
0
  0
BLOCK
  8
0
  2
*D2
 70
     1
 10
0.0
 20
0.0
 30
0.0
  3
*D2
  1

  0
LINE
  5
7E32
  8
3
  6
CONTINUOUS
 62
     0
 10
2110.2977000000001
 20
2667.050639
 30
0.0
 11
2110.2977000000001
 21
2987.207465
 31
0.0
  0
LINE
  5
7E33
  8
3
  6
CONTINUOUS
 62
     0
 10
1795.2977000000001
 20
2967.207464999999
 30
0.0
 11
2070.2977000000001
 21
2967.207464999999
 31
0.0
  0
INSERT
  5
7E34
  8
3
  6
CONTINUOUS
 62
     0
  2
_OPEN
 10
1755.2977000000001
 20
2967.207464999999
 30
0.0
 41
40.0
 42
40.0
 43
40.0
 50
180.0
  0
INSERT
  5
7E35
  8
3
  6
CONTINUOUS
 62
     0
  2
_OPEN
 10
2110.2977000000001
 20
2967.207464999999
 30
0.0
 41
40.0
 42
40.0
 43
40.0
  0
TEXT
  8
3
  40
60
  5
7EB6
  62
0
  72
0
  71
0
 10
1812.80
 20
2911.01
 30
0.000000
  1
355
  0
POINT
  5
7E37
  8
DEFPOINTS
  6
CONTINUOUS
 62
     0
 10
1755.2977000000001
 20
2925.5902689999998
 30
0.0
  0
POINT
  5
7E38
  8
DEFPOINTS
  6
CONTINUOUS
 62
     0
 10
2110.2977000000001
 20
2657.050639
 30
0.0
  0
POINT
  5
7E39
  8
DEFPOINTS
  6
CONTINUOUS
 62
     0
 10
2110.2977000000001
 20
2967.207464999999
 30
0.0
  0
ENDBLK
  5
7D03
  8
0
  0
BLOCK
  8
0
  2
*D3
 70
     1
 10
0.0
 20
0.0
 30
0.0
  3
*D3
  1

  0
LINE
  5
7E3A
  8
3
  6
CONTINUOUS
 62
     0
 10
2065.2976999999992
 20
1857.050639
 30
0.0
 11
2272.1515100000001
 21
1857.050639
 31
0.0
  0
LINE
  5
7E3B
  8
3
  6
CONTINUOUS
 62
     0
 10
2252.1515100000001
 20
2307.050639
 30
0.0
 11
2252.1515100000001
 21
1897.050639
 31
0.0
  0
INSERT
  5
7E3C
  8
3
  6
CONTINUOUS
 62
     0
  2
_OPEN
 10
2252.1515100000001
 20
2347.050639
 30
0.0
 41
40.0
 42
40.0
 43
40.0
 50
90.0
  0
INSERT
  5
7E3D
  8
3
  6
CONTINUOUS
 62
     0
  2
_OPEN
 10
2252.1515100000001
 20
1857.050639
 30
0.0
 41
40.0
 42
40.0
 43
40.0
 50
270.0
  0
TEXT
  8
3
  40
60
  5
7EB7
  62
0
  72
0
  71
0
 10
2082.15
 20
1995.85
 30
0.000000
  1
490
  0
POINT
  5
7E3F
  8
DEFPOINTS
  6
CONTINUOUS
 62
     0
 10
2224.2304210000002
 20
2347.050639
 30
0.0
  0
POINT
  5
7E40
  8
DEFPOINTS
  6
CONTINUOUS
 62
     0
 10
2055.2977000000001
 20
1857.050639
 30
0.0
  0
POINT
  5
7E41
  8
DEFPOINTS
  6
CONTINUOUS
 62
     0
 10
2252.1515100000001
 20
1857.050639
 30
0.0
  0
ENDBLK
  5
7B48
  8
0
  0
BLOCK
  8
0
  2
*D4
 70
     1
 10
0.0
 20
0.0
 30
0.0
  3
*D4
  1

  0
LINE
  5
7E42
  8
3
  6
CONTINUOUS
 62
     0
 10
2065.2976999999992
 20
1857.050639
 30
0.0
 11
2272.2662519999999
 21
1857.050639
 31
0.0
  0
LINE
  5
7E43
  8
3
  6
CONTINUOUS
 62
     0
 10
2065.2976999999992
 20
1770.050639
 30
0.0
 11
2272.2662519999999
 21
1770.050639
 31
0.0
  0
LINE
  5
7E44
  8
3
  6
CONTINUOUS
 62
     0
 10
2252.2662519999999
 20
1897.050639
 30
0.0
 11
2252.2662519999999
 21
1937.0506389999989
 31
0.0
  0
LINE
  5
7E45
  8
3
  6
CONTINUOUS
 62
     0
 10
2252.2662519999999
 20
1730.050639
 30
0.0
 11
2252.2662519999999
 21
1552.9077818571429
 31
0.0
  0
LINE
  5
7E46
  8
3
  6
CONTINUOUS
 62
     0
 10
2252.2662519999999
 20
1857.050639
 30
0.0
 11
2252.2662519999999
 21
1770.050639
 31
0.0
  0
INSERT
  5
7E47
  8
3
  6
CONTINUOUS
 62
     0
  2
_OPEN
 10
2252.2662519999999
 20
1857.050639
 30
0.0
 41
40.0
 42
40.0
 43
40.0
 50
270.0
  0
INSERT
  5
7E48
  8
3
  6
CONTINUOUS
 62
     0
  2
_OPEN
 10
2252.2662519999999
 20
1770.050639
 30
0.0
 41
40.0
 42
40.0
 43
40.0
 50
90.0
  0
TEXT
  8
3
  40
60
  5
7EB8
  62
0
  72
0
  71
0
 10
2082.27
 20
1515.28
 30
0.000000
  1
87
  0
POINT
  5
7E4A
  8
DEFPOINTS
  6
CONTINUOUS
 62
     0
 10
2055.2977000000001
 20
1857.050639
 30
0.0
  0
POINT
  5
7E4B
  8
DEFPOINTS
  6
CONTINUOUS
 62
     0
 10
2055.2977000000001
 20
1770.050639
 30
0.0
  0
POINT
  5
7E4C
  8
DEFPOINTS
  6
CONTINUOUS
 62
     0
 10
2252.2662519999999
 20
1770.050639
 30
0.0
  0
ENDBLK
  5
7DAD
  8
0
  0
BLOCK
  8
0
  2
*D5
 70
     1
 10
0.0
 20
0.0
 30
0.0
  3
*D5
  1

  0
LINE
  5
7E4D
  8
3
  6
CONTINUOUS
 62
     0
 10
1800.2977000000001
 20
2702.050639
 30
0.0
 11
2413.3949550000011
 21
2702.050639
 31
0.0
  0
LINE
  5
7E4E
  8
3
  6
CONTINUOUS
 62
     0
 10
2065.2976999999992
 20
1770.050639
 30
0.0
 11
2413.3949550000011
 21
1770.050639
 31
0.0
  0
LINE
  5
7E4F
  8
3
  6
CONTINUOUS
 62
     0
 10
2393.3949550000011
 20
2662.050639
 30
0.0
 11
2393.3949550000011
 21
1810.0506389999989
 31
0.0
  0
INSERT
  5
7E50
  8
3
  6
CONTINUOUS
 62
     0
  2
_OPEN
 10
2393.3949550000011
 20
2702.050639
 30
0.0
 41
40.0
 42
40.0
 43
40.0
 50
90.0
  0
INSERT
  5
7E51
  8
3
  6
CONTINUOUS
 62
     0
  2
_OPEN
 10
2393.3949550000011
 20
1770.050639
 30
0.0
 41
40.0
 42
40.0
 43
40.0
 50
270.0
  0
TEXT
  8
3
  40
60
  5
7EB9
  62
0
  72
0
  71
0
 10
2223.39
 20
2162.79
 30
0.000000
  1
932
  0
POINT
  5
7E53
  8
DEFPOINTS
  6
CONTINUOUS
 62
     0
 10
1790.2976999999989
 20
2702.050639
 30
0.0
  0
POINT
  5
7E54
  8
DEFPOINTS
  6
CONTINUOUS
 62
     0
 10
2055.2977000000001
 20
1770.050639
 30
0.0
  0
POINT
  5
7E55
  8
DEFPOINTS
  6
CONTINUOUS
 62
     0
 10
2393.3949550000011
 20
1770.050639
 30
0.0
  0
ENDBLK
  5
7CD5
  8
0
  0
BLOCK
  8
0
  2
*D6
 70
     1
 10
0.0
 20
0.0
 30
0.0
  3
*D6
  1

  0
LINE
  5
7E56
  8
3
  6
CONTINUOUS
 62
     0
 10
3140.6677
 20
2712.050639
 30
0.0
 11
3140.6677
 21
2787.7599438252382
 31
0.0
  0
LINE
  5
7E57
  8
3
  6
CONTINUOUS
 62
     0
 10
2780.6677
 20
2712.050639
 30
0.0
 11
2780.6677
 21
2787.7599438252382
 31
0.0
  0
LINE
  5
7E58
  8
3
  6
CONTINUOUS
 62
     0
 10
3100.6677
 20
2767.7599438252382
 30
0.0
 11
2820.6676999999991
 21
2767.7599438252382
 31
0.0
  0
INSERT
  5
7E59
  8
3
  6
CONTINUOUS
 62
     0
  2
_OPEN
 10
3140.6677
 20
2767.7599438252382
 30
0.0
 41
40.0
 42
40.0
 43
40.0
  0
INSERT
  5
7E5A
  8
3
  6
CONTINUOUS
 62
     0
  2
_OPEN
 10
2780.6677
 20
2767.7599438252382
 30
0.0
 41
40.0
 42
40.0
 43
40.0
 50
180.0
  0
TEXT
  8
3
  40
60
  5
7EBA
  62
0
  72
0
  71
0
 10
2831.88
 20
2711.56
 30
0.000000
  1
360
  0
POINT
  5
7E5C
  8
DEFPOINTS
  6
CONTINUOUS
 62
     0
 10
3140.6677
 20
2702.050639
 30
0.0
  0
POINT
  5
7E5D
  8
DEFPOINTS
  6
CONTINUOUS
 62
     0
 10
2780.6677
 20
2702.050639
 30
0.0
  0
POINT
  5
7E5E
  8
DEFPOINTS
  6
CONTINUOUS
 62
     0
 10
2780.6677
 20
2767.7599438252382
 30
0.0
  0
ENDBLK
  5
7E06
  8
0
  0
BLOCK
  8
0
  2
*D7
 70
     1
 10
0.0
 20
0.0
 30
0.0
  3
*D7
  1

  0
LINE
  5
7E5F
  8
3
  6
CONTINUOUS
 62
     0
 10
3151.6677
 20
2597.050639
 30
0.0
 11
3299.496967
 21
2597.050639
 31
0.0
  0
LINE
  5
7E60
  8
3
  6
CONTINUOUS
 62
     0
 10
3151.6677
 20
2097.050639
 30
0.0
 11
3299.496967
 21
2097.050639
 31
0.0
  0
LINE
  5
7E61
  8
3
  6
CONTINUOUS
 62
     0
 10
3279.496967
 20
2557.050639
 30
0.0
 11
3279.496967
 21
2137.0506389999991
 31
0.0
  0
INSERT
  5
7E62
  8
3
  6
CONTINUOUS
 62
     0
  2
_OPEN
 10
3279.496967
 20
2597.050639
 30
0.0
 41
40.0
 42
40.0
 43
40.0
 50
90.0
  0
INSERT
  5
7E63
  8
3
  6
CONTINUOUS
 62
     0
  2
_OPEN
 10
3279.496967
 20
2097.050639
 30
0.0
 41
40.0
 42
40.0
 43
40.0
 50
270.0
  0
TEXT
  8
3
  40
60
  5
7EBB
  62
0
  72
0
  71
0
 10
3109.50
 20
2251.68
 30
0.000000
  1
φ500
  0
POINT
  5
7E65
  8
DEFPOINTS
  6
CONTINUOUS
 62
     0
 10
3141.6677
 20
2597.050639
 30
0.0
  0
POINT
  5
7E66
  8
DEFPOINTS
  6
CONTINUOUS
 62
     0
 10
3141.6677
 20
2097.050639
 30
0.0
  0
POINT
  5
7E67
  8
DEFPOINTS
  6
CONTINUOUS
 62
     0
 10
3279.496967
 20
2097.050639
 30
0.0
  0
ENDBLK
  5
7DDB
  8
0
  0
BLOCK
  8
0
  2
*D8
 70
     1
 10
0.0
 20
0.0
 30
0.0
  3
*D8
  1

  0
LINE
  5
7DC7
  8
0
  6
BYBLOCK
 62
     0
 10
3141.6677
 20
2607.050639
 30
0.0
 11
3141.6677
 21
2956.4171379999989
 31
0.0
  0
LINE
  5
7DC8
  8
0
  6
BYBLOCK
 62
     0
 10
2960.6677
 20
2853.482117
 30
0.0
 11
2960.6677
 21
2956.4171379999989
 31
0.0
  0
LINE
  5
7DC9
  8
0
  6
BYBLOCK
 62
     0
 10
3101.6677
 20
2936.4171379999989
 30
0.0
 11
3000.6677
 21
2936.4171379999989
 31
0.0
  0
TEXT
  5
7DCA
  8
3
 62
     0
 10
2992.5962714285711
 20
2975.8824240029862
 30
0.0
 40
60.0
  1
181
  0
INSERT
  5
7DCB
  8
0
  6
BYBLOCK
 62
     0
  2
_OPEN
 10
3141.6677
 20
2936.4171379999989
 30
0.0
 41
40.0
 42
40.0
 43
40.0
  0
INSERT
  5
7DCC
  8
0
  6
BYBLOCK
 62
     0
  2
_OPEN
 10
2960.6677
 20
2936.4171379999989
 30
0.0
 41
40.0
 42
40.0
 43
40.0
 50
180.0
  0
POINT
  5
7DCD
  8
DEFPOINTS
  6
BYBLOCK
 62
     0
 10
3141.6677
 20
2597.050639
 30
0.0
  0
POINT
  5
7DCE
  8
DEFPOINTS
  6
BYBLOCK
 62
     0
 10
2960.6677
 20
2843.482117
 30
0.0
  0
POINT
  5
7DCF
  8
DEFPOINTS
  6
BYBLOCK
 62
     0
 10
2960.6677
 20
2936.4171379999989
 30
0.0
  0
ENDBLK
  5
7DD0
  8
0
  0
BLOCK
  8
0
  2
*D9
 70
     1
 10
0.0
 20
0.0
 30
0.0
  3
*D9
  1

  0
LINE
  5
7E68
  8
3
  6
CONTINUOUS
 62
     0
 10
2590.6677
 20
2692.050639
 30
0.0
 11
2590.6677
 21
2956.4171379999989
 31
0.0
  0
LINE
  5
7E69
  8
3
  6
CONTINUOUS
 62
     0
 10
2920.6677
 20
2936.4171379999989
 30
0.0
 11
2630.6677
 21
2936.4171379999989
 31
0.0
  0
INSERT
  5
7E6A
  8
3
  6
CONTINUOUS
 62
     0
  2
_OPEN
 10
2960.6677
 20
2936.4171379999989
 30
0.0
 41
40.0
 42
40.0
 43
40.0
  0
INSERT
  5
7E6B
  8
3
  6
CONTINUOUS
 62
     0
  2
_OPEN
 10
2590.6677
 20
2936.4171379999989
 30
0.0
 41
40.0
 42
40.0
 43
40.0
 50
180.0
  0
TEXT
  8
3
  40
60
  5
7EBC
  62
0
  72
0
  71
0
 10
2655.67
 20
2930.22
 30
0.000000
  1
MAX
  0
TEXT
  8
3
  40
60
  5
7EBD
  62
0
  72
0
  71
0
 10
2655.67
 20
2852.22
 30
0.000000
  1
430
  0
POINT
  5
7E6D
  8
DEFPOINTS
  6
CONTINUOUS
 62
     0
 10
2960.6677
 20
2843.482117
 30
0.0
  0
POINT
  5
7E6E
  8
DEFPOINTS
  6
CONTINUOUS
 62
     0
 10
2590.6677
 20
2682.050639
 30
0.0
  0
POINT
  5
7E6F
  8
DEFPOINTS
  6
CONTINUOUS
 62
     0
 10
2590.6677
 20
2936.4171379999989
 30
0.0
  0
ENDBLK
  5
7DFB
  8
0
  0
BLOCK
  8
0
  2
*D10
 70
     1
 10
0.0
 20
0.0
 30
0.0
  3
*D10
  1

  0
LINE
  5
7DE8
  8
0
  6
BYBLOCK
 62
     0
 10
2736.6676999999991
 20
1760.050639
 30
0.0
 11
2736.6676999999991
 21
1597.033232
 31
0.0
  0
LINE
  5
7DE9
  8
0
  6
BYBLOCK
 62
     0
 10
2960.6677
 20
1619.751092
 30
0.0
 11
2960.6677
 21
1637.033232
 31
0.0
  0
LINE
  5
7DEA
  8
0
  6
BYBLOCK
 62
     0
 10
2776.6677
 20
1617.0332319999991
 30
0.0
 11
2920.6677
 21
1617.0332319999991
 31
0.0
  0
TEXT
  5
7DEB
  8
3
 62
     0
 10
2770.0962714285711
 20
1633.6959847265291
 30
0.0
 40
60.0
  1
224
  0
INSERT
  5
7DEC
  8
0
  6
BYBLOCK
 62
     0
  2
_OPEN
 10
2736.6676999999991
 20
1617.0332319999991
 30
0.0
 41
40.0
 42
40.0
 43
40.0
 50
180.0
  0
INSERT
  5
7DED
  8
0
  6
BYBLOCK
 62
     0
  2
_OPEN
 10
2960.6677
 20
1617.0332319999991
 30
0.0
 41
40.0
 42
40.0
 43
40.0
  0
POINT
  5
7DEE
  8
DEFPOINTS
  6
BYBLOCK
 62
     0
 10
2736.6676999999991
 20
1770.050639
 30
0.0
  0
POINT
  5
7DEF
  8
DEFPOINTS
  6
BYBLOCK
 62
     0
 10
2960.6677
 20
1609.751092
 30
0.0
  0
POINT
  5
7DF0
  8
DEFPOINTS
  6
BYBLOCK
 62
     0
 10
2960.6677
 20
1617.0332319999991
 30
0.0
  0
ENDBLK
  5
7DF1
  8
0
  0
BLOCK
  8
0
  2
*D11
 70
     1
 10
0.0
 20
0.0
 30
0.0
  3
*D11
  1

  0
LINE
  5
7E70
  8
3
  6
CONTINUOUS
 62
     0
 10
3184.6677
 20
1760.050639
 30
0.0
 11
3184.6677
 21
1597.033232
 31
0.0
  0
LINE
  5
7E71
  8
3
  6
CONTINUOUS
 62
     0
 10
3000.6677
 20
1617.0332319999991
 30
0.0
 11
3144.6677
 21
1617.0332319999991
 31
0.0
  0
TEXT
  8
3
  40
60
  5
7EBE
  62
0
  72
0
  71
0
 10
2955.74
 20
1560.66
 30
0.000000
  1
224
  0
INSERT
  5
7E73
  8
3
  6
CONTINUOUS
 62
     0
  2
_OPEN
 10
2960.6677
 20
1617.0332319999991
 30
0.0
 41
40.0
 42
40.0
 43
40.0
 50
180.0
  0
INSERT
  5
7E74
  8
3
  6
CONTINUOUS
 62
     0
  2
_OPEN
 10
3184.6677
 20
1617.0332319999991
 30
0.0
 41
40.0
 42
40.0
 43
40.0
  0
POINT
  5
7E75
  8
DEFPOINTS
  6
CONTINUOUS
 62
     0
 10
2960.6677
 20
1609.751092
 30
0.0
  0
POINT
  5
7E76
  8
DEFPOINTS
  6
CONTINUOUS
 62
     0
 10
3184.6677
 20
1770.050639
 30
0.0
  0
POINT
  5
7E77
  8
DEFPOINTS
  6
CONTINUOUS
 62
     0
 10
3184.6677
 20
1617.0332319999991
 30
0.0
  0
ENDBLK
  5
7D5C
  8
0
  0
BLOCK
  8
0
  2
*D12
 70
     1
 10
0.0
 20
0.0
 30
0.0
  3
*D12
  1

  0
LINE
  5
7E78
  8
3
  6
CONTINUOUS
 62
     0
 10
935.29769999999985
 20
4129.1806390000002
 30
0.0
 11
935.29769999999985
 21
4319.5254249999998
 31
0.0
  0
LINE
  5
7E79
  8
3
  6
CONTINUOUS
 62
     0
 10
2055.2977000000001
 20
4129.1806390000002
 30
0.0
 11
2055.2977000000001
 21
4319.5254249999998
 31
0.0
  0
LINE
  5
7E7A
  8
3
  6
CONTINUOUS
 62
     0
 10
975.29769999999985
 20
4299.5254249999998
 30
0.0
 11
2015.2977000000001
 21
4299.5254249999998
 31
0.0
  0
INSERT
  5
7E7B
  8
3
  6
CONTINUOUS
 62
     0
  2
_OPEN
 10
935.29769999999985
 20
4299.5254249999998
 30
0.0
 41
40.0
 42
40.0
 43
40.0
 50
180.0
  0
INSERT
  5
7E7C
  8
3
  6
CONTINUOUS
 62
     0
  2
_OPEN
 10
2055.2977000000001
 20
4299.5254249999998
 30
0.0
 41
40.0
 42
40.0
 43
40.0
  0
TEXT
  8
3
  40
60
  5
7EBF
  62
0
  72
0
  71
0
 10
1375.80
 20
4243.33
 30
0.000000
  1
1120
  0
POINT
  5
7E7E
  8
DEFPOINTS
  6
CONTINUOUS
 62
     0
 10
935.29769999999985
 20
4119.1806390000002
 30
0.0
  0
POINT
  5
7E7F
  8
DEFPOINTS
  6
CONTINUOUS
 62
     0
 10
2055.2977000000001
 20
4119.1806390000002
 30
0.0
  0
POINT
  5
7E80
  8
DEFPOINTS
  6
CONTINUOUS
 62
     0
 10
2055.2977000000001
 20
4299.5254249999998
 30
0.0
  0
ENDBLK
  5
7D2F
  8
0
  0
BLOCK
  8
0
  2
*D13
 70
     1
 10
0.0
 20
0.0
 30
0.0
  3
*D13
  1

  0
LINE
  5
7E81
  8
3
  6
CONTINUOUS
 62
     0
 10
925.29769999999985
 20
4119.1806390000002
 30
0.0
 11
771.04388100000062
 21
4119.1806390000002
 31
0.0
  0
LINE
  5
7E82
  8
3
  6
CONTINUOUS
 62
     0
 10
925.29769999999985
 20
3671.1806390000002
 30
0.0
 11
771.04388100000051
 21
3671.1806390000002
 31
0.0
  0
LINE
  5
7E83
  8
3
  6
CONTINUOUS
 62
     0
 10
791.04388100000062
 20
4079.1806390000002
 30
0.0
 11
791.0438810000004
 21
3711.1806390000002
 31
0.0
  0
INSERT
  5
7E84
  8
3
  6
CONTINUOUS
 62
     0
  2
_OPEN
 10
791.04388100000062
 20
4119.1806390000002
 30
0.0
 41
40.0
 42
40.0
 43
40.0
 50
90.0
  0
INSERT
  5
7E85
  8
3
  6
CONTINUOUS
 62
     0
  2
_OPEN
 10
791.0438810000004
 20
3671.1806390000002
 30
0.0
 41
40.0
 42
40.0
 43
40.0
 50
270.0
  0
TEXT
  8
3
  40
60
  5
7EC0
  62
0
  72
0
  71
0
 10
621.044
 20
3789.92
 30
0.000000
  1
448
  0
POINT
  5
7E87
  8
DEFPOINTS
  6
CONTINUOUS
 62
     0
 10
935.29769999999985
 20
4119.1806390000002
 30
0.0
  0
POINT
  5
7E88
  8
DEFPOINTS
  6
CONTINUOUS
 62
     0
 10
935.29769999999985
 20
3671.1806390000002
 30
0.0
  0
POINT
  5
7E89
  8
DEFPOINTS
  6
CONTINUOUS
 62
     0
 10
791.0438810000004
 20
3671.1806390000002
 30
0.0
  0
ENDBLK
  5
7D24
  8
0
  0
BLOCK
  8
0
  2
*D14
 70
     1
 10
0.0
 20
0.0
 30
0.0
  3
*D14
  1

  0
LINE
  5
7E8A
  8
3
  6
CONTINUOUS
 62
     0
 10
1800.2977000000001
 20
2702.050639
 30
0.0
 11
2272.1515100000001
 21
2702.050639
 31
0.0
  0
LINE
  5
7E8B
  8
3
  6
CONTINUOUS
 62
     0
 10
2252.1515100000001
 20
2387.0506389999991
 30
0.0
 11
2252.1515100000001
 21
2662.050639
 31
0.0
  0
INSERT
  5
7E8C
  8
3
  6
CONTINUOUS
 62
     0
  2
_OPEN
 10
2252.1515100000001
 20
2347.050639
 30
0.0
 41
40.0
 42
40.0
 43
40.0
 50
270.0
  0
INSERT
  5
7E8D
  8
3
  6
CONTINUOUS
 62
     0
  2
_OPEN
 10
2252.1515100000001
 20
2702.050639
 30
0.0
 41
40.0
 42
40.0
 43
40.0
 50
90.0
  0
TEXT
  8
3
  40
60
  5
7EC1
  62
0
  72
0
  71
0
 10
2082.15
 20
2418.35
 30
0.000000
  1
355
  0
POINT
  5
7E8F
  8
DEFPOINTS
  6
CONTINUOUS
 62
     0
 10
2224.2304210000002
 20
2347.050639
 30
0.0
  0
POINT
  5
7E90
  8
DEFPOINTS
  6
CONTINUOUS
 62
     0
 10
1790.2976999999989
 20
2702.050639
 30
0.0
  0
POINT
  5
7E91
  8
DEFPOINTS
  6
CONTINUOUS
 62
     0
 10
2252.1515100000001
 20
2702.050639
 30
0.0
  0
ENDBLK
  5
7CCA
  8
0
  0
BLOCK
  8
0
  2
*D15
 70
     1
 10
0.0
 20
0.0
 30
0.0
  3
*D15
  1

  0
LINE
  5
7E92
  8
3
  6
CONTINUOUS
 62
     0
 10
1293.2977000000001
 20
2712.050639
 30
0.0
 11
1293.2977000000001
 21
2877.4866619999998
 31
0.0
  0
LINE
  5
7E93
  8
3
  6
CONTINUOUS
 62
     0
 10
1773.2977000000001
 20
2712.050639
 30
0.0
 11
1773.2977000000001
 21
2877.4866619999998
 31
0.0
  0
LINE
  5
7E94
  8
3
  6
CONTINUOUS
 62
     0
 10
1333.2977000000001
 20
2857.4866619999998
 30
0.0
 11
1733.2977000000001
 21
2857.4866619999998
 31
0.0
  0
INSERT
  5
7E95
  8
3
  6
CONTINUOUS
 62
     0
  2
_OPEN
 10
1293.2977000000001
 20
2857.4866619999998
 30
0.0
 41
40.0
 42
40.0
 43
40.0
 50
180.0
  0
INSERT
  5
7E96
  8
3
  6
CONTINUOUS
 62
     0
  2
_OPEN
 10
1773.2977000000001
 20
2857.4866619999998
 30
0.0
 41
40.0
 42
40.0
 43
40.0
  0
TEXT
  8
3
  40
60
  5
7EC2
  62
0
  72
0
  71
0
 10
1421.40
 20
2801.29
 30
0.000000
  1
480
  0
POINT
  5
7E98
  8
DEFPOINTS
  6
CONTINUOUS
 62
     0
 10
1293.2977000000001
 20
2702.050639
 30
0.0
  0
POINT
  5
7E99
  8
DEFPOINTS
  6
CONTINUOUS
 62
     0
 10
1773.2977000000001
 20
2702.050639
 30
0.0
  0
POINT
  5
7E9A
  8
DEFPOINTS
  6
CONTINUOUS
 62
     0
 10
1773.2977000000001
 20
2857.4866619999998
 30
0.0
  0
ENDBLK
  5
7D19
  8
0
  0
BLOCK
  8
0
  2
*D16
 70
     1
 10
0.0
 20
0.0
 30
0.0
  3
*D16
  1

  0
LINE
  5
7E9B
  8
3
  6
CONTINUOUS
 62
     0
 10
935.29769999999985
 20
1760.050639
 30
0.0
 11
935.29769999999985
 21
1557.553437
 31
0.0
  0
LINE
  5
7E9C
  8
3
  6
CONTINUOUS
 62
     0
 10
1755.2977000000001
 20
1629.136266
 30
0.0
 11
1755.2977000000001
 21
1557.553437
 31
0.0
  0
LINE
  5
7E9D
  8
3
  6
CONTINUOUS
 62
     0
 10
975.29769999999985
 20
1577.553437
 30
0.0
 11
1715.2976999999989
 21
1577.553437
 31
0.0
  0
INSERT
  5
7E9E
  8
3
  6
CONTINUOUS
 62
     0
  2
_OPEN
 10
935.29769999999985
 20
1577.553437
 30
0.0
 41
40.0
 42
40.0
 43
40.0
 50
180.0
  0
INSERT
  5
7E9F
  8
3
  6
CONTINUOUS
 62
     0
  2
_OPEN
 10
1755.2977000000001
 20
1577.553437
 30
0.0
 41
40.0
 42
40.0
 43
40.0
  0
TEXT
  8
3
  40
60
  5
7EC3
  62
0
  72
0
  71
0
 10
1215.81
 20
1521.35
 30
0.000000
  1
820
  0
POINT
  5
7EA1
  8
DEFPOINTS
  6
CONTINUOUS
 62
     0
 10
935.29769999999985
 20
1770.050639
 30
0.0
  0
POINT
  5
7EA2
  8
DEFPOINTS
  6
CONTINUOUS
 62
     0
 10
1755.2977000000001
 20
1639.1362659999991
 30
0.0
  0
POINT
  5
7EA3
  8
DEFPOINTS
  6
CONTINUOUS
 62
     0
 10
1755.2977000000001
 20
1577.553437
 30
0.0
  0
ENDBLK
  5
7CEC
  8
0
  0
BLOCK
  8
0
  2
*D17
 70
     1
 10
0.0
 20
0.0
 30
0.0
  3
*D17
  1

  0
LINE
  5
7EA4
  8
3
  6
CONTINUOUS
 62
     0
 10
2055.2977000000001
 20
1760.050639
 30
0.0
 11
2055.2977000000001
 21
1557.553437
 31
0.0
  0
LINE
  5
7EA5
  8
3
  6
CONTINUOUS
 62
     0
 10
1795.2977000000001
 20
1577.553437
 30
0.0
 11
2015.2977000000001
 21
1577.553437
 31
0.0
  0
INSERT
  5
7EA6
  8
3
  6
CONTINUOUS
 62
     0
  2
_OPEN
 10
1755.2977000000001
 20
1577.553437
 30
0.0
 41
40.0
 42
40.0
 43
40.0
 50
180.0
  0
INSERT
  5
7EA7
  8
3
  6
CONTINUOUS
 62
     0
  2
_OPEN
 10
2055.2977000000001
 20
1577.553437
 30
0.0
 41
40.0
 42
40.0
 43
40.0
  0
TEXT
  8
3
  40
60
  5
7EC4
  62
0
  72
0
  71
0
 10
1785.30
 20
1521.35
 30
0.000000
  1
300
  0
POINT
  5
7EA9
  8
DEFPOINTS
  6
CONTINUOUS
 62
     0
 10
1755.2977000000001
 20
1639.1362659999991
 30
0.0
  0
POINT
  5
7EAA
  8
DEFPOINTS
  6
CONTINUOUS
 62
     0
 10
2055.2977000000001
 20
1770.050639
 30
0.0
  0
POINT
  5
7EAB
  8
DEFPOINTS
  6
CONTINUOUS
 62
     0
 10
2055.2977000000001
 20
1577.553437
 30
0.0
  0
ENDBLK
  5
7CF8
  8
0
  0
BLOCK
  8
0
  2
*D18
 70
     1
 10
0.0
 20
0.0
 30
0.0
  3
*D18
  1

  0
LINE
  5
7EAC
  8
3
 62
     0
 10
2110.2977000000001
 20
2667.050639
 30
0.0
 11
2110.2977000000001
 21
3100.4483413111338
 31
0.0
  0
LINE
  5
7EAD
  8
3
 62
     0
 10
935.29769999999985
 20
1947.050639
 30
0.0
 11
935.29769999999996
 21
3100.4483413111338
 31
0.0
  0
LINE
  5
7EAE
  8
3
 62
     0
 10
2070.2977000000001
 20
3080.4483413111338
 30
0.0
 11
975.29770000000008
 21
3080.4483413111338
 31
0.0
  0
INSERT
  5
7EAF
  8
3
 62
     0
  2
_OPEN
 10
2110.2977000000001
 20
3080.4483413111338
 30
0.0
 41
40.0
 42
40.0
 43
40.0
  0
INSERT
  5
7EB0
  8
3
 62
     0
  2
_OPEN
 10
935.29769999999996
 20
3080.4483413111338
 30
0.0
 41
40.0
 42
40.0
 43
40.0
 50
180.0
  0
TEXT
  8
3
  40
60
  5
7EC5
  62
0
  72
0
  71
0
 10
1397.29
 20
3024.25
 30
0.000000
  1
1175
  0
POINT
  5
7EB2
  8
DEFPOINTS
 62
     0
 10
2110.2977000000001
 20
2657.050639
 30
0.0
  0
POINT
  5
7EB3
  8
DEFPOINTS
 62
     0
 10
935.29769999999985
 20
1937.0506389999989
 30
0.0
  0
POINT
  5
7EB4
  8
DEFPOINTS
 62
     0
 10
935.29769999999996
 20
3080.4483413111338
 30
0.0
  0
ENDBLK
  5
7DB9
  8
0
  0
ENDSEC
  0
SECTION
  2
ENTITIES
  0
LINE
  5
7A71
  8
1
  6
CONTINUOUS
 10
2590.6677
 20
2682.050639
 30
0.0
 11
2710.6677
 21
2682.050639
 31
0.0
  0
LINE
  5
7A72
  8
1
  6
CONTINUOUS
 10
2710.6677
 20
1937.0506389999989
 30
0.0
 11
2590.6677
 21
1937.0506389999989
 31
0.0
  0
ARC
  5
7A75
  8
1
  6
CONTINUOUS
 10
1724.834282
 20
2370.1302679999999
 30
0.0
 40
431.17249299999992
 50
183.12053399999999
 51
274.7365549999999
  0
LINE
  5
7A76
  8
1
  6
CONTINUOUS
 10
1773.2977000000001
 20
2677.050639
 30
0.0
 11
1293.3677
 21
2677.050639
 31
0.0
  0
LINE
  5
7A77
  8
1
  6
CONTINUOUS
 10
935.29769999999985
 20
1937.0506389999989
 30
0.0
 11
2110.2977000000001
 21
1937.0506389999989
 31
0.0
  0
LINE
  5
7A78
  8
1
  6
CONTINUOUS
 10
935.29769999999985
 20
1857.050639
 30
0.0
 11
2055.2977000000001
 21
1857.050639
 31
0.0
  0
LINE
  5
7A79
  8
1
  6
CONTINUOUS
 10
1790.2976999999989
 20
2702.050639
 30
0.0
 11
1276.2977000000001
 21
2702.050639
 31
0.0
  0
LINE
  5
7A7A
  8
1
  6
CONTINUOUS
 10
935.29769999999985
 20
1770.050639
 30
0.0
 11
2055.2977000000001
 21
1770.050639
 31
0.0
  0
LINE
  5
7A7B
  8
1
  6
CONTINUOUS
 10
935.29769999999985
 20
1835.050639
 30
0.0
 11
2055.2977000000001
 21
1835.050639
 31
0.0
  0
ARC
  5
7A7C
  8
1
  6
CONTINUOUS
 10
1724.834282
 20
2370.1302679999999
 30
0.0
 40
431.17249299999992
 50
183.12053399999999
 51
274.7365549999999
  0
LINE
  5
7A84
  8
1
  6
CONTINUOUS
 10
1128.8377
 20
2172.900638999999
 30
0.0
 11
1702.3676999999991
 21
2454.7506389999999
 31
0.0
  0
LINE
  5
7A85
  8
1
  6
CONTINUOUS
 10
1171.2777000000001
 20
2061.2206390000001
 30
0.0
 11
1787.247699999999
 21
2231.380639
 31
0.0
  0
ARC
  5
7A86
  8
1
  6
CONTINUOUS
 10
1155.2976999999989
 20
2119.050639
 30
0.0
 40
122.0
 50
324.60000000000002
 51
215.39999999999989
  0
LINE
  5
7A87
  8
1
  6
CONTINUOUS
 10
1025.2977000000001
 20
1987.0506389999989
 30
0.0
 11
1285.2977000000001
 21
1987.0506389999989
 31
0.0
  0
LINE
  5
7A88
  8
1
  6
CONTINUOUS
 10
935.29769999999985
 20
1937.0506389999989
 30
0.0
 11
935.29769999999985
 21
1857.050639
 31
0.0
  0
LINE
  5
7A89
  8
1
  6
CONTINUOUS
 10
935.29769999999985
 20
1835.050639
 30
0.0
 11
935.29769999999985
 21
1770.050639
 31
0.0
  0
LINE
  5
7A8A
  8
1
  6
CONTINUOUS
 10
1025.2977000000001
 20
1987.0506389999989
 30
0.0
 11
1075.2977000000001
 21
1987.0506389999989
 31
0.0
  0
LINE
  5
7A8B
  8
1
  6
CONTINUOUS
 10
1025.2977000000001
 20
1937.0506389999989
 30
0.0
 11
1025.2977000000001
 21
1987.0506389999989
 31
0.0
  0
LINE
  5
7A8C
  8
1
  6
CONTINUOUS
 10
1025.2977000000001
 20
1987.0506389999989
 30
0.0
 11
1055.8577
 21
2048.3706390000002
 31
0.0
  0
LINE
  5
7A8D
  8
1
  6
CONTINUOUS
 10
1285.2977000000001
 20
1987.0506389999989
 30
0.0
 11
1235.2977000000001
 21
1987.0506389999989
 31
0.0
  0
LINE
  5
7A8E
  8
2
  6
CENTER
 10
1155.2976999999989
 20
2059.050639
 30
0.0
 11
1155.2976999999989
 21
2179.050639
 31
0.0
  0
LINE
  5
7A8F
  8
2
  6
CENTER
 10
1215.2977000000001
 20
2119.050639
 30
0.0
 11
1095.2977000000001
 21
2119.050639
 31
0.0
  0
CIRCLE
  5
7A90
  8
1
  6
CONTINUOUS
 10
1155.2976999999989
 20
2119.050639
 30
0.0
 40
60.0
  0
LINE
  5
7A91
  8
1
  6
CONTINUOUS
 10
1285.2977000000001
 20
1987.0506389999989
 30
0.0
 11
1254.737699999999
 21
2048.3706390000002
 31
0.0
  0
LINE
  5
7A92
  8
1
  6
CONTINUOUS
 10
1285.2977000000001
 20
1937.0506389999989
 30
0.0
 11
1285.2977000000001
 21
1987.0506389999989
 31
0.0
  0
LINE
  5
7A93
  8
1
  6
CONTINUOUS
 10
1293.2977000000001
 20
2702.050639
 30
0.0
 11
1294.2977000000001
 21
2346.6606390000002
 31
0.0
  0
CIRCLE
  5
7A94
  8
1
  6
CONTINUOUS
 10
1755.2977000000001
 20
2347.050639
 30
0.0
 40
275.0
  0
LINE
  5
7A95
  8
1
  6
CONTINUOUS
 10
1400.2977000000001
 20
2657.050639
 30
0.0
 11
2110.2977000000001
 21
2657.050639
 31
0.0
  0
ARC
  5
7A96
  8
1
  6
CONTINUOUS
 10
1766.4267090000001
 20
2316.5894960000001
 30
0.0
 40
343.89392400000003
 50
9.976388
 51
88.859720999999993
  0
ARC
  5
7A97
  8
1
  6
CONTINUOUS
 10
1728.2977000000001
 20
2320.050639
 30
0.0
 40
380.98000000000002
 50
274.83999999999992
 51
8.4700000000000006
  0
CIRCLE
  5
7A98
  8
1
  6
CONTINUOUS
 10
1755.2977000000001
 20
2347.050639
 30
0.0
 40
250.0
  0
LINE
  5
7A99
  8
1
  6
CONTINUOUS
 10
1400.2977000000001
 20
2657.050639
 30
0.0
 11
1400.2977000000001
 21
1937.0506389999989
 31
0.0
  0
CIRCLE
  5
7A9A
  8
1
  6
CONTINUOUS
 10
1755.2977000000001
 20
2347.050639
 30
0.0
 40
120.0
  0
LINE
  5
7A9B
  8
2
  6
CENTER
 10
1755.2977000000001
 20
1639.1362659999991
 30
0.0
 11
1755.2977000000001
 21
2925.5902689999998
 31
0.0
  0
LINE
  5
7A9C
  8
2
  6
CENTER
 10
1085.2366862400261
 20
2347.050639
 30
0.0
 11
2224.2304210000002
 21
2347.050639
 31
0.0
  0
LINE
  5
7A9D
  8
1
  6
CONTINUOUS
 10
1773.2977000000001
 20
2660.4206389999999
 30
0.0
 11
1773.2977000000001
 21
2702.050639
 31
0.0
  0
LINE
  5
7A9E
  8
1
  6
CONTINUOUS
 10
2110.2977000000001
 20
2657.050639
 30
0.0
 11
2110.2977000000001
 21
1937.0506389999989
 31
0.0
  0
LINE
  5
7A9F
  8
1
  6
CONTINUOUS
 10
2590.6677
 20
1937.0506389999989
 30
0.0
 11
2590.6677
 21
2682.050639
 31
0.0
  0
LINE
  5
7AA0
  8
1
  6
CONTINUOUS
 10
2055.2977000000001
 20
1937.0506389999989
 30
0.0
 11
2055.2977000000001
 21
1857.050639
 31
0.0
  0
LINE
  5
7AA1
  8
1
  6
CONTINUOUS
 10
2055.2977000000001
 20
1835.050639
 30
0.0
 11
2055.2977000000001
 21
1770.050639
 31
0.0
  0
LINE
  5
7AA2
  8
1
  6
CONTINUOUS
 10
1266.2977000000001
 20
3713.1806390000002
 30
0.0
 11
1800.2977000000001
 21
4077.1806390000002
 31
0.0
  0
LINE
  5
7AA3
  8
1
  6
CONTINUOUS
 10
1800.2977000000001
 20
3713.1806390000002
 30
0.0
 11
1266.2977000000001
 21
4077.1806390000002
 31
0.0
  0
LINE
  5
7AA4
  8
1
  6
CONTINUOUS
 10
1144.2977000000001
 20
3671.1806390000002
 30
0.0
 11
1736.2977000000001
 21
3671.1806390000002
 31
0.0
  0
LINE
  5
7AA5
  8
1
  6
CONTINUOUS
 10
935.29769999999985
 20
4119.1806390000002
 30
0.0
 11
2055.2977000000001
 21
4119.1806390000002
 31
0.0
  0
LINE
  5
7AA6
  8
1
  6
CONTINUOUS
 10
1266.2977000000001
 20
4077.1806390000002
 30
0.0
 11
2110.2977000000001
 21
4077.1806390000002
 31
0.0
  0
LINE
  5
7AA7
  8
1
  6
CONTINUOUS
 10
1266.2977000000001
 20
3713.1806390000002
 30
0.0
 11
2110.2977000000001
 21
3713.1806390000002
 31
0.0
  0
LINE
  5
7AA8
  8
1
  6
CONTINUOUS
 10
980.79769999999985
 20
3525.1806390000002
 30
0.0
 11
1980.7977000000001
 21
3525.1806390000002
 31
0.0
  0
LINE
  5
7AA9
  8
1
  6
CONTINUOUS
 10
1980.7977000000001
 20
3645.1806390000002
 30
0.0
 11
980.79769999999985
 21
3645.1806390000002
 31
0.0
  0
LINE
  5
7AAA
  8
1
  6
CONTINUOUS
 10
935.29769999999985
 20
4119.1806390000002
 30
0.0
 11
935.29769999999985
 21
3671.1806390000002
 31
0.0
  0
LINE
  5
7AAB
  8
1
  6
CONTINUOUS
 10
1003.2977
 20
4045.4206389999999
 30
0.0
 11
1247.2977000000001
 21
4045.4206389999999
 31
0.0
  0
LINE
  5
7AAC
  8
1
  6
CONTINUOUS
 10
1003.2977
 20
3695.4206389999999
 30
0.0
 11
1247.2977000000001
 21
3695.4206389999999
 31
0.0
  0
LINE
  5
7AAD
  8
1
  6
CONTINUOUS
 10
935.29769999999985
 20
3671.1806390000002
 30
0.0
 11
1106.2977000000001
 21
3671.1806390000002
 31
0.0
  0
LINE
  5
7AAE
  8
1
  6
CONTINUOUS
 10
1075.2977000000001
 20
3555.1806390000002
 30
0.0
 11
1175.2977000000001
 21
3555.1806390000002
 31
0.0
  0
LINE
  5
7AAF
  8
1
  6
CONTINUOUS
 10
1175.2977000000001
 20
3615.1806390000002
 30
0.0
 11
1075.2977000000001
 21
3615.1806390000002
 31
0.0
  0
LINE
  5
7AB0
  8
1
  6
CONTINUOUS
 10
1075.2977000000001
 20
3615.1806390000002
 30
0.0
 11
1075.2977000000001
 21
3555.1806390000002
 31
0.0
  0
LINE
  5
7AB1
  8
1
  6
CONTINUOUS
 10
980.79769999999985
 20
3645.1806390000002
 30
0.0
 11
980.79769999999985
 21
3525.1806390000002
 31
0.0
  0
LINE
  5
7AB2
  8
1
  6
CONTINUOUS
 10
1003.2977
 20
3695.4206389999999
 30
0.0
 11
1003.2977
 21
4045.4206389999999
 31
0.0
  0
LINE
  5
7AB3
  8
1
  6
CONTINUOUS
 10
1144.2977000000001
 20
3615.1806390000002
 30
0.0
 11
1144.2977000000001
 21
3695.4206389999999
 31
0.0
  0
LINE
  5
7AB4
  8
1
  6
CONTINUOUS
 10
1106.2977000000001
 20
3615.1806390000002
 30
0.0
 11
1106.2977000000001
 21
3695.4206389999999
 31
0.0
  0
LINE
  5
7AB5
  8
1
  6
CONTINUOUS
 10
1175.2977000000001
 20
3555.1806390000002
 30
0.0
 11
1175.2977000000001
 21
3615.1806390000002
 31
0.0
  0
LINE
  5
7AB6
  8
1
  6
CONTINUOUS
 10
1247.2977000000001
 20
3695.4206389999999
 30
0.0
 11
1247.2977000000001
 21
4045.4206389999999
 31
0.0
  0
LINE
  5
7AB7
  8
1
  6
CONTINUOUS
 10
1266.2977000000001
 20
4077.1806390000002
 30
0.0
 11
1266.2977000000001
 21
3713.1806390000002
 31
0.0
  0
LINE
  5
7AB8
  8
1
  6
CONTINUOUS
 10
1774.2976999999989
 20
3671.1806390000002
 30
0.0
 11
2055.2977000000001
 21
3671.1806390000002
 31
0.0
  0
LINE
  5
7AB9
  8
1
  6
CONTINUOUS
 10
1875.2977000000001
 20
3615.1806390000002
 30
0.0
 11
1635.2977000000001
 21
3615.1806390000002
 31
0.0
  0
LINE
  5
7ABA
  8
1
  6
CONTINUOUS
 10
1635.2977000000001
 20
3555.1806390000002
 30
0.0
 11
1875.2977000000001
 21
3555.1806390000002
 31
0.0
  0
LINE
  5
7ABB
  8
1
  6
CONTINUOUS
 10
1635.2977000000001
 20
3555.1806390000002
 30
0.0
 11
1635.2977000000001
 21
3615.1806390000002
 31
0.0
  0
LINE
  5
7ABC
  8
1
  6
CONTINUOUS
 10
1736.2977000000001
 20
3615.1806390000002
 30
0.0
 11
1736.2977000000001
 21
3713.1806390000002
 31
0.0
  0
LINE
  5
7ABD
  8
1
  6
CONTINUOUS
 10
1774.2976999999989
 20
3615.1806390000002
 30
0.0
 11
1774.2976999999989
 21
3713.1806390000002
 31
0.0
  0
LINE
  5
7ABE
  8
1
  6
CONTINUOUS
 10
1875.2977000000001
 20
3555.1806390000002
 30
0.0
 11
1875.2977000000001
 21
3615.1806390000002
 31
0.0
  0
LINE
  5
7ABF
  8
1
  6
CONTINUOUS
 10
1980.7977000000001
 20
3525.1806390000002
 30
0.0
 11
1980.7977000000001
 21
3645.1806390000002
 31
0.0
  0
LINE
  5
7AC0
  8
1
  6
CONTINUOUS
 10
1800.2977000000001
 20
3713.1806390000002
 30
0.0
 11
1800.2977000000001
 21
4077.1806390000002
 31
0.0
  0
LINE
  5
7AC1
  8
1
  6
CONTINUOUS
 10
2055.2977000000001
 20
4119.1806390000002
 30
0.0
 11
2055.2977000000001
 21
4077.1806390000002
 31
0.0
  0
LINE
  5
7AC2
  8
1
  6
CONTINUOUS
 10
2055.2977000000001
 20
3713.1806390000002
 30
0.0
 11
2055.2977000000001
 21
3671.1806390000002
 31
0.0
  0
LINE
  5
7AC3
  8
1
  6
CONTINUOUS
 10
2110.2977000000001
 20
3713.1806390000002
 30
0.0
 11
2110.2977000000001
 21
4077.1806390000002
 31
0.0
  0
LINE
  5
7AC4
  8
1
  6
CONTINUOUS
 10
2680.6677
 20
2227.050639
 30
0.0
 11
2680.6677
 21
2467.0506389999991
 31
0.0
  0
LINE
  5
7AC5
  8
1
  6
CONTINUOUS
 10
2620.6677
 20
2467.0506389999991
 30
0.0
 11
2620.6677
 21
2227.050639
 31
0.0
  0
LINE
  5
7AC6
  8
1
  6
CONTINUOUS
 10
2780.6677
 20
2702.050639
 30
0.0
 11
2780.6677
 21
1937.0506389999989
 31
0.0
  0
LINE
  5
7AC7
  8
1
  6
CONTINUOUS
 10
3140.6677
 20
2702.050639
 30
0.0
 11
3140.6677
 21
1937.0506389999989
 31
0.0
  0
LINE
  5
7AC8
  8
1
  6
CONTINUOUS
 10
2710.6677
 20
2682.050639
 30
0.0
 11
2710.6677
 21
1937.0506389999989
 31
0.0
  0
LINE
  5
7AC9
  8
1
  6
CONTINUOUS
 10
2736.6676999999991
 20
1937.0506389999989
 30
0.0
 11
3184.6677
 21
1937.0506389999989
 31
0.0
  0
LINE
  5
7ACA
  8
1
  6
CONTINUOUS
 10
2736.6676999999991
 20
1857.050639
 30
0.0
 11
3184.6677
 21
1857.050639
 31
0.0
  0
LINE
  5
7ACB
  8
1
  6
CONTINUOUS
 10
2736.6676999999991
 20
1770.050639
 30
0.0
 11
3184.6677
 21
1770.050639
 31
0.0
  0
LINE
  5
7ACC
  8
1
  6
CONTINUOUS
 10
2736.6676999999991
 20
1835.050639
 30
0.0
 11
3184.6677
 21
1835.050639
 31
0.0
  0
LINE
  5
7ACD
  8
1
  6
CONTINUOUS
 10
2736.6676999999991
 20
1937.0506389999989
 30
0.0
 11
2736.6676999999991
 21
1857.050639
 31
0.0
  0
LINE
  5
7ACE
  8
1
  6
CONTINUOUS
 10
2736.6676999999991
 20
1835.050639
 30
0.0
 11
2736.6676999999991
 21
1770.050639
 31
0.0
  0
LINE
  5
7ACF
  8
1
  6
CONTINUOUS
 10
2680.6677
 20
2100.050639
 30
0.0
 11
2780.6677
 21
2100.050639
 31
0.0
  0
LINE
  5
7AD0
  8
1
  6
CONTINUOUS
 10
2680.6677
 20
2138.050639
 30
0.0
 11
2780.6677
 21
2138.050639
 31
0.0
  0
LINE
  5
7AD1
  8
1
  6
CONTINUOUS
 10
2620.6677
 20
2227.050639
 30
0.0
 11
2680.6677
 21
2227.050639
 31
0.0
  0
LINE
  5
7AD2
  8
1
  6
CONTINUOUS
 10
2620.6677
 20
2069.0506389999991
 30
0.0
 11
2680.6677
 21
2069.0506389999991
 31
0.0
  0
LINE
  5
7AD3
  8
1
  6
CONTINUOUS
 10
2680.6677
 20
2169.0506389999991
 30
0.0
 11
2620.6677
 21
2169.0506389999991
 31
0.0
  0
LINE
  5
7AD4
  8
1
  6
CONTINUOUS
 10
2620.6677
 20
2169.0506389999991
 30
0.0
 11
2620.6677
 21
2069.0506389999991
 31
0.0
  0
LINE
  5
7AD5
  8
1
  6
CONTINUOUS
 10
2680.6677
 20
2069.0506389999991
 30
0.0
 11
2680.6677
 21
2169.0506389999991
 31
0.0
  0
LINE
  5
7AD6
  8
1
  6
CONTINUOUS
 10
3184.6677
 20
1937.0506389999989
 30
0.0
 11
3184.6677
 21
1857.050639
 31
0.0
  0
LINE
  5
7AD7
  8
1
  6
CONTINUOUS
 10
3184.6677
 20
1835.050639
 30
0.0
 11
3184.6677
 21
1770.050639
 31
0.0
  0
LINE
  5
7AD8
  8
1
  6
CONTINUOUS
 10
2780.6677
 20
2677.050639
 30
0.0
 11
3140.6677
 21
2677.050639
 31
0.0
  0
LINE
  5
7AD9
  8
1
  6
CONTINUOUS
 10
3165.6677
 20
2702.050639
 30
0.0
 11
2753.6677
 21
2702.050639
 31
0.0
  0
LINE
  5
7ADA
  8
1
  6
CONTINUOUS
 10
2680.6677
 20
2328.050639
 30
0.0
 11
2780.6677
 21
2328.050639
 31
0.0
  0
LINE
  5
7ADB
  8
1
  6
CONTINUOUS
 10
2680.6677
 20
2366.050639
 30
0.0
 11
2780.6677
 21
2366.050639
 31
0.0
  0
LINE
  5
7ADC
  8
1
  6
CONTINUOUS
 10
2680.6677
 20
2467.0506389999991
 30
0.0
 11
2620.6677
 21
2467.0506389999991
 31
0.0
  0
LINE
  5
7ADD
  8
2
  6
CENTER
 10
2197.4032449999991
 20
3895.1806390000002
 30
0.0
 11
909.32202599999982
 21
3895.1806390000002
 31
0.0
  0
LINE
  5
7ADE
  8
2
  6
CENTER
 10
2960.6677
 20
2765.4184969999992
 30
0.0
 11
2960.6677
 21
1609.751092
 31
0.0
  0
LINE
  5
7ADF
  8
2
  6
CENTER
 10
1755.2977000000001
 20
3429.243485
 30
0.0
 11
1755.2977000000001
 21
4312.7749329999997
 31
0.0
  0
LINE
  5
7AE0
  8
2
  6
CENTER
 10
2531.2335360000002
 20
2347.050639
 30
0.0
 11
3174.3356250000002
 21
2347.050639
 31
0.0
  0
LINE
  5
7AE1
  8
1
  6
CONTINUOUS
 10
1980.7977000000001
 20
1937.0506389999989
 30
0.0
 11
1980.7977000000001
 21
2607.050639
 31
0.0
  0
LINE
  5
7AE2
  8
1
  6
CONTINUOUS
 10
1980.7977000000001
 20
2607.050639
 30
0.0
 11
1740.7977000000001
 21
2682.050639
 31
0.0
  0
LINE
  5
7AE3
  8
1
  6
CONTINUOUS
 10
1740.7977000000001
 20
2682.050639
 30
0.0
 11
980.79769999999985
 21
2172.050639
 31
0.0
  0
LINE
  5
7AE4
  8
1
  6
CONTINUOUS
 10
980.79769999999985
 20
2172.050639
 30
0.0
 11
980.79769999999985
 21
1937.0506389999989
 31
0.0
  0
LINE
  5
7AE5
  8
4
  6
CONTINUOUS
 10
3700.0
 20
1000.0
 30
0.0
 11
3700.0
 21
600.0
 31
0.0
  0
LINE
  5
7AE6
  8
4
  6
CONTINUOUS
 10
2300.0
 20
1000.0
 30
0.0
 11
2300.0
 21
600.0
 31
0.0
  0
LINE
  5
7AE7
  8
4
  6
CONTINUOUS
 10
1300.0
 20
1000.0
 30
0.0
 11
1300.0
 21
600.0
 31
0.0
  0
LINE
  5
7AEA
  8
4
  6
CONTINUOUS
 10
1300.0
 20
600.0
 30
0.0
 11
3700.0
 21
600.0
 31
0.0
  0
LINE
  5
7AEB
  8
4
  6
CONTINUOUS
 10
1300.0
 20
800.0
 30
0.0
 11
3700.0
 21
800.0
 31
0.0
  0
TEXT
  5
7AEC
  8
4
  6
CONTINUOUS
 10
1377.004162
 20
863.086052
 30
0.0
 40
100.0
  1
機器名称
  0
TEXT
  5
7AED
  8
4
  6
CONTINUOUS
 10
1372.516212
 20
643.29031299999986
 30
0.0
 40
100.0
  1
機器型番
  0
TEXT
  5
7AEE
  8
4
  6
CONTINUOUS
 10
2355.3574910000002
 20
845.14353800000015
 30
0.0
 40
100.0
  1
ミツヤ多翼送風機
  0
TEXT
  5
7AEF
  8
4
  6
CONTINUOUS
 10
2373.3089909999999
 20
634.31916899999999
 30
0.0
 40
100.0
  1
MF#3-4
  0
TEXT
  5
7AF1
  8
4
  6
CONTINUOUS
 10
1456.657183999999
 20
4766.8576830000002
 30
0.0
 40
108.0
  1
床置防振ベット
  0
TEXT
  5
7AF2
  8
4
  6
CONTINUOUS
 10
632.33518700000002
 20
5067.7619520000007
 30
0.0
 40
144.0
  1
ベルト駆動式片吸込両持多翼ファン
  0
LINE
  5
7AF3
  8
4
  6
CONTINUOUS
 10
500.0
 20
4938.8175090000004
 30
0.0
 11
3700.0
 21
4938.8175090000004
 31
0.0
  0
LINE
  5
7AF4
  8
4
  6
CONTINUOUS
 10
500.0
 20
5338.8175090000004
 30
0.0
 11
3700.0
 21
5338.8175090000004
 31
0.0
  0
LINE
  5
7AF5
  8
4
  6
CONTINUOUS
 10
1300.0
 20
1000.0
 30
0.0
 11
3700.0
 21
1000.0
 31
0.0
  0
LINE
  5
7AF6
  8
4
  6
CONTINUOUS
 10
500.0
 20
5338.8175090000004
 30
0.0
 11
500.0
 21
4938.8175090000004
 31
0.0
  0
TEXT
  5
7AF7
  8
4
  6
CONTINUOUS
 10
643.75856399999986
 20
4764.6389549999994
 30
0.0
 40
108.0
  1
右回転上向
  0
TEXT
  5
7AF8
  8
4
  6
CONTINUOUS
 10
2937.9391179999998
 20
5412.122163
 30
0.0
 40
112.0
  1
No.
  0
TEXT
  5
7AF9
  8
4
  6
CONTINUOUS
 10
2622.5921250000001
 20
4766.8576830000002
 30
0.0
 40
108.0
  1
縮尺：1/20
  0
LINE
  5
7AFA
  8
4
  6
CONTINUOUS
 10
3700.0
 20
5338.8175090000004
 30
0.0
 11
3700.0
 21
4938.8175090000004
 31
0.0
  0
LINE
  5
7AFC
  8
4
  6
CONTINUOUS
 10
2881.234845
 20
5362.5271659999999
 30
0.0
 11
2881.234845
 21
5573.3045229999998
 31
0.0
  0
LINE
  5
7AFD
  8
4
  6
CONTINUOUS
 10
2881.234845
 20
5573.3045229999998
 30
0.0
 11
3700.0
 21
5573.3045229999998
 31
0.0
  0
LINE
  5
7AFE
  8
4
  6
CONTINUOUS
 10
3700.0
 20
5573.3045229999998
 30
0.0
 11
3700.0
 21
5362.5271659999999
 31
0.0
  0
LINE
  5
7AFF
  8
4
  6
CONTINUOUS
 10
3700.0
 20
5362.5271659999999
 30
0.0
 11
2881.234845
 21
5362.5271659999999
 31
0.0
  0
DIMENSION
  5
7B24
  8
3
  6
CONTINUOUS
  2
*D1
 10
1755.2977000000001
 20
2967.207464999999
 30
0.0
 11
1507.932765999999
 21
2967.207464999999
 31
0.0
 70
   128
 13
1293.2977000000001
 23
2702.050639
 33
0.0
 14
1755.2977000000001
 24
2925.5902689999998
 34
0.0
1001
ACAD
1000
DSTYLE
1002
{
1070
   287
1070
     3
1070
    40
1040
20.0
1070
   143
1040
0.039
1070
   172
1070
     1
1070
   271
1070
     0
1070
   279
1070
     0
1070
   288
1070
     1
1002
}
  0
DIMENSION
  5
7B30
  8
3
  6
CONTINUOUS
  2
*D2
 10
2110.2977000000001
 20
2967.207464999999
 30
0.0
 11
1932.7977000000001
 21
3017.207465
 31
0.0
 70
     0
 13
1755.2977000000001
 23
2925.5902689999998
 33
0.0
 14
2110.2977000000001
 24
2657.050639
 34
0.0
1001
ACAD
1000
DSTYLE
1002
{
1070
   287
1070
     4
1070
    40
1040
20.0
1070
    75
1070
     1
1070
   143
1040
0.039
1070
   172
1070
     1
1070
   271
1070
     0
1070
   279
1070
     1
1070
   288
1070
     1
1002
}
  0
DIMENSION
  5
7B49
  8
3
  6
CONTINUOUS
  2
*D3
 10
2252.1515100000001
 20
1857.050639
 30
0.0
 11
2202.1515099999988
 21
2102.050639
 31
0.0
 70
     0
 13
2224.2304210000002
 23
2347.050639
 33
0.0
 14
2055.2977000000001
 24
1857.050639
 34
0.0
 50
90.0
1001
ACAD
1000
DSTYLE
1002
{
1070
   287
1070
     4
1070
    40
1040
20.0
1070
    75
1070
     1
1070
   143
1040
0.039
1070
   172
1070
     1
1070
   271
1070
     0
1070
   279
1070
     1
1070
   288
1070
     1
1002
}
  0
DIMENSION
  5
7B59
  8
3
  6
CONTINUOUS
  2
*D4
 10
2252.2662519999999
 20
1770.050639
 30
0.0
 11
2252.2662519999999
 21
1621.4792104285709
 31
0.0
 70
   128
 13
2055.2977000000001
 23
1857.050639
 33
0.0
 14
2055.2977000000001
 24
1770.050639
 34
0.0
 50
90.0
1001
ACAD
1000
DSTYLE
1002
{
1070
   287
1070
     3
1070
    40
1040
20.0
1070
   143
1040
0.039
1070
   172
1070
     1
1070
   271
1070
     0
1070
   279
1070
     0
1070
   288
1070
     1
1002
}
  0
DIMENSION
  5
7B66
  8
3
  6
CONTINUOUS
  2
*D5
 10
2393.3949550000011
 20
1770.050639
 30
0.0
 11
2393.3949550000002
 21
2268.9883300000001
 31
0.0
 70
   128
 13
1790.2976999999989
 23
2702.050639
 33
0.0
 14
2055.2977000000001
 24
1770.050639
 34
0.0
 50
90.0
1001
ACAD
1000
DSTYLE
1002
{
1070
   287
1070
     3
1070
    40
1040
20.0
1070
   143
1040
0.039
1070
   172
1070
     1
1070
   271
1070
     0
1070
   279
1070
     0
1070
   288
1070
     1
1002
}
  0
DIMENSION
  5
7B80
  8
3
  6
CONTINUOUS
  2
*D6
 10
2780.6677
 20
2767.7599438252382
 30
0.0
 11
2951.8789309999988
 21
2767.7599438252382
 31
0.0
 70
   128
 13
3140.6677
 23
2702.050639
 33
0.0
 14
2780.6677
 24
2702.050639
 34
0.0
1001
ACAD
1000
DSTYLE
1002
{
1070
   287
1070
     3
1070
    40
1040
20.0
1070
   143
1040
0.039
1070
   172
1070
     1
1070
   271
1070
     0
1070
   279
1070
     0
1070
   288
1070
     1
1002
}
  0
LINE
  5
7B97
  8
1
  6
CONTINUOUS
 10
3141.6677
 20
2597.050639
 30
0.0
 11
3141.6677
 21
2097.050639
 31
0.0
  0
DIMENSION
  5
7BA6
  8
3
  6
CONTINUOUS
  2
*D7
 10
3279.496967
 20
2097.050639
 30
0.0
 11
3279.496967
 21
2357.882693
 31
0.0
 70
   128
 13
3141.6677
 23
2597.050639
 33
0.0
 14
3141.6677
 24
2097.050639
 34
0.0
 50
90.0
1001
ACAD
1000
DSTYLE
1002
{
1070
   287
1070
     3
1070
     3
1000
φ<>
1070
    40
1040
20.0
1070
   143
1040
0.039
1070
   172
1070
     1
1070
   271
1070
     0
1070
   279
1070
     0
1070
   288
1070
     1
1002
}
  0
DIMENSION
  5
7BB5
  8
3
  6
CONTINUOUS
  2
*D8
 10
2960.6677
 20
2936.4171379999989
 30
0.0
 11
3051.1677
 21
3005.8824240029862
 31
0.0
 70
   128
 13
3141.6677
 23
2597.050639
 33
0.0
 14
2960.6677
 24
2843.482117
 34
0.0
1001
ACAD
1000
DSTYLE
1002
{
1070
   288
1070
     1
1070
   172
1070
     1
1070
    40
1040
20.0
1070
   271
1070
     0
1070
   143
1040
0.039
1002
}
  0
DIMENSION
  5
7BC1
  8
3
  6
CONTINUOUS
  2
*D9
 10
2590.6677
 20
2936.4171379999989
 30
0.0
 11
2775.6677
 21
3036.4171379999998
 31
0.0
 70
     0
  1
MAX\P430
 13
2960.6677
 23
2843.482117
 33
0.0
 14
2590.6677
 24
2682.050639
 34
0.0
1001
ACAD
1000
DSTYLE
1002
{
1070
   287
1070
     4
1070
    40
1040
20.0
1070
    75
1070
     1
1070
   143
1040
0.039
1070
   172
1070
     1
1070
   271
1070
     0
1070
   279
1070
     1
1070
   288
1070
     1
1002
}
  0
DIMENSION
  5
7BD0
  8
3
  6
CONTINUOUS
  2
*D10
 10
2960.6677
 20
1617.0332319999991
 30
0.0
 11
2848.6677
 21
1663.69598472653
 31
0.0
 70
   128
 13
2736.6676999999991
 23
1770.050639
 33
0.0
 14
2960.6677
 24
1609.751092
 34
0.0
1001
ACAD
1000
DSTYLE
1002
{
1070
   288
1070
     1
1070
   172
1070
     1
1070
    40
1040
20.0
1070
   271
1070
     0
1070
   143
1040
0.039
1002
}
  0
DIMENSION
  5
7BDE
  8
3
  6
CONTINUOUS
  2
*D11
 10
3184.6677
 20
1617.0332319999991
 30
0.0
 11
3075.7361179999998
 21
1616.8592969999991
 31
0.0
 70
   128
 13
2960.6677
 23
1609.751092
 33
0.0
 14
3184.6677
 24
1770.050639
 34
0.0
1001
ACAD
1000
DSTYLE
1002
{
1070
   287
1070
     4
1070
    40
1040
20.0
1070
    75
1070
     1
1070
   143
1040
0.039
1070
   172
1070
     1
1070
   271
1070
     0
1070
   279
1070
     1
1070
   288
1070
     1
1002
}
  0
DIMENSION
  5
7BEB
  8
3
  6
CONTINUOUS
  2
*D12
 10
2055.2977000000001
 20
4299.5254249999998
 30
0.0
 11
1495.798757
 21
4299.5254249999998
 31
0.0
 70
   128
 13
935.29769999999985
 23
4119.1806390000002
 33
0.0
 14
2055.2977000000001
 24
4119.1806390000002
 34
0.0
1001
ACAD
1000
DSTYLE
1002
{
1070
   287
1070
     3
1070
    40
1040
20.0
1070
   143
1040
0.039
1070
   172
1070
     1
1070
   271
1070
     0
1070
   279
1070
     0
1070
   288
1070
     1
1002
}
  0
DIMENSION
  5
7BF8
  8
3
  6
CONTINUOUS
  2
*D13
 10
791.0438810000004
 20
3671.1806390000002
 30
0.0
 11
791.04388099999994
 21
3896.1168979999989
 31
0.0
 70
   128
 13
935.29769999999985
 23
4119.1806390000002
 33
0.0
 14
935.29769999999985
 24
3671.1806390000002
 34
0.0
 50
90.0
1001
ACAD
1000
DSTYLE
1002
{
1070
   287
1070
     3
1070
    40
1040
20.0
1070
   143
1040
0.039
1070
   172
1070
     1
1070
   271
1070
     0
1070
   279
1070
     0
1070
   288
1070
     1
1002
}
  0
DIMENSION
  5
7C0A
  8
3
  6
CONTINUOUS
  2
*D14
 10
2252.1515100000001
 20
2702.050639
 30
0.0
 11
2202.1515099999988
 21
2524.550639
 31
0.0
 70
     0
 13
2224.2304210000002
 23
2347.050639
 33
0.0
 14
1790.2976999999989
 24
2702.050639
 34
0.0
 50
90.0
1001
ACAD
1000
DSTYLE
1002
{
1070
   287
1070
     4
1070
    40
1040
20.0
1070
    75
1070
     1
1070
   143
1040
0.039
1070
   172
1070
     1
1070
   271
1070
     0
1070
   279
1070
     1
1070
   288
1070
     1
1002
}
  0
DIMENSION
  5
7C3C
  8
3
  6
CONTINUOUS
  2
*D15
 10
1773.2977000000001
 20
2857.4866619999998
 30
0.0
 11
1541.398721
 21
2857.4866619999998
 31
0.0
 70
   128
 13
1293.2977000000001
 23
2702.050639
 33
0.0
 14
1773.2977000000001
 24
2702.050639
 34
0.0
1001
ACAD
1000
DSTYLE
1002
{
1070
   287
1070
     3
1070
    40
1040
20.0
1070
   143
1040
0.039
1070
   172
1070
     1
1070
   271
1070
     0
1070
   279
1070
     0
1070
   288
1070
     1
1002
}
  0
DIMENSION
  5
7CED
  8
3
  6
CONTINUOUS
  2
*D16
 10
1755.2977000000001
 20
1577.553437
 30
0.0
 11
1335.808217
 21
1577.553437
 31
0.0
 70
   128
 13
935.29769999999985
 23
1770.050639
 33
0.0
 14
1755.2977000000001
 24
1639.1362659999991
 34
0.0
1001
ACAD
1000
DSTYLE
1002
{
1070
   287
1070
     3
1070
    40
1040
20.0
1070
   143
1040
0.039
1070
   172
1070
     1
1070
   271
1070
     0
1070
   279
1070
     0
1070
   288
1070
     1
1002
}
  0
DIMENSION
  5
7CF9
  8
3
  6
CONTINUOUS
  2
*D17
 10
2055.2977000000001
 20
1577.553437
 30
0.0
 11
1905.2977000000001
 21
1627.5534369999989
 31
0.0
 70
     0
 13
1755.2977000000001
 23
1639.1362659999991
 33
0.0
 14
2055.2977000000001
 24
1770.050639
 34
0.0
1001
ACAD
1000
DSTYLE
1002
{
1070
   287
1070
     4
1070
    40
1040
20.0
1070
    75
1070
     1
1070
   143
1040
0.039
1070
   172
1070
     1
1070
   271
1070
     0
1070
   279
1070
     1
1070
   288
1070
     1
1002
}
  0
DIMENSION
  5
7DBA
  8
3
  2
*D18
 10
935.29769999999996
 20
3080.4483413111338
 30
0.0
 11
1517.29061623495
 21
3080.4483413111338
 31
0.0
 70
   128
 13
2110.2977000000001
 23
2657.050639
 33
0.0
 14
935.29769999999985
 24
1937.0506389999989
 34
0.0
1001
ACAD
1000
DSTYLE
1002
{
1070
   287
1070
     3
1070
    40
1040
20.0
1070
   143
1040
0.039
1070
   172
1070
     1
1070
   271
1070
     0
1070
   279
1070
     0
1070
   288
1070
     1
1002
}
  0
ENDSEC
  0
EOF
