  0
SECTION
  2
HEADER
  9
$ACADVER
  1
AC1009
  9
$INSBASE
 10
0.0
 20
0.0
 30
0.0
  9
$EXTMIN
 10
500.0
 20
600.0
 30
0.0
  9
$EXTMAX
 10
3700.0
 20
5573.3045199999997
 30
0.0
  9
$LIMMIN
 10
0.0
 20
0.0
  9
$LIMMAX
 10
297.0
 20
210.0
  9
$ORTHOMODE
 70
     0
  9
$REGENMODE
 70
     1
  9
$FILLMODE
 70
     0
  9
$QTEXTMODE
 70
     0
  9
$MIRRTEXT
 70
     1
  9
$DRAGMODE
 70
     2
  9
$LTSCALE
 40
100.0
  9
$OSMODE
 70
    37
  9
$ATTMODE
 70
     1
  9
$TEXTSIZE
 40
180.0
  9
$TRACEWID
 40
0.05
  9
$TEXTSTYLE
  7
STANDARD
  9
$CLAYER
  8
3
  9
$CELTYPE
  6
BYLAYER
  9
$CECOLOR
 62
   256
  9
$DIMSCALE
 40
20.0
  9
$DIMASZ
 40
2.0
  9
$DIMEXO
 40
0.5
  9
$DIMDLI
 40
10.0
  9
$DIMRND
 40
0.0
  9
$DIMDLE
 40
0.0
  9
$DIMEXE
 40
1.0
  9
$DIMTP
 40
1.0
  9
$DIMTM
 40
1.0
  9
$DIMTXT
 40
3.0
  9
$DIMCEN
 40
0.0
  9
$DIMTSZ
 40
0.0
  9
$DIMTOL
 70
     0
  9
$DIMLIM
 70
     0
  9
$DIMTIH
 70
     0
  9
$DIMTOH
 70
     0
  9
$DIMSE1
 70
     0
  9
$DIMSE2
 70
     0
  9
$DIMTAD
 70
     1
  9
$DIMZIN
 70
     8
  9
$DIMBLK
  1

  9
$DIMASO
 70
     1
  9
$DIMSHO
 70
     1
  9
$DIMPOST
  1

  9
$DIMAPOST
  1

  9
$DIMALT
 70
     0
  9
$DIMALTD
 70
     2
  9
$DIMALTF
 40
0.039
  9
$DIMLFAC
 40
1.0
  9
$DIMTOFL
 70
     1
  9
$DIMTVP
 40
0.0
  9
$DIMTIX
 70
     0
  9
$DIMSOXD
 70
     0
  9
$DIMSAH
 70
     1
  9
$DIMBLK1
  1
OPEN
  9
$DIMBLK2
  1
OPEN
  9
$DIMSTYLE
  2
IGA
  9
$DIMCLRD
 70
     0
  9
$DIMCLRE
 70
     0
  9
$DIMCLRT
 70
     0
  9
$DIMTFAC
 40
10.0
  9
$DIMGAP
 40
1.0
  9
$LUNITS
 70
     2
  9
$LUPREC
 70
     3
  9
$SKETCHINC
 40
0.1
  9
$FILLETRAD
 40
50.0
  9
$AUNITS
 70
     0
  9
$AUPREC
 70
     0
  9
$MENU
  1
acad
  9
$ELEVATION
 40
0.0
  9
$PELEVATION
 40
0.0
  9
$THICKNESS
 40
0.0
  9
$LIMCHECK
 70
     0
  9
$BLIPMODE
 70
     0
  9
$CHAMFERA
 40
0.5
  9
$CHAMFERB
 40
0.5
  9
$SKPOLY
 70
     0
  9
$TDCREATE
 40
2450728.6552483789
  9
$TDUPDATE
 40
2454953.767794224
  9
$TDINDWG
 40
0.0038518981
  9
$TDUSRTIMER
 40
0.0038518981
  9
$USRTIMER
 70
     1
  9
$ANGBASE
 50
0.0
  9
$ANGDIR
 70
     0
  9
$PDMODE
 70
     0
  9
$PDSIZE
 40
0.0
  9
$PLINEWID
 40
0.0
  9
$COORDS
 70
     1
  9
$SPLFRAME
 70
     0
  9
$SPLINETYPE
 70
     6
  9
$SPLINESEGS
 70
     8
  9
$ATTDIA
 70
     0
  9
$ATTREQ
 70
     1
  9
$HANDLING
 70
 10241
  9
$HANDSEED
  5
7FF8
  9
$SURFTAB1
 70
     6
  9
$SURFTAB2
 70
     6
  9
$SURFTYPE
 70
     6
  9
$SURFU
 70
     6
  9
$SURFV
 70
     6
  9
$UCSNAME
  2

  9
$UCSORG
 10
0.0
 20
0.0
 30
0.0
  9
$UCSXDIR
 10
1.0
 20
0.0
 30
0.0
  9
$UCSYDIR
 10
0.0
 20
1.0
 30
0.0
  9
$PUCSNAME
  2

  9
$PUCSORG
 10
0.0
 20
0.0
 30
0.0
  9
$PUCSXDIR
 10
1.0
 20
0.0
 30
0.0
  9
$PUCSYDIR
 10
0.0
 20
1.0
 30
0.0
  9
$USERI1
 70
     0
  9
$USERI2
 70
     0
  9
$USERI3
 70
     0
  9
$USERI4
 70
     0
  9
$USERI5
 70
     0
  9
$USERR1
 40
0.0
  9
$USERR2
 40
0.0
  9
$USERR3
 40
0.0
  9
$USERR4
 40
0.0
  9
$USERR5
 40
0.0
  9
$WORLDVIEW
 70
     1
  9
$SHADEDGE
 70
     3
  9
$SHADEDIF
 70
    70
  9
$TILEMODE
 70
     1
  9
$MAXACTVP
 70
    16
  9
$PLIMCHECK
 70
     0
  9
$PEXTMIN
 10
1.0000000000000000E+020
 20
1.0000000000000000E+020
 30
1.0000000000000000E+020
  9
$PEXTMAX
 10
-1.0000000000000000E+020
 20
-1.0000000000000000E+020
 30
-1.0000000000000000E+020
  9
$PLIMMIN
 10
0.0
 20
0.0
  9
$PLIMMAX
 10
12.0
 20
9.0
  9
$UNITMODE
 70
     0
  9
$VISRETAIN
 70
     0
  9
$PLINEGEN
 70
     0
  9
$PSLTSCALE
 70
     1
  0
ENDSEC
  0
SECTION
  2
TABLES
  0
TABLE
  2
VPORT
 70
     2
  0
VPORT
  2
*ACTIVE
 70
     0
 10
0.0
 20
0.0
 11
1.0
 21
1.0
 12
6292.1124746963987
 22
3086.637498153164
 13
0.0
 23
0.0
 14
10.0
 24
10.0
 15
10.0
 25
10.0
 16
0.0
 26
0.0
 36
1.0
 17
0.0
 27
0.0
 37
0.0
 40
5011.4968549320647
 41
3.1666666666666661
 42
50.0
 43
0.0
 44
0.0
 50
0.0
 51
0.0
 71
     0
 72
   100
 73
     1
 74
     0
 75
     0
 76
     0
 77
     0
 78
     0
  0
ENDTAB
  0
TABLE
  2
LTYPE
 70
     2
  0
LTYPE
  2
CONTINUOUS
 70
     0
  3
Solid line
 72
    65
 73
     0
 40
0.0
  0
LTYPE
  2
CENTER
 70
     0
  3
____ _ ____ _ ____ _ ____ _ ____ _ ____ _ ____ 
 72
    65
 73
     4
 40
2.0
 49
1.25
 49
-0.25
 49
0.25
 49
-0.25
  0
ENDTAB
  0
TABLE
  2
LAYER
 70
     6
  0
LAYER
  2
0
 70
     0
 62
     7
  6
CONTINUOUS
  0
LAYER
  2
3
 70
     0
 62
     2
  6
CONTINUOUS
  0
LAYER
  2
2
 70
     0
 62
     3
  6
CENTER
  0
LAYER
  2
1
 70
     0
 62
     4
  6
CONTINUOUS
  0
LAYER
  2
4
 70
     0
 62
     7
  6
CONTINUOUS
  0
LAYER
  2
DEFPOINTS
 70
     0
 62
     7
  6
CONTINUOUS
  0
ENDTAB
  0
TABLE
  2
STYLE
 70
     1
  0
STYLE
  2
STANDARD
 70
     0
 40
0.0
 41
1.0
 50
0.0
 71
     0
 42
180.0
  3
simplex.shx
  4
extfont.shx
  0
ENDTAB
  0
TABLE
  2
VIEW
 70
     0
  0
ENDTAB
  0
TABLE
  2
UCS
 70
     0
  0
ENDTAB
  0
TABLE
  2
APPID
 70
     1
  0
APPID
  2
ACAD
 70
     0
  0
ENDTAB
  0
TABLE
  2
DIMSTYLE
 70
     1
  0
DIMSTYLE
  2
IGA
 70
     0
  3

  4

  5

  6
OPEN
  7
OPEN
 40
2.0
 41
2.0
 42
0.5
 43
10.0
 44
1.0
 45
0.0
 46
0.0
 47
1.0
 48
1.0
140
3.0
141
0.0
142
0.0
143
0.03937
144
1.0
145
0.0
146
10.0
147
1.0
 71
     0
 72
     0
 73
     0
 74
     0
 75
     0
 76
     0
 77
     1
 78
     8
170
     0
171
     2
172
     0
173
     1
174
     0
175
     0
176
     0
177
     0
178
     0
  0
ENDTAB
  0
ENDSEC
  0
SECTION
  2
BLOCKS
  0
BLOCK
  8
0
  2
$MODEL_SPACE
 70
     0
 10
0.0
 20
0.0
 30
0.0
  3
$MODEL_SPACE
  1

  0
ENDBLK
  5
1B
  8
0
  0
BLOCK
 67
     1
  8
0
  2
$PAPER_SPACE
 70
     0
 10
0.0
 20
0.0
 30
0.0
  3
$PAPER_SPACE
  1

  0
ENDBLK
  5
18
 67
     1
  8
0
  0
BLOCK
  8
0
  2
_OPEN
 70
     0
 10
0.0
 20
0.0
 30
0.0
  3
_OPEN
  1

  0
LINE
  5
7CA3
  8
0
  6
BYBLOCK
 62
     0
 10
-1.0
 20
0.166667
 30
0.0
 11
0.0
 21
0.0
 31
0.0
  0
LINE
  5
7CA4
  8
0
  6
BYBLOCK
 62
     0
 10
0.0
 20
0.0
 30
0.0
 11
-1.0
 21
-0.166667
 31
0.0
  0
LINE
  5
7CA5
  8
0
  6
BYBLOCK
 62
     0
 10
0.0
 20
0.0
 30
0.0
 11
-1.0
 21
0.0
 31
0.0
  0
ENDBLK
  5
7CA6
  8
0
  0
BLOCK
  8
0
  2
*D1
 70
     1
 10
0.0
 20
0.0
 30
0.0
  3
*D1
  1

  0
LINE
  5
7F66
  8
3
  6
CONTINUOUS
 62
     0
 10
1117.8877959999991
 20
2632.0121709999999
 30
0.0
 11
1117.8877959999991
 21
2788.963307
 31
0.0
  0
LINE
  5
7F67
  8
3
  6
CONTINUOUS
 62
     0
 10
1597.887796
 20
2632.0121709999999
 30
0.0
 11
1597.887796
 21
2788.963307
 31
0.0
  0
LINE
  5
7F68
  8
3
  6
CONTINUOUS
 62
     0
 10
1157.887796
 20
2768.9633069999991
 30
0.0
 11
1557.887796
 21
2768.9633069999991
 31
0.0
  0
INSERT
  5
7F69
  8
3
  6
CONTINUOUS
 62
     0
  2
_OPEN
 10
1117.8877959999991
 20
2768.9633069999991
 30
0.0
 41
40.0
 42
40.0
 43
40.0
 50
180.0
  0
INSERT
  5
7F6A
  8
3
  6
CONTINUOUS
 62
     0
  2
_OPEN
 10
1597.887796
 20
2768.9633069999991
 30
0.0
 41
40.0
 42
40.0
 43
40.0
  0
TEXT
  8
3
  40
60
  5
7FE8
  62
0
  72
0
  71
0
 10
1253.36
 20
2712.76
 30
0.000000
  1
480
  0
POINT
  5
7F6C
  8
DEFPOINTS
  6
CONTINUOUS
 62
     0
 10
1117.8877959999991
 20
2622.0121709999999
 30
0.0
  0
POINT
  5
7F6D
  8
DEFPOINTS
  6
CONTINUOUS
 62
     0
 10
1597.887796
 20
2622.0121709999999
 30
0.0
  0
POINT
  5
7F6E
  8
DEFPOINTS
  6
CONTINUOUS
 62
     0
 10
1597.887796
 20
2768.9633069999991
 30
0.0
  0
ENDBLK
  5
7DFF
  8
0
  0
BLOCK
  8
0
  2
*D2
 70
     1
 10
0.0
 20
0.0
 30
0.0
  3
*D2
  1

  0
LINE
  5
7F6F
  8
3
  6
CONTINUOUS
 62
     0
 10
1624.887796
 20
2622.0121709999999
 30
0.0
 11
2101.1757189999998
 21
2622.0121709999999
 31
0.0
  0
LINE
  5
7F70
  8
3
  6
CONTINUOUS
 62
     0
 10
2039.9703669999999
 20
2267.0121709999999
 30
0.0
 11
2101.1757189999998
 21
2267.0121709999999
 31
0.0
  0
LINE
  5
7F71
  8
3
  6
CONTINUOUS
 62
     0
 10
2081.1757189999998
 20
2582.0121709999999
 30
0.0
 11
2081.1757189999998
 21
2307.0121709999999
 31
0.0
  0
INSERT
  5
7F72
  8
3
  6
CONTINUOUS
 62
     0
  2
_OPEN
 10
2081.1757189999998
 20
2622.0121709999999
 30
0.0
 41
40.0
 42
40.0
 43
40.0
 50
90.0
  0
INSERT
  5
7F73
  8
3
  6
CONTINUOUS
 62
     0
  2
_OPEN
 10
2081.1757189999998
 20
2267.0121709999999
 30
0.0
 41
40.0
 42
40.0
 43
40.0
 50
270.0
  0
TEXT
  8
3
  40
60
  5
7FE9
  62
0
  72
0
  71
0
 10
1911.18
 20
2334.73
 30
0.000000
  1
355
  0
POINT
  5
7F75
  8
DEFPOINTS
  6
CONTINUOUS
 62
     0
 10
1614.887796
 20
2622.0121709999999
 30
0.0
  0
POINT
  5
7F76
  8
DEFPOINTS
  6
CONTINUOUS
 62
     0
 10
2029.9703669999999
 20
2267.0121709999999
 30
0.0
  0
POINT
  5
7F77
  8
DEFPOINTS
  6
CONTINUOUS
 62
     0
 10
2081.1757189999998
 20
2267.0121709999999
 30
0.0
  0
ENDBLK
  5
7CFA
  8
0
  0
BLOCK
  8
0
  2
*D3
 70
     1
 10
0.0
 20
0.0
 30
0.0
  3
*D3
  1

  0
LINE
  5
7F78
  8
3
  6
CONTINUOUS
 62
     0
 10
1889.887796
 20
1777.0121710000001
 30
0.0
 11
2101.1757189999998
 21
1777.0121710000001
 31
0.0
  0
LINE
  5
7F79
  8
3
  6
CONTINUOUS
 62
     0
 10
2081.1757189999998
 20
2227.0121709999999
 30
0.0
 11
2081.1757189999998
 21
1817.0121710000001
 31
0.0
  0
INSERT
  5
7F7A
  8
3
  6
CONTINUOUS
 62
     0
  2
_OPEN
 10
2081.1757189999998
 20
2267.0121709999999
 30
0.0
 41
40.0
 42
40.0
 43
40.0
 50
90.0
  0
INSERT
  5
7F7B
  8
3
  6
CONTINUOUS
 62
     0
  2
_OPEN
 10
2081.1757189999998
 20
1777.0121710000001
 30
0.0
 41
40.0
 42
40.0
 43
40.0
 50
270.0
  0
TEXT
  8
3
  40
60
  5
7FEA
  62
0
  72
0
  71
0
 10
1911.18
 20
1915.81
 30
0.000000
  1
490
  0
POINT
  5
7F7D
  8
DEFPOINTS
  6
CONTINUOUS
 62
     0
 10
2029.9703669999999
 20
2267.0121709999999
 30
0.0
  0
POINT
  5
7F7E
  8
DEFPOINTS
  6
CONTINUOUS
 62
     0
 10
1879.887796
 20
1777.0121710000001
 30
0.0
  0
POINT
  5
7F7F
  8
DEFPOINTS
  6
CONTINUOUS
 62
     0
 10
2081.1757189999998
 20
1777.0121710000001
 30
0.0
  0
ENDBLK
  5
7D06
  8
0
  0
BLOCK
  8
0
  2
*D4
 70
     1
 10
0.0
 20
0.0
 30
0.0
  3
*D4
  1

  0
LINE
  5
7F80
  8
3
  6
CONTINUOUS
 62
     0
 10
759.88779599999998
 20
1767.0121710000001
 30
0.0
 11
759.88779599999998
 21
1600.6770279999989
 31
0.0
  0
LINE
  5
7F81
  8
3
  6
CONTINUOUS
 62
     0
 10
1579.887796
 20
1676.555936821698
 30
0.0
 11
1579.887796
 21
1600.6770279999989
 31
0.0
  0
LINE
  5
7F82
  8
3
  6
CONTINUOUS
 62
     0
 10
799.88779599999987
 20
1620.6770279999989
 30
0.0
 11
1539.887796
 21
1620.6770279999989
 31
0.0
  0
INSERT
  5
7F83
  8
3
  6
CONTINUOUS
 62
     0
  2
_OPEN
 10
759.88779599999998
 20
1620.6770279999989
 30
0.0
 41
40.0
 42
40.0
 43
40.0
 50
180.0
  0
INSERT
  5
7F84
  8
3
  6
CONTINUOUS
 62
     0
  2
_OPEN
 10
1579.887796
 20
1620.6770279999989
 30
0.0
 41
40.0
 42
40.0
 43
40.0
  0
TEXT
  8
3
  40
60
  5
7FEB
  62
0
  72
0
  71
0
 10
1043.04
 20
1564.48
 30
0.000000
  1
820
  0
POINT
  5
7F86
  8
DEFPOINTS
  6
CONTINUOUS
 62
     0
 10
759.88779599999998
 20
1777.0121710000001
 30
0.0
  0
POINT
  5
7F87
  8
DEFPOINTS
  6
CONTINUOUS
 62
     0
 10
1579.887796
 20
1686.555936821698
 30
0.0
  0
POINT
  5
7F88
  8
DEFPOINTS
  6
CONTINUOUS
 62
     0
 10
1579.887796
 20
1620.6770279999989
 30
0.0
  0
ENDBLK
  5
7E96
  8
0
  0
BLOCK
  8
0
  2
*D5
 70
     1
 10
0.0
 20
0.0
 30
0.0
  3
*D5
  1

  0
LINE
  5
7F89
  8
3
  6
CONTINUOUS
 62
     0
 10
1879.887796
 20
1767.0121710000001
 30
0.0
 11
1879.887796
 21
1600.6770279999989
 31
0.0
  0
LINE
  5
7F8A
  8
3
  6
CONTINUOUS
 62
     0
 10
1619.887796
 20
1620.6770279999989
 30
0.0
 11
1839.887796
 21
1620.6770279999989
 31
0.0
  0
INSERT
  5
7F8B
  8
3
  6
CONTINUOUS
 62
     0
  2
_OPEN
 10
1579.887796
 20
1620.6770279999989
 30
0.0
 41
40.0
 42
40.0
 43
40.0
 50
180.0
  0
INSERT
  5
7F8C
  8
3
  6
CONTINUOUS
 62
     0
  2
_OPEN
 10
1879.887796
 20
1620.6770279999989
 30
0.0
 41
40.0
 42
40.0
 43
40.0
  0
TEXT
  8
3
  40
60
  5
7FEC
  62
0
  72
0
  71
0
 10
1609.89
 20
1564.48
 30
0.000000
  1
300
  0
POINT
  5
7F8E
  8
DEFPOINTS
  6
CONTINUOUS
 62
     0
 10
1579.887796
 20
1686.555936821698
 30
0.0
  0
POINT
  5
7F8F
  8
DEFPOINTS
  6
CONTINUOUS
 62
     0
 10
1879.887796
 20
1777.0121710000001
 30
0.0
  0
POINT
  5
7F90
  8
DEFPOINTS
  6
CONTINUOUS
 62
     0
 10
1879.887796
 20
1620.6770279999989
 30
0.0
  0
ENDBLK
  5
7E8B
  8
0
  0
BLOCK
  8
0
  2
*D6
 70
     1
 10
0.0
 20
0.0
 30
0.0
  3
*D6
  1

  0
LINE
  5
7F91
  8
3
  6
CONTINUOUS
 62
     0
 10
1634.887796
 20
2622.0121709999999
 30
0.0
 11
2238.6940220000001
 21
2622.0121709999999
 31
0.0
  0
LINE
  5
7F92
  8
3
  6
CONTINUOUS
 62
     0
 10
1889.887796
 20
1777.0121710000001
 30
0.0
 11
2238.6940220000001
 21
1777.0121710000001
 31
0.0
  0
LINE
  5
7F93
  8
3
  6
CONTINUOUS
 62
     0
 10
2218.6940220000001
 20
2582.0121709999999
 30
0.0
 11
2218.6940220000001
 21
1817.0121710000001
 31
0.0
  0
INSERT
  5
7F94
  8
3
  6
CONTINUOUS
 62
     0
  2
_OPEN
 10
2218.6940220000001
 20
2622.0121709999999
 30
0.0
 41
40.0
 42
40.0
 43
40.0
 50
90.0
  0
INSERT
  5
7F95
  8
3
  6
CONTINUOUS
 62
     0
  2
_OPEN
 10
2218.6940220000001
 20
1777.0121710000001
 30
0.0
 41
40.0
 42
40.0
 43
40.0
 50
270.0
  0
TEXT
  8
3
  40
60
  5
7FED
  62
0
  72
0
  71
0
 10
2048.69
 20
2096.33
 30
0.000000
  1
845
  0
POINT
  5
7F97
  8
DEFPOINTS
  6
CONTINUOUS
 62
     0
 10
1624.887796
 20
2622.0121709999999
 30
0.0
  0
POINT
  5
7F98
  8
DEFPOINTS
  6
CONTINUOUS
 62
     0
 10
1879.887796
 20
1777.0121710000001
 30
0.0
  0
POINT
  5
7F99
  8
DEFPOINTS
  6
CONTINUOUS
 62
     0
 10
2218.6940220000001
 20
1777.0121710000001
 30
0.0
  0
ENDBLK
  5
7D2C
  8
0
  0
BLOCK
  8
0
  2
*D7
 70
     1
 10
0.0
 20
0.0
 30
0.0
  3
*D7
  1

  0
LINE
  5
7F9A
  8
3
  6
CONTINUOUS
 62
     0
 10
3293.9918249999992
 20
2632.0121709999999
 30
0.0
 11
3293.9918249999992
 21
2691.2468309999999
 31
0.0
  0
LINE
  5
7F9B
  8
3
  6
CONTINUOUS
 62
     0
 10
2933.9918250000001
 20
2632.0121709999999
 30
0.0
 11
2933.9918250000001
 21
2691.2468309999999
 31
0.0
  0
LINE
  5
7F9C
  8
3
  6
CONTINUOUS
 62
     0
 10
3253.9918249999992
 20
2671.246830999999
 30
0.0
 11
2973.9918250000001
 21
2671.246830999999
 31
0.0
  0
INSERT
  5
7F9D
  8
3
  6
CONTINUOUS
 62
     0
  2
_OPEN
 10
3293.9918249999992
 20
2671.246830999999
 30
0.0
 41
40.0
 42
40.0
 43
40.0
  0
INSERT
  5
7F9E
  8
3
  6
CONTINUOUS
 62
     0
  2
_OPEN
 10
2933.9918250000001
 20
2671.246830999999
 30
0.0
 41
40.0
 42
40.0
 43
40.0
 50
180.0
  0
TEXT
  8
3
  40
60
  5
7FEE
  62
0
  72
0
  71
0
 10
2998.83
 20
2615.05
 30
0.000000
  1
360
  0
POINT
  5
7FA0
  8
DEFPOINTS
  6
CONTINUOUS
 62
     0
 10
3293.9918249999992
 20
2622.0121709999999
 30
0.0
  0
POINT
  5
7FA1
  8
DEFPOINTS
  6
CONTINUOUS
 62
     0
 10
2933.9918250000001
 20
2622.0121709999999
 30
0.0
  0
POINT
  5
7FA2
  8
DEFPOINTS
  6
CONTINUOUS
 62
     0
 10
2933.9918250000001
 20
2671.246830999999
 30
0.0
  0
ENDBLK
  5
7D88
  8
0
  0
BLOCK
  8
0
  2
*D8
 70
     1
 10
0.0
 20
0.0
 30
0.0
  3
*D8
  1

  0
LINE
  5
7FA3
  8
3
  6
CONTINUOUS
 62
     0
 10
2743.9918250000001
 20
2612.0121709999999
 30
0.0
 11
2743.9918250000001
 21
2840.7510029999999
 31
0.0
  0
LINE
  5
7FA4
  8
3
  6
CONTINUOUS
 62
     0
 10
3073.9918250000001
 20
2820.7510029999999
 30
0.0
 11
2783.9918250000001
 21
2820.7510029999999
 31
0.0
  0
INSERT
  5
7FA5
  8
3
  6
CONTINUOUS
 62
     0
  2
_OPEN
 10
3113.9918250000001
 20
2820.7510029999999
 30
0.0
 41
40.0
 42
40.0
 43
40.0
  0
INSERT
  5
7FA6
  8
3
  6
CONTINUOUS
 62
     0
  2
_OPEN
 10
2743.9918250000001
 20
2820.7510029999999
 30
0.0
 41
40.0
 42
40.0
 43
40.0
 50
180.0
  0
TEXT
  8
3
  40
60
  5
7FEF
  62
0
  72
0
  71
0
 10
2808.99
 20
2814.55
 30
0.000000
  1
MAX
  0
TEXT
  8
3
  40
60
  5
7FF0
  62
0
  72
0
  71
0
 10
2808.99
 20
2736.55
 30
0.000000
  1
430
  0
POINT
  5
7FA8
  8
DEFPOINTS
  6
CONTINUOUS
 62
     0
 10
3113.9918250000001
 20
2759.1614446893582
 30
0.0
  0
POINT
  5
7FA9
  8
DEFPOINTS
  6
CONTINUOUS
 62
     0
 10
2743.9918250000001
 20
2602.0121709999999
 30
0.0
  0
POINT
  5
7FAA
  8
DEFPOINTS
  6
CONTINUOUS
 62
     0
 10
2743.9918250000001
 20
2820.7510029999999
 30
0.0
  0
ENDBLK
  5
7EF9
  8
0
  0
BLOCK
  8
0
  2
*D9
 70
     1
 10
0.0
 20
0.0
 30
0.0
  3
*D9
  1

  0
LINE
  5
7F30
  8
0
  6
BYBLOCK
 62
     0
 10
2889.9918250000001
 20
1767.0121710000001
 30
0.0
 11
2889.9918250000001
 21
1598.618903396911
 31
0.0
  0
LINE
  5
7F31
  8
0
  6
BYBLOCK
 62
     0
 10
3113.9918250000001
 20
1634.2635311074389
 30
0.0
 11
3113.9918250000001
 21
1598.618903396911
 31
0.0
  0
LINE
  5
7F32
  8
0
  6
BYBLOCK
 62
     0
 10
2929.9918250000001
 20
1618.618903396911
 30
0.0
 11
3073.9918250000001
 21
1618.618903396911
 31
0.0
  0
TEXT
  5
7F33
  8
3
 62
     0
 10
2923.4203964285712
 20
1639.560520384031
 30
0.0
 40
60.0
  1
224
  0
INSERT
  5
7F34
  8
0
  6
BYBLOCK
 62
     0
  2
_OPEN
 10
2889.9918250000001
 20
1618.618903396911
 30
0.0
 41
40.0
 42
40.0
 43
40.0
 50
180.0
  0
INSERT
  5
7F35
  8
0
  6
BYBLOCK
 62
     0
  2
_OPEN
 10
3113.9918250000001
 20
1618.618903396911
 30
0.0
 41
40.0
 42
40.0
 43
40.0
  0
POINT
  5
7F36
  8
DEFPOINTS
  6
BYBLOCK
 62
     0
 10
2889.9918250000001
 20
1777.0121710000001
 30
0.0
  0
POINT
  5
7F37
  8
DEFPOINTS
  6
BYBLOCK
 62
     0
 10
3113.9918250000001
 20
1644.2635311074389
 30
0.0
  0
POINT
  5
7F38
  8
DEFPOINTS
  6
BYBLOCK
 62
     0
 10
3113.9918250000001
 20
1618.618903396911
 30
0.0
  0
ENDBLK
  5
7F39
  8
0
  0
BLOCK
  8
0
  2
*D10
 70
     1
 10
0.0
 20
0.0
 30
0.0
  3
*D10
  1

  0
LINE
  5
7FAB
  8
3
  6
CONTINUOUS
 62
     0
 10
3337.9918250000001
 20
1767.0121710000001
 30
0.0
 11
3337.9918250000001
 21
1598.618903396911
 31
0.0
  0
LINE
  5
7FAC
  8
3
  6
CONTINUOUS
 62
     0
 10
3153.9918250000001
 20
1618.618903396911
 30
0.0
 11
3297.9918250000001
 21
1618.618903396911
 31
0.0
  0
TEXT
  8
3
  40
60
  5
7FF1
  62
0
  72
0
  71
0
 10
3103.47
 20
1560.15
 30
0.000000
  1
224
  0
INSERT
  5
7FAE
  8
3
  6
CONTINUOUS
 62
     0
  2
_OPEN
 10
3113.9918250000001
 20
1618.618903396911
 30
0.0
 41
40.0
 42
40.0
 43
40.0
 50
180.0
  0
INSERT
  5
7FAF
  8
3
  6
CONTINUOUS
 62
     0
  2
_OPEN
 10
3337.9918250000001
 20
1618.618903396911
 30
0.0
 41
40.0
 42
40.0
 43
40.0
  0
POINT
  5
7FB0
  8
DEFPOINTS
  6
CONTINUOUS
 62
     0
 10
3113.9918250000001
 20
1644.2635311074389
 30
0.0
  0
POINT
  5
7FB1
  8
DEFPOINTS
  6
CONTINUOUS
 62
     0
 10
3337.9918250000001
 20
1777.0121710000001
 30
0.0
  0
POINT
  5
7FB2
  8
DEFPOINTS
  6
CONTINUOUS
 62
     0
 10
3337.9918250000001
 20
1618.618903396911
 30
0.0
  0
ENDBLK
  5
7F43
  8
0
  0
BLOCK
  8
0
  2
*D11
 70
     1
 10
0.0
 20
0.0
 30
0.0
  3
*D11
  1

  0
LINE
  5
7FB3
  8
3
  6
CONTINUOUS
 62
     0
 10
3304.9918250000001
 20
2517.0121709999999
 30
0.0
 11
3486.6671230000002
 21
2517.0121709999999
 31
0.0
  0
LINE
  5
7FB4
  8
3
  6
CONTINUOUS
 62
     0
 10
3304.9918250000001
 20
2017.0121710000001
 30
0.0
 11
3486.6671230000002
 21
2017.0121710000001
 31
0.0
  0
LINE
  5
7FB5
  8
3
  6
CONTINUOUS
 62
     0
 10
3466.6671230000002
 20
2477.0121709999999
 30
0.0
 11
3466.6671230000002
 21
2057.0121709999989
 31
0.0
  0
INSERT
  5
7FB6
  8
3
  6
CONTINUOUS
 62
     0
  2
_OPEN
 10
3466.6671230000002
 20
2517.0121709999999
 30
0.0
 41
40.0
 42
40.0
 43
40.0
 50
90.0
  0
INSERT
  5
7FB7
  8
3
  6
CONTINUOUS
 62
     0
  2
_OPEN
 10
3466.6671230000002
 20
2017.0121710000001
 30
0.0
 41
40.0
 42
40.0
 43
40.0
 50
270.0
  0
TEXT
  8
3
  40
60
  5
7FF2
  62
0
  72
0
  71
0
 10
3296.67
 20
2136.74
 30
0.000000
  1
φ500
  0
POINT
  5
7FB9
  8
DEFPOINTS
  6
CONTINUOUS
 62
     0
 10
3294.9918250000001
 20
2517.0121709999999
 30
0.0
  0
POINT
  5
7FBA
  8
DEFPOINTS
  6
CONTINUOUS
 62
     0
 10
3294.9918250000001
 20
2017.0121710000001
 30
0.0
  0
POINT
  5
7FBB
  8
DEFPOINTS
  6
CONTINUOUS
 62
     0
 10
3466.6671230000002
 20
2017.0121710000001
 30
0.0
  0
ENDBLK
  5
7EA1
  8
0
  0
BLOCK
  8
0
  2
*D12
 70
     1
 10
0.0
 20
0.0
 30
0.0
  3
*D12
  1

  0
LINE
  5
7EDC
  8
0
  6
BYBLOCK
 62
     0
 10
3113.9918250000001
 20
2769.1614446893591
 30
0.0
 11
3113.9918250000001
 21
2839.1971410000001
 31
0.0
  0
LINE
  5
7EDD
  8
0
  6
BYBLOCK
 62
     0
 10
3294.9918250000001
 20
2527.0121709999999
 30
0.0
 11
3294.9918250000001
 21
2839.1971410000001
 31
0.0
  0
LINE
  5
7EDE
  8
0
  6
BYBLOCK
 62
     0
 10
3153.9918250000001
 20
2819.1971410000001
 30
0.0
 11
3254.9918250000001
 21
2819.1971410000001
 31
0.0
  0
TEXT
  5
7EDF
  8
3
 62
     0
 10
3145.9203964285721
 20
2836.4988903419448
 30
0.0
 40
60.0
  1
181
  0
INSERT
  5
7EE0
  8
0
  6
BYBLOCK
 62
     0
  2
_OPEN
 10
3113.9918250000001
 20
2819.1971410000001
 30
0.0
 41
40.0
 42
40.0
 43
40.0
 50
180.0
  0
INSERT
  5
7EE1
  8
0
  6
BYBLOCK
 62
     0
  2
_OPEN
 10
3294.9918250000001
 20
2819.1971410000001
 30
0.0
 41
40.0
 42
40.0
 43
40.0
  0
POINT
  5
7EE2
  8
DEFPOINTS
  6
BYBLOCK
 62
     0
 10
3113.9918250000001
 20
2759.1614446893582
 30
0.0
  0
POINT
  5
7EE3
  8
DEFPOINTS
  6
BYBLOCK
 62
     0
 10
3294.9918250000001
 20
2517.0121709999999
 30
0.0
  0
POINT
  5
7EE4
  8
DEFPOINTS
  6
BYBLOCK
 62
     0
 10
3294.9918250000001
 20
2819.1971410000001
 30
0.0
  0
ENDBLK
  5
7EE5
  8
0
  0
BLOCK
  8
0
  2
*D13
 70
     1
 10
0.0
 20
0.0
 30
0.0
  3
*D13
  1

  0
LINE
  5
7FBC
  8
3
  6
CONTINUOUS
 62
     0
 10
759.88779599999998
 20
4275.8386409999994
 30
0.0
 11
759.88779599999998
 21
4363.0131289999999
 31
0.0
  0
LINE
  5
7FBD
  8
3
  6
CONTINUOUS
 62
     0
 10
1879.887796
 20
4275.8386409999994
 30
0.0
 11
1879.887796
 21
4363.0131289999999
 31
0.0
  0
LINE
  5
7FBE
  8
3
  6
CONTINUOUS
 62
     0
 10
799.88779599999987
 20
4343.0131289999999
 30
0.0
 11
1839.887796
 21
4343.0131289999999
 31
0.0
  0
INSERT
  5
7FBF
  8
3
  6
CONTINUOUS
 62
     0
  2
_OPEN
 10
759.88779599999998
 20
4343.0131289999999
 30
0.0
 41
40.0
 42
40.0
 43
40.0
 50
180.0
  0
INSERT
  5
7FC0
  8
3
  6
CONTINUOUS
 62
     0
  2
_OPEN
 10
1879.887796
 20
4343.0131289999999
 30
0.0
 41
40.0
 42
40.0
 43
40.0
  0
TEXT
  8
3
  40
60
  5
7FF3
  62
0
  72
0
  71
0
 10
1225.05
 20
4286.81
 30
0.000000
  1
1120
  0
POINT
  5
7FC2
  8
DEFPOINTS
  6
CONTINUOUS
 62
     0
 10
759.88779599999998
 20
4265.8386409999994
 30
0.0
  0
POINT
  5
7FC3
  8
DEFPOINTS
  6
CONTINUOUS
 62
     0
 10
1879.887796
 20
4265.8386409999994
 30
0.0
  0
POINT
  5
7FC4
  8
DEFPOINTS
  6
CONTINUOUS
 62
     0
 10
1879.887796
 20
4343.0131289999999
 30
0.0
  0
ENDBLK
  5
7DC0
  8
0
  0
BLOCK
  8
0
  2
*D14
 70
     1
 10
0.0
 20
0.0
 30
0.0
  3
*D14
  1

  0
LINE
  5
7FC5
  8
3
  6
CONTINUOUS
 62
     0
 10
749.88779599999987
 20
4265.8386409999994
 30
0.0
 11
661.72459200000071
 21
4265.8386409999994
 31
0.0
  0
LINE
  5
7FC6
  8
3
  6
CONTINUOUS
 62
     0
 10
749.88779599999987
 20
3817.8386409999998
 30
0.0
 11
661.7245920000006
 21
3817.8386409999998
 31
0.0
  0
LINE
  5
7FC7
  8
3
  6
CONTINUOUS
 62
     0
 10
681.72459200000071
 20
4225.8386409999994
 30
0.0
 11
681.72459200000071
 21
3857.8386409999998
 31
0.0
  0
INSERT
  5
7FC8
  8
3
  6
CONTINUOUS
 62
     0
  2
_OPEN
 10
681.72459200000071
 20
4265.8386409999994
 30
0.0
 41
40.0
 42
40.0
 43
40.0
 50
90.0
  0
INSERT
  5
7FC9
  8
3
  6
CONTINUOUS
 62
     0
  2
_OPEN
 10
681.72459200000048
 20
3817.8386409999998
 30
0.0
 41
40.0
 42
40.0
 43
40.0
 50
270.0
  0
TEXT
  8
3
  40
60
  5
7FF4
  62
0
  72
0
  71
0
 10
511.725
 20
3925.68
 30
0.000000
  1
448
  0
POINT
  5
7FCB
  8
DEFPOINTS
  6
CONTINUOUS
 62
     0
 10
759.88779599999998
 20
4265.8386409999994
 30
0.0
  0
POINT
  5
7FCC
  8
DEFPOINTS
  6
CONTINUOUS
 62
     0
 10
759.88779599999998
 20
3817.8386409999998
 30
0.0
  0
POINT
  5
7FCD
  8
DEFPOINTS
  6
CONTINUOUS
 62
     0
 10
681.72459200000048
 20
3817.8386409999998
 30
0.0
  0
ENDBLK
  5
7DCD
  8
0
  0
BLOCK
  8
0
  2
*D15
 70
     1
 10
0.0
 20
0.0
 30
0.0
  3
*D15
  1

  0
LINE
  5
7FCE
  8
3
  6
CONTINUOUS
 62
     0
 10
1117.8877959999991
 20
2632.0121709999999
 30
0.0
 11
1117.8877959999991
 21
2913.6622600000001
 31
0.0
  0
LINE
  5
7FCF
  8
3
  6
CONTINUOUS
 62
     0
 10
1579.887796
 20
2632.0121709999999
 30
0.0
 11
1579.887796
 21
2913.6622600000001
 31
0.0
  0
LINE
  5
7FD0
  8
3
  6
CONTINUOUS
 62
     0
 10
1157.887796
 20
2893.6622600000001
 30
0.0
 11
1539.887796
 21
2893.6622600000001
 31
0.0
  0
INSERT
  5
7FD1
  8
3
  6
CONTINUOUS
 62
     0
  2
_OPEN
 10
1117.8877959999991
 20
2893.6622600000001
 30
0.0
 41
40.0
 42
40.0
 43
40.0
 50
180.0
  0
INSERT
  5
7FD2
  8
3
  6
CONTINUOUS
 62
     0
  2
_OPEN
 10
1579.887796
 20
2893.6622600000001
 30
0.0
 41
40.0
 42
40.0
 43
40.0
  0
TEXT
  8
3
  40
60
  5
7FF5
  62
0
  72
0
  71
0
 10
1228.44
 20
2837.46
 30
0.000000
  1
462
  0
POINT
  5
7FD4
  8
DEFPOINTS
  6
CONTINUOUS
 62
     0
 10
1117.8877959999991
 20
2622.0121709999999
 30
0.0
  0
POINT
  5
7FD5
  8
DEFPOINTS
  6
CONTINUOUS
 62
     0
 10
1579.887796
 20
2622.0121709999999
 30
0.0
  0
POINT
  5
7FD6
  8
DEFPOINTS
  6
CONTINUOUS
 62
     0
 10
1579.887796
 20
2893.6622600000001
 30
0.0
  0
ENDBLK
  5
7E0C
  8
0
  0
BLOCK
  8
0
  2
*D16
 70
     1
 10
0.0
 20
0.0
 30
0.0
  3
*D16
  1

  0
LINE
  5
7FD7
  8
3
  6
CONTINUOUS
 62
     0
 10
1934.8877959999991
 20
2587.0121709999999
 30
0.0
 11
1934.8877959999991
 21
2913.6622600000001
 31
0.0
  0
LINE
  5
7FD8
  8
3
  6
CONTINUOUS
 62
     0
 10
1619.887796
 20
2893.6622600000001
 30
0.0
 11
1894.887796
 21
2893.6622600000001
 31
0.0
  0
INSERT
  5
7FD9
  8
3
  6
CONTINUOUS
 62
     0
  2
_OPEN
 10
1579.887796
 20
2893.6622600000001
 30
0.0
 41
40.0
 42
40.0
 43
40.0
 50
180.0
  0
INSERT
  5
7FDA
  8
3
  6
CONTINUOUS
 62
     0
  2
_OPEN
 10
1934.8877959999991
 20
2893.6622600000001
 30
0.0
 41
40.0
 42
40.0
 43
40.0
  0
TEXT
  8
3
  40
60
  5
7FF6
  62
0
  72
0
  71
0
 10
1637.39
 20
2837.46
 30
0.000000
  1
355
  0
POINT
  5
7FDC
  8
DEFPOINTS
  6
CONTINUOUS
 62
     0
 10
1579.887796
 20
2622.0121709999999
 30
0.0
  0
POINT
  5
7FDD
  8
DEFPOINTS
  6
CONTINUOUS
 62
     0
 10
1934.8877959999991
 20
2577.0121709999999
 30
0.0
  0
POINT
  5
7FDE
  8
DEFPOINTS
  6
CONTINUOUS
 62
     0
 10
1934.8877959999991
 20
2893.6622600000001
 30
0.0
  0
ENDBLK
  5
7E18
  8
0
  0
BLOCK
  8
0
  2
*D17
 70
     1
 10
0.0
 20
0.0
 30
0.0
  3
*D17
  1

  0
LINE
  5
7FDF
  8
3
 62
     0
 10
1934.8877959999991
 20
2587.0121709999999
 30
0.0
 11
1934.8877959999991
 21
3033.2283299530841
 31
0.0
  0
LINE
  5
7FE0
  8
3
 62
     0
 10
759.88779599999998
 20
1867.0121710000001
 30
0.0
 11
759.88779600000009
 21
3033.2283299530841
 31
0.0
  0
LINE
  5
7FE1
  8
3
 62
     0
 10
1894.887796
 20
3013.228329953085
 30
0.0
 11
799.88779600000009
 21
3013.228329953085
 31
0.0
  0
INSERT
  5
7FE2
  8
3
 62
     0
  2
_OPEN
 10
1934.8877959999991
 20
3013.228329953085
 30
0.0
 41
40.0
 42
40.0
 43
40.0
  0
INSERT
  5
7FE3
  8
3
 62
     0
  2
_OPEN
 10
759.88779600000009
 20
3013.228329953085
 30
0.0
 41
40.0
 42
40.0
 43
40.0
 50
180.0
  0
TEXT
  8
3
  40
60
  5
7FF7
  62
0
  72
0
  71
0
 10
1243.32
 20
2957.03
 30
0.000000
  1
1175
  0
POINT
  5
7FE5
  8
DEFPOINTS
 62
     0
 10
1934.8877959999991
 20
2577.0121709999999
 30
0.0
  0
POINT
  5
7FE6
  8
DEFPOINTS
 62
     0
 10
759.88779599999998
 20
1857.0121710000001
 30
0.0
  0
POINT
  5
7FE7
  8
DEFPOINTS
 62
     0
 10
759.88779600000009
 20
3013.228329953085
 30
0.0
  0
ENDBLK
  5
7E6B
  8
0
  0
ENDSEC
  0
SECTION
  2
ENTITIES
  0
LINE
  5
7C18
  8
1
  6
CONTINUOUS
 10
2773.9918250000001
 20
2147.0121709999999
 30
0.0
 11
2833.9918250000001
 21
2147.0121709999999
 31
0.0
  0
LINE
  5
7C19
  8
1
  6
CONTINUOUS
 10
2833.9918250000001
 20
2387.0121709999999
 30
0.0
 11
2773.9918250000001
 21
2387.0121709999999
 31
0.0
  0
LINE
  5
7C1A
  8
1
  6
CONTINUOUS
 10
2773.9918250000001
 20
1989.0121710000001
 30
0.0
 11
2833.9918250000001
 21
1989.0121710000001
 31
0.0
  0
LINE
  5
7C1B
  8
1
  6
CONTINUOUS
 10
2833.9918250000001
 20
2089.0121709999999
 30
0.0
 11
2773.9918250000001
 21
2089.0121709999999
 31
0.0
  0
LINE
  5
7C1C
  8
1
  6
CONTINUOUS
 10
2743.9918250000001
 20
2602.0121709999999
 30
0.0
 11
2863.9918250000001
 21
2602.0121709999999
 31
0.0
  0
LINE
  5
7C1D
  8
1
  6
CONTINUOUS
 10
2863.9918250000001
 20
1857.0121710000001
 30
0.0
 11
2743.9918250000001
 21
1857.0121710000001
 31
0.0
  0
LINE
  5
7C1E
  8
1
  6
CONTINUOUS
 10
1614.887796
 20
2622.0121709999999
 30
0.0
 11
1100.887796
 21
2622.0121709999999
 31
0.0
  0
LINE
  5
7C1F
  8
1
  6
CONTINUOUS
 10
759.88779599999998
 20
1777.0121710000001
 30
0.0
 11
1879.887796
 21
1777.0121710000001
 31
0.0
  0
LINE
  5
7C20
  8
1
  6
CONTINUOUS
 10
759.88779599999998
 20
1857.0121710000001
 30
0.0
 11
1934.8877959999991
 21
1857.0121710000001
 31
0.0
  0
LINE
  5
7C21
  8
1
  6
CONTINUOUS
 10
1597.887796
 20
2597.0121709999999
 30
0.0
 11
1117.9577959999999
 21
2597.0121709999999
 31
0.0
  0
ARC
  5
7C22
  8
1
  6
CONTINUOUS
 10
1549.4243779999999
 20
2290.0918000000001
 30
0.0
 40
431.17249299999992
 50
183.12053399999999
 51
274.7365549999999
  0
LINE
  5
7C2A
  8
1
  6
CONTINUOUS
 10
1526.9577959999999
 20
2374.7121710000001
 30
0.0
 11
953.42779599999994
 21
2092.8621710000002
 31
0.0
  0
LINE
  5
7C2B
  8
1
  6
CONTINUOUS
 10
995.86779600000011
 20
1981.1821709999999
 30
0.0
 11
1611.837796
 21
2151.3421709999998
 31
0.0
  0
LINE
  5
7C2C
  8
1
  6
CONTINUOUS
 10
1117.8877959999991
 20
2622.0121709999999
 30
0.0
 11
1118.8877959999991
 21
2266.6321710000002
 31
0.0
  0
LINE
  5
7C2D
  8
1
  6
CONTINUOUS
 10
849.88779600000009
 20
1907.0121710000001
 30
0.0
 11
1109.8877959999991
 21
1907.0121710000001
 31
0.0
  0
ARC
  5
7C2E
  8
1
  6
CONTINUOUS
 10
979.88779599999998
 20
2039.0121710000001
 30
0.0
 40
122.0
 50
324.60000000000002
 51
215.39999999999989
  0
LINE
  5
7C2F
  8
1
  6
CONTINUOUS
 10
849.88779600000009
 20
1857.0121710000001
 30
0.0
 11
849.88779600000009
 21
1907.0121710000001
 31
0.0
  0
LINE
  5
7C30
  8
1
  6
CONTINUOUS
 10
759.88779599999998
 20
1857.0121710000001
 30
0.0
 11
759.88779599999998
 21
1777.0121710000001
 31
0.0
  0
LINE
  5
7C31
  8
1
  6
CONTINUOUS
 10
849.88779600000009
 20
1907.0121710000001
 30
0.0
 11
880.44779599999993
 21
1968.342171
 31
0.0
  0
LINE
  5
7C32
  8
1
  6
CONTINUOUS
 10
849.88779600000009
 20
1907.0121710000001
 30
0.0
 11
899.88779600000009
 21
1907.0121710000001
 31
0.0
  0
LINE
  5
7C33
  8
1
  6
CONTINUOUS
 10
1109.8877959999991
 20
1857.0121710000001
 30
0.0
 11
1109.8877959999991
 21
1907.0121710000001
 31
0.0
  0
LINE
  5
7C34
  8
1
  6
CONTINUOUS
 10
1109.8877959999991
 20
1907.0121710000001
 30
0.0
 11
1059.8877959999991
 21
1907.0121710000001
 31
0.0
  0
CIRCLE
  5
7C35
  8
1
  6
CONTINUOUS
 10
979.88779599999998
 20
2039.0121710000001
 30
0.0
 40
60.0
  0
LINE
  5
7C36
  8
2
  6
CENTER
 10
1039.887796
 20
2039.0121710000001
 30
0.0
 11
919.88779599999998
 21
2039.0121710000001
 31
0.0
  0
LINE
  5
7C37
  8
2
  6
CENTER
 10
979.88779599999998
 20
1979.0121710000001
 30
0.0
 11
979.88779599999998
 21
2099.0121709999999
 31
0.0
  0
LINE
  5
7C38
  8
1
  6
CONTINUOUS
 10
1109.8877959999991
 20
1907.0121710000001
 30
0.0
 11
1079.327796
 21
1968.342171
 31
0.0
  0
ARC
  5
7C39
  8
1
  6
CONTINUOUS
 10
1552.887796
 20
2240.0121709999999
 30
0.0
 40
380.98000000000002
 50
274.83999999999992
 51
8.4700000000000006
  0
ARC
  5
7C3A
  8
1
  6
CONTINUOUS
 10
1591.016803999999
 20
2236.5510279999999
 30
0.0
 40
343.89392400000003
 50
9.976388
 51
88.859720999999993
  0
LINE
  5
7C3B
  8
1
  6
CONTINUOUS
 10
1224.8877959999991
 20
2577.0121709999999
 30
0.0
 11
1934.8877959999991
 21
2577.0121709999999
 31
0.0
  0
CIRCLE
  5
7C3C
  8
1
  6
CONTINUOUS
 10
1579.887796
 20
2267.0121709999999
 30
0.0
 40
275.0
  0
CIRCLE
  5
7C3D
  8
1
  6
CONTINUOUS
 10
1579.887796
 20
2267.0121709999999
 30
0.0
 40
250.0
  0
LINE
  5
7C3E
  8
1
  6
CONTINUOUS
 10
1224.8877959999991
 20
2577.0121709999999
 30
0.0
 11
1224.8877959999991
 21
1857.0121710000001
 31
0.0
  0
CIRCLE
  5
7C40
  8
1
  6
CONTINUOUS
 10
1579.887796
 20
2267.0121709999999
 30
0.0
 40
120.0
  0
LINE
  5
7C41
  8
2
  6
CENTER
 10
942.49534900000003
 20
2267.0121709999999
 30
0.0
 11
2029.9703669999999
 21
2267.0121709999999
 31
0.0
  0
LINE
  5
7C42
  8
1
  6
CONTINUOUS
 10
1597.887796
 20
2580.3821710000002
 30
0.0
 11
1597.887796
 21
2622.0121709999999
 31
0.0
  0
LINE
  5
7C43
  8
1
  6
CONTINUOUS
 10
2773.9918250000001
 20
2387.0121709999999
 30
0.0
 11
2773.9918250000001
 21
2147.0121709999999
 31
0.0
  0
LINE
  5
7C44
  8
1
  6
CONTINUOUS
 10
1934.8877959999991
 20
2577.0121709999999
 30
0.0
 11
1934.8877959999991
 21
1857.0121710000001
 31
0.0
  0
LINE
  5
7C45
  8
1
  6
CONTINUOUS
 10
2743.9918250000001
 20
1857.0121710000001
 30
0.0
 11
2743.9918250000001
 21
2602.0121709999999
 31
0.0
  0
LINE
  5
7C46
  8
1
  6
CONTINUOUS
 10
1879.887796
 20
1857.0121710000001
 30
0.0
 11
1879.887796
 21
1777.0121710000001
 31
0.0
  0
LINE
  5
7C47
  8
1
  6
CONTINUOUS
 10
2773.9918250000001
 20
2089.0121709999999
 30
0.0
 11
2773.9918250000001
 21
1989.0121710000001
 31
0.0
  0
LINE
  5
7C48
  8
1
  6
CONTINUOUS
 10
3293.9918249999992
 20
2622.0121709999999
 30
0.0
 11
3293.9918249999992
 21
1857.0121710000001
 31
0.0
  0
LINE
  5
7C49
  8
1
  6
CONTINUOUS
 10
2933.9918250000001
 20
2622.0121709999999
 30
0.0
 11
2933.9918250000001
 21
1857.0121710000001
 31
0.0
  0
LINE
  5
7C4A
  8
1
  6
CONTINUOUS
 10
2833.9918250000001
 20
2147.0121709999999
 30
0.0
 11
2833.9918250000001
 21
2387.0121709999999
 31
0.0
  0
LINE
  5
7C4B
  8
1
  6
CONTINUOUS
 10
2863.9918250000001
 20
2602.0121709999999
 30
0.0
 11
2863.9918250000001
 21
1857.0121710000001
 31
0.0
  0
LINE
  5
7C4C
  8
1
  6
CONTINUOUS
 10
2889.9918250000001
 20
1777.0121710000001
 30
0.0
 11
3337.9918250000001
 21
1777.0121710000001
 31
0.0
  0
LINE
  5
7C4D
  8
1
  6
CONTINUOUS
 10
2889.9918250000001
 20
1857.0121710000001
 30
0.0
 11
3337.9918250000001
 21
1857.0121710000001
 31
0.0
  0
LINE
  5
7C4E
  8
1
  6
CONTINUOUS
 10
2889.9918250000001
 20
1857.0121710000001
 30
0.0
 11
2889.9918250000001
 21
1777.0121710000001
 31
0.0
  0
LINE
  5
7C4F
  8
1
  6
CONTINUOUS
 10
2833.9918250000001
 20
2286.0121709999999
 30
0.0
 11
2933.9918250000001
 21
2286.0121709999999
 31
0.0
  0
LINE
  5
7C50
  8
1
  6
CONTINUOUS
 10
2833.9918250000001
 20
2248.0121709999999
 30
0.0
 11
2933.9918250000001
 21
2248.0121709999999
 31
0.0
  0
LINE
  5
7C51
  8
1
  6
CONTINUOUS
 10
2833.9918250000001
 20
1989.0121710000001
 30
0.0
 11
2833.9918250000001
 21
2089.0121709999999
 31
0.0
  0
LINE
  5
7C52
  8
1
  6
CONTINUOUS
 10
2833.9918250000001
 20
2020.0121710000001
 30
0.0
 11
2933.9918250000001
 21
2020.0121710000001
 31
0.0
  0
LINE
  5
7C53
  8
1
  6
CONTINUOUS
 10
2833.9918250000001
 20
2058.0121709999999
 30
0.0
 11
2933.9918250000001
 21
2058.0121709999999
 31
0.0
  0
LINE
  5
7C54
  8
1
  6
CONTINUOUS
 10
3337.9918250000001
 20
1857.0121710000001
 30
0.0
 11
3337.9918250000001
 21
1777.0121710000001
 31
0.0
  0
LINE
  5
7C55
  8
1
  6
CONTINUOUS
 10
3318.9918249999992
 20
2622.0121709999999
 30
0.0
 11
2908.9918250000001
 21
2622.0121709999999
 31
0.0
  0
LINE
  5
7C56
  8
1
  6
CONTINUOUS
 10
2933.9918250000001
 20
2597.0121709999999
 30
0.0
 11
3293.9918249999992
 21
2597.0121709999999
 31
0.0
  0
LINE
  5
7C57
  8
1
  6
CONTINUOUS
 10
1090.887796
 20
3859.8386409999989
 30
0.0
 11
1934.8877959999991
 21
3859.8386409999989
 31
0.0
  0
LINE
  5
7C58
  8
1
  6
CONTINUOUS
 10
1090.887796
 20
4223.8386409999994
 30
0.0
 11
1934.8877959999991
 21
4223.8386409999994
 31
0.0
  0
LINE
  5
7C59
  8
1
  6
CONTINUOUS
 10
759.88779599999998
 20
4265.8386409999994
 30
0.0
 11
1879.887796
 21
4265.8386409999994
 31
0.0
  0
LINE
  5
7C5A
  8
1
  6
CONTINUOUS
 10
968.88779600000009
 20
3817.8386409999998
 30
0.0
 11
1560.887796
 21
3817.8386409999998
 31
0.0
  0
LINE
  5
7C5B
  8
1
  6
CONTINUOUS
 10
1624.887796
 20
3859.8386409999989
 30
0.0
 11
1090.887796
 21
4223.8386409999994
 31
0.0
  0
LINE
  5
7C5C
  8
1
  6
CONTINUOUS
 10
1090.887796
 20
3859.8386409999989
 30
0.0
 11
1624.887796
 21
4223.8386409999994
 31
0.0
  0
LINE
  5
7C5D
  8
1
  6
CONTINUOUS
 10
805.38779599999987
 20
3671.8386409999998
 30
0.0
 11
1805.387796
 21
3671.8386409999998
 31
0.0
  0
LINE
  5
7C5E
  8
1
  6
CONTINUOUS
 10
1805.387796
 20
3791.8386409999998
 30
0.0
 11
805.38779599999987
 21
3791.8386409999998
 31
0.0
  0
LINE
  5
7C5F
  8
1
  6
CONTINUOUS
 10
759.88779599999998
 20
3817.8386409999998
 30
0.0
 11
930.88779600000021
 21
3817.8386409999998
 31
0.0
  0
LINE
  5
7C60
  8
1
  6
CONTINUOUS
 10
827.88779599999987
 20
3842.0786410000001
 30
0.0
 11
1071.887796
 21
3842.0786410000001
 31
0.0
  0
LINE
  5
7C61
  8
1
  6
CONTINUOUS
 10
827.88779599999987
 20
4192.0786410000001
 30
0.0
 11
1071.887796
 21
4192.0786410000001
 31
0.0
  0
LINE
  5
7C62
  8
1
  6
CONTINUOUS
 10
999.88779600000009
 20
3761.8386409999998
 30
0.0
 11
899.88779600000009
 21
3761.8386409999998
 31
0.0
  0
LINE
  5
7C63
  8
1
  6
CONTINUOUS
 10
899.88779600000009
 20
3701.8386409999998
 30
0.0
 11
999.88779600000009
 21
3701.8386409999998
 31
0.0
  0
LINE
  5
7C64
  8
1
  6
CONTINUOUS
 10
759.88779599999998
 20
4265.8386409999994
 30
0.0
 11
759.88779599999998
 21
3817.8386409999998
 31
0.0
  0
LINE
  5
7C65
  8
1
  6
CONTINUOUS
 10
827.88779599999987
 20
3842.0786410000001
 30
0.0
 11
827.88779599999987
 21
4192.0786410000001
 31
0.0
  0
LINE
  5
7C66
  8
1
  6
CONTINUOUS
 10
899.88779600000009
 20
3761.8386409999998
 30
0.0
 11
899.88779600000009
 21
3701.8386409999998
 31
0.0
  0
LINE
  5
7C67
  8
1
  6
CONTINUOUS
 10
805.38779599999987
 20
3791.8386409999998
 30
0.0
 11
805.38779599999987
 21
3671.8386409999998
 31
0.0
  0
LINE
  5
7C68
  8
1
  6
CONTINUOUS
 10
1090.887796
 20
4223.8386409999994
 30
0.0
 11
1090.887796
 21
3859.8386409999989
 31
0.0
  0
LINE
  5
7C69
  8
1
  6
CONTINUOUS
 10
1071.887796
 20
3842.0786410000001
 30
0.0
 11
1071.887796
 21
4192.0786410000001
 31
0.0
  0
LINE
  5
7C6A
  8
1
  6
CONTINUOUS
 10
930.88779600000021
 20
3761.8386409999998
 30
0.0
 11
930.88779600000021
 21
3842.0786410000001
 31
0.0
  0
LINE
  5
7C6B
  8
1
  6
CONTINUOUS
 10
968.88779600000009
 20
3761.8386409999998
 30
0.0
 11
968.88779600000009
 21
3842.0786410000001
 31
0.0
  0
LINE
  5
7C6C
  8
1
  6
CONTINUOUS
 10
999.88779600000009
 20
3701.8386409999998
 30
0.0
 11
999.88779600000009
 21
3761.8386409999998
 31
0.0
  0
LINE
  5
7C6D
  8
1
  6
CONTINUOUS
 10
1598.887796
 20
3817.8386409999998
 30
0.0
 11
1879.887796
 21
3817.8386409999998
 31
0.0
  0
LINE
  5
7C6E
  8
1
  6
CONTINUOUS
 10
1459.887796
 20
3701.8386409999998
 30
0.0
 11
1699.887796
 21
3701.8386409999998
 31
0.0
  0
LINE
  5
7C6F
  8
1
  6
CONTINUOUS
 10
1699.887796
 20
3761.8386409999998
 30
0.0
 11
1459.887796
 21
3761.8386409999998
 31
0.0
  0
LINE
  5
7C70
  8
1
  6
CONTINUOUS
 10
1459.887796
 20
3701.8386409999998
 30
0.0
 11
1459.887796
 21
3761.8386409999998
 31
0.0
  0
LINE
  5
7C71
  8
1
  6
CONTINUOUS
 10
1624.887796
 20
3859.8386409999989
 30
0.0
 11
1624.887796
 21
4223.8386409999994
 31
0.0
  0
LINE
  5
7C72
  8
1
  6
CONTINUOUS
 10
1598.887796
 20
3761.8386409999998
 30
0.0
 11
1598.887796
 21
3859.8386409999989
 31
0.0
  0
LINE
  5
7C73
  8
1
  6
CONTINUOUS
 10
1560.887796
 20
3761.8386409999998
 30
0.0
 11
1560.887796
 21
3859.8386409999989
 31
0.0
  0
LINE
  5
7C74
  8
1
  6
CONTINUOUS
 10
1699.887796
 20
3701.8386409999998
 30
0.0
 11
1699.887796
 21
3761.8386409999998
 31
0.0
  0
LINE
  5
7C75
  8
1
  6
CONTINUOUS
 10
1805.387796
 20
3671.8386409999998
 30
0.0
 11
1805.387796
 21
3791.8386409999998
 31
0.0
  0
LINE
  5
7C76
  8
1
  6
CONTINUOUS
 10
1934.8877959999991
 20
3859.8386409999989
 30
0.0
 11
1934.8877959999991
 21
4223.8386409999994
 31
0.0
  0
LINE
  5
7C77
  8
1
  6
CONTINUOUS
 10
1879.887796
 20
3859.8386409999989
 30
0.0
 11
1879.887796
 21
3817.8386409999998
 31
0.0
  0
LINE
  5
7C78
  8
1
  6
CONTINUOUS
 10
1879.887796
 20
4265.8386409999994
 30
0.0
 11
1879.887796
 21
4223.8386409999994
 31
0.0
  0
LINE
  5
7C79
  8
2
  6
CENTER
 10
3113.9918250000001
 20
2682.8821595589479
 30
0.0
 11
3113.9918250000001
 21
1644.2635311074389
 31
0.0
  0
LINE
  5
7C7A
  8
2
  6
CENTER
 10
1968.721507879585
 20
4041.8386409999998
 30
0.0
 11
747.44905680421653
 21
4041.8386409999998
 31
0.0
  0
LINE
  5
7C7C
  8
2
  6
CENTER
 10
1579.887796
 20
3634.8524206335201
 30
0.0
 11
1579.887796
 21
4299.6664169163096
 31
0.0
  0
LINE
  5
7C7D
  8
2
  6
CENTER
 10
2661.699627
 20
2267.0121709999999
 30
0.0
 11
3337.2381169999999
 21
2267.0121709999999
 31
0.0
  0
LINE
  5
7C7E
  8
4
  6
CONTINUOUS
 10
3700.0
 20
1000.0
 30
0.0
 11
3700.0
 21
600.0
 31
0.0
  0
LINE
  5
7C7F
  8
4
  6
CONTINUOUS
 10
2300.0
 20
1000.0
 30
0.0
 11
2300.0
 21
600.0
 31
0.0
  0
LINE
  5
7C80
  8
4
  6
CONTINUOUS
 10
1300.0
 20
1000.0
 30
0.0
 11
1300.0
 21
600.0
 31
0.0
  0
LINE
  5
7C83
  8
4
  6
CONTINUOUS
 10
1300.0
 20
600.0
 30
0.0
 11
3700.0
 21
600.0
 31
0.0
  0
LINE
  5
7C84
  8
4
  6
CONTINUOUS
 10
1300.0
 20
800.0
 30
0.0
 11
3700.0
 21
800.0
 31
0.0
  0
TEXT
  5
7C85
  8
4
  6
CONTINUOUS
 10
1377.00416
 20
863.08605999999997
 30
0.0
 40
100.0
  1
機器名称
  0
TEXT
  5
7C86
  8
4
  6
CONTINUOUS
 10
1372.51622
 20
643.29032000000007
 30
0.0
 40
100.0
  1
機器型番
  0
TEXT
  5
7C87
  8
4
  6
CONTINUOUS
 10
2355.3575000000001
 20
845.14354000000014
 30
0.0
 40
100.0
  1
ミツヤ多翼送風機
  0
TEXT
  5
7C88
  8
4
  6
CONTINUOUS
 10
2373.3089999999988
 20
634.3191599999999
 30
0.0
 40
100.0
  1
MF#3-4
  0
TEXT
  5
7C8A
  8
4
  6
CONTINUOUS
 10
1809.5715399999999
 20
4766.8576800000001
 30
0.0
 40
108.0
  1
床置ベット
  0
TEXT
  5
7C8B
  8
4
  6
CONTINUOUS
 10
632.33518000000004
 20
5067.7619599999998
 30
0.0
 40
144.0
  1
ベルト駆動式片吸込両持多翼ファン
  0
LINE
  5
7C8C
  8
4
  6
CONTINUOUS
 10
500.0
 20
4938.8175000000001
 30
0.0
 11
3700.0
 21
4938.8175000000001
 31
0.0
  0
LINE
  5
7C8D
  8
4
  6
CONTINUOUS
 10
500.0
 20
5338.817500000001
 30
0.0
 11
3700.0
 21
5338.817500000001
 31
0.0
  0
LINE
  5
7C8E
  8
4
  6
CONTINUOUS
 10
1300.0
 20
1000.0
 30
0.0
 11
3700.0
 21
1000.0
 31
0.0
  0
LINE
  5
7C8F
  8
4
  6
CONTINUOUS
 10
500.0
 20
5338.817500000001
 30
0.0
 11
500.0
 21
4938.8175000000001
 31
0.0
  0
TEXT
  5
7C90
  8
4
  6
CONTINUOUS
 10
937.85385999999983
 20
4764.6389600000002
 30
0.0
 40
108.0
  1
右回転上向
  0
TEXT
  5
7C91
  8
4
  6
CONTINUOUS
 10
2937.93912
 20
5412.1221599999999
 30
0.0
 40
112.0
  1
No.
  0
TEXT
  5
7C92
  8
4
  6
CONTINUOUS
 10
2622.5921199999998
 20
4766.8576800000001
 30
0.0
 40
108.0
  1
縮尺：1/20
  0
LINE
  5
7C93
  8
4
  6
CONTINUOUS
 10
3700.0
 20
5338.817500000001
 30
0.0
 11
3700.0
 21
4938.8175000000001
 31
0.0
  0
LINE
  5
7C95
  8
4
  6
CONTINUOUS
 10
2881.2348400000001
 20
5362.5271599999996
 30
0.0
 11
2881.2348400000001
 21
5573.3045199999997
 31
0.0
  0
LINE
  5
7C96
  8
4
  6
CONTINUOUS
 10
2881.2348400000001
 20
5573.3045199999997
 30
0.0
 11
3700.0
 21
5573.3045199999997
 31
0.0
  0
LINE
  5
7C97
  8
4
  6
CONTINUOUS
 10
3700.0
 20
5573.3045199999997
 30
0.0
 11
3700.0
 21
5362.5271599999996
 31
0.0
  0
LINE
  5
7C98
  8
4
  6
CONTINUOUS
 10
3700.0
 20
5362.5271599999996
 30
0.0
 11
2881.2348400000001
 21
5362.5271599999996
 31
0.0
  0
LINE
  5
7C9D
  8
1
  6
CONTINUOUS
 10
1805.387796
 20
1857.0121710000001
 30
0.0
 11
1805.387796
 21
2527.0121709999999
 31
0.0
  0
LINE
  5
7C9E
  8
1
  6
CONTINUOUS
 10
1805.387796
 20
2527.0121709999999
 30
0.0
 11
1555.3877959999991
 21
2602.0121709999999
 31
0.0
  0
LINE
  5
7C9F
  8
1
  6
CONTINUOUS
 10
1555.3877959999991
 20
2602.0121709999999
 30
0.0
 11
805.38779599999987
 21
2092.0121709999999
 31
0.0
  0
LINE
  5
7CA0
  8
1
  6
CONTINUOUS
 10
805.38779599999987
 20
2092.0121709999999
 30
0.0
 11
805.38779599999987
 21
1857.0121710000001
 31
0.0
  0
DIMENSION
  5
7CB4
  8
3
  6
CONTINUOUS
  2
*D1
 10
1597.887796
 20
2768.9633069999991
 30
0.0
 11
1373.360833
 21
2768.9633069999991
 31
0.0
 70
   128
 13
1117.8877959999991
 23
2622.0121709999999
 33
0.0
 14
1597.887796
 24
2622.0121709999999
 34
0.0
1001
ACAD
1000
DSTYLE
1002
{
1070
   287
1070
     3
1070
    40
1040
20.0
1070
   143
1040
0.039
1070
   172
1070
     1
1070
   271
1070
     0
1070
   279
1070
     0
1070
   288
1070
     1
1002
}
  0
DIMENSION
  5
7CFB
  8
3
  6
CONTINUOUS
  2
*D2
 10
2081.1757189999998
 20
2267.0121709999999
 30
0.0
 11
2081.1757189999998
 21
2440.9295999999999
 31
0.0
 70
   128
 13
1614.887796
 23
2622.0121709999999
 33
0.0
 14
2029.9703669999999
 24
2267.0121709999999
 34
0.0
 50
90.0
1001
ACAD
1000
DSTYLE
1002
{
1070
   287
1070
     3
1070
    40
1040
20.0
1070
   143
1040
0.039
1070
   172
1070
     1
1070
   271
1070
     0
1070
   279
1070
     0
1070
   288
1070
     1
1002
}
  0
DIMENSION
  5
7D07
  8
3
  6
CONTINUOUS
  2
*D3
 10
2081.1757189999998
 20
1777.0121710000001
 30
0.0
 11
2031.1757190000001
 21
2022.0121710000001
 31
0.0
 70
     0
 13
2029.9703669999999
 23
2267.0121709999999
 33
0.0
 14
1879.887796
 24
1777.0121710000001
 34
0.0
 50
90.0
1001
ACAD
1000
DSTYLE
1002
{
1070
   287
1070
     4
1070
    40
1040
20.0
1070
    75
1070
     1
1070
   143
1040
0.039
1070
   172
1070
     1
1070
   271
1070
     0
1070
   279
1070
     1
1070
   288
1070
     1
1002
}
  0
DIMENSION
  5
7D14
  8
3
  6
CONTINUOUS
  2
*D4
 10
1579.887796
 20
1620.6770279999989
 30
0.0
 11
1163.0387039999989
 21
1620.6770279999989
 31
0.0
 70
   128
 13
759.88779599999998
 23
1777.0121710000001
 33
0.0
 14
1579.887796
 24
1686.555936821698
 34
0.0
1001
ACAD
1000
DSTYLE
1002
{
1070
   287
1070
     3
1070
    40
1040
20.0
1070
   143
1040
0.039
1070
   172
1070
     1
1070
   271
1070
     0
1070
   279
1070
     0
1070
   288
1070
     1
1002
}
  0
DIMENSION
  5
7D20
  8
3
  6
CONTINUOUS
  2
*D5
 10
1879.887796
 20
1620.6770279999989
 30
0.0
 11
1729.8877959999991
 21
1670.6770279999989
 31
0.0
 70
     0
 13
1579.887796
 23
1686.555936821698
 33
0.0
 14
1879.887796
 24
1777.0121710000001
 34
0.0
1001
ACAD
1000
DSTYLE
1002
{
1070
   287
1070
     4
1070
    40
1040
20.0
1070
    75
1070
     1
1070
   143
1040
0.039
1070
   172
1070
     1
1070
   271
1070
     0
1070
   279
1070
     1
1070
   288
1070
     1
1002
}
  0
DIMENSION
  5
7D2D
  8
3
  6
CONTINUOUS
  2
*D6
 10
2218.6940220000001
 20
1777.0121710000001
 30
0.0
 11
2218.6940219999992
 21
2202.531066
 31
0.0
 70
   128
 13
1624.887796
 23
2622.0121709999999
 33
0.0
 14
1879.887796
 24
1777.0121710000001
 34
0.0
 50
90.0
1001
ACAD
1000
DSTYLE
1002
{
1070
   287
1070
     3
1070
    40
1040
20.0
1070
   143
1040
0.039
1070
   172
1070
     1
1070
   271
1070
     0
1070
   279
1070
     0
1070
   288
1070
     1
1002
}
  0
DIMENSION
  5
7D3A
  8
3
  6
CONTINUOUS
  2
*D7
 10
2933.9918250000001
 20
2671.246830999999
 30
0.0
 11
3118.8266659999999
 21
2671.246830999999
 31
0.0
 70
   128
 13
3293.9918249999992
 23
2622.0121709999999
 33
0.0
 14
2933.9918250000001
 24
2622.0121709999999
 34
0.0
1001
ACAD
1000
DSTYLE
1002
{
1070
   287
1070
     3
1070
    40
1040
20.0
1070
   143
1040
0.039
1070
   172
1070
     1
1070
   271
1070
     0
1070
   279
1070
     0
1070
   288
1070
     1
1002
}
  0
DIMENSION
  5
7D55
  8
3
  6
CONTINUOUS
  2
*D8
 10
2743.9918250000001
 20
2820.7510029999999
 30
0.0
 11
2928.9918250000001
 21
2920.7510029999999
 31
0.0
 70
     0
  1
MAX\P430
 13
3113.9918250000001
 23
2759.1614446893582
 33
0.0
 14
2743.9918250000001
 24
2602.0121709999999
 34
0.0
1001
ACAD
1000
DSTYLE
1002
{
1070
   287
1070
     4
1070
    40
1040
20.0
1070
    75
1070
     1
1070
   143
1040
0.039
1070
   172
1070
     1
1070
   271
1070
     0
1070
   279
1070
     1
1070
   288
1070
     1
1002
}
  0
DIMENSION
  5
7D64
  8
3
  6
CONTINUOUS
  2
*D9
 10
3113.9918250000001
 20
1618.618903396911
 30
0.0
 11
3001.9918250000001
 21
1669.560520384031
 31
0.0
 70
   128
 13
2889.9918250000001
 23
1777.0121710000001
 33
0.0
 14
3113.9918250000001
 24
1644.2635311074389
 34
0.0
1001
ACAD
1000
DSTYLE
1002
{
1070
   288
1070
     1
1070
   172
1070
     1
1070
    40
1040
20.0
1070
   271
1070
     0
1070
   143
1040
0.039
1002
}
  0
DIMENSION
  5
7D72
  8
3
  6
CONTINUOUS
  2
*D10
 10
3337.9918250000001
 20
1618.618903396911
 30
0.0
 11
3223.4686019999999
 21
1616.354096396911
 31
0.0
 70
   128
 13
3113.9918250000001
 23
1644.2635311074389
 33
0.0
 14
3337.9918250000001
 24
1777.0121710000001
 34
0.0
1001
ACAD
1000
DSTYLE
1002
{
1070
   287
1070
     4
1070
    40
1040
20.0
1070
    75
1070
     1
1070
   143
1040
0.039
1070
   172
1070
     1
1070
   271
1070
     0
1070
   279
1070
     1
1070
   288
1070
     1
1002
}
  0
LINE
  5
7D89
  8
1
  6
CONTINUOUS
 10
3294.9918250000001
 20
2517.0121709999999
 30
0.0
 11
3294.9918250000001
 21
2017.0121710000001
 31
0.0
  0
DIMENSION
  5
7D98
  8
3
  6
CONTINUOUS
  2
*D11
 10
3466.6671230000002
 20
2017.0121710000001
 30
0.0
 11
3466.6671230000002
 21
2242.937609999999
 31
0.0
 70
   128
 13
3294.9918250000001
 23
2517.0121709999999
 33
0.0
 14
3294.9918250000001
 24
2017.0121710000001
 34
0.0
 50
90.0
1001
ACAD
1000
DSTYLE
1002
{
1070
   287
1070
     3
1070
     3
1000
φ<>
1070
    40
1040
20.0
1070
   143
1040
0.039
1070
   172
1070
     1
1070
   271
1070
     0
1070
   279
1070
     0
1070
   288
1070
     1
1002
}
  0
DIMENSION
  5
7DB4
  8
3
  6
CONTINUOUS
  2
*D12
 10
3294.9918250000001
 20
2819.1971410000001
 30
0.0
 11
3204.4918250000001
 21
2866.4988903419448
 31
0.0
 70
   128
 13
3113.9918250000001
 23
2759.1614446893582
 33
0.0
 14
3294.9918250000001
 24
2517.0121709999999
 34
0.0
1001
ACAD
1000
DSTYLE
1002
{
1070
   288
1070
     1
1070
   172
1070
     1
1070
    40
1040
20.0
1070
   271
1070
     0
1070
   143
1040
0.039
1002
}
  0
DIMENSION
  5
7DC1
  8
3
  6
CONTINUOUS
  2
*D13
 10
1879.887796
 20
4343.0131289999999
 30
0.0
 11
1345.048242999999
 21
4343.0131289999999
 31
0.0
 70
   128
 13
759.88779599999998
 23
4265.8386409999994
 33
0.0
 14
1879.887796
 24
4265.8386409999994
 34
0.0
1001
ACAD
1000
DSTYLE
1002
{
1070
   287
1070
     3
1070
    40
1040
20.0
1070
   143
1040
0.039
1070
   172
1070
     1
1070
   271
1070
     0
1070
   279
1070
     0
1070
   288
1070
     1
1002
}
  0
DIMENSION
  5
7DCE
  8
3
  6
CONTINUOUS
  2
*D14
 10
681.72459200000048
 20
3817.8386409999998
 30
0.0
 11
681.72459200000003
 21
4031.8828389999999
 31
0.0
 70
   128
 13
759.88779599999998
 23
4265.8386409999994
 33
0.0
 14
759.88779599999998
 24
3817.8386409999998
 34
0.0
 50
90.0
1001
ACAD
1000
DSTYLE
1002
{
1070
   287
1070
     3
1070
    40
1040
20.0
1070
   143
1040
0.039
1070
   172
1070
     1
1070
   271
1070
     0
1070
   279
1070
     0
1070
   288
1070
     1
1002
}
  0
DIMENSION
  5
7E0D
  8
3
  6
CONTINUOUS
  2
*D15
 10
1579.887796
 20
2893.6622600000001
 30
0.0
 11
1348.4403949999989
 21
2893.6622600000001
 31
0.0
 70
   128
 13
1117.8877959999991
 23
2622.0121709999999
 33
0.0
 14
1579.887796
 24
2622.0121709999999
 34
0.0
1001
ACAD
1000
DSTYLE
1002
{
1070
   287
1070
     3
1070
    40
1040
20.0
1070
   143
1040
0.039
1070
   172
1070
     1
1070
   271
1070
     0
1070
   279
1070
     0
1070
   288
1070
     1
1002
}
  0
DIMENSION
  5
7E19
  8
3
  6
CONTINUOUS
  2
*D16
 10
1934.8877959999991
 20
2893.6622600000001
 30
0.0
 11
1757.387796
 21
2943.6622599999992
 31
0.0
 70
     0
 13
1579.887796
 23
2622.0121709999999
 33
0.0
 14
1934.8877959999991
 24
2577.0121709999999
 34
0.0
1001
ACAD
1000
DSTYLE
1002
{
1070
   287
1070
     4
1070
    40
1040
20.0
1070
    75
1070
     1
1070
   143
1040
0.039
1070
   172
1070
     1
1070
   271
1070
     0
1070
   279
1070
     1
1070
   288
1070
     1
1002
}
  0
LINE
  5
7E1A
  8
2
  6
CENTER
 10
1579.887796
 20
2724.8379209999998
 30
0.0
 11
1579.887796
 21
1687.376782086541
 31
0.0
  0
DIMENSION
  5
7E6C
  8
3
  2
*D17
 10
759.88779600000009
 20
3013.228329953085
 30
0.0
 11
1363.322295592923
 21
3013.228329953085
 31
0.0
 70
   128
 13
1934.8877959999991
 23
2577.0121709999999
 33
0.0
 14
759.88779599999998
 24
1857.0121710000001
 34
0.0
1001
ACAD
1000
DSTYLE
1002
{
1070
   287
1070
     3
1070
    40
1040
20.0
1070
   143
1040
0.039
1070
   172
1070
     1
1070
   271
1070
     0
1070
   279
1070
     0
1070
   288
1070
     1
1002
}
  0
ENDSEC
  0
EOF
