  0
SECTION
  2
HEADER
  9
$ACADVER
  1
AC1009
  9
$INSBASE
 10
0.0
 20
0.0
 30
0.0
  9
$EXTMIN
 10
500.0
 20
600.0
 30
0.0
  9
$EXTMAX
 10
3711.3329610000001
 20
5573.3045229999998
 30
0.0
  9
$LIMMIN
 10
0.0
 20
0.0
  9
$LIMMAX
 10
297.0
 20
210.0
  9
$ORTHOMODE
 70
     0
  9
$REGENMODE
 70
     1
  9
$FILLMODE
 70
     0
  9
$QTEXTMODE
 70
     0
  9
$MIRRTEXT
 70
     1
  9
$DRAGMODE
 70
     2
  9
$LTSCALE
 40
100.0
  9
$OSMODE
 70
    37
  9
$ATTMODE
 70
     1
  9
$TEXTSIZE
 40
180.0
  9
$TRACEWID
 40
0.05
  9
$TEXTSTYLE
  7
STANDARD
  9
$CLAYER
  8
3
  9
$CELTYPE
  6
BYLAYER
  9
$CECOLOR
 62
   256
  9
$DIMSCALE
 40
20.0
  9
$DIMASZ
 40
2.0
  9
$DIMEXO
 40
0.5
  9
$DIMDLI
 40
10.0
  9
$DIMRND
 40
0.0
  9
$DIMDLE
 40
0.0
  9
$DIMEXE
 40
1.0
  9
$DIMTP
 40
1.0
  9
$DIMTM
 40
1.0
  9
$DIMTXT
 40
3.0
  9
$DIMCEN
 40
0.0
  9
$DIMTSZ
 40
0.0
  9
$DIMTOL
 70
     0
  9
$DIMLIM
 70
     0
  9
$DIMTIH
 70
     0
  9
$DIMTOH
 70
     0
  9
$DIMSE1
 70
     0
  9
$DIMSE2
 70
     0
  9
$DIMTAD
 70
     1
  9
$DIMZIN
 70
     8
  9
$DIMBLK
  1

  9
$DIMASO
 70
     1
  9
$DIMSHO
 70
     1
  9
$DIMPOST
  1

  9
$DIMAPOST
  1

  9
$DIMALT
 70
     0
  9
$DIMALTD
 70
     2
  9
$DIMALTF
 40
0.039
  9
$DIMLFAC
 40
1.0
  9
$DIMTOFL
 70
     1
  9
$DIMTVP
 40
0.0
  9
$DIMTIX
 70
     0
  9
$DIMSOXD
 70
     0
  9
$DIMSAH
 70
     1
  9
$DIMBLK1
  1
OPEN
  9
$DIMBLK2
  1
OPEN
  9
$DIMSTYLE
  2
IGA
  9
$DIMCLRD
 70
     0
  9
$DIMCLRE
 70
     0
  9
$DIMCLRT
 70
     0
  9
$DIMTFAC
 40
10.0
  9
$DIMGAP
 40
1.0
  9
$LUNITS
 70
     2
  9
$LUPREC
 70
     3
  9
$SKETCHINC
 40
0.1
  9
$FILLETRAD
 40
50.0
  9
$AUNITS
 70
     0
  9
$AUPREC
 70
     0
  9
$MENU
  1
acad
  9
$ELEVATION
 40
0.0
  9
$PELEVATION
 40
0.0
  9
$THICKNESS
 40
0.0
  9
$LIMCHECK
 70
     0
  9
$BLIPMODE
 70
     0
  9
$CHAMFERA
 40
0.5
  9
$CHAMFERB
 40
0.5
  9
$SKPOLY
 70
     0
  9
$TDCREATE
 40
2450728.614921296
  9
$TDUPDATE
 40
2454953.7675889689
  9
$TDINDWG
 40
0.009000463
  9
$TDUSRTIMER
 40
0.009000463
  9
$USRTIMER
 70
     1
  9
$ANGBASE
 50
0.0
  9
$ANGDIR
 70
     0
  9
$PDMODE
 70
     0
  9
$PDSIZE
 40
0.0
  9
$PLINEWID
 40
0.0
  9
$COORDS
 70
     1
  9
$SPLFRAME
 70
     0
  9
$SPLINETYPE
 70
     6
  9
$SPLINESEGS
 70
     8
  9
$ATTDIA
 70
     0
  9
$ATTREQ
 70
     1
  9
$HANDLING
 70
 10241
  9
$HANDSEED
  5
7FE8
  9
$SURFTAB1
 70
     6
  9
$SURFTAB2
 70
     6
  9
$SURFTYPE
 70
     6
  9
$SURFU
 70
     6
  9
$SURFV
 70
     6
  9
$UCSNAME
  2

  9
$UCSORG
 10
0.0
 20
0.0
 30
0.0
  9
$UCSXDIR
 10
1.0
 20
0.0
 30
0.0
  9
$UCSYDIR
 10
0.0
 20
1.0
 30
0.0
  9
$PUCSNAME
  2

  9
$PUCSORG
 10
0.0
 20
0.0
 30
0.0
  9
$PUCSXDIR
 10
1.0
 20
0.0
 30
0.0
  9
$PUCSYDIR
 10
0.0
 20
1.0
 30
0.0
  9
$USERI1
 70
     0
  9
$USERI2
 70
     0
  9
$USERI3
 70
     0
  9
$USERI4
 70
     0
  9
$USERI5
 70
     0
  9
$USERR1
 40
0.0
  9
$USERR2
 40
0.0
  9
$USERR3
 40
0.0
  9
$USERR4
 40
0.0
  9
$USERR5
 40
0.0
  9
$WORLDVIEW
 70
     1
  9
$SHADEDGE
 70
     3
  9
$SHADEDIF
 70
    70
  9
$TILEMODE
 70
     1
  9
$MAXACTVP
 70
    16
  9
$PLIMCHECK
 70
     0
  9
$PEXTMIN
 10
1.0000000000000000E+020
 20
1.0000000000000000E+020
 30
1.0000000000000000E+020
  9
$PEXTMAX
 10
-1.0000000000000000E+020
 20
-1.0000000000000000E+020
 30
-1.0000000000000000E+020
  9
$PLIMMIN
 10
0.0
 20
0.0
  9
$PLIMMAX
 10
12.0
 20
9.0
  9
$UNITMODE
 70
     0
  9
$VISRETAIN
 70
     0
  9
$PLINEGEN
 70
     0
  9
$PSLTSCALE
 70
     1
  0
ENDSEC
  0
SECTION
  2
TABLES
  0
TABLE
  2
VPORT
 70
     2
  0
VPORT
  2
*ACTIVE
 70
     0
 10
0.0
 20
0.0
 11
1.0
 21
1.0
 12
6297.8367123441349
 22
3086.6374998146398
 13
0.0
 23
0.0
 14
10.0
 24
10.0
 15
10.0
 25
10.0
 16
0.0
 26
0.0
 36
1.0
 17
0.0
 27
0.0
 37
0.0
 40
5011.4968576296578
 41
3.1666666666666661
 42
50.0
 43
0.0
 44
0.0
 50
0.0
 51
0.0
 71
     0
 72
   100
 73
     1
 74
     0
 75
     0
 76
     0
 77
     0
 78
     0
  0
ENDTAB
  0
TABLE
  2
LTYPE
 70
     2
  0
LTYPE
  2
CONTINUOUS
 70
     0
  3
Solid line
 72
    65
 73
     0
 40
0.0
  0
LTYPE
  2
CENTER
 70
     0
  3
____ _ ____ _ ____ _ ____ _ ____ _ ____ _ ____ 
 72
    65
 73
     4
 40
2.0
 49
1.25
 49
-0.25
 49
0.25
 49
-0.25
  0
ENDTAB
  0
TABLE
  2
LAYER
 70
     6
  0
LAYER
  2
0
 70
     0
 62
     7
  6
CONTINUOUS
  0
LAYER
  2
3
 70
     0
 62
     2
  6
CONTINUOUS
  0
LAYER
  2
2
 70
     0
 62
     3
  6
CENTER
  0
LAYER
  2
1
 70
     0
 62
     4
  6
CONTINUOUS
  0
LAYER
  2
4
 70
     0
 62
     7
  6
CONTINUOUS
  0
LAYER
  2
DEFPOINTS
 70
     0
 62
     7
  6
CONTINUOUS
  0
ENDTAB
  0
TABLE
  2
STYLE
 70
     1
  0
STYLE
  2
STANDARD
 70
     0
 40
0.0
 41
1.0
 50
0.0
 71
     0
 42
180.0
  3
simplex.shx
  4
extfont.shx
  0
ENDTAB
  0
TABLE
  2
VIEW
 70
     0
  0
ENDTAB
  0
TABLE
  2
UCS
 70
     0
  0
ENDTAB
  0
TABLE
  2
APPID
 70
     1
  0
APPID
  2
ACAD
 70
     0
  0
ENDTAB
  0
TABLE
  2
DIMSTYLE
 70
     1
  0
DIMSTYLE
  2
IGA
 70
     0
  3

  4

  5

  6
OPEN
  7
OPEN
 40
2.0
 41
2.0
 42
0.5
 43
10.0
 44
1.0
 45
0.0
 46
0.0
 47
1.0
 48
1.0
140
3.0
141
0.0
142
0.0
143
0.03937
144
1.0
145
0.0
146
10.0
147
1.0
 71
     0
 72
     0
 73
     0
 74
     0
 75
     0
 76
     0
 77
     1
 78
     8
170
     0
171
     2
172
     0
173
     1
174
     0
175
     0
176
     0
177
     0
178
     0
  0
ENDTAB
  0
ENDSEC
  0
SECTION
  2
BLOCKS
  0
BLOCK
  8
0
  2
$MODEL_SPACE
 70
     0
 10
0.0
 20
0.0
 30
0.0
  3
$MODEL_SPACE
  1

  0
ENDBLK
  5
1B
  8
0
  0
BLOCK
 67
     1
  8
0
  2
$PAPER_SPACE
 70
     0
 10
0.0
 20
0.0
 30
0.0
  3
$PAPER_SPACE
  1

  0
ENDBLK
  5
18
 67
     1
  8
0
  0
BLOCK
  8
0
  2
_OPEN
 70
     0
 10
0.0
 20
0.0
 30
0.0
  3
_OPEN
  1

  0
LINE
  5
7B81
  8
0
  6
BYBLOCK
 62
     0
 10
-1.0
 20
0.166667
 30
0.0
 11
0.0
 21
0.0
 31
0.0
  0
LINE
  5
7B82
  8
0
  6
BYBLOCK
 62
     0
 10
0.0
 20
0.0
 30
0.0
 11
-1.0
 21
-0.166667
 31
0.0
  0
LINE
  5
7B83
  8
0
  6
BYBLOCK
 62
     0
 10
0.0
 20
0.0
 30
0.0
 11
-1.0
 21
0.0
 31
0.0
  0
ENDBLK
  5
7B84
  8
0
  0
BLOCK
  8
0
  2
*D1
 70
     1
 10
0.0
 20
0.0
 30
0.0
  3
*D1
  1

  0
LINE
  5
7F4B
  8
3
  6
CONTINUOUS
 62
     0
 10
1198.6730339999999
 20
2707.3916709999999
 30
0.0
 11
1070.2892260000001
 21
2707.3916709999999
 31
0.0
  0
LINE
  5
7F4C
  8
3
  6
CONTINUOUS
 62
     0
 10
1198.6730339999999
 20
2227.3916709999999
 30
0.0
 11
1070.2892260000001
 21
2227.3916709999999
 31
0.0
  0
LINE
  5
7F4D
  8
3
  6
CONTINUOUS
 62
     0
 10
1090.2892260000001
 20
2667.3916709999999
 30
0.0
 11
1090.2892260000001
 21
2267.3916709999999
 31
0.0
  0
INSERT
  5
7F4E
  8
3
  6
CONTINUOUS
 62
     0
  2
_OPEN
 10
1090.2892260000001
 20
2707.3916709999999
 30
0.0
 41
40.0
 42
40.0
 43
40.0
 50
90.0
  0
INSERT
  5
7F4F
  8
3
  6
CONTINUOUS
 62
     0
  2
_OPEN
 10
1090.2892260000001
 20
2227.3916709999999
 30
0.0
 41
40.0
 42
40.0
 43
40.0
 50
270.0
  0
TEXT
  8
3
  40
60
  5
7FD7
  62
0
  72
0
  71
0
 10
920.289
 20
2354.23
 30
0.000000
  1
480
  0
POINT
  5
7F51
  8
DEFPOINTS
  6
CONTINUOUS
 62
     0
 10
1208.6730339999999
 20
2707.3916709999999
 30
0.0
  0
POINT
  5
7F52
  8
DEFPOINTS
  6
CONTINUOUS
 62
     0
 10
1208.6730339999999
 20
2227.3916709999999
 30
0.0
  0
POINT
  5
7F53
  8
DEFPOINTS
  6
CONTINUOUS
 62
     0
 10
1090.2892260000001
 20
2227.3916709999999
 30
0.0
  0
ENDBLK
  5
7E54
  8
0
  0
BLOCK
  8
0
  2
*D2
 70
     1
 10
0.0
 20
0.0
 30
0.0
  3
*D2
  1

  0
LINE
  5
7F54
  8
3
  6
CONTINUOUS
 62
     0
 10
1080.289225999999
 20
2707.3916709999999
 30
0.0
 11
944.09594800000048
 21
2707.3916710000012
 31
0.0
  0
LINE
  5
7F55
  8
3
  6
CONTINUOUS
 62
     0
 10
1005.357435999999
 20
2245.3916709999999
 30
0.0
 11
944.09594800000025
 21
2245.3916709999999
 31
0.0
  0
LINE
  5
7F56
  8
3
  6
CONTINUOUS
 62
     0
 10
964.09594800000036
 20
2667.3916709999999
 30
0.0
 11
964.09594800000036
 21
2285.3916709999999
 31
0.0
  0
INSERT
  5
7F57
  8
3
  6
CONTINUOUS
 62
     0
  2
_OPEN
 10
964.09594800000036
 20
2707.3916710000012
 30
0.0
 41
40.0
 42
40.0
 43
40.0
 50
90.0
  0
INSERT
  5
7F58
  8
3
  6
CONTINUOUS
 62
     0
  2
_OPEN
 10
964.09594800000036
 20
2245.3916709999999
 30
0.0
 41
40.0
 42
40.0
 43
40.0
 50
270.0
  0
TEXT
  8
3
  40
60
  5
7FD8
  62
0
  72
0
  71
0
 10
794.096
 20
2345.83
 30
0.000000
  1
462
  0
POINT
  5
7F5A
  8
DEFPOINTS
  6
CONTINUOUS
 62
     0
 10
1090.2892260000001
 20
2707.3916709999999
 30
0.0
  0
POINT
  5
7F5B
  8
DEFPOINTS
  6
CONTINUOUS
 62
     0
 10
1015.357435999999
 20
2245.3916709999999
 30
0.0
  0
POINT
  5
7F5C
  8
DEFPOINTS
  6
CONTINUOUS
 62
     0
 10
964.09594800000036
 20
2245.3916709999999
 30
0.0
  0
ENDBLK
  5
7D12
  8
0
  0
BLOCK
  8
0
  2
*D3
 70
     1
 10
0.0
 20
0.0
 30
0.0
  3
*D3
  1

  0
LINE
  5
7F5D
  8
3
  6
CONTINUOUS
 62
     0
 10
1253.6730339999999
 20
1810.3916710000001
 30
0.0
 11
944.09594800000002
 21
1810.3916710000001
 31
0.0
  0
LINE
  5
7F5E
  8
3
  6
CONTINUOUS
 62
     0
 10
964.09594800000013
 20
2205.3916709999999
 30
0.0
 11
964.09594800000013
 21
1850.3916710000001
 31
0.0
  0
INSERT
  5
7F5F
  8
3
  6
CONTINUOUS
 62
     0
  2
_OPEN
 10
964.09594800000013
 20
2245.3916709999999
 30
0.0
 41
40.0
 42
40.0
 43
40.0
 50
90.0
  0
INSERT
  5
7F60
  8
3
  6
CONTINUOUS
 62
     0
  2
_OPEN
 10
964.09594800000013
 20
1810.3916710000001
 30
0.0
 41
40.0
 42
40.0
 43
40.0
 50
270.0
  0
TEXT
  8
3
  40
60
  5
7FD9
  62
0
  72
0
  71
0
 10
794.096
 20
1921.69
 30
0.000000
  1
435
  0
POINT
  5
7F62
  8
DEFPOINTS
  6
CONTINUOUS
 62
     0
 10
1015.357435999999
 20
2245.3916709999999
 30
0.0
  0
POINT
  5
7F63
  8
DEFPOINTS
  6
CONTINUOUS
 62
     0
 10
1263.673033999999
 20
1810.3916710000001
 30
0.0
  0
POINT
  5
7F64
  8
DEFPOINTS
  6
CONTINUOUS
 62
     0
 10
964.09594800000013
 20
1810.3916710000001
 30
0.0
  0
ENDBLK
  5
7E49
  8
0
  0
BLOCK
  8
0
  2
*D4
 70
     1
 10
0.0
 20
0.0
 30
0.0
  3
*D4
  1

  0
LINE
  5
7F65
  8
3
  6
CONTINUOUS
 62
     0
 10
1208.6730339999999
 20
2734.3916709999999
 30
0.0
 11
1208.6730339999999
 21
2825.0213829999998
 31
0.0
  0
LINE
  5
7F66
  8
3
  6
CONTINUOUS
 62
     0
 10
1563.673033999999
 20
2785.9122425101882
 30
0.0
 11
1563.673033999999
 21
2825.0213829999998
 31
0.0
  0
LINE
  5
7F67
  8
3
  6
CONTINUOUS
 62
     0
 10
1248.6730339999999
 20
2805.0213829999989
 30
0.0
 11
1523.673033999999
 21
2805.0213829999989
 31
0.0
  0
INSERT
  5
7F68
  8
3
  6
CONTINUOUS
 62
     0
  2
_OPEN
 10
1208.6730339999999
 20
2805.0213829999989
 30
0.0
 41
40.0
 42
40.0
 43
40.0
 50
180.0
  0
INSERT
  5
7F69
  8
3
  6
CONTINUOUS
 62
     0
  2
_OPEN
 10
1563.673033999999
 20
2805.0213829999989
 30
0.0
 41
40.0
 42
40.0
 43
40.0
  0
TEXT
  8
3
  40
60
  5
7FDA
  62
0
  72
0
  71
0
 10
1255.51
 20
2748.82
 30
0.000000
  1
355
  0
POINT
  5
7F6B
  8
DEFPOINTS
  6
CONTINUOUS
 62
     0
 10
1208.6730339999999
 20
2724.3916709999999
 30
0.0
  0
POINT
  5
7F6C
  8
DEFPOINTS
  6
CONTINUOUS
 62
     0
 10
1563.673033999999
 20
2775.9122425101882
 30
0.0
  0
POINT
  5
7F6D
  8
DEFPOINTS
  6
CONTINUOUS
 62
     0
 10
1563.673033999999
 20
2805.0213829999989
 30
0.0
  0
ENDBLK
  5
7F10
  8
0
  0
BLOCK
  8
0
  2
*D5
 70
     1
 10
0.0
 20
0.0
 30
0.0
  3
*D5
  1

  0
LINE
  5
7F6E
  8
3
  6
CONTINUOUS
 62
     0
 10
1263.673033999999
 20
1800.3916710000001
 30
0.0
 11
1263.673033999999
 21
1584.661411999999
 31
0.0
  0
LINE
  5
7F6F
  8
3
  6
CONTINUOUS
 62
     0
 10
1563.673033999999
 20
1611.0129119999999
 30
0.0
 11
1563.673033999999
 21
1584.661411999999
 31
0.0
  0
LINE
  5
7F70
  8
3
  6
CONTINUOUS
 62
     0
 10
1223.673033999999
 20
1604.6614119999999
 30
0.0
 11
1183.673033999999
 21
1604.6614119999999
 31
0.0
  0
LINE
  5
7F71
  8
3
  6
CONTINUOUS
 62
     0
 10
1603.673033999999
 20
1604.6614119999999
 30
0.0
 11
1643.6730339999999
 21
1604.6614119999999
 31
0.0
  0
LINE
  5
7F72
  8
3
  6
CONTINUOUS
 62
     0
 10
1263.673033999999
 20
1604.6614119999999
 30
0.0
 11
1563.673033999999
 21
1604.6614119999999
 31
0.0
  0
INSERT
  5
7F73
  8
3
  6
CONTINUOUS
 62
     0
  2
_OPEN
 10
1263.673033999999
 20
1604.6614119999999
 30
0.0
 41
40.0
 42
40.0
 43
40.0
  0
INSERT
  5
7F74
  8
3
  6
CONTINUOUS
 62
     0
  2
_OPEN
 10
1563.673033999999
 20
1604.6614119999999
 30
0.0
 41
40.0
 42
40.0
 43
40.0
 50
180.0
  0
TEXT
  8
3
  40
60
  5
7FDB
  62
0
  72
0
  71
0
 10
1280.82
 20
1548.46
 30
0.000000
  1
300
  0
POINT
  5
7F76
  8
DEFPOINTS
  6
CONTINUOUS
 62
     0
 10
1263.673033999999
 20
1810.3916710000001
 30
0.0
  0
POINT
  5
7F77
  8
DEFPOINTS
  6
CONTINUOUS
 62
     0
 10
1563.673033999999
 20
1621.012911999999
 30
0.0
  0
POINT
  5
7F78
  8
DEFPOINTS
  6
CONTINUOUS
 62
     0
 10
1563.673033999999
 20
1604.6614119999999
 30
0.0
  0
ENDBLK
  5
7E34
  8
0
  0
BLOCK
  8
0
  2
*D6
 70
     1
 10
0.0
 20
0.0
 30
0.0
  3
*D6
  1

  0
LINE
  5
7F79
  8
3
  6
CONTINUOUS
 62
     0
 10
2383.6730339999999
 20
1800.3916710000001
 30
0.0
 11
2383.6730339999999
 21
1584.661411999999
 31
0.0
  0
LINE
  5
7F7A
  8
3
  6
CONTINUOUS
 62
     0
 10
1603.673033999999
 20
1604.6614119999999
 30
0.0
 11
2343.6730339999999
 21
1604.6614119999999
 31
0.0
  0
INSERT
  5
7F7B
  8
3
  6
CONTINUOUS
 62
     0
  2
_OPEN
 10
1563.673033999999
 20
1604.6614119999999
 30
0.0
 41
40.0
 42
40.0
 43
40.0
 50
180.0
  0
INSERT
  5
7F7C
  8
3
  6
CONTINUOUS
 62
     0
  2
_OPEN
 10
2383.6730339999999
 20
1604.6614119999999
 30
0.0
 41
40.0
 42
40.0
 43
40.0
  0
TEXT
  8
3
  40
60
  5
7FDC
  62
0
  72
0
  71
0
 10
1853.67
 20
1548.46
 30
0.000000
  1
820
  0
POINT
  5
7F7E
  8
DEFPOINTS
  6
CONTINUOUS
 62
     0
 10
1563.673033999999
 20
1621.012911999999
 30
0.0
  0
POINT
  5
7F7F
  8
DEFPOINTS
  6
CONTINUOUS
 62
     0
 10
2383.6730339999999
 20
1810.3916710000001
 30
0.0
  0
POINT
  5
7F80
  8
DEFPOINTS
  6
CONTINUOUS
 62
     0
 10
2383.6730339999999
 20
1604.6614119999999
 30
0.0
  0
ENDBLK
  5
7E29
  8
0
  0
BLOCK
  8
0
  2
*D7
 70
     1
 10
0.0
 20
0.0
 30
0.0
  3
*D7
  1

  0
LINE
  5
7EE7
  8
0
  6
BYBLOCK
 62
     0
 10
3075.3728799999999
 20
1800.3916710000001
 30
0.0
 11
3075.3728799999999
 21
1631.1028369999999
 31
0.0
  0
LINE
  5
7EE8
  8
0
  6
BYBLOCK
 62
     0
 10
3299.372879999999
 20
1647.455303
 30
0.0
 11
3299.372879999999
 21
1671.1028369999999
 31
0.0
  0
LINE
  5
7EE9
  8
0
  6
BYBLOCK
 62
     0
 10
3115.3728799999999
 20
1651.102836999999
 30
0.0
 11
3259.3728799999999
 21
1651.102836999999
 31
0.0
  0
TEXT
  5
7EEA
  8
3
 62
     0
 10
3108.801451428571
 20
1668.9261195600541
 30
0.0
 40
60.0
  1
224
  0
INSERT
  5
7EEB
  8
0
  6
BYBLOCK
 62
     0
  2
_OPEN
 10
3075.3728799999999
 20
1651.102836999999
 30
0.0
 41
40.0
 42
40.0
 43
40.0
 50
180.0
  0
INSERT
  5
7EEC
  8
0
  6
BYBLOCK
 62
     0
  2
_OPEN
 10
3299.372879999999
 20
1651.102836999999
 30
0.0
 41
40.0
 42
40.0
 43
40.0
  0
POINT
  5
7EED
  8
DEFPOINTS
  6
BYBLOCK
 62
     0
 10
3075.3728799999999
 20
1810.3916710000001
 30
0.0
  0
POINT
  5
7EEE
  8
DEFPOINTS
  6
BYBLOCK
 62
     0
 10
3299.372879999999
 20
1637.455303
 30
0.0
  0
POINT
  5
7EEF
  8
DEFPOINTS
  6
BYBLOCK
 62
     0
 10
3299.372879999999
 20
1651.102836999999
 30
0.0
  0
ENDBLK
  5
7EF0
  8
0
  0
BLOCK
  8
0
  2
*D8
 70
     1
 10
0.0
 20
0.0
 30
0.0
  3
*D8
  1

  0
LINE
  5
7F81
  8
3
  6
CONTINUOUS
 62
     0
 10
3523.3728799999999
 20
1800.3916710000001
 30
0.0
 11
3523.3728799999999
 21
1631.1028369999999
 31
0.0
  0
LINE
  5
7F82
  8
3
  6
CONTINUOUS
 62
     0
 10
3339.372879999999
 20
1651.102836999999
 30
0.0
 11
3483.3728799999999
 21
1651.102836999999
 31
0.0
  0
TEXT
  8
3
  40
60
  5
7FDD
  62
0
  72
0
  71
0
 10
3286.19
 20
1594.28
 30
0.000000
  1
224
  0
INSERT
  5
7F84
  8
3
  6
CONTINUOUS
 62
     0
  2
_OPEN
 10
3299.372879999999
 20
1651.102836999999
 30
0.0
 41
40.0
 42
40.0
 43
40.0
 50
180.0
  0
INSERT
  5
7F85
  8
3
  6
CONTINUOUS
 62
     0
  2
_OPEN
 10
3523.3728799999999
 20
1651.102836999999
 30
0.0
 41
40.0
 42
40.0
 43
40.0
  0
POINT
  5
7F86
  8
DEFPOINTS
  6
CONTINUOUS
 62
     0
 10
3299.372879999999
 20
1637.455303
 30
0.0
  0
POINT
  5
7F87
  8
DEFPOINTS
  6
CONTINUOUS
 62
     0
 10
3523.3728799999999
 20
1810.3916710000001
 30
0.0
  0
POINT
  5
7F88
  8
DEFPOINTS
  6
CONTINUOUS
 62
     0
 10
3523.3728799999999
 20
1651.102836999999
 30
0.0
  0
ENDBLK
  5
7E9F
  8
0
  0
BLOCK
  8
0
  2
*D9
 70
     1
 10
0.0
 20
0.0
 30
0.0
  3
*D9
  1

  0
LINE
  5
7F89
  8
3
  6
CONTINUOUS
 62
     0
 10
3479.372879999999
 20
2744.3916709999999
 30
0.0
 11
3479.372879999999
 21
2841.1433849999999
 31
0.0
  0
LINE
  5
7F8A
  8
3
  6
CONTINUOUS
 62
     0
 10
3119.3728799999999
 20
2744.3916709999999
 30
0.0
 11
3119.3728799999999
 21
2841.1433849999999
 31
0.0
  0
LINE
  5
7F8B
  8
3
  6
CONTINUOUS
 62
     0
 10
3439.3728799999999
 20
2821.1433849999999
 30
0.0
 11
3159.3728799999999
 21
2821.1433849999999
 31
0.0
  0
INSERT
  5
7F8C
  8
3
  6
CONTINUOUS
 62
     0
  2
_OPEN
 10
3479.372879999999
 20
2821.1433849999999
 30
0.0
 41
40.0
 42
40.0
 43
40.0
  0
INSERT
  5
7F8D
  8
3
  6
CONTINUOUS
 62
     0
  2
_OPEN
 10
3119.3728799999999
 20
2821.1433849999999
 30
0.0
 41
40.0
 42
40.0
 43
40.0
 50
180.0
  0
TEXT
  8
3
  40
60
  5
7FDE
  62
0
  72
0
  71
0
 10
3173.64
 20
2764.94
 30
0.000000
  1
360
  0
POINT
  5
7F8F
  8
DEFPOINTS
  6
CONTINUOUS
 62
     0
 10
3479.372879999999
 20
2734.3916709999999
 30
0.0
  0
POINT
  5
7F90
  8
DEFPOINTS
  6
CONTINUOUS
 62
     0
 10
3119.3728799999999
 20
2734.3916709999999
 30
0.0
  0
POINT
  5
7F91
  8
DEFPOINTS
  6
CONTINUOUS
 62
     0
 10
3119.3728799999999
 20
2821.1433849999999
 30
0.0
  0
ENDBLK
  5
7ECB
  8
0
  0
BLOCK
  8
0
  2
*D10
 70
     1
 10
0.0
 20
0.0
 30
0.0
  3
*D10
  1

  0
LINE
  5
7F92
  8
3
  6
CONTINUOUS
 62
     0
 10
2929.3728799999999
 20
2645.3916709999999
 30
0.0
 11
2929.3728799999999
 21
2967.2117589999989
 31
0.0
  0
LINE
  5
7F93
  8
3
  6
CONTINUOUS
 62
     0
 10
3259.3728799999999
 20
2947.2117589999989
 30
0.0
 11
2969.372879999999
 21
2947.2117589999989
 31
0.0
  0
INSERT
  5
7F94
  8
3
  6
CONTINUOUS
 62
     0
  2
_OPEN
 10
3299.372879999999
 20
2947.2117589999989
 30
0.0
 41
40.0
 42
40.0
 43
40.0
  0
INSERT
  5
7F95
  8
3
  6
CONTINUOUS
 62
     0
  2
_OPEN
 10
2929.3728799999999
 20
2947.2117589999989
 30
0.0
 41
40.0
 42
40.0
 43
40.0
 50
180.0
  0
TEXT
  8
3
  40
60
  5
7FDF
  62
0
  72
0
  71
0
 10
2994.37
 20
2941.01
 30
0.000000
  1
MAX
  0
TEXT
  8
3
  40
60
  5
7FE0
  62
0
  72
0
  71
0
 10
2994.37
 20
2863.01
 30
0.000000
  1
430
  0
POINT
  5
7F97
  8
DEFPOINTS
  6
CONTINUOUS
 62
     0
 10
3299.372879999999
 20
2910.2309949999999
 30
0.0
  0
POINT
  5
7F98
  8
DEFPOINTS
  6
CONTINUOUS
 62
     0
 10
2929.3728799999999
 20
2635.3916709999999
 30
0.0
  0
POINT
  5
7F99
  8
DEFPOINTS
  6
CONTINUOUS
 62
     0
 10
2929.3728799999999
 20
2947.2117589999989
 30
0.0
  0
ENDBLK
  5
7F28
  8
0
  0
BLOCK
  8
0
  2
*D11
 70
     1
 10
0.0
 20
0.0
 30
0.0
  3
*D11
  1

  0
LINE
  5
7F9A
  8
3
  6
CONTINUOUS
 62
     0
 10
1263.673033999999
 20
4082.521671
 30
0.0
 11
1263.673033999999
 21
4245.2067700000007
 31
0.0
  0
LINE
  5
7F9B
  8
3
  6
CONTINUOUS
 62
     0
 10
2383.6730339999999
 20
4082.521671
 30
0.0
 11
2383.6730339999999
 21
4245.2067700000007
 31
0.0
  0
LINE
  5
7F9C
  8
3
  6
CONTINUOUS
 62
     0
 10
1303.6730339999999
 20
4225.2067699999998
 30
0.0
 11
2343.6730339999999
 21
4225.2067699999998
 31
0.0
  0
INSERT
  5
7F9D
  8
3
  6
CONTINUOUS
 62
     0
  2
_OPEN
 10
1263.673033999999
 20
4225.2067699999998
 30
0.0
 41
40.0
 42
40.0
 43
40.0
 50
180.0
  0
INSERT
  5
7F9E
  8
3
  6
CONTINUOUS
 62
     0
  2
_OPEN
 10
2383.6730339999999
 20
4225.2067699999998
 30
0.0
 41
40.0
 42
40.0
 43
40.0
  0
TEXT
  8
3
  40
60
  5
7FE1
  62
0
  72
0
  71
0
 10
1629.88
 20
4169.01
 30
0.000000
  1
1120
  0
POINT
  5
7FA0
  8
DEFPOINTS
  6
CONTINUOUS
 62
     0
 10
1263.673033999999
 20
4072.5216709999991
 30
0.0
  0
POINT
  5
7FA1
  8
DEFPOINTS
  6
CONTINUOUS
 62
     0
 10
2383.6730339999999
 20
4072.5216709999991
 30
0.0
  0
POINT
  5
7FA2
  8
DEFPOINTS
  6
CONTINUOUS
 62
     0
 10
2383.6730339999999
 20
4225.2067699999998
 30
0.0
  0
ENDBLK
  5
7E6A
  8
0
  0
BLOCK
  8
0
  2
*D12
 70
     1
 10
0.0
 20
0.0
 30
0.0
  3
*D12
  1

  0
LINE
  5
7FA3
  8
3
  6
CONTINUOUS
 62
     0
 10
2393.6730339999999
 20
4072.5216709999991
 30
0.0
 11
2590.9088299999999
 21
4072.5216709999991
 31
0.0
  0
LINE
  5
7FA4
  8
3
  6
CONTINUOUS
 62
     0
 10
2393.6730339999999
 20
3624.521671
 30
0.0
 11
2590.9088299999999
 21
3624.521671
 31
0.0
  0
LINE
  5
7FA5
  8
3
  6
CONTINUOUS
 62
     0
 10
2570.9088299999999
 20
4032.521671
 30
0.0
 11
2570.9088299999999
 21
3664.521671
 31
0.0
  0
INSERT
  5
7FA6
  8
3
  6
CONTINUOUS
 62
     0
  2
_OPEN
 10
2570.9088299999999
 20
4072.5216709999991
 30
0.0
 41
40.0
 42
40.0
 43
40.0
 50
90.0
  0
INSERT
  5
7FA7
  8
3
  6
CONTINUOUS
 62
     0
  2
_OPEN
 10
2570.9088299999999
 20
3624.521671
 30
0.0
 41
40.0
 42
40.0
 43
40.0
 50
270.0
  0
TEXT
  8
3
  40
60
  5
7FE2
  62
0
  72
0
  71
0
 10
2400.91
 20
3735.48
 30
0.000000
  1
448
  0
POINT
  5
7FA9
  8
DEFPOINTS
  6
CONTINUOUS
 62
     0
 10
2383.6730339999999
 20
4072.5216709999991
 30
0.0
  0
POINT
  5
7FAA
  8
DEFPOINTS
  6
CONTINUOUS
 62
     0
 10
2383.6730339999999
 20
3624.521671
 30
0.0
  0
POINT
  5
7FAB
  8
DEFPOINTS
  6
CONTINUOUS
 62
     0
 10
2570.9088299999999
 20
3624.521671
 30
0.0
  0
ENDBLK
  5
7E75
  8
0
  0
BLOCK
  8
0
  2
*D13
 70
     1
 10
0.0
 20
0.0
 30
0.0
  3
*D13
  1

  0
LINE
  5
7FAC
  8
3
  6
CONTINUOUS
 62
     0
 10
1198.6730339999999
 20
2724.3916709999999
 30
0.0
 11
822.6989600000004
 21
2724.3916710000012
 31
0.0
  0
LINE
  5
7FAD
  8
3
  6
CONTINUOUS
 62
     0
 10
1253.6730339999999
 20
1810.3916710000001
 30
0.0
 11
822.69896000000028
 21
1810.3916710000001
 31
0.0
  0
LINE
  5
7FAE
  8
3
  6
CONTINUOUS
 62
     0
 10
842.6989600000004
 20
2684.3916710000012
 30
0.0
 11
842.69896000000017
 21
1850.3916710000001
 31
0.0
  0
INSERT
  5
7FAF
  8
3
  6
CONTINUOUS
 62
     0
  2
_OPEN
 10
842.6989600000004
 20
2724.3916710000012
 30
0.0
 41
40.0
 42
40.0
 43
40.0
 50
90.0
  0
INSERT
  5
7FB0
  8
3
  6
CONTINUOUS
 62
     0
  2
_OPEN
 10
842.69896000000017
 20
1810.3916710000001
 30
0.0
 41
40.0
 42
40.0
 43
40.0
 50
270.0
  0
TEXT
  8
3
  40
60
  5
7FE3
  62
0
  72
0
  71
0
 10
672.699
 20
2105.25
 30
0.000000
  1
914
  0
POINT
  5
7FB2
  8
DEFPOINTS
  6
CONTINUOUS
 62
     0
 10
1208.6730339999999
 20
2724.3916709999999
 30
0.0
  0
POINT
  5
7FB3
  8
DEFPOINTS
  6
CONTINUOUS
 62
     0
 10
1263.673033999999
 20
1810.3916710000001
 30
0.0
  0
POINT
  5
7FB4
  8
DEFPOINTS
  6
CONTINUOUS
 62
     0
 10
842.69896000000017
 20
1810.3916710000001
 30
0.0
  0
ENDBLK
  5
7E5F
  8
0
  0
BLOCK
  8
0
  2
*D14
 70
     1
 10
0.0
 20
0.0
 30
0.0
  3
*D14
  1

  0
LINE
  5
7FB5
  8
3
  6
CONTINUOUS
 62
     0
 10
1973.6730339999999
 20
2610.3916709999999
 30
0.0
 11
1973.6730339999999
 21
2825.0213829999998
 31
0.0
  0
LINE
  5
7FB6
  8
3
  6
CONTINUOUS
 62
     0
 10
1603.673033999999
 20
2805.0213829999989
 30
0.0
 11
1933.673033999999
 21
2805.0213829999989
 31
0.0
  0
INSERT
  5
7FB7
  8
3
  6
CONTINUOUS
 62
     0
  2
_OPEN
 10
1563.673033999999
 20
2805.0213829999989
 30
0.0
 41
40.0
 42
40.0
 43
40.0
 50
180.0
  0
INSERT
  5
7FB8
  8
3
  6
CONTINUOUS
 62
     0
  2
_OPEN
 10
1973.6730339999999
 20
2805.0213829999989
 30
0.0
 41
40.0
 42
40.0
 43
40.0
  0
TEXT
  8
3
  40
60
  5
7FE4
  62
0
  72
0
  71
0
 10
1648.67
 20
2748.82
 30
0.000000
  1
410
  0
POINT
  5
7FBA
  8
DEFPOINTS
  6
CONTINUOUS
 62
     0
 10
1563.673033999999
 20
2775.9122425101882
 30
0.0
  0
POINT
  5
7FBB
  8
DEFPOINTS
  6
CONTINUOUS
 62
     0
 10
1973.6730339999999
 20
2600.3916709999999
 30
0.0
  0
POINT
  5
7FBC
  8
DEFPOINTS
  6
CONTINUOUS
 62
     0
 10
1973.6730339999999
 20
2805.0213829999989
 30
0.0
  0
ENDBLK
  5
7F05
  8
0
  0
BLOCK
  8
0
  2
*D15
 70
     1
 10
0.0
 20
0.0
 30
0.0
  3
*D15
  1

  0
LINE
  5
7FBD
  8
3
  6
CONTINUOUS
 62
     0
 10
3490.3728799999999
 20
2495.3916709999999
 30
0.0
 11
3711.3329610000001
 21
2495.3916709999999
 31
0.0
  0
LINE
  5
7FBE
  8
3
  6
CONTINUOUS
 62
     0
 10
3490.3728799999999
 20
1995.3916710000001
 30
0.0
 11
3711.3329610000001
 21
1995.391670999999
 31
0.0
  0
LINE
  5
7FBF
  8
3
  6
CONTINUOUS
 62
     0
 10
3691.3329610000001
 20
2455.3916709999999
 30
0.0
 11
3691.3329610000001
 21
2035.3916710000001
 31
0.0
  0
INSERT
  5
7FC0
  8
3
  6
CONTINUOUS
 62
     0
  2
_OPEN
 10
3691.3329610000001
 20
2495.3916709999999
 30
0.0
 41
40.0
 42
40.0
 43
40.0
 50
90.0
  0
INSERT
  5
7FC1
  8
3
  6
CONTINUOUS
 62
     0
  2
_OPEN
 10
3691.3329610000001
 20
1995.391670999999
 30
0.0
 41
40.0
 42
40.0
 43
40.0
 50
270.0
  0
TEXT
  8
3
  40
60
  5
7FE5
  62
0
  72
0
  71
0
 10
3521.33
 20
2122.97
 30
0.000000
  1
φ500
  0
POINT
  5
7FC3
  8
DEFPOINTS
  6
CONTINUOUS
 62
     0
 10
3480.3728799999999
 20
2495.3916709999999
 30
0.0
  0
POINT
  5
7FC4
  8
DEFPOINTS
  6
CONTINUOUS
 62
     0
 10
3480.3728799999999
 20
1995.3916710000001
 30
0.0
  0
POINT
  5
7FC5
  8
DEFPOINTS
  6
CONTINUOUS
 62
     0
 10
3691.3329610000001
 20
1995.391670999999
 30
0.0
  0
ENDBLK
  5
7EFB
  8
0
  0
BLOCK
  8
0
  2
*D16
 70
     1
 10
0.0
 20
0.0
 30
0.0
  3
*D16
  1

  0
LINE
  5
7FC6
  8
3
  6
CONTINUOUS
 62
     0
 10
3480.3728799999999
 20
2505.3916709999999
 30
0.0
 11
3480.3728799999999
 21
2967.2117589999989
 31
0.0
  0
LINE
  5
7FC7
  8
3
  6
CONTINUOUS
 62
     0
 10
3339.372879999999
 20
2947.2117589999989
 30
0.0
 11
3440.3728799999999
 21
2947.2117589999989
 31
0.0
  0
TEXT
  8
3
  40
60
  5
7FE6
  62
0
  72
0
  71
0
 10
3267.89
 20
2889.95
 30
0.000000
  1
181
  0
INSERT
  5
7FC9
  8
3
  6
CONTINUOUS
 62
     0
  2
_OPEN
 10
3299.372879999999
 20
2947.2117589999989
 30
0.0
 41
40.0
 42
40.0
 43
40.0
 50
180.0
  0
INSERT
  5
7FCA
  8
3
  6
CONTINUOUS
 62
     0
  2
_OPEN
 10
3480.3728799999999
 20
2947.2117589999989
 30
0.0
 41
40.0
 42
40.0
 43
40.0
  0
POINT
  5
7FCB
  8
DEFPOINTS
  6
CONTINUOUS
 62
     0
 10
3299.372879999999
 20
2910.2309949999999
 30
0.0
  0
POINT
  5
7FCC
  8
DEFPOINTS
  6
CONTINUOUS
 62
     0
 10
3480.3728799999999
 20
2495.3916709999999
 30
0.0
  0
POINT
  5
7FCD
  8
DEFPOINTS
  6
CONTINUOUS
 62
     0
 10
3480.3728799999999
 20
2947.2117589999989
 30
0.0
  0
ENDBLK
  5
7EB6
  8
0
  0
BLOCK
  8
0
  2
*D17
 70
     1
 10
0.0
 20
0.0
 30
0.0
  3
*D17
  1

  0
LINE
  5
7FCE
  8
3
 62
     0
 10
1208.6730339999999
 20
2734.3916709999999
 30
0.0
 11
1208.6730339999999
 21
2954.808327142684
 31
0.0
  0
LINE
  5
7FCF
  8
3
 62
     0
 10
2383.6730339999999
 20
1900.3916710000001
 30
0.0
 11
2383.6730339999999
 21
2954.808327142684
 31
0.0
  0
LINE
  5
7FD0
  8
3
 62
     0
 10
1248.6730339999999
 20
2934.808327142684
 30
0.0
 11
2343.6730339999999
 21
2934.808327142684
 31
0.0
  0
INSERT
  5
7FD1
  8
3
 62
     0
  2
_OPEN
 10
1208.6730339999999
 20
2934.808327142684
 30
0.0
 41
40.0
 42
40.0
 43
40.0
 50
180.0
  0
INSERT
  5
7FD2
  8
3
 62
     0
  2
_OPEN
 10
2383.6730339999999
 20
2934.808327142684
 30
0.0
 41
40.0
 42
40.0
 43
40.0
  0
TEXT
  8
3
  40
60
  5
7FE7
  62
0
  72
0
  71
0
 10
1675.59
 20
2878.61
 30
0.000000
  1
1175
  0
POINT
  5
7FD4
  8
DEFPOINTS
 62
     0
 10
1208.6730339999999
 20
2724.3916709999999
 30
0.0
  0
POINT
  5
7FD5
  8
DEFPOINTS
 62
     0
 10
2383.6730339999999
 20
1890.3916710000001
 30
0.0
  0
POINT
  5
7FD6
  8
DEFPOINTS
 62
     0
 10
2383.6730339999999
 20
2934.808327142684
 30
0.0
  0
ENDBLK
  5
7F1D
  8
0
  0
ENDSEC
  0
SECTION
  2
ENTITIES
  0
CIRCLE
  5
7AAE
  8
1
  6
CONTINUOUS
 10
1563.673033999999
 20
2245.3916709999999
 30
0.0
 40
275.0
  0
LINE
  5
7AAF
  8
1
  6
CONTINUOUS
 10
1973.6730339999999
 20
2600.3916709999999
 30
0.0
 11
1253.6730339999999
 21
2600.3916709999999
 31
0.0
  0
ARC
  5
7AB0
  8
1
  6
CONTINUOUS
 10
1590.673033999999
 20
2272.3916709999999
 30
0.0
 40
380.98000000000002
 50
261.52999999999992
 51
355.16000000000003
  0
ARC
  5
7AB1
  8
1
  6
CONTINUOUS
 10
1540.5934050000001
 20
2275.8550890000001
 30
0.0
 40
431.17249299999992
 50
355.26344499999999
 51
86.879466000000008
  0
LINE
  5
7AB2
  8
1
  6
CONTINUOUS
 10
1971.863034
 20
3666.521671
 30
0.0
 11
1208.6730339999999
 21
3666.521671
 31
0.0
  0
LINE
  5
7AB3
  8
1
  6
CONTINUOUS
 10
1971.863034
 20
4030.521671
 30
0.0
 11
1208.6730339999999
 21
4030.521671
 31
0.0
  0
LINE
  5
7AB4
  8
1
  6
CONTINUOUS
 10
2383.6730339999999
 20
1810.3916710000001
 30
0.0
 11
1263.673033999999
 21
1810.3916710000001
 31
0.0
  0
LINE
  5
7AB5
  8
1
  6
CONTINUOUS
 10
2383.6730339999999
 20
1890.3916710000001
 30
0.0
 11
1253.6730339999999
 21
1890.3916710000001
 31
0.0
  0
LINE
  5
7AB6
  8
1
  6
CONTINUOUS
 10
2383.6730339999999
 20
4072.5216709999991
 30
0.0
 11
1263.673033999999
 21
4072.5216709999991
 31
0.0
  0
LINE
  5
7AB7
  8
1
  6
CONTINUOUS
 10
2144.673033999999
 20
3624.521671
 30
0.0
 11
1582.673033999999
 21
3624.521671
 31
0.0
  0
ARC
  5
7AB8
  8
1
  6
CONTINUOUS
 10
1590.673033999999
 20
2272.3916709999999
 30
0.0
 40
380.98000000000002
 50
261.52999999999992
 51
355.16000000000003
  0
LINE
  5
7AC0
  8
1
  6
CONTINUOUS
 10
1607.843034
 20
2356.961671
 30
0.0
 11
2185.7630340000001
 21
2128.1816709999998
 31
0.0
  0
LINE
  5
7AC1
  8
1
  6
CONTINUOUS
 10
2152.6630340000002
 20
2013.4116710000001
 30
0.0
 11
1541.663033999999
 21
2127.4316709999998
 31
0.0
  0
LINE
  5
7AC2
  8
1
  6
CONTINUOUS
 10
1338.173033999999
 20
3478.521671
 30
0.0
 11
2338.173033999999
 21
3478.521671
 31
0.0
  0
LINE
  5
7AC3
  8
1
  6
CONTINUOUS
 10
2338.173033999999
 20
3598.521671
 30
0.0
 11
1338.173033999999
 21
3598.521671
 31
0.0
  0
ARC
  5
7AC4
  8
1
  6
CONTINUOUS
 10
1594.134176999999
 20
2234.2626620000001
 30
0.0
 40
343.89392400000003
 50
181.14027899999991
 51
260.02361200000001
  0
LINE
  5
7AC5
  8
1
  6
CONTINUOUS
 10
1208.6730339999999
 20
2707.3916709999999
 30
0.0
 11
1564.053034
 21
2706.3916709999999
 31
0.0
  0
LINE
  5
7AC6
  8
1
  6
CONTINUOUS
 10
1250.303034
 20
2227.3916709999999
 30
0.0
 11
1208.6730339999999
 21
2227.3916709999999
 31
0.0
  0
LINE
  5
7AC7
  8
1
  6
CONTINUOUS
 10
1208.6730339999999
 20
2724.3916709999999
 30
0.0
 11
1208.6730339999999
 21
2210.3916709999999
 31
0.0
  0
LINE
  5
7AC8
  8
1
  6
CONTINUOUS
 10
1253.6730339999999
 20
2600.3916709999999
 30
0.0
 11
1253.6730339999999
 21
1890.3916710000001
 31
0.0
  0
LINE
  5
7AC9
  8
1
  6
CONTINUOUS
 10
1233.673033999999
 20
2227.3916709999999
 30
0.0
 11
1233.673033999999
 21
2707.3216710000002
 31
0.0
  0
LINE
  5
7ACA
  8
2
  6
CENTER
 10
1563.673033999999
 20
4211.2781809999997
 30
0.0
 11
1563.673033999999
 21
3384.254821999999
 31
0.0
  0
CIRCLE
  5
7ACB
  8
1
  6
CONTINUOUS
 10
1563.673033999999
 20
2245.3916709999999
 30
0.0
 40
120.0
  0
CIRCLE
  5
7ACC
  8
1
  6
CONTINUOUS
 10
1563.673033999999
 20
2245.3916709999999
 30
0.0
 40
250.0
  0
LINE
  5
7ACD
  8
2
  6
CENTER
 10
3528.8793567381872
 20
2245.3916709999999
 30
0.0
 11
2898.2216053801421
 21
2245.3916709999999
 31
0.0
  0
LINE
  5
7ACE
  8
1
  6
CONTINUOUS
 10
1263.673033999999
 20
1890.3916710000001
 30
0.0
 11
1263.673033999999
 21
1810.3916710000001
 31
0.0
  0
LINE
  5
7ACF
  8
1
  6
CONTINUOUS
 10
1208.6730339999999
 20
3641.521671
 30
0.0
 11
1208.6730339999999
 21
4055.521671
 31
0.0
  0
LINE
  5
7AD0
  8
1
  6
CONTINUOUS
 10
1683.673033999999
 20
3508.521671
 30
0.0
 11
1443.673033999999
 21
3508.521671
 31
0.0
  0
LINE
  5
7AD1
  8
1
  6
CONTINUOUS
 10
1544.6730339999999
 20
3624.521671
 30
0.0
 11
1263.673033999999
 21
3624.521671
 31
0.0
  0
LINE
  5
7AD2
  8
1
  6
CONTINUOUS
 10
1443.673033999999
 20
3568.521671
 30
0.0
 11
1683.673033999999
 21
3568.521671
 31
0.0
  0
LINE
  5
7AD3
  8
1
  6
CONTINUOUS
 10
1233.673033999999
 20
3666.521671
 30
0.0
 11
1233.673033999999
 21
4030.521671
 31
0.0
  0
LINE
  5
7AD4
  8
1
  6
CONTINUOUS
 10
1263.673033999999
 20
3666.521671
 30
0.0
 11
1263.673033999999
 21
3624.521671
 31
0.0
  0
LINE
  5
7AD5
  8
1
  6
CONTINUOUS
 10
1338.173033999999
 20
3598.521671
 30
0.0
 11
1338.173033999999
 21
3478.521671
 31
0.0
  0
LINE
  5
7AD6
  8
1
  6
CONTINUOUS
 10
1443.673033999999
 20
3508.521671
 30
0.0
 11
1443.673033999999
 21
3568.521671
 31
0.0
  0
LINE
  5
7AD7
  8
1
  6
CONTINUOUS
 10
1263.673033999999
 20
4072.5216709999991
 30
0.0
 11
1263.673033999999
 21
4030.521671
 31
0.0
  0
LINE
  5
7AD8
  8
1
  6
CONTINUOUS
 10
1544.6730339999999
 20
3568.521671
 30
0.0
 11
1544.6730339999999
 21
3666.521671
 31
0.0
  0
LINE
  5
7AD9
  8
1
  6
CONTINUOUS
 10
1582.673033999999
 20
3568.521671
 30
0.0
 11
1582.673033999999
 21
3666.521671
 31
0.0
  0
LINE
  5
7ADA
  8
1
  6
CONTINUOUS
 10
1683.673033999999
 20
3508.521671
 30
0.0
 11
1683.673033999999
 21
3568.521671
 31
0.0
  0
LINE
  5
7AE8
  8
1
  6
CONTINUOUS
 10
1973.6730339999999
 20
2600.3916709999999
 30
0.0
 11
1973.6730339999999
 21
1890.3916710000001
 31
0.0
  0
CIRCLE
  5
7AE9
  8
1
  6
CONTINUOUS
 10
2163.673033999999
 20
2072.3916709999999
 30
0.0
 40
60.0
  0
LINE
  5
7AEA
  8
2
  6
CENTER
 10
2223.6730339999999
 20
2072.3916709999999
 30
0.0
 11
2103.673033999999
 21
2072.3916709999999
 31
0.0
  0
LINE
  5
7AEB
  8
1
  6
CONTINUOUS
 10
2296.9530340000001
 20
1940.3916710000001
 30
0.0
 11
2036.9530339999999
 21
1940.3916710000001
 31
0.0
  0
ARC
  5
7AEC
  8
1
  6
CONTINUOUS
 10
2166.9530340000001
 20
2072.3916709999999
 30
0.0
 40
122.0
 50
324.60000000000002
 51
215.39999999999989
  0
LINE
  5
7AED
  8
1
  6
CONTINUOUS
 10
2036.9530339999999
 20
1890.3916710000001
 30
0.0
 11
2036.9530339999999
 21
1940.3916710000001
 31
0.0
  0
LINE
  5
7AEE
  8
1
  6
CONTINUOUS
 10
2036.9530339999999
 20
1940.3916710000001
 30
0.0
 11
2086.9530339999992
 21
1940.3916710000001
 31
0.0
  0
LINE
  5
7AEF
  8
1
  6
CONTINUOUS
 10
2036.9530339999999
 20
1940.3916710000001
 30
0.0
 11
2067.5130340000001
 21
2001.711671
 31
0.0
  0
LINE
  5
7AF0
  8
1
  6
CONTINUOUS
 10
2296.9530340000001
 20
1890.3916710000001
 30
0.0
 11
2296.9530340000001
 21
1940.3916710000001
 31
0.0
  0
LINE
  5
7AF1
  8
1
  6
CONTINUOUS
 10
2383.6730339999999
 20
1890.3916710000001
 30
0.0
 11
2383.6730339999999
 21
1810.3916710000001
 31
0.0
  0
LINE
  5
7AF2
  8
1
  6
CONTINUOUS
 10
2296.9530340000001
 20
1940.3916710000001
 30
0.0
 11
2266.4030339999999
 21
2001.711671
 31
0.0
  0
LINE
  5
7AF3
  8
1
  6
CONTINUOUS
 10
2296.9530340000001
 20
1940.3916710000001
 30
0.0
 11
2246.9530340000001
 21
1940.3916710000001
 31
0.0
  0
LINE
  5
7AF4
  8
2
  6
CENTER
 10
2163.673033999999
 20
2012.3916710000001
 30
0.0
 11
2163.673033999999
 21
2132.3916709999999
 31
0.0
  0
LINE
  5
7B0F
  8
1
  6
CONTINUOUS
 10
3075.3728799999999
 20
1890.3916710000001
 30
0.0
 11
3523.3728799999999
 21
1890.3916710000001
 31
0.0
  0
LINE
  5
7B10
  8
1
  6
CONTINUOUS
 10
3075.3728799999999
 20
1810.3916710000001
 30
0.0
 11
3523.3728799999999
 21
1810.3916710000001
 31
0.0
  0
LINE
  5
7B11
  8
1
  6
CONTINUOUS
 10
3119.3728799999999
 20
2200.3916709999999
 30
0.0
 11
3479.372879999999
 21
2200.3916709999999
 31
0.0
  0
LINE
  5
7B12
  8
1
  6
CONTINUOUS
 10
3479.372879999999
 20
2734.3916709999999
 30
0.0
 11
3119.3728799999999
 21
2734.3916709999999
 31
0.0
  0
LINE
  5
7B13
  8
1
  6
CONTINUOUS
 10
3479.372879999999
 20
2200.3916709999999
 30
0.0
 11
3119.3728799999999
 21
2734.3916709999999
 31
0.0
  0
LINE
  5
7B14
  8
1
  6
CONTINUOUS
 10
3119.3728799999999
 20
2200.3916709999999
 30
0.0
 11
3479.372879999999
 21
2734.3916709999999
 31
0.0
  0
LINE
  5
7B15
  8
1
  6
CONTINUOUS
 10
2959.3728799999999
 20
2365.3916709999999
 30
0.0
 11
2959.3728799999999
 21
2125.3916709999999
 31
0.0
  0
LINE
  5
7B16
  8
1
  6
CONTINUOUS
 10
3119.3728799999999
 20
2734.3916709999999
 30
0.0
 11
3119.3728799999999
 21
1890.3916710000001
 31
0.0
  0
LINE
  5
7B17
  8
1
  6
CONTINUOUS
 10
3019.3728799999999
 20
2125.3916709999999
 30
0.0
 11
3019.3728799999999
 21
2365.3916709999999
 31
0.0
  0
LINE
  5
7B18
  8
1
  6
CONTINUOUS
 10
2929.3728799999999
 20
1890.3916710000001
 30
0.0
 11
2929.3728799999999
 21
2635.3916709999999
 31
0.0
  0
LINE
  5
7B19
  8
1
  6
CONTINUOUS
 10
3049.372879999999
 20
2635.3916709999999
 30
0.0
 11
3049.372879999999
 21
1890.3916710000001
 31
0.0
  0
LINE
  5
7B1A
  8
1
  6
CONTINUOUS
 10
3049.372879999999
 20
1890.3916710000001
 30
0.0
 11
2929.3728799999999
 21
1890.3916710000001
 31
0.0
  0
LINE
  5
7B1B
  8
1
  6
CONTINUOUS
 10
3075.3728799999999
 20
1890.3916710000001
 30
0.0
 11
3075.3728799999999
 21
1810.3916710000001
 31
0.0
  0
LINE
  5
7B1C
  8
1
  6
CONTINUOUS
 10
3019.3728799999999
 20
2264.3916709999999
 30
0.0
 11
3119.3728799999999
 21
2264.3916709999999
 31
0.0
  0
LINE
  5
7B1D
  8
1
  6
CONTINUOUS
 10
3019.3728799999999
 20
2226.3916709999999
 30
0.0
 11
3119.3728799999999
 21
2226.3916709999999
 31
0.0
  0
LINE
  5
7B1E
  8
1
  6
CONTINUOUS
 10
3019.3728799999999
 20
2053.3916709999999
 30
0.0
 11
3119.3728799999999
 21
2053.3916709999999
 31
0.0
  0
LINE
  5
7B1F
  8
1
  6
CONTINUOUS
 10
3019.3728799999999
 20
2091.3916709999999
 30
0.0
 11
3119.3728799999999
 21
2091.3916709999999
 31
0.0
  0
LINE
  5
7B20
  8
1
  6
CONTINUOUS
 10
3019.3728799999999
 20
2125.3916709999999
 30
0.0
 11
2959.3728799999999
 21
2125.3916709999999
 31
0.0
  0
LINE
  5
7B21
  8
1
  6
CONTINUOUS
 10
2959.3728799999999
 20
2022.3916710000001
 30
0.0
 11
3019.3728799999999
 21
2022.3916710000001
 31
0.0
  0
LINE
  5
7B22
  8
1
  6
CONTINUOUS
 10
3019.3728799999999
 20
2122.3916709999999
 30
0.0
 11
2959.3728799999999
 21
2122.3916709999999
 31
0.0
  0
LINE
  5
7B23
  8
1
  6
CONTINUOUS
 10
2959.3728799999999
 20
2122.3916709999999
 30
0.0
 11
2959.3728799999999
 21
2022.3916710000001
 31
0.0
  0
LINE
  5
7B24
  8
1
  6
CONTINUOUS
 10
3019.3728799999999
 20
2022.3916710000001
 30
0.0
 11
3019.3728799999999
 21
2122.3916709999999
 31
0.0
  0
LINE
  5
7B25
  8
1
  6
CONTINUOUS
 10
2929.3728799999999
 20
2635.3916709999999
 30
0.0
 11
3049.372879999999
 21
2635.3916709999999
 31
0.0
  0
LINE
  5
7B26
  8
1
  6
CONTINUOUS
 10
3019.3728799999999
 20
2365.3916709999999
 30
0.0
 11
2959.3728799999999
 21
2365.3916709999999
 31
0.0
  0
LINE
  5
7B27
  8
1
  6
CONTINUOUS
 10
3479.372879999999
 20
2734.3916709999999
 30
0.0
 11
3479.372879999999
 21
1890.3916710000001
 31
0.0
  0
LINE
  5
7B28
  8
1
  6
CONTINUOUS
 10
3523.3728799999999
 20
1890.3916710000001
 30
0.0
 11
3523.3728799999999
 21
1810.3916710000001
 31
0.0
  0
LINE
  5
7B2F
  8
1
  6
CONTINUOUS
 10
2285.673033999999
 20
3648.7616710000002
 30
0.0
 11
2041.673033999999
 21
3648.7616710000002
 31
0.0
  0
LINE
  5
7B30
  8
1
  6
CONTINUOUS
 10
2285.673033999999
 20
3998.7616710000002
 30
0.0
 11
2041.673033999999
 21
3998.7616710000002
 31
0.0
  0
LINE
  5
7B31
  8
1
  6
CONTINUOUS
 10
2213.6730339999999
 20
3508.521671
 30
0.0
 11
2113.6730339999999
 21
3508.521671
 31
0.0
  0
LINE
  5
7B32
  8
1
  6
CONTINUOUS
 10
2113.6730339999999
 20
3568.521671
 30
0.0
 11
2213.6730339999999
 21
3568.521671
 31
0.0
  0
LINE
  5
7B33
  8
1
  6
CONTINUOUS
 10
1971.863034
 20
3666.521671
 30
0.0
 11
1971.863034
 21
4030.521671
 31
0.0
  0
LINE
  5
7B34
  8
1
  6
CONTINUOUS
 10
2041.673033999999
 20
3648.7616710000002
 30
0.0
 11
2041.673033999999
 21
3998.7616710000002
 31
0.0
  0
LINE
  5
7B35
  8
1
  6
CONTINUOUS
 10
2113.6730339999999
 20
3508.521671
 30
0.0
 11
2113.6730339999999
 21
3568.521671
 31
0.0
  0
LINE
  5
7B36
  8
1
  6
CONTINUOUS
 10
2383.6730339999999
 20
4072.5216709999991
 30
0.0
 11
2383.6730339999999
 21
3624.521671
 31
0.0
  0
LINE
  5
7B37
  8
1
  6
CONTINUOUS
 10
2285.673033999999
 20
3648.7616710000002
 30
0.0
 11
2285.673033999999
 21
3998.7616710000002
 31
0.0
  0
LINE
  5
7B38
  8
1
  6
CONTINUOUS
 10
2383.6730339999999
 20
3624.521671
 30
0.0
 11
2182.6730339999999
 21
3624.521671
 31
0.0
  0
LINE
  5
7B39
  8
1
  6
CONTINUOUS
 10
2182.6730339999999
 20
3568.521671
 30
0.0
 11
2182.6730339999999
 21
3648.7616710000002
 31
0.0
  0
LINE
  5
7B3A
  8
1
  6
CONTINUOUS
 10
2144.673033999999
 20
3568.521671
 30
0.0
 11
2144.673033999999
 21
3648.7616710000002
 31
0.0
  0
LINE
  5
7B3B
  8
1
  6
CONTINUOUS
 10
2213.6730339999999
 20
3568.521671
 30
0.0
 11
2213.6730339999999
 21
3508.521671
 31
0.0
  0
LINE
  5
7B3C
  8
1
  6
CONTINUOUS
 10
2338.173033999999
 20
3478.521671
 30
0.0
 11
2338.173033999999
 21
3598.521671
 31
0.0
  0
LINE
  5
7B57
  8
2
  6
CENTER
 10
3299.372879999999
 20
2771.1676670000002
 30
0.0
 11
3299.372879999999
 21
1637.455303
 31
0.0
  0
LINE
  5
7B58
  8
2
  6
CENTER
 10
2427.117416
 20
3848.521671
 30
0.0
 11
1116.3544220000001
 21
3848.521671
 31
0.0
  0
LINE
  5
7B59
  8
2
  6
CENTER
 10
1563.673033999999
 20
2775.9122425101882
 30
0.0
 11
1563.673033999999
 21
1621.012911999999
 31
0.0
  0
LINE
  5
7B5A
  8
2
  6
CENTER
 10
2255.357572959379
 20
2245.3916709999999
 30
0.0
 11
1015.357435999999
 21
2245.3916709999999
 31
0.0
  0
LINE
  5
7B5B
  8
1
  6
CONTINUOUS
 10
1338.173033999999
 20
1890.3916710000001
 30
0.0
 11
1338.173033999999
 21
2560.3916709999999
 31
0.0
  0
LINE
  5
7B5C
  8
1
  6
CONTINUOUS
 10
1338.173033999999
 20
2560.3916709999999
 30
0.0
 11
1578.173033999999
 21
2635.3916709999999
 31
0.0
  0
LINE
  5
7B5D
  8
1
  6
CONTINUOUS
 10
1578.173033999999
 20
2635.3916709999999
 30
0.0
 11
2338.173033999999
 21
2125.3916709999999
 31
0.0
  0
LINE
  5
7B5E
  8
1
  6
CONTINUOUS
 10
2338.173033999999
 20
2125.3916709999999
 30
0.0
 11
2338.173033999999
 21
1890.3916710000001
 31
0.0
  0
LINE
  5
7B5F
  8
4
  6
CONTINUOUS
 10
3700.0
 20
1000.0
 30
0.0
 11
3700.0
 21
600.0
 31
0.0
  0
LINE
  5
7B60
  8
4
  6
CONTINUOUS
 10
2300.0
 20
1000.0
 30
0.0
 11
2300.0
 21
600.0
 31
0.0
  0
LINE
  5
7B61
  8
4
  6
CONTINUOUS
 10
1300.0
 20
1000.0
 30
0.0
 11
1300.0
 21
600.0
 31
0.0
  0
LINE
  5
7B64
  8
4
  6
CONTINUOUS
 10
1300.0
 20
600.0
 30
0.0
 11
3700.0
 21
600.0
 31
0.0
  0
LINE
  5
7B65
  8
4
  6
CONTINUOUS
 10
1300.0
 20
800.0
 30
0.0
 11
3700.0
 21
800.0
 31
0.0
  0
TEXT
  5
7B66
  8
4
  6
CONTINUOUS
 10
1377.004162
 20
863.086052
 30
0.0
 40
100.0
  1
機器名称
  0
TEXT
  5
7B67
  8
4
  6
CONTINUOUS
 10
1372.516212
 20
643.29031299999986
 30
0.0
 40
100.0
  1
機器型番
  0
TEXT
  5
7B68
  8
4
  6
CONTINUOUS
 10
2355.3574910000002
 20
845.14353800000015
 30
0.0
 40
100.0
  1
ミツヤ多翼送風機
  0
TEXT
  5
7B69
  8
4
  6
CONTINUOUS
 10
2373.3089909999999
 20
634.31916899999999
 30
0.0
 40
100.0
  1
MF#3-4
  0
TEXT
  5
7B6B
  8
4
  6
CONTINUOUS
 10
1809.5715309999989
 20
4766.8576830000002
 30
0.0
 40
108.0
  1
床置ベット
  0
TEXT
  5
7B6C
  8
4
  6
CONTINUOUS
 10
632.33518700000002
 20
5067.7619520000007
 30
0.0
 40
144.0
  1
ベルト駆動式片吸込両持多翼ファン
  0
LINE
  5
7B6D
  8
4
  6
CONTINUOUS
 10
500.0
 20
4938.8175090000004
 30
0.0
 11
3700.0
 21
4938.8175090000004
 31
0.0
  0
LINE
  5
7B6E
  8
4
  6
CONTINUOUS
 10
500.0
 20
5338.8175090000004
 30
0.0
 11
3700.0
 21
5338.8175090000004
 31
0.0
  0
LINE
  5
7B6F
  8
4
  6
CONTINUOUS
 10
1300.0
 20
1000.0
 30
0.0
 11
3700.0
 21
1000.0
 31
0.0
  0
LINE
  5
7B70
  8
4
  6
CONTINUOUS
 10
500.0
 20
5338.8175090000004
 30
0.0
 11
500.0
 21
4938.8175090000004
 31
0.0
  0
TEXT
  5
7B71
  8
4
  6
CONTINUOUS
 10
937.85386600000004
 20
4764.6389549999994
 30
0.0
 40
108.0
  1
左回転左横向
  0
TEXT
  5
7B72
  8
4
  6
CONTINUOUS
 10
2937.9391179999998
 20
5412.122163
 30
0.0
 40
112.0
  1
No.
  0
TEXT
  5
7B73
  8
4
  6
CONTINUOUS
 10
2622.5921250000001
 20
4766.8576830000002
 30
0.0
 40
108.0
  1
縮尺：1/20
  0
LINE
  5
7B74
  8
4
  6
CONTINUOUS
 10
3700.0
 20
5338.8175090000004
 30
0.0
 11
3700.0
 21
4938.8175090000004
 31
0.0
  0
LINE
  5
7B76
  8
4
  6
CONTINUOUS
 10
2881.234845
 20
5362.5271659999999
 30
0.0
 11
2881.234845
 21
5573.3045229999998
 31
0.0
  0
LINE
  5
7B77
  8
4
  6
CONTINUOUS
 10
2881.234845
 20
5573.3045229999998
 30
0.0
 11
3700.0
 21
5573.3045229999998
 31
0.0
  0
LINE
  5
7B78
  8
4
  6
CONTINUOUS
 10
3700.0
 20
5573.3045229999998
 30
0.0
 11
3700.0
 21
5362.5271659999999
 31
0.0
  0
LINE
  5
7B79
  8
4
  6
CONTINUOUS
 10
3700.0
 20
5362.5271659999999
 30
0.0
 11
2881.234845
 21
5362.5271659999999
 31
0.0
  0
DIMENSION
  5
7B92
  8
3
  6
CONTINUOUS
  2
*D1
 10
1090.2892260000001
 20
2227.3916709999999
 30
0.0
 11
1090.2892260000001
 21
2460.434479999999
 31
0.0
 70
   128
 13
1208.6730339999999
 23
2707.3916709999999
 33
0.0
 14
1208.6730339999999
 24
2227.3916709999999
 34
0.0
 50
90.0
1001
ACAD
1000
DSTYLE
1002
{
1070
   287
1070
     3
1070
    40
1040
20.0
1070
   143
1040
0.039
1070
   172
1070
     1
1070
   271
1070
     0
1070
   279
1070
     0
1070
   288
1070
     1
1002
}
  0
DIMENSION
  5
7B9F
  8
3
  6
CONTINUOUS
  2
*D2
 10
964.09594800000036
 20
2245.3916709999999
 30
0.0
 11
964.09594800000013
 21
2452.0299249999989
 31
0.0
 70
   128
 13
1090.2892260000001
 23
2707.3916709999999
 33
0.0
 14
1015.357435999999
 24
2245.3916709999999
 34
0.0
 50
90.0
1001
ACAD
1000
DSTYLE
1002
{
1070
   287
1070
     3
1070
    40
1040
20.0
1070
   143
1040
0.039
1070
   172
1070
     1
1070
   271
1070
     0
1070
   279
1070
     0
1070
   288
1070
     1
1002
}
  0
DIMENSION
  5
7BAB
  8
3
  6
CONTINUOUS
  2
*D3
 10
964.09594800000013
 20
1810.3916710000001
 30
0.0
 11
914.09594799999968
 21
2027.8916710000001
 31
0.0
 70
     0
 13
1015.357435999999
 23
2245.3916709999999
 33
0.0
 14
1263.673033999999
 24
1810.3916710000001
 34
0.0
 50
90.0
1001
ACAD
1000
DSTYLE
1002
{
1070
   287
1070
     4
1070
    40
1040
20.0
1070
    75
1070
     1
1070
   143
1040
0.039
1070
   172
1070
     1
1070
   271
1070
     0
1070
   279
1070
     1
1070
   288
1070
     1
1002
}
  0
DIMENSION
  5
7BB8
  8
3
  6
CONTINUOUS
  2
*D4
 10
1563.673033999999
 20
2805.0213829999989
 30
0.0
 11
1375.50674
 21
2805.0213829999989
 31
0.0
 70
   128
 13
1208.6730339999999
 23
2724.3916709999999
 33
0.0
 14
1563.673033999999
 24
2775.9122425101882
 34
0.0
1001
ACAD
1000
DSTYLE
1002
{
1070
   287
1070
     3
1070
    40
1040
20.0
1070
   143
1040
0.039
1070
   172
1070
     1
1070
   271
1070
     0
1070
   279
1070
     0
1070
   288
1070
     1
1002
}
  0
DIMENSION
  5
7BE1
  8
3
  6
CONTINUOUS
  2
*D5
 10
1563.673033999999
 20
1604.6614119999999
 30
0.0
 11
1400.815891
 21
1604.6614119999999
 31
0.0
 70
   128
 13
1263.673033999999
 23
1810.3916710000001
 33
0.0
 14
1563.673033999999
 24
1621.012911999999
 34
0.0
1001
ACAD
1000
DSTYLE
1002
{
1070
   287
1070
     3
1070
    40
1040
20.0
1070
   143
1040
0.039
1070
   172
1070
     1
1070
   271
1070
     0
1070
   279
1070
     0
1070
   288
1070
     1
1002
}
  0
DIMENSION
  5
7BED
  8
3
  6
CONTINUOUS
  2
*D6
 10
2383.6730339999999
 20
1604.6614119999999
 30
0.0
 11
1973.6730339999999
 21
1654.6614119999999
 31
0.0
 70
     0
 13
1563.673033999999
 23
1621.012911999999
 33
0.0
 14
2383.6730339999999
 24
1810.3916710000001
 34
0.0
1001
ACAD
1000
DSTYLE
1002
{
1070
   287
1070
     4
1070
    40
1040
20.0
1070
    75
1070
     1
1070
   143
1040
0.039
1070
   172
1070
     1
1070
   271
1070
     0
1070
   279
1070
     1
1070
   288
1070
     1
1002
}
  0
DIMENSION
  5
7BFC
  8
3
  6
CONTINUOUS
  2
*D7
 10
3299.372879999999
 20
1651.102836999999
 30
0.0
 11
3187.372879999999
 21
1698.9261195600529
 31
0.0
 70
   128
 13
3075.3728799999999
 23
1810.3916710000001
 33
0.0
 14
3299.372879999999
 24
1637.455303
 34
0.0
1001
ACAD
1000
DSTYLE
1002
{
1070
   288
1070
     1
1070
   172
1070
     1
1070
    40
1040
20.0
1070
   271
1070
     0
1070
   143
1040
0.039
1002
}
  0
DIMENSION
  5
7C0A
  8
3
  6
CONTINUOUS
  2
*D8
 10
3523.3728799999999
 20
1651.102836999999
 30
0.0
 11
3406.1891939999991
 21
1650.4828979999991
 31
0.0
 70
   128
 13
3299.372879999999
 23
1637.455303
 33
0.0
 14
3523.3728799999999
 24
1810.3916710000001
 34
0.0
1001
ACAD
1000
DSTYLE
1002
{
1070
   287
1070
     4
1070
    40
1040
20.0
1070
    75
1070
     1
1070
   143
1040
0.039
1070
   172
1070
     1
1070
   271
1070
     0
1070
   279
1070
     1
1070
   288
1070
     1
1002
}
  0
DIMENSION
  5
7C17
  8
3
  6
CONTINUOUS
  2
*D9
 10
3119.3728799999999
 20
2821.1433849999999
 30
0.0
 11
3293.6446249999999
 21
2821.1433849999999
 31
0.0
 70
   128
 13
3479.372879999999
 23
2734.3916709999999
 33
0.0
 14
3119.3728799999999
 24
2734.3916709999999
 34
0.0
1001
ACAD
1000
DSTYLE
1002
{
1070
   287
1070
     3
1070
    40
1040
20.0
1070
   143
1040
0.039
1070
   172
1070
     1
1070
   271
1070
     0
1070
   279
1070
     0
1070
   288
1070
     1
1002
}
  0
DIMENSION
  5
7C31
  8
3
  6
CONTINUOUS
  2
*D10
 10
2929.3728799999999
 20
2947.2117589999989
 30
0.0
 11
3114.372879999999
 21
3047.2117589999998
 31
0.0
 70
     0
  1
MAX\P430
 13
3299.372879999999
 23
2910.2309949999999
 33
0.0
 14
2929.3728799999999
 24
2635.3916709999999
 34
0.0
1001
ACAD
1000
DSTYLE
1002
{
1070
   287
1070
     4
1070
    40
1040
20.0
1070
    75
1070
     1
1070
   143
1040
0.039
1070
   172
1070
     1
1070
   271
1070
     0
1070
   279
1070
     1
1070
   288
1070
     1
1002
}
  0
DIMENSION
  5
7C4D
  8
3
  6
CONTINUOUS
  2
*D11
 10
2383.6730339999999
 20
4225.2067699999998
 30
0.0
 11
1749.8801410000001
 21
4225.2067699999998
 31
0.0
 70
   128
 13
1263.673033999999
 23
4072.5216709999991
 33
0.0
 14
2383.6730339999999
 24
4072.5216709999991
 34
0.0
1001
ACAD
1000
DSTYLE
1002
{
1070
   287
1070
     3
1070
    40
1040
20.0
1070
   143
1040
0.039
1070
   172
1070
     1
1070
   271
1070
     0
1070
   279
1070
     0
1070
   288
1070
     1
1002
}
  0
DIMENSION
  5
7C5A
  8
3
  6
CONTINUOUS
  2
*D12
 10
2570.9088299999999
 20
3624.521671
 30
0.0
 11
2570.9088299999999
 21
3841.6795499999998
 31
0.0
 70
   128
 13
2383.6730339999999
 23
4072.5216709999991
 33
0.0
 14
2383.6730339999999
 24
3624.521671
 34
0.0
 50
90.0
1001
ACAD
1000
DSTYLE
1002
{
1070
   287
1070
     3
1070
    40
1040
20.0
1070
   143
1040
0.039
1070
   172
1070
     1
1070
   271
1070
     0
1070
   279
1070
     0
1070
   288
1070
     1
1002
}
  0
DIMENSION
  5
7C68
  8
3
  6
CONTINUOUS
  2
*D13
 10
842.69896000000017
 20
1810.3916710000001
 30
0.0
 11
842.69895999999983
 21
2211.4487429999999
 31
0.0
 70
   128
 13
1208.6730339999999
 23
2724.3916709999999
 33
0.0
 14
1263.673033999999
 24
1810.3916710000001
 34
0.0
 50
90.0
1001
ACAD
1000
DSTYLE
1002
{
1070
   287
1070
     3
1070
    40
1040
20.0
1070
   143
1040
0.039
1070
   172
1070
     1
1070
   271
1070
     0
1070
   279
1070
     0
1070
   288
1070
     1
1002
}
  0
DIMENSION
  5
7D95
  8
3
  6
CONTINUOUS
  2
*D14
 10
1973.6730339999999
 20
2805.0213829999989
 30
0.0
 11
1768.6730339999999
 21
2855.0213829999998
 31
0.0
 70
     0
 13
1563.673033999999
 23
2775.9122425101882
 33
0.0
 14
1973.6730339999999
 24
2600.3916709999999
 34
0.0
1001
ACAD
1000
DSTYLE
1002
{
1070
   287
1070
     4
1070
    40
1040
20.0
1070
    75
1070
     1
1070
   143
1040
0.039
1070
   172
1070
     1
1070
   271
1070
     0
1070
   279
1070
     1
1070
   288
1070
     1
1002
}
  0
LINE
  5
7DD1
  8
1
  6
CONTINUOUS
 10
3480.3728799999999
 20
2495.3916709999999
 30
0.0
 11
3480.3728799999999
 21
1995.3916710000001
 31
0.0
  0
DIMENSION
  5
7DDE
  8
3
  6
CONTINUOUS
  2
*D15
 10
3691.3329610000001
 20
1995.391670999999
 30
0.0
 11
3691.3329610000001
 21
2229.1707609999999
 31
0.0
 70
   128
 13
3480.3728799999999
 23
2495.3916709999999
 33
0.0
 14
3480.3728799999999
 24
1995.3916710000001
 34
0.0
 50
90.0
1001
ACAD
1000
DSTYLE
1002
{
1070
   287
1070
     3
1070
     3
1000
φ<>
1070
    40
1040
20.0
1070
   143
1040
0.039
1070
   172
1070
     1
1070
   271
1070
     0
1070
   279
1070
     0
1070
   288
1070
     1
1002
}
  0
DIMENSION
  5
7E19
  8
3
  6
CONTINUOUS
  2
*D16
 10
3480.3728799999999
 20
2947.2117589999989
 30
0.0
 11
3387.8946239999991
 21
2946.1524629999999
 31
0.0
 70
   128
 13
3299.372879999999
 23
2910.2309949999999
 33
0.0
 14
3480.3728799999999
 24
2495.3916709999999
 34
0.0
1001
ACAD
1000
DSTYLE
1002
{
1070
   287
1070
     4
1070
    40
1040
20.0
1070
    75
1070
     1
1070
   143
1040
0.039
1070
   172
1070
     1
1070
   271
1070
     0
1070
   279
1070
     1
1070
   288
1070
     1
1002
}
  0
DIMENSION
  5
7F1E
  8
3
  2
*D17
 10
2383.6730339999999
 20
2934.808327142684
 30
0.0
 11
1795.5877357695899
 21
2934.808327142684
 31
0.0
 70
   128
 13
1208.6730339999999
 23
2724.3916709999999
 33
0.0
 14
2383.6730339999999
 24
1890.3916710000001
 34
0.0
1001
ACAD
1000
DSTYLE
1002
{
1070
   287
1070
     3
1070
    40
1040
20.0
1070
   143
1040
0.039
1070
   172
1070
     1
1070
   271
1070
     0
1070
   279
1070
     0
1070
   288
1070
     1
1002
}
  0
ENDSEC
  0
EOF
