  0
SECTION
  2
HEADER
  9
$ACADVER
  1
AC1009
  9
$INSBASE
 10
0.0
 20
0.0
 30
0.0
  9
$EXTMIN
 10
500.0
 20
600.0
 30
0.0
  9
$EXTMAX
 10
3700.0
 20
5573.3045229999998
 30
0.0
  9
$LIMMIN
 10
0.0
 20
0.0
  9
$LIMMAX
 10
297.0
 20
210.0
  9
$ORTHOMODE
 70
     0
  9
$REGENMODE
 70
     1
  9
$FILLMODE
 70
     0
  9
$QTEXTMODE
 70
     0
  9
$MIRRTEXT
 70
     1
  9
$DRAGMODE
 70
     2
  9
$LTSCALE
 40
100.0
  9
$OSMODE
 70
    37
  9
$ATTMODE
 70
     1
  9
$TEXTSIZE
 40
180.0
  9
$TRACEWID
 40
0.05
  9
$TEXTSTYLE
  7
STANDARD
  9
$CLAYER
  8
3
  9
$CELTYPE
  6
BYLAYER
  9
$CECOLOR
 62
   256
  9
$DIMSCALE
 40
20.0
  9
$DIMASZ
 40
2.0
  9
$DIMEXO
 40
0.5
  9
$DIMDLI
 40
10.0
  9
$DIMRND
 40
0.0
  9
$DIMDLE
 40
0.0
  9
$DIMEXE
 40
1.0
  9
$DIMTP
 40
1.0
  9
$DIMTM
 40
1.0
  9
$DIMTXT
 40
3.0
  9
$DIMCEN
 40
0.0
  9
$DIMTSZ
 40
0.0
  9
$DIMTOL
 70
     0
  9
$DIMLIM
 70
     0
  9
$DIMTIH
 70
     0
  9
$DIMTOH
 70
     0
  9
$DIMSE1
 70
     0
  9
$DIMSE2
 70
     0
  9
$DIMTAD
 70
     1
  9
$DIMZIN
 70
     8
  9
$DIMBLK
  1

  9
$DIMASO
 70
     1
  9
$DIMSHO
 70
     1
  9
$DIMPOST
  1

  9
$DIMAPOST
  1

  9
$DIMALT
 70
     0
  9
$DIMALTD
 70
     2
  9
$DIMALTF
 40
0.039
  9
$DIMLFAC
 40
1.0
  9
$DIMTOFL
 70
     1
  9
$DIMTVP
 40
0.0
  9
$DIMTIX
 70
     0
  9
$DIMSOXD
 70
     0
  9
$DIMSAH
 70
     1
  9
$DIMBLK1
  1
OPEN
  9
$DIMBLK2
  1
OPEN
  9
$DIMSTYLE
  2
IGA
  9
$DIMCLRD
 70
     0
  9
$DIMCLRE
 70
     0
  9
$DIMCLRT
 70
     0
  9
$DIMTFAC
 40
10.0
  9
$DIMGAP
 40
1.0
  9
$LUNITS
 70
     2
  9
$LUPREC
 70
     3
  9
$SKETCHINC
 40
0.1
  9
$FILLETRAD
 40
50.0
  9
$AUNITS
 70
     0
  9
$AUPREC
 70
     0
  9
$MENU
  1
acad
  9
$ELEVATION
 40
0.0
  9
$PELEVATION
 40
0.0
  9
$THICKNESS
 40
0.0
  9
$LIMCHECK
 70
     0
  9
$BLIPMODE
 70
     0
  9
$CHAMFERA
 40
0.5
  9
$CHAMFERB
 40
0.5
  9
$SKPOLY
 70
     0
  9
$TDCREATE
 40
2450736.4492326388
  9
$TDUPDATE
 40
2454953.7675395939
  9
$TDINDWG
 40
0.0117262153
  9
$TDUSRTIMER
 40
0.0117262153
  9
$USRTIMER
 70
     1
  9
$ANGBASE
 50
0.0
  9
$ANGDIR
 70
     0
  9
$PDMODE
 70
     0
  9
$PDSIZE
 40
0.0
  9
$PLINEWID
 40
0.0
  9
$COORDS
 70
     1
  9
$SPLFRAME
 70
     0
  9
$SPLINETYPE
 70
     6
  9
$SPLINESEGS
 70
     8
  9
$ATTDIA
 70
     0
  9
$ATTREQ
 70
     1
  9
$HANDLING
 70
 10241
  9
$HANDSEED
  5
7F0F
  9
$SURFTAB1
 70
     6
  9
$SURFTAB2
 70
     6
  9
$SURFTYPE
 70
     6
  9
$SURFU
 70
     6
  9
$SURFV
 70
     6
  9
$UCSNAME
  2

  9
$UCSORG
 10
0.0
 20
0.0
 30
0.0
  9
$UCSXDIR
 10
1.0
 20
0.0
 30
0.0
  9
$UCSYDIR
 10
0.0
 20
1.0
 30
0.0
  9
$PUCSNAME
  2

  9
$PUCSORG
 10
0.0
 20
0.0
 30
0.0
  9
$PUCSXDIR
 10
1.0
 20
0.0
 30
0.0
  9
$PUCSYDIR
 10
0.0
 20
1.0
 30
0.0
  9
$USERI1
 70
     0
  9
$USERI2
 70
     0
  9
$USERI3
 70
     0
  9
$USERI4
 70
     0
  9
$USERI5
 70
     0
  9
$USERR1
 40
0.0
  9
$USERR2
 40
0.0
  9
$USERR3
 40
0.0
  9
$USERR4
 40
0.0
  9
$USERR5
 40
0.0
  9
$WORLDVIEW
 70
     1
  9
$SHADEDGE
 70
     3
  9
$SHADEDIF
 70
    70
  9
$TILEMODE
 70
     1
  9
$MAXACTVP
 70
    16
  9
$PLIMCHECK
 70
     0
  9
$PEXTMIN
 10
1.0000000000000000E+020
 20
1.0000000000000000E+020
 30
1.0000000000000000E+020
  9
$PEXTMAX
 10
-1.0000000000000000E+020
 20
-1.0000000000000000E+020
 30
-1.0000000000000000E+020
  9
$PLIMMIN
 10
0.0
 20
0.0
  9
$PLIMMAX
 10
12.0
 20
9.0
  9
$UNITMODE
 70
     0
  9
$VISRETAIN
 70
     0
  9
$PLINEGEN
 70
     0
  9
$PSLTSCALE
 70
     1
  0
ENDSEC
  0
SECTION
  2
TABLES
  0
TABLE
  2
VPORT
 70
     2
  0
VPORT
  2
*ACTIVE
 70
     0
 10
0.0
 20
0.0
 11
1.0
 21
1.0
 12
6292.1124769529506
 22
3086.6374998146398
 13
0.0
 23
0.0
 14
10.0
 24
10.0
 15
10.0
 25
10.0
 16
0.0
 26
0.0
 36
1.0
 17
0.0
 27
0.0
 37
0.0
 40
5011.4968576296578
 41
3.1666666666666661
 42
50.0
 43
0.0
 44
0.0
 50
0.0
 51
0.0
 71
     0
 72
   100
 73
     1
 74
     0
 75
     0
 76
     0
 77
     0
 78
     0
  0
ENDTAB
  0
TABLE
  2
LTYPE
 70
     2
  0
LTYPE
  2
CONTINUOUS
 70
     0
  3
Solid line
 72
    65
 73
     0
 40
0.0
  0
LTYPE
  2
CENTER
 70
     0
  3
____ _ ____ _ ____ _ ____ _ ____ _ ____ _ ____ 
 72
    65
 73
     4
 40
2.0
 49
1.25
 49
-0.25
 49
0.25
 49
-0.25
  0
ENDTAB
  0
TABLE
  2
LAYER
 70
     6
  0
LAYER
  2
0
 70
     0
 62
     7
  6
CONTINUOUS
  0
LAYER
  2
3
 70
     0
 62
     2
  6
CONTINUOUS
  0
LAYER
  2
2
 70
     0
 62
     3
  6
CENTER
  0
LAYER
  2
1
 70
     0
 62
     4
  6
CONTINUOUS
  0
LAYER
  2
4
 70
     0
 62
     7
  6
CONTINUOUS
  0
LAYER
  2
DEFPOINTS
 70
     0
 62
     7
  6
CONTINUOUS
  0
ENDTAB
  0
TABLE
  2
STYLE
 70
     1
  0
STYLE
  2
STANDARD
 70
     0
 40
0.0
 41
1.0
 50
0.0
 71
     0
 42
180.0
  3
simplex.shx
  4
extfont.shx
  0
ENDTAB
  0
TABLE
  2
VIEW
 70
     0
  0
ENDTAB
  0
TABLE
  2
UCS
 70
     0
  0
ENDTAB
  0
TABLE
  2
APPID
 70
     1
  0
APPID
  2
ACAD
 70
     0
  0
ENDTAB
  0
TABLE
  2
DIMSTYLE
 70
     1
  0
DIMSTYLE
  2
IGA
 70
     0
  3

  4

  5

  6
OPEN
  7
OPEN
 40
2.0
 41
2.0
 42
0.5
 43
10.0
 44
1.0
 45
0.0
 46
0.0
 47
1.0
 48
1.0
140
3.0
141
0.0
142
0.0
143
0.03937
144
1.0
145
0.0
146
10.0
147
1.0
 71
     0
 72
     0
 73
     0
 74
     0
 75
     0
 76
     0
 77
     1
 78
     8
170
     0
171
     2
172
     0
173
     1
174
     0
175
     0
176
     0
177
     0
178
     0
  0
ENDTAB
  0
ENDSEC
  0
SECTION
  2
BLOCKS
  0
BLOCK
  8
0
  2
$MODEL_SPACE
 70
     0
 10
0.0
 20
0.0
 30
0.0
  3
$MODEL_SPACE
  1

  0
ENDBLK
  5
1B
  8
0
  0
BLOCK
 67
     1
  8
0
  2
$PAPER_SPACE
 70
     0
 10
0.0
 20
0.0
 30
0.0
  3
$PAPER_SPACE
  1

  0
ENDBLK
  5
18
 67
     1
  8
0
  0
BLOCK
  8
0
  2
_OPEN
 70
     0
 10
0.0
 20
0.0
 30
0.0
  3
_OPEN
  1

  0
LINE
  5
7BCE
  8
0
  6
BYBLOCK
 62
     0
 10
-1.0
 20
0.166667
 30
0.0
 11
0.0
 21
0.0
 31
0.0
  0
LINE
  5
7BCF
  8
0
  6
BYBLOCK
 62
     0
 10
0.0
 20
0.0
 30
0.0
 11
-1.0
 21
-0.166667
 31
0.0
  0
LINE
  5
7BD0
  8
0
  6
BYBLOCK
 62
     0
 10
0.0
 20
0.0
 30
0.0
 11
-1.0
 21
0.0
 31
0.0
  0
ENDBLK
  5
7BD1
  8
0
  0
BLOCK
  8
0
  2
*D1
 70
     1
 10
0.0
 20
0.0
 30
0.0
  3
*D1
  1

  0
LINE
  5
7E71
  8
3
  6
CONTINUOUS
 62
     0
 10
982.66637299999991
 20
2320.1388839999991
 30
0.0
 11
860.82940800000051
 21
2320.1388839999991
 31
0.0
  0
LINE
  5
7E72
  8
3
  6
CONTINUOUS
 62
     0
 10
982.66637299999991
 20
1840.1388839999991
 30
0.0
 11
860.82940800000029
 21
1840.1388839999991
 31
0.0
  0
LINE
  5
7E73
  8
3
  6
CONTINUOUS
 62
     0
 10
880.8294080000004
 20
2280.138884
 30
0.0
 11
880.8294080000004
 21
1880.138884
 31
0.0
  0
INSERT
  5
7E74
  8
3
  6
CONTINUOUS
 62
     0
  2
_OPEN
 10
880.8294080000004
 20
2320.1388839999991
 30
0.0
 41
40.0
 42
40.0
 43
40.0
 50
90.0
  0
INSERT
  5
7E75
  8
3
  6
CONTINUOUS
 62
     0
  2
_OPEN
 10
880.8294080000004
 20
1840.1388839999991
 30
0.0
 41
40.0
 42
40.0
 43
40.0
 50
270.0
  0
TEXT
  8
3
  40
60
  5
7EFF
  62
0
  72
0
  71
0
 10
710.829
 20
1964.39
 30
0.000000
  1
480
  0
POINT
  5
7E77
  8
DEFPOINTS
  6
CONTINUOUS
 62
     0
 10
992.66637299999991
 20
2320.1388839999991
 30
0.0
  0
POINT
  5
7E78
  8
DEFPOINTS
  6
CONTINUOUS
 62
     0
 10
992.66637299999991
 20
1840.1388839999991
 30
0.0
  0
POINT
  5
7E79
  8
DEFPOINTS
  6
CONTINUOUS
 62
     0
 10
880.8294080000004
 20
1840.1388839999991
 30
0.0
  0
ENDBLK
  5
7C50
  8
0
  0
BLOCK
  8
0
  2
*D2
 70
     1
 10
0.0
 20
0.0
 30
0.0
  3
*D2
  1

  0
LINE
  5
7E7A
  8
3
  6
CONTINUOUS
 62
     0
 10
825.43023600000004
 20
2302.138884
 30
0.0
 11
741.64534400000036
 21
2302.138884
 31
0.0
  0
LINE
  5
7E7B
  8
3
  6
CONTINUOUS
 62
     0
 10
937.66637300000002
 20
1840.1388839999991
 30
0.0
 11
741.64534400000036
 21
1840.1388839999991
 31
0.0
  0
LINE
  5
7E7C
  8
3
  6
CONTINUOUS
 62
     0
 10
761.64534400000025
 20
2262.138884
 30
0.0
 11
761.64534400000025
 21
1880.138884
 31
0.0
  0
INSERT
  5
7E7D
  8
3
  6
CONTINUOUS
 62
     0
  2
_OPEN
 10
761.64534400000025
 20
2302.138884
 30
0.0
 41
40.0
 42
40.0
 43
40.0
 50
90.0
  0
INSERT
  5
7E7E
  8
3
  6
CONTINUOUS
 62
     0
  2
_OPEN
 10
761.64534400000025
 20
1840.1388839999991
 30
0.0
 41
40.0
 42
40.0
 43
40.0
 50
270.0
  0
TEXT
  8
3
  40
60
  5
7F00
  62
0
  72
0
  71
0
 10
591.645
 20
1973.21
 30
0.000000
  1
462
  0
POINT
  5
7E80
  8
DEFPOINTS
  6
CONTINUOUS
 62
     0
 10
835.43023600000004
 20
2302.138884
 30
0.0
  0
POINT
  5
7E81
  8
DEFPOINTS
  6
CONTINUOUS
 62
     0
 10
947.66637300000002
 20
1840.1388839999991
 30
0.0
  0
POINT
  5
7E82
  8
DEFPOINTS
  6
CONTINUOUS
 62
     0
 10
761.64534400000025
 20
1840.1388839999991
 30
0.0
  0
ENDBLK
  5
7C5B
  8
0
  0
BLOCK
  8
0
  2
*D3
 70
     1
 10
0.0
 20
0.0
 30
0.0
  3
*D3
  1

  0
LINE
  5
7E83
  8
3
  6
CONTINUOUS
 62
     0
 10
815.43023600000004
 20
2302.138884
 30
0.0
 11
631.28973900000028
 21
2302.138884
 31
0.0
  0
LINE
  5
7E84
  8
3
  6
CONTINUOUS
 62
     0
 10
1037.666373
 20
1702.138884
 30
0.0
 11
631.28973900000005
 21
1702.138884
 31
0.0
  0
LINE
  5
7E85
  8
3
  6
CONTINUOUS
 62
     0
 10
651.28973900000017
 20
2262.138884
 30
0.0
 11
651.28973900000005
 21
1742.138884
 31
0.0
  0
INSERT
  5
7E86
  8
3
  6
CONTINUOUS
 62
     0
  2
_OPEN
 10
651.28973900000017
 20
2302.138884
 30
0.0
 41
40.0
 42
40.0
 43
40.0
 50
90.0
  0
INSERT
  5
7E87
  8
3
  6
CONTINUOUS
 62
     0
  2
_OPEN
 10
651.28973900000005
 20
1702.138884
 30
0.0
 41
40.0
 42
40.0
 43
40.0
 50
270.0
  0
TEXT
  8
3
  40
60
  5
7F01
  62
0
  72
0
  71
0
 10
481.290
 20
1982.03
 30
0.000000
  1
600
  0
POINT
  5
7E89
  8
DEFPOINTS
  6
CONTINUOUS
 62
     0
 10
825.43023600000004
 20
2302.138884
 30
0.0
  0
POINT
  5
7E8A
  8
DEFPOINTS
  6
CONTINUOUS
 62
     0
 10
1047.6663729999991
 20
1702.138884
 30
0.0
  0
POINT
  5
7E8B
  8
DEFPOINTS
  6
CONTINUOUS
 62
     0
 10
651.28973900000005
 20
1702.138884
 30
0.0
  0
ENDBLK
  5
7BF8
  8
0
  0
BLOCK
  8
0
  2
*D4
 70
     1
 10
0.0
 20
0.0
 30
0.0
  3
*D4
  1

  0
LINE
  5
7E8C
  8
3
  6
CONTINUOUS
 62
     0
 10
1037.666373
 20
1702.138884
 30
0.0
 11
631.31010900000024
 21
1702.138884
 31
0.0
  0
LINE
  5
7E8D
  8
3
  6
CONTINUOUS
 62
     0
 10
937.66637300000002
 20
1640.1388839999991
 30
0.0
 11
631.31010900000024
 21
1640.1388839999991
 31
0.0
  0
LINE
  5
7E8E
  8
3
  6
CONTINUOUS
 62
     0
 10
651.31010900000024
 20
1742.138884
 30
0.0
 11
651.31010900000024
 21
1782.138884
 31
0.0
  0
LINE
  5
7E8F
  8
3
  6
CONTINUOUS
 62
     0
 10
651.31010900000024
 20
1600.138884
 30
0.0
 11
651.31010900000024
 21
1422.9960268571419
 31
0.0
  0
LINE
  5
7E90
  8
3
  6
CONTINUOUS
 62
     0
 10
651.31010900000024
 20
1702.138884
 30
0.0
 11
651.31010900000024
 21
1640.1388839999991
 31
0.0
  0
INSERT
  5
7E91
  8
3
  6
CONTINUOUS
 62
     0
  2
_OPEN
 10
651.31010900000024
 20
1702.138884
 30
0.0
 41
40.0
 42
40.0
 43
40.0
 50
270.0
  0
INSERT
  5
7E92
  8
3
  6
CONTINUOUS
 62
     0
  2
_OPEN
 10
651.31010900000024
 20
1640.1388839999991
 30
0.0
 41
40.0
 42
40.0
 43
40.0
 50
90.0
  0
TEXT
  8
3
  40
60
  5
7F02
  62
0
  72
0
  71
0
 10
481.310
 20
1385.37
 30
0.000000
  1
62
  0
POINT
  5
7E94
  8
DEFPOINTS
  6
CONTINUOUS
 62
     0
 10
1047.6663729999991
 20
1702.138884
 30
0.0
  0
POINT
  5
7E95
  8
DEFPOINTS
  6
CONTINUOUS
 62
     0
 10
947.66637300000002
 20
1640.1388839999991
 30
0.0
  0
POINT
  5
7E96
  8
DEFPOINTS
  6
CONTINUOUS
 62
     0
 10
651.31010900000024
 20
1640.1388839999991
 30
0.0
  0
ENDBLK
  5
7E16
  8
0
  0
BLOCK
  8
0
  2
*D5
 70
     1
 10
0.0
 20
0.0
 30
0.0
  3
*D5
  1

  0
LINE
  5
7E97
  8
3
  6
CONTINUOUS
 62
     0
 10
947.66637300000002
 20
1630.138884
 30
0.0
 11
947.66637300000002
 21
1453.5075384528809
 31
0.0
  0
LINE
  5
7E98
  8
3
  6
CONTINUOUS
 62
     0
 10
1347.666373
 20
1511.591936288251
 30
0.0
 11
1347.666373
 21
1453.5075384528809
 31
0.0
  0
LINE
  5
7E99
  8
3
  6
CONTINUOUS
 62
     0
 10
987.66637300000002
 20
1473.5075384528809
 30
0.0
 11
1307.6663729999991
 21
1473.5075384528809
 31
0.0
  0
INSERT
  5
7E9A
  8
3
  6
CONTINUOUS
 62
     0
  2
_OPEN
 10
947.66637300000002
 20
1473.5075384528809
 30
0.0
 41
40.0
 42
40.0
 43
40.0
 50
180.0
  0
INSERT
  5
7E9B
  8
3
  6
CONTINUOUS
 62
     0
  2
_OPEN
 10
1347.666373
 20
1473.5075384528809
 30
0.0
 41
40.0
 42
40.0
 43
40.0
  0
TEXT
  8
3
  40
60
  5
7F03
  62
0
  72
0
  71
0
 10
1016.25
 20
1417.31
 30
0.000000
  1
400
  0
POINT
  5
7E9D
  8
DEFPOINTS
  6
CONTINUOUS
 62
     0
 10
947.66637300000002
 20
1640.1388839999991
 30
0.0
  0
POINT
  5
7E9E
  8
DEFPOINTS
  6
CONTINUOUS
 62
     0
 10
1347.666373
 20
1521.591936288251
 30
0.0
  0
POINT
  5
7E9F
  8
DEFPOINTS
  6
CONTINUOUS
 62
     0
 10
1347.666373
 20
1473.5075384528809
 30
0.0
  0
ENDBLK
  5
7DE4
  8
0
  0
BLOCK
  8
0
  2
*D6
 70
     1
 10
0.0
 20
0.0
 30
0.0
  3
*D6
  1

  0
LINE
  5
7EA0
  8
3
  6
CONTINUOUS
 62
     0
 10
2267.666373
 20
1630.138884
 30
0.0
 11
2267.666373
 21
1453.5075384528809
 31
0.0
  0
LINE
  5
7EA1
  8
3
  6
CONTINUOUS
 62
     0
 10
1387.666373
 20
1473.5075384528809
 30
0.0
 11
2227.6663729999991
 21
1473.5075384528809
 31
0.0
  0
INSERT
  5
7EA2
  8
3
  6
CONTINUOUS
 62
     0
  2
_OPEN
 10
1347.666373
 20
1473.5075384528809
 30
0.0
 41
40.0
 42
40.0
 43
40.0
 50
180.0
  0
INSERT
  5
7EA3
  8
3
  6
CONTINUOUS
 62
     0
  2
_OPEN
 10
2267.666373
 20
1473.5075384528809
 30
0.0
 41
40.0
 42
40.0
 43
40.0
  0
TEXT
  8
3
  40
60
  5
7F04
  62
0
  72
0
  71
0
 10
1687.67
 20
1417.31
 30
0.000000
  1
920
  0
POINT
  5
7EA5
  8
DEFPOINTS
  6
CONTINUOUS
 62
     0
 10
1347.666373
 20
1521.591936288251
 30
0.0
  0
POINT
  5
7EA6
  8
DEFPOINTS
  6
CONTINUOUS
 62
     0
 10
2267.666373
 20
1640.1388839999991
 30
0.0
  0
POINT
  5
7EA7
  8
DEFPOINTS
  6
CONTINUOUS
 62
     0
 10
2267.666373
 20
1473.5075384528809
 30
0.0
  0
ENDBLK
  5
7DD9
  8
0
  0
BLOCK
  8
0
  2
*D7
 70
     1
 10
0.0
 20
0.0
 30
0.0
  3
*D7
  1

  0
LINE
  5
7EA8
  8
3
  6
CONTINUOUS
 62
     0
 10
992.66637299999991
 20
2347.138884
 30
0.0
 11
992.66637299999991
 21
2975.1324549999999
 31
0.0
  0
LINE
  5
7EA9
  8
3
  6
CONTINUOUS
 62
     0
 10
1347.666373
 20
2914.7884035371708
 30
0.0
 11
1347.666373
 21
2975.1324549999999
 31
0.0
  0
LINE
  5
7EAA
  8
3
  6
CONTINUOUS
 62
     0
 10
1032.666373
 20
2955.1324549999999
 30
0.0
 11
1307.6663729999991
 21
2955.1324549999999
 31
0.0
  0
INSERT
  5
7EAB
  8
3
  6
CONTINUOUS
 62
     0
  2
_OPEN
 10
992.66637299999991
 20
2955.1324549999999
 30
0.0
 41
40.0
 42
40.0
 43
40.0
 50
180.0
  0
INSERT
  5
7EAC
  8
3
  6
CONTINUOUS
 62
     0
  2
_OPEN
 10
1347.666373
 20
2955.1324549999999
 30
0.0
 41
40.0
 42
40.0
 43
40.0
  0
TEXT
  8
3
  40
60
  5
7F05
  62
0
  72
0
  71
0
 10
1041.82
 20
2898.93
 30
0.000000
  1
355
  0
POINT
  5
7EAE
  8
DEFPOINTS
  6
CONTINUOUS
 62
     0
 10
992.66637299999991
 20
2337.138884
 30
0.0
  0
POINT
  5
7EAF
  8
DEFPOINTS
  6
CONTINUOUS
 62
     0
 10
1347.666373
 20
2904.7884035371708
 30
0.0
  0
POINT
  5
7EB0
  8
DEFPOINTS
  6
CONTINUOUS
 62
     0
 10
1347.666373
 20
2955.1324549999999
 30
0.0
  0
ENDBLK
  5
7E2B
  8
0
  0
BLOCK
  8
0
  2
*D8
 70
     1
 10
0.0
 20
0.0
 30
0.0
  3
*D8
  1

  0
LINE
  5
7EB1
  8
3
  6
CONTINUOUS
 62
     0
 10
3370.6459329999998
 20
2552.138884
 30
0.0
 11
3679.4356130000001
 21
2552.138884
 31
0.0
  0
LINE
  5
7EB2
  8
3
  6
CONTINUOUS
 62
     0
 10
3370.6459329999998
 20
2052.138884
 30
0.0
 11
3679.4356130000001
 21
2052.138884
 31
0.0
  0
LINE
  5
7EB3
  8
3
  6
CONTINUOUS
 62
     0
 10
3659.435613000001
 20
2512.138884
 30
0.0
 11
3659.435613000001
 21
2092.138884
 31
0.0
  0
INSERT
  5
7EB4
  8
3
  6
CONTINUOUS
 62
     0
  2
_OPEN
 10
3659.435613000001
 20
2552.138884
 30
0.0
 41
40.0
 42
40.0
 43
40.0
 50
90.0
  0
INSERT
  5
7EB5
  8
3
  6
CONTINUOUS
 62
     0
  2
_OPEN
 10
3659.435613000001
 20
2052.138884
 30
0.0
 41
40.0
 42
40.0
 43
40.0
 50
270.0
  0
TEXT
  8
3
  40
60
  5
7F06
  62
0
  72
0
  71
0
 10
3489.44
 20
2193.19
 30
0.000000
  1
φ500
  0
POINT
  5
7EB7
  8
DEFPOINTS
  6
CONTINUOUS
 62
     0
 10
3360.6459329999998
 20
2552.138884
 30
0.0
  0
POINT
  5
7EB8
  8
DEFPOINTS
  6
CONTINUOUS
 62
     0
 10
3360.6459329999998
 20
2052.138884
 30
0.0
  0
POINT
  5
7EB9
  8
DEFPOINTS
  6
CONTINUOUS
 62
     0
 10
3659.435613000001
 20
2052.138884
 30
0.0
  0
ENDBLK
  5
7DA5
  8
0
  0
BLOCK
  8
0
  2
*D9
 70
     1
 10
0.0
 20
0.0
 30
0.0
  3
*D9
  1

  0
LINE
  5
7D91
  8
0
  6
BYBLOCK
 62
     0
 10
3360.6459329999998
 20
2562.138884
 30
0.0
 11
3360.6459329999998
 21
3076.3239749999998
 31
0.0
  0
LINE
  5
7D92
  8
0
  6
BYBLOCK
 62
     0
 10
3179.6459329999989
 20
3026.7219809999988
 30
0.0
 11
3179.6459329999989
 21
3076.3239749999998
 31
0.0
  0
LINE
  5
7D93
  8
0
  6
BYBLOCK
 62
     0
 10
3320.6459329999998
 20
3056.3239749999989
 30
0.0
 11
3219.6459329999989
 21
3056.3239749999989
 31
0.0
  0
TEXT
  5
7D94
  8
3
 62
     0
 10
3211.5745044285709
 20
3071.308673265688
 30
0.0
 40
60.0
  1
181
  0
INSERT
  5
7D95
  8
0
  6
BYBLOCK
 62
     0
  2
_OPEN
 10
3360.6459329999998
 20
3056.3239749999989
 30
0.0
 41
40.0
 42
40.0
 43
40.0
  0
INSERT
  5
7D96
  8
0
  6
BYBLOCK
 62
     0
  2
_OPEN
 10
3179.6459329999989
 20
3056.3239749999989
 30
0.0
 41
40.0
 42
40.0
 43
40.0
 50
180.0
  0
POINT
  5
7D97
  8
DEFPOINTS
  6
BYBLOCK
 62
     0
 10
3360.6459329999998
 20
2552.138884
 30
0.0
  0
POINT
  5
7D98
  8
DEFPOINTS
  6
BYBLOCK
 62
     0
 10
3179.6459329999989
 20
3016.7219809999988
 30
0.0
  0
POINT
  5
7D99
  8
DEFPOINTS
  6
BYBLOCK
 62
     0
 10
3179.6459329999989
 20
3056.3239749999989
 30
0.0
  0
ENDBLK
  5
7D9A
  8
0
  0
BLOCK
  8
0
  2
*D10
 70
     1
 10
0.0
 20
0.0
 30
0.0
  3
*D10
  1

  0
LINE
  5
7EBA
  8
3
  6
CONTINUOUS
 62
     0
 10
2809.6459329999998
 20
1630.138884
 30
0.0
 11
2809.6459329999998
 21
1443.7341142774969
 31
0.0
  0
LINE
  5
7EBB
  8
3
  6
CONTINUOUS
 62
     0
 10
3179.6459329999989
 20
1501.748019277497
 30
0.0
 11
3179.6459329999989
 21
1443.7341142774969
 31
0.0
  0
LINE
  5
7EBC
  8
3
  6
CONTINUOUS
 62
     0
 10
2849.6459329999989
 20
1463.7341142774969
 30
0.0
 11
3139.6459329999998
 21
1463.7341142774969
 31
0.0
  0
INSERT
  5
7EBD
  8
3
  6
CONTINUOUS
 62
     0
  2
_OPEN
 10
2809.6459329999998
 20
1463.7341142774969
 30
0.0
 41
40.0
 42
40.0
 43
40.0
 50
180.0
  0
INSERT
  5
7EBE
  8
3
  6
CONTINUOUS
 62
     0
  2
_OPEN
 10
3179.6459329999989
 20
1463.7341142774969
 30
0.0
 41
40.0
 42
40.0
 43
40.0
  0
TEXT
  8
3
  40
60
  5
7F07
  62
0
  72
0
  71
0
 10
2883.09
 20
1407.53
 30
0.000000
  1
370
  0
POINT
  5
7EC0
  8
DEFPOINTS
  6
CONTINUOUS
 62
     0
 10
2809.6459329999998
 20
1640.1388839999991
 30
0.0
  0
POINT
  5
7EC1
  8
DEFPOINTS
  6
CONTINUOUS
 62
     0
 10
3179.6459329999989
 20
1511.748019277497
 30
0.0
  0
POINT
  5
7EC2
  8
DEFPOINTS
  6
CONTINUOUS
 62
     0
 10
3179.6459329999989
 20
1463.7341142774969
 30
0.0
  0
ENDBLK
  5
7DB0
  8
0
  0
BLOCK
  8
0
  2
*D11
 70
     1
 10
0.0
 20
0.0
 30
0.0
  3
*D11
  1

  0
LINE
  5
7EC3
  8
3
  6
CONTINUOUS
 62
     0
 10
3479.6459329999998
 20
1630.138884
 30
0.0
 11
3479.6459329999998
 21
1443.7341142774969
 31
0.0
  0
LINE
  5
7EC4
  8
3
  6
CONTINUOUS
 62
     0
 10
3219.6459329999989
 20
1463.7341142774969
 30
0.0
 11
3439.6459329999989
 21
1463.7341142774969
 31
0.0
  0
INSERT
  5
7EC5
  8
3
  6
CONTINUOUS
 62
     0
  2
_OPEN
 10
3179.6459329999989
 20
1463.7341142774969
 30
0.0
 41
40.0
 42
40.0
 43
40.0
 50
180.0
  0
INSERT
  5
7EC6
  8
3
  6
CONTINUOUS
 62
     0
  2
_OPEN
 10
3479.6459329999998
 20
1463.7341142774969
 30
0.0
 41
40.0
 42
40.0
 43
40.0
  0
TEXT
  8
3
  40
60
  5
7F08
  62
0
  72
0
  71
0
 10
3209.65
 20
1407.53
 30
0.000000
  1
300
  0
POINT
  5
7EC8
  8
DEFPOINTS
  6
CONTINUOUS
 62
     0
 10
3179.6459329999989
 20
1511.748019277497
 30
0.0
  0
POINT
  5
7EC9
  8
DEFPOINTS
  6
CONTINUOUS
 62
     0
 10
3479.6459329999998
 20
1640.1388839999991
 30
0.0
  0
POINT
  5
7ECA
  8
DEFPOINTS
  6
CONTINUOUS
 62
     0
 10
3479.6459329999998
 20
1463.7341142774969
 30
0.0
  0
ENDBLK
  5
7DBA
  8
0
  0
BLOCK
  8
0
  2
*D12
 70
     1
 10
0.0
 20
0.0
 30
0.0
  3
*D12
  1

  0
LINE
  5
7ECB
  8
3
  6
CONTINUOUS
 62
     0
 10
947.66637300000002
 20
4069.2488840000001
 30
0.0
 11
947.66637300000002
 21
4271.0245329999998
 31
0.0
  0
LINE
  5
7ECC
  8
3
  6
CONTINUOUS
 62
     0
 10
2267.666373
 20
4069.2488840000001
 30
0.0
 11
2267.666373
 21
4271.0245329999998
 31
0.0
  0
LINE
  5
7ECD
  8
3
  6
CONTINUOUS
 62
     0
 10
987.66637300000002
 20
4251.0245329999989
 30
0.0
 11
2227.6663729999991
 21
4251.0245329999989
 31
0.0
  0
INSERT
  5
7ECE
  8
3
  6
CONTINUOUS
 62
     0
  2
_OPEN
 10
947.66637300000002
 20
4251.0245329999989
 30
0.0
 41
40.0
 42
40.0
 43
40.0
 50
180.0
  0
INSERT
  5
7ECF
  8
3
  6
CONTINUOUS
 62
     0
  2
_OPEN
 10
2267.666373
 20
4251.0245329999989
 30
0.0
 41
40.0
 42
40.0
 43
40.0
  0
TEXT
  8
3
  40
60
  5
7F09
  62
0
  72
0
  71
0
 10
1442.45
 20
4194.82
 30
0.000000
  1
1320
  0
POINT
  5
7ED1
  8
DEFPOINTS
  6
CONTINUOUS
 62
     0
 10
947.66637300000002
 20
4059.248884000001
 30
0.0
  0
POINT
  5
7ED2
  8
DEFPOINTS
  6
CONTINUOUS
 62
     0
 10
2267.666373
 20
4059.248884000001
 30
0.0
  0
POINT
  5
7ED3
  8
DEFPOINTS
  6
CONTINUOUS
 62
     0
 10
2267.666373
 20
4251.0245329999989
 30
0.0
  0
ENDBLK
  5
7D1C
  8
0
  0
BLOCK
  8
0
  2
*D13
 70
     1
 10
0.0
 20
0.0
 30
0.0
  3
*D13
  1

  0
LINE
  5
7ED4
  8
3
  6
CONTINUOUS
 62
     0
 10
2277.666373
 20
4059.248884000001
 30
0.0
 11
2477.4686109999998
 21
4059.248884000001
 31
0.0
  0
LINE
  5
7ED5
  8
3
  6
CONTINUOUS
 62
     0
 10
2277.666373
 20
3389.2488840000001
 30
0.0
 11
2477.4686109999998
 21
3389.2488840000001
 31
0.0
  0
LINE
  5
7ED6
  8
3
  6
CONTINUOUS
 62
     0
 10
2457.4686109999998
 20
4019.2488840000001
 30
0.0
 11
2457.4686109999998
 21
3429.2488840000001
 31
0.0
  0
INSERT
  5
7ED7
  8
3
  6
CONTINUOUS
 62
     0
  2
_OPEN
 10
2457.4686109999998
 20
4059.248884000001
 30
0.0
 41
40.0
 42
40.0
 43
40.0
 50
90.0
  0
INSERT
  5
7ED8
  8
3
  6
CONTINUOUS
 62
     0
  2
_OPEN
 10
2457.4686109999998
 20
3389.2488840000001
 30
0.0
 41
40.0
 42
40.0
 43
40.0
 50
270.0
  0
TEXT
  8
3
  40
60
  5
7F0A
  62
0
  72
0
  71
0
 10
2287.47
 20
3651.54
 30
0.000000
  1
670
  0
POINT
  5
7EDA
  8
DEFPOINTS
  6
CONTINUOUS
 62
     0
 10
2267.666373
 20
4059.248884000001
 30
0.0
  0
POINT
  5
7EDB
  8
DEFPOINTS
  6
CONTINUOUS
 62
     0
 10
2267.666373
 20
3389.2488840000001
 30
0.0
  0
POINT
  5
7EDC
  8
DEFPOINTS
  6
CONTINUOUS
 62
     0
 10
2457.4686109999998
 20
3389.2488840000001
 30
0.0
  0
ENDBLK
  5
7CDC
  8
0
  0
BLOCK
  8
0
  2
*D14
 70
     1
 10
0.0
 20
0.0
 30
0.0
  3
*D14
  1

  0
LINE
  5
7EDD
  8
3
  6
CONTINUOUS
 62
     0
 10
2799.6459329999989
 20
2840.1388839999991
 30
0.0
 11
2686.4700200000002
 21
2840.1388839999991
 31
0.0
  0
LINE
  5
7EDE
  8
3
  6
CONTINUOUS
 62
     0
 10
2799.6459329999989
 20
1640.1388839999991
 30
0.0
 11
2686.4700200000002
 21
1640.1388839999991
 31
0.0
  0
LINE
  5
7EDF
  8
3
  6
CONTINUOUS
 62
     0
 10
2706.4700200000002
 20
2800.138884
 30
0.0
 11
2706.4700200000002
 21
1680.138884
 31
0.0
  0
INSERT
  5
7EE0
  8
3
  6
CONTINUOUS
 62
     0
  2
_OPEN
 10
2706.4700200000002
 20
2840.1388839999991
 30
0.0
 41
40.0
 42
40.0
 43
40.0
 50
90.0
  0
INSERT
  5
7EE1
  8
3
  6
CONTINUOUS
 62
     0
  2
_OPEN
 10
2706.4700200000002
 20
1640.1388839999991
 30
0.0
 41
40.0
 42
40.0
 43
40.0
 50
270.0
  0
TEXT
  8
3
  40
60
  5
7F0B
  62
0
  72
0
  71
0
 10
2536.47
 20
2172.22
 30
0.000000
  1
1200
  0
POINT
  5
7EE3
  8
DEFPOINTS
  6
CONTINUOUS
 62
     0
 10
2809.6459329999998
 20
2840.1388839999991
 30
0.0
  0
POINT
  5
7EE4
  8
DEFPOINTS
  6
CONTINUOUS
 62
     0
 10
2809.6459329999998
 20
1640.1388839999991
 30
0.0
  0
POINT
  5
7EE5
  8
DEFPOINTS
  6
CONTINUOUS
 62
     0
 10
2706.4700200000002
 20
1640.1388839999991
 30
0.0
  0
ENDBLK
  5
7D3D
  8
0
  0
BLOCK
  8
0
  2
*D15
 70
     1
 10
0.0
 20
0.0
 30
0.0
  3
*D15
  1

  0
LINE
  5
7EE6
  8
3
  6
CONTINUOUS
 62
     0
 10
2999.6459329999998
 20
2666.118884
 30
0.0
 11
2999.6459329999998
 21
2939.3124480000001
 31
0.0
  0
LINE
  5
7EE7
  8
3
  6
CONTINUOUS
 62
     0
 10
3359.6459329999998
 20
2666.118884
 30
0.0
 11
3359.6459329999998
 21
2939.3124480000001
 31
0.0
  0
LINE
  5
7EE8
  8
3
  6
CONTINUOUS
 62
     0
 10
3039.6459329999998
 20
2919.3124480000001
 30
0.0
 11
3319.6459329999989
 21
2919.3124480000001
 31
0.0
  0
INSERT
  5
7EE9
  8
3
  6
CONTINUOUS
 62
     0
  2
_OPEN
 10
2999.6459329999998
 20
2919.3124480000001
 30
0.0
 41
40.0
 42
40.0
 43
40.0
 50
180.0
  0
INSERT
  5
7EEA
  8
3
  6
CONTINUOUS
 62
     0
  2
_OPEN
 10
3359.6459329999998
 20
2919.3124480000001
 30
0.0
 41
40.0
 42
40.0
 43
40.0
  0
TEXT
  8
3
  40
60
  5
7F0C
  62
0
  72
0
  71
0
 10
3050.67
 20
2863.11
 30
0.000000
  1
360
  0
POINT
  5
7EEC
  8
DEFPOINTS
  6
CONTINUOUS
 62
     0
 10
2999.6459329999998
 20
2656.118884
 30
0.0
  0
POINT
  5
7EED
  8
DEFPOINTS
  6
CONTINUOUS
 62
     0
 10
3359.6459329999998
 20
2656.118884
 30
0.0
  0
POINT
  5
7EEE
  8
DEFPOINTS
  6
CONTINUOUS
 62
     0
 10
3359.6459329999998
 20
2919.3124480000001
 30
0.0
  0
ENDBLK
  5
7D61
  8
0
  0
BLOCK
  8
0
  2
*D16
 70
     1
 10
0.0
 20
0.0
 30
0.0
  3
*D16
  1

  0
LINE
  5
7EEF
  8
3
 62
     0
 10
1744.666373
 20
2312.138884
 30
0.0
 11
1744.666373
 21
2975.1324549999999
 31
0.0
  0
LINE
  5
7EF0
  8
3
 62
     0
 10
1387.666373
 20
2955.1324549999999
 30
0.0
 11
1704.666373
 21
2955.1324549999999
 31
0.0
  0
INSERT
  5
7EF1
  8
3
 62
     0
  2
_OPEN
 10
1347.666373
 20
2955.1324549999999
 30
0.0
 41
40.0
 42
40.0
 43
40.0
 50
180.0
  0
INSERT
  5
7EF2
  8
3
 62
     0
  2
_OPEN
 10
1744.666373
 20
2955.1324549999999
 30
0.0
 41
40.0
 42
40.0
 43
40.0
  0
TEXT
  8
3
  40
60
  5
7F0D
  62
0
  72
0
  71
0
 10
1426.17
 20
2898.93
 30
0.000000
  1
397
  0
POINT
  5
7EF4
  8
DEFPOINTS
 62
     0
 10
1347.666373
 20
2904.7884035371708
 30
0.0
  0
POINT
  5
7EF5
  8
DEFPOINTS
 62
     0
 10
1744.666373
 20
2302.138884
 30
0.0
  0
POINT
  5
7EF6
  8
DEFPOINTS
 62
     0
 10
1744.666373
 20
2955.1324549999999
 30
0.0
  0
ENDBLK
  5
7E4E
  8
0
  0
BLOCK
  8
0
  2
*D17
 70
     1
 10
0.0
 20
0.0
 30
0.0
  3
*D17
  1

  0
LINE
  5
7EF7
  8
3
 62
     0
 10
1027.666373
 20
2657.138884
 30
0.0
 11
631.28973899999994
 21
2657.138884
 31
0.0
  0
LINE
  5
7EF8
  8
3
 62
     0
 10
651.28973899999994
 20
2342.138884
 30
0.0
 11
651.28973899999994
 21
2617.138884
 31
0.0
  0
INSERT
  5
7EF9
  8
3
 62
     0
  2
_OPEN
 10
651.28973899999983
 20
2302.138884
 30
0.0
 41
40.0
 42
40.0
 43
40.0
 50
270.0
  0
INSERT
  5
7EFA
  8
3
 62
     0
  2
_OPEN
 10
651.28973899999994
 20
2657.138884
 30
0.0
 41
40.0
 42
40.0
 43
40.0
 50
90.0
  0
TEXT
  8
3
  40
60
  5
7F0E
  62
0
  72
0
  71
0
 10
481.290
 20
2373.44
 30
0.000000
  1
355
  0
POINT
  5
7EFC
  8
DEFPOINTS
 62
     0
 10
825.43023600000004
 20
2302.138884
 30
0.0
  0
POINT
  5
7EFD
  8
DEFPOINTS
 62
     0
 10
1037.666373
 20
2657.138884
 30
0.0
  0
POINT
  5
7EFE
  8
DEFPOINTS
 62
     0
 10
651.28973899999994
 20
2657.138884
 30
0.0
  0
ENDBLK
  5
7E08
  8
0
  0
ENDSEC
  0
SECTION
  2
ENTITIES
  0
LINE
  5
7AD8
  8
1
  6
CONTINUOUS
 10
2267.666373
 20
1640.1388839999991
 30
0.0
 11
2267.666373
 21
2840.1388839999991
 31
0.0
  0
LINE
  5
7AD9
  8
1
  6
CONTINUOUS
 10
947.66637300000002
 20
1640.1388839999991
 30
0.0
 11
947.66637300000002
 21
2840.1388839999991
 31
0.0
  0
LINE
  5
7ADA
  8
1
  6
CONTINUOUS
 10
2227.6663729999991
 20
1677.138884
 30
0.0
 11
2227.6663729999991
 21
2797.138884
 31
0.0
  0
LINE
  5
7ADB
  8
1
  6
CONTINUOUS
 10
987.66637300000002
 20
2797.138884
 30
0.0
 11
987.66637300000002
 21
1677.138884
 31
0.0
  0
CIRCLE
  5
7ADC
  8
1
  6
CONTINUOUS
 10
1347.666373
 20
2302.138884
 30
0.0
 40
275.0
  0
LINE
  5
7ADD
  8
1
  6
CONTINUOUS
 10
1657.666373
 20
2657.138884
 30
0.0
 11
1037.666373
 21
2657.138884
 31
0.0
  0
LINE
  5
7ADE
  8
1
  6
CONTINUOUS
 10
2167.666373
 20
1782.138884
 30
0.0
 11
1037.666373
 21
1782.138884
 31
0.0
  0
LINE
  5
7ADF
  8
1
  6
CONTINUOUS
 10
2167.666373
 20
1702.138884
 30
0.0
 11
1047.6663729999991
 21
1702.138884
 31
0.0
  0
LINE
  5
7AE0
  8
1
  6
CONTINUOUS
 10
2267.666373
 20
1640.1388839999991
 30
0.0
 11
947.66637300000002
 21
1640.1388839999991
 31
0.0
  0
LINE
  5
7AE1
  8
1
  6
CONTINUOUS
 10
992.66637299999991
 20
1840.1388839999991
 30
0.0
 11
1348.0463729999999
 21
1841.138884
 31
0.0
  0
ARC
  5
7AE2
  8
1
  6
CONTINUOUS
 10
1378.1275169999999
 20
2313.2678930000002
 30
0.0
 40
343.89392400000003
 50
99.976388000000014
 51
178.85972100000001
  0
LINE
  5
7AE3
  8
1
  6
CONTINUOUS
 10
987.66637300000002
 20
1677.138884
 30
0.0
 11
2227.6663729999991
 21
1677.138884
 31
0.0
  0
LINE
  5
7AE6
  8
1
  6
CONTINUOUS
 10
1037.666373
 20
1782.138884
 30
0.0
 11
1037.666373
 21
2657.138884
 31
0.0
  0
LINE
  5
7AE7
  8
1
  6
CONTINUOUS
 10
1017.666372999999
 20
2320.1388839999991
 30
0.0
 11
1017.666372999999
 21
1840.2088839999999
 31
0.0
  0
LINE
  5
7AE8
  8
1
  6
CONTINUOUS
 10
992.66637299999991
 20
1823.138884
 30
0.0
 11
992.66637299999991
 21
2337.138884
 31
0.0
  0
LINE
  5
7AE9
  8
1
  6
CONTINUOUS
 10
1047.6663729999991
 20
1782.138884
 30
0.0
 11
1047.6663729999991
 21
1702.138884
 31
0.0
  0
LINE
  5
7AEA
  8
1
  6
CONTINUOUS
 10
1034.2963729999999
 20
2320.1388839999991
 30
0.0
 11
992.66637299999991
 21
2320.1388839999991
 31
0.0
  0
LINE
  5
7AEC
  8
1
  6
CONTINUOUS
 10
1410.1063730000001
 20
2404.6088839999989
 30
0.0
 11
2048.8863729999989
 21
2015.368884
 31
0.0
  0
LINE
  5
7AED
  8
1
  6
CONTINUOUS
 10
1995.0163729999999
 20
1908.5788839999991
 30
0.0
 11
1302.3563730000001
 21
2191.0188839999992
 31
0.0
  0
ARC
  5
7AEE
  8
1
  6
CONTINUOUS
 10
1331.9111843939841
 20
2256.6744484992041
 30
0.0
 40
415.84575538233668
 50
272.22533583350162
 51
6.9897219507776578
  0
ARC
  5
7AEF
  8
1
  6
CONTINUOUS
 10
1378.831181593463
 20
2290.7502588706188
 30
0.0
 40
366.20859549172877
 50
2.5876158645986909
 51
99.474316639468796
  0
LINE
  5
7AF0
  8
1
  6
CONTINUOUS
 10
1362.1663729999991
 20
2522.868884
 30
0.0
 11
2122.166373
 21
2012.8688839999991
 31
0.0
  0
LINE
  5
7AF1
  8
1
  6
CONTINUOUS
 10
1657.666373
 20
1782.138884
 30
0.0
 11
1657.666373
 21
2657.138884
 31
0.0
  0
LINE
  5
7AF2
  8
1
  6
CONTINUOUS
 10
1122.166373
 20
1777.868884
 30
0.0
 11
1122.166373
 21
2447.868884
 31
0.0
  0
CIRCLE
  5
7AF3
  8
1
  6
CONTINUOUS
 10
1347.666373
 20
2302.138884
 30
0.0
 40
120.0
  0
LINE
  5
7AF4
  8
2
  6
CENTER
 10
3512.991051029137
 20
2302.138884
 30
0.0
 11
2770.9056795917818
 21
2302.138884
 31
0.0
  0
CIRCLE
  5
7AF5
  8
1
  6
CONTINUOUS
 10
1347.666373
 20
2302.138884
 30
0.0
 40
250.0
  0
LINE
  5
7AF6
  8
2
  6
CENTER
 10
1347.666373
 20
1521.591936288251
 30
0.0
 11
1347.666373
 21
2904.7884035371708
 31
0.0
  0
LINE
  5
7AF7
  8
1
  6
CONTINUOUS
 10
1122.166373
 20
2447.868884
 30
0.0
 11
1362.1663729999991
 21
2522.868884
 31
0.0
  0
ARC
  5
7AF8
  8
1
  6
CONTINUOUS
 10
2017.666373
 20
1964.138884
 30
0.0
 40
122.0
 50
324.60000000000002
 51
215.39999999999989
  0
LINE
  5
7AF9
  8
1
  6
CONTINUOUS
 10
2147.666373
 20
1832.138884
 30
0.0
 11
2117.1063729999992
 21
1893.4588839999999
 31
0.0
  0
LINE
  5
7AFA
  8
1
  6
CONTINUOUS
 10
1887.666373
 20
1832.138884
 30
0.0
 11
1918.2263729999991
 21
1893.4588839999999
 31
0.0
  0
LINE
  5
7AFB
  8
1
  6
CONTINUOUS
 10
2122.166373
 20
2012.8688839999991
 30
0.0
 11
2122.166373
 21
1777.868884
 31
0.0
  0
LINE
  5
7AFC
  8
1
  6
CONTINUOUS
 10
2147.666373
 20
1832.138884
 30
0.0
 11
1887.666373
 21
1832.138884
 31
0.0
  0
LINE
  5
7AFD
  8
1
  6
CONTINUOUS
 10
1887.666373
 20
1782.138884
 30
0.0
 11
1887.666373
 21
1832.138884
 31
0.0
  0
LINE
  5
7AFE
  8
1
  6
CONTINUOUS
 10
1887.666373
 20
1832.138884
 30
0.0
 11
1937.666373
 21
1832.138884
 31
0.0
  0
LINE
  5
7AFF
  8
1
  6
CONTINUOUS
 10
2147.666373
 20
1832.138884
 30
0.0
 11
2097.666373
 21
1832.138884
 31
0.0
  0
LINE
  5
7B00
  8
1
  6
CONTINUOUS
 10
2147.666373
 20
1782.138884
 30
0.0
 11
2147.666373
 21
1832.138884
 31
0.0
  0
LINE
  5
7B01
  8
1
  6
CONTINUOUS
 10
2167.666373
 20
1782.138884
 30
0.0
 11
2167.666373
 21
1702.138884
 31
0.0
  0
CIRCLE
  5
7B02
  8
1
  6
CONTINUOUS
 10
2017.666373
 20
1964.138884
 30
0.0
 40
60.0
  0
LINE
  5
7B03
  8
2
  6
CENTER
 10
2077.666373
 20
1964.138884
 30
0.0
 11
1957.666373
 21
1964.138884
 31
0.0
  0
LINE
  5
7B04
  8
2
  6
CENTER
 10
2017.666373
 20
1904.1388839999991
 30
0.0
 11
2017.666373
 21
2024.138884
 31
0.0
  0
LINE
  5
7B05
  8
1
  6
CONTINUOUS
 10
2267.666373
 20
2840.1388839999991
 30
0.0
 11
947.66637300000002
 21
2840.1388839999991
 31
0.0
  0
LINE
  5
7B06
  8
1
  6
CONTINUOUS
 10
2267.666373
 20
4059.248884000001
 30
0.0
 11
947.66637300000002
 21
4059.248884000001
 31
0.0
  0
LINE
  5
7B07
  8
1
  6
CONTINUOUS
 10
2267.666373
 20
3389.2488840000001
 30
0.0
 11
947.66637300000002
 21
3389.2488840000001
 31
0.0
  0
LINE
  5
7B08
  8
1
  6
CONTINUOUS
 10
1755.8563730000001
 20
3577.248884000001
 30
0.0
 11
992.66637299999991
 21
3577.248884000001
 31
0.0
  0
LINE
  5
7B09
  8
1
  6
CONTINUOUS
 10
1755.8563730000001
 20
3941.248884000001
 30
0.0
 11
992.66637299999991
 21
3941.248884000001
 31
0.0
  0
LINE
  5
7B0A
  8
1
  6
CONTINUOUS
 10
1328.666373
 20
3535.2488840000001
 30
0.0
 11
1047.6663729999991
 21
3535.2488840000001
 31
0.0
  0
LINE
  5
7B0B
  8
1
  6
CONTINUOUS
 10
2167.666373
 20
3983.2488840000001
 30
0.0
 11
1047.6663729999991
 21
3983.2488840000001
 31
0.0
  0
LINE
  5
7B0C
  8
1
  6
CONTINUOUS
 10
987.66637300000002
 20
4019.2488840000001
 30
0.0
 11
2227.6663729999991
 21
4019.2488840000001
 31
0.0
  0
LINE
  5
7B0D
  8
1
  6
CONTINUOUS
 10
2227.6663729999991
 20
3429.2488840000001
 30
0.0
 11
987.66637300000002
 21
3429.2488840000001
 31
0.0
  0
LINE
  5
7B0E
  8
1
  6
CONTINUOUS
 10
2227.6663729999991
 20
2797.138884
 30
0.0
 11
987.66637300000002
 21
2797.138884
 31
0.0
  0
LINE
  5
7B0F
  8
1
  6
CONTINUOUS
 10
947.66637300000002
 20
3389.2488840000001
 30
0.0
 11
947.66637300000002
 21
4059.248884000001
 31
0.0
  0
LINE
  5
7B10
  8
1
  6
CONTINUOUS
 10
992.66637299999991
 20
3552.2488840000001
 30
0.0
 11
992.66637299999991
 21
3966.2488840000001
 31
0.0
  0
LINE
  5
7B11
  8
1
  6
CONTINUOUS
 10
1017.666372999999
 20
3578.2488840000001
 30
0.0
 11
1017.666372999999
 21
3940.2488840000001
 31
0.0
  0
LINE
  5
7B12
  8
1
  6
CONTINUOUS
 10
987.66637300000002
 20
3429.2488840000001
 30
0.0
 11
987.66637300000002
 21
4019.2488840000001
 31
0.0
  0
LINE
  5
7B13
  8
1
  6
CONTINUOUS
 10
1047.6663729999991
 20
3577.248884000001
 30
0.0
 11
1047.6663729999991
 21
3535.2488840000001
 31
0.0
  0
LINE
  5
7B14
  8
1
  6
CONTINUOUS
 10
1047.6663729999991
 20
3983.2488840000001
 30
0.0
 11
1047.6663729999991
 21
3941.248884000001
 31
0.0
  0
LINE
  5
7B15
  8
1
  6
CONTINUOUS
 10
1998.666373
 20
3535.2488840000001
 30
0.0
 11
1366.666373
 21
3535.2488840000001
 31
0.0
  0
LINE
  5
7B16
  8
1
  6
CONTINUOUS
 10
2122.166373
 20
3509.248884000001
 30
0.0
 11
1122.166373
 21
3509.248884000001
 31
0.0
  0
LINE
  5
7B17
  8
1
  6
CONTINUOUS
 10
1227.666373
 20
3479.2488840000001
 30
0.0
 11
1467.666373
 21
3479.2488840000001
 31
0.0
  0
LINE
  5
7B18
  8
1
  6
CONTINUOUS
 10
1467.666373
 20
3419.2488840000001
 30
0.0
 11
1227.666373
 21
3419.2488840000001
 31
0.0
  0
LINE
  5
7B19
  8
1
  6
CONTINUOUS
 10
1122.166373
 20
3509.248884000001
 30
0.0
 11
1122.166373
 21
3389.2488840000001
 31
0.0
  0
LINE
  5
7B1A
  8
1
  6
CONTINUOUS
 10
1227.666373
 20
3419.2488840000001
 30
0.0
 11
1227.666373
 21
3479.2488840000001
 31
0.0
  0
LINE
  5
7B1B
  8
1
  6
CONTINUOUS
 10
1366.666373
 20
3479.2488840000001
 30
0.0
 11
1366.666373
 21
3578.2488840000001
 31
0.0
  0
LINE
  5
7B1C
  8
1
  6
CONTINUOUS
 10
1328.666373
 20
3479.2488840000001
 30
0.0
 11
1328.666373
 21
3578.2488840000001
 31
0.0
  0
LINE
  5
7B1D
  8
1
  6
CONTINUOUS
 10
1467.666373
 20
3419.2488840000001
 30
0.0
 11
1467.666373
 21
3479.2488840000001
 31
0.0
  0
LINE
  5
7B1E
  8
1
  6
CONTINUOUS
 10
2267.666373
 20
3389.2488840000001
 30
0.0
 11
2267.666373
 21
4059.248884000001
 31
0.0
  0
LINE
  5
7B1F
  8
1
  6
CONTINUOUS
 10
2139.666373
 20
3559.4888839999999
 30
0.0
 11
2139.666373
 21
3909.4888839999999
 31
0.0
  0
LINE
  5
7B20
  8
1
  6
CONTINUOUS
 10
1895.666373
 20
3559.4888839999999
 30
0.0
 11
1895.666373
 21
3909.4888839999999
 31
0.0
  0
LINE
  5
7B21
  8
1
  6
CONTINUOUS
 10
2167.666373
 20
3983.2488840000001
 30
0.0
 11
2167.666373
 21
3535.2488840000001
 31
0.0
  0
LINE
  5
7B22
  8
1
  6
CONTINUOUS
 10
1755.8563730000001
 20
3577.248884000001
 30
0.0
 11
1755.8563730000001
 21
3941.248884000001
 31
0.0
  0
LINE
  5
7B23
  8
1
  6
CONTINUOUS
 10
2227.6663729999991
 20
4019.2488840000001
 30
0.0
 11
2227.6663729999991
 21
3429.2488840000001
 31
0.0
  0
LINE
  5
7B24
  8
1
  6
CONTINUOUS
 10
2057.6663729999991
 20
3419.2488840000001
 30
0.0
 11
1977.6663729999991
 21
3419.2488840000001
 31
0.0
  0
LINE
  5
7B25
  8
1
  6
CONTINUOUS
 10
2139.666373
 20
3559.4888839999999
 30
0.0
 11
1895.666373
 21
3559.4888839999999
 31
0.0
  0
LINE
  5
7B26
  8
1
  6
CONTINUOUS
 10
1977.6663729999991
 20
3479.2488840000001
 30
0.0
 11
2057.6663729999991
 21
3479.2488840000001
 31
0.0
  0
LINE
  5
7B27
  8
1
  6
CONTINUOUS
 10
1977.6663729999991
 20
3479.2488840000001
 30
0.0
 11
1977.6663729999991
 21
3419.2488840000001
 31
0.0
  0
LINE
  5
7B28
  8
1
  6
CONTINUOUS
 10
2167.666373
 20
3535.2488840000001
 30
0.0
 11
2036.666373
 21
3535.2488840000001
 31
0.0
  0
LINE
  5
7B29
  8
1
  6
CONTINUOUS
 10
1998.666373
 20
3479.2488840000001
 30
0.0
 11
1998.666373
 21
3559.4888839999999
 31
0.0
  0
LINE
  5
7B2A
  8
1
  6
CONTINUOUS
 10
2036.666373
 20
3479.2488840000001
 30
0.0
 11
2036.666373
 21
3559.4888839999999
 31
0.0
  0
LINE
  5
7B2B
  8
1
  6
CONTINUOUS
 10
2057.6663729999991
 20
3479.2488840000001
 30
0.0
 11
2057.6663729999991
 21
3419.2488840000001
 31
0.0
  0
LINE
  5
7B2C
  8
1
  6
CONTINUOUS
 10
2122.166373
 20
3389.2488840000001
 30
0.0
 11
2122.166373
 21
3509.248884000001
 31
0.0
  0
LINE
  5
7B2D
  8
1
  6
CONTINUOUS
 10
2139.666373
 20
3909.4888839999999
 30
0.0
 11
1895.666373
 21
3909.4888839999999
 31
0.0
  0
LINE
  5
7B30
  8
1
  6
CONTINUOUS
 10
2809.6459329999998
 20
2840.1388839999991
 30
0.0
 11
2809.6459329999998
 21
1640.1388839999991
 31
0.0
  0
LINE
  5
7B31
  8
1
  6
CONTINUOUS
 10
3479.6459329999998
 20
2840.1388839999991
 30
0.0
 11
3479.6459329999998
 21
1640.1388839999991
 31
0.0
  0
LINE
  5
7B34
  8
1
  6
CONTINUOUS
 10
2849.6459329999989
 20
1677.138884
 30
0.0
 11
2849.6459329999989
 21
2797.138884
 31
0.0
  0
LINE
  5
7B35
  8
1
  6
CONTINUOUS
 10
3439.6459329999989
 20
2797.138884
 30
0.0
 11
3439.6459329999989
 21
1677.138884
 31
0.0
  0
LINE
  5
7B36
  8
1
  6
CONTINUOUS
 10
2809.6459329999998
 20
1640.1388839999991
 30
0.0
 11
3479.6459329999998
 21
1640.1388839999991
 31
0.0
  0
LINE
  5
7B37
  8
1
  6
CONTINUOUS
 10
3359.6459329999998
 20
2347.138884
 30
0.0
 11
2999.6459329999998
 21
2347.138884
 31
0.0
  0
LINE
  5
7B38
  8
1
  6
CONTINUOUS
 10
2999.6459329999998
 20
1813.1388839999991
 30
0.0
 11
3359.6459329999998
 21
1813.1388839999991
 31
0.0
  0
LINE
  5
7B39
  8
1
  6
CONTINUOUS
 10
2955.6459329999989
 20
1702.138884
 30
0.0
 11
3403.6459329999989
 21
1702.138884
 31
0.0
  0
LINE
  5
7B3A
  8
1
  6
CONTINUOUS
 10
2955.6459329999989
 20
1782.138884
 30
0.0
 11
3403.6459329999989
 21
1782.138884
 31
0.0
  0
LINE
  5
7B3B
  8
1
  6
CONTINUOUS
 10
3359.6459329999998
 20
2656.118884
 30
0.0
 11
2999.6459329999998
 21
2656.118884
 31
0.0
  0
LINE
  5
7B3C
  8
1
  6
CONTINUOUS
 10
2999.6459329999998
 20
2347.138884
 30
0.0
 11
3359.6459329999998
 21
1813.1388839999991
 31
0.0
  0
LINE
  5
7B3D
  8
1
  6
CONTINUOUS
 10
3359.6459329999998
 20
2347.138884
 30
0.0
 11
2999.6459329999998
 21
1813.1388839999991
 31
0.0
  0
LINE
  5
7B3E
  8
1
  6
CONTINUOUS
 10
3439.6459329999989
 20
1677.138884
 30
0.0
 11
2849.6459329999989
 21
1677.138884
 31
0.0
  0
LINE
  5
7B67
  8
1
  6
CONTINUOUS
 10
2999.6459329999998
 20
2656.118884
 30
0.0
 11
2999.6459329999998
 21
1782.138884
 31
0.0
  0
LINE
  5
7B68
  8
1
  6
CONTINUOUS
 10
2929.6459329999989
 20
2527.138884
 30
0.0
 11
2929.6459329999989
 21
1782.138884
 31
0.0
  0
LINE
  5
7B6A
  8
1
  6
CONTINUOUS
 10
2929.6459329999989
 20
1782.138884
 30
0.0
 11
2809.6459329999998
 21
1782.138884
 31
0.0
  0
LINE
  5
7B6D
  8
1
  6
CONTINUOUS
 10
2955.6459329999989
 20
1782.138884
 30
0.0
 11
2955.6459329999989
 21
1702.138884
 31
0.0
  0
LINE
  5
7B6E
  8
1
  6
CONTINUOUS
 10
2899.6459329999998
 20
2182.138884
 30
0.0
 11
2839.6459329999989
 21
2182.138884
 31
0.0
  0
LINE
  5
7B6F
  8
1
  6
CONTINUOUS
 10
2899.6459329999998
 20
2422.138884
 30
0.0
 11
2839.6459329999989
 21
2422.138884
 31
0.0
  0
LINE
  5
7B70
  8
1
  6
CONTINUOUS
 10
2839.6459329999989
 20
1914.138884
 30
0.0
 11
2899.6459329999998
 21
1914.138884
 31
0.0
  0
LINE
  5
7B71
  8
1
  6
CONTINUOUS
 10
2899.6459329999998
 20
2014.138884
 30
0.0
 11
2839.6459329999989
 21
2014.138884
 31
0.0
  0
LINE
  5
7B72
  8
1
  6
CONTINUOUS
 10
2809.6459329999998
 20
2527.138884
 30
0.0
 11
2929.6459329999989
 21
2527.138884
 31
0.0
  0
LINE
  5
7B73
  8
1
  6
CONTINUOUS
 10
2839.6459329999989
 20
2422.138884
 30
0.0
 11
2839.6459329999989
 21
2182.138884
 31
0.0
  0
LINE
  5
7B74
  8
1
  6
CONTINUOUS
 10
2839.6459329999989
 20
2014.138884
 30
0.0
 11
2839.6459329999989
 21
1914.138884
 31
0.0
  0
LINE
  5
7B75
  8
1
  6
CONTINUOUS
 10
2899.6459329999998
 20
2182.138884
 30
0.0
 11
2899.6459329999998
 21
2422.138884
 31
0.0
  0
LINE
  5
7B76
  8
1
  6
CONTINUOUS
 10
2899.6459329999998
 20
2283.1388839999991
 30
0.0
 11
2999.6459329999998
 21
2283.1388839999991
 31
0.0
  0
LINE
  5
7B77
  8
1
  6
CONTINUOUS
 10
2899.6459329999998
 20
2321.138884
 30
0.0
 11
2999.6459329999998
 21
2321.138884
 31
0.0
  0
LINE
  5
7B78
  8
1
  6
CONTINUOUS
 10
2899.6459329999998
 20
1914.138884
 30
0.0
 11
2899.6459329999998
 21
2014.138884
 31
0.0
  0
LINE
  5
7B79
  8
1
  6
CONTINUOUS
 10
2899.6459329999998
 20
1945.138884
 30
0.0
 11
2999.6459329999998
 21
1945.138884
 31
0.0
  0
LINE
  5
7B7A
  8
1
  6
CONTINUOUS
 10
2899.6459329999998
 20
1983.1388839999991
 30
0.0
 11
2999.6459329999998
 21
1983.1388839999991
 31
0.0
  0
LINE
  5
7B7C
  8
1
  6
CONTINUOUS
 10
3359.6459329999998
 20
2656.118884
 30
0.0
 11
3359.6459329999998
 21
1782.138884
 31
0.0
  0
LINE
  5
7B7D
  8
1
  6
CONTINUOUS
 10
3403.6459329999989
 20
1782.138884
 30
0.0
 11
3403.6459329999989
 21
1702.138884
 31
0.0
  0
LINE
  5
7B7E
  8
1
  6
CONTINUOUS
 10
2809.6459329999998
 20
2840.1388839999991
 30
0.0
 11
3479.6459329999998
 21
2840.1388839999991
 31
0.0
  0
LINE
  5
7B7F
  8
1
  6
CONTINUOUS
 10
2849.6459329999989
 20
2797.138884
 30
0.0
 11
3439.6459329999989
 21
2797.138884
 31
0.0
  0
LINE
  5
7BA9
  8
2
  6
CENTER
 10
3179.6459329999989
 20
2899.742338
 30
0.0
 11
3179.6459329999989
 21
1511.748019277497
 31
0.0
  0
LINE
  5
7BAA
  8
2
  6
CENTER
 10
862.42962499999999
 20
3759.248884000001
 30
0.0
 11
2305.6329457600141
 21
3759.248884000001
 31
0.0
  0
LINE
  5
7BAB
  8
2
  6
CENTER
 10
1347.666373
 20
3314.5732720000001
 30
0.0
 11
1347.666373
 21
4130.9706299999998
 31
0.0
  0
LINE
  5
7BAC
  8
2
  6
CENTER
 10
2340.1879800000002
 20
2302.138884
 30
0.0
 11
835.43023600000004
 21
2302.138884
 31
0.0
  0
LINE
  5
7BAD
  8
4
  6
CONTINUOUS
 10
3700.0
 20
1000.0
 30
0.0
 11
3700.0
 21
600.0
 31
0.0
  0
LINE
  5
7BAE
  8
4
  6
CONTINUOUS
 10
2300.0
 20
1000.0
 30
0.0
 11
2300.0
 21
600.0
 31
0.0
  0
LINE
  5
7BAF
  8
4
  6
CONTINUOUS
 10
1300.0
 20
1000.0
 30
0.0
 11
1300.0
 21
600.0
 31
0.0
  0
LINE
  5
7BB2
  8
4
  6
CONTINUOUS
 10
1300.0
 20
600.0
 30
0.0
 11
3700.0
 21
600.0
 31
0.0
  0
LINE
  5
7BB3
  8
4
  6
CONTINUOUS
 10
1300.0
 20
800.0
 30
0.0
 11
3700.0
 21
800.0
 31
0.0
  0
TEXT
  5
7BB4
  8
4
  6
CONTINUOUS
 10
1377.004162
 20
863.086052
 30
0.0
 40
100.0
  1
機器名称
  0
TEXT
  5
7BB5
  8
4
  6
CONTINUOUS
 10
1372.516212
 20
643.29031299999986
 30
0.0
 40
100.0
  1
機器型番
  0
TEXT
  5
7BB6
  8
4
  6
CONTINUOUS
 10
2355.3574910000002
 20
845.14353800000015
 30
0.0
 40
100.0
  1
ミツヤ多翼送風機
  0
TEXT
  5
7BB7
  8
4
  6
CONTINUOUS
 10
2373.3089909999999
 20
634.31916899999999
 30
0.0
 40
100.0
  1
MF#3-4
  0
TEXT
  5
7BB9
  8
4
  6
CONTINUOUS
 10
1500.6816249999999
 20
4766.8576830000002
 30
0.0
 40
108.0
  1
天井吊枠防振ベット
  0
TEXT
  5
7BBA
  8
4
  6
CONTINUOUS
 10
632.33518700000002
 20
5067.7619520000007
 30
0.0
 40
144.0
  1
ベルト駆動式片吸込両持多翼ファン
  0
LINE
  5
7BBB
  8
4
  6
CONTINUOUS
 10
500.0
 20
4938.8175090000004
 30
0.0
 11
3700.0
 21
4938.8175090000004
 31
0.0
  0
LINE
  5
7BBC
  8
4
  6
CONTINUOUS
 10
500.0
 20
5338.8175090000004
 30
0.0
 11
3700.0
 21
5338.8175090000004
 31
0.0
  0
LINE
  5
7BBD
  8
4
  6
CONTINUOUS
 10
1300.0
 20
1000.0
 30
0.0
 11
3700.0
 21
1000.0
 31
0.0
  0
LINE
  5
7BBE
  8
4
  6
CONTINUOUS
 10
500.0
 20
5338.8175090000004
 30
0.0
 11
500.0
 21
4938.8175090000004
 31
0.0
  0
TEXT
  5
7BBF
  8
4
  6
CONTINUOUS
 10
628.96395999999993
 20
4764.6389549999994
 30
0.0
 40
108.0
  1
右回転左横向
  0
TEXT
  5
7BC0
  8
4
  6
CONTINUOUS
 10
2937.9391179999998
 20
5412.122163
 30
0.0
 40
112.0
  1
No.
  0
TEXT
  5
7BC1
  8
4
  6
CONTINUOUS
 10
2713.6474539999999
 20
4766.8576830000002
 30
0.0
 40
108.0
  1
縮尺：1/20
  0
LINE
  5
7BC2
  8
4
  6
CONTINUOUS
 10
3700.0
 20
5338.8175090000004
 30
0.0
 11
3700.0
 21
4938.8175090000004
 31
0.0
  0
LINE
  5
7BC4
  8
4
  6
CONTINUOUS
 10
2881.234845
 20
5362.5271659999999
 30
0.0
 11
2881.234845
 21
5573.3045229999998
 31
0.0
  0
LINE
  5
7BC5
  8
4
  6
CONTINUOUS
 10
2881.234845
 20
5573.3045229999998
 30
0.0
 11
3700.0
 21
5573.3045229999998
 31
0.0
  0
LINE
  5
7BC6
  8
4
  6
CONTINUOUS
 10
3700.0
 20
5573.3045229999998
 30
0.0
 11
3700.0
 21
5362.5271659999999
 31
0.0
  0
LINE
  5
7BC7
  8
4
  6
CONTINUOUS
 10
3700.0
 20
5362.5271659999999
 30
0.0
 11
2881.234845
 21
5362.5271659999999
 31
0.0
  0
DIMENSION
  5
7BDF
  8
3
  6
CONTINUOUS
  2
*D1
 10
880.8294080000004
 20
1840.1388839999991
 30
0.0
 11
880.82940800000006
 21
2070.585630999999
 31
0.0
 70
   128
 13
992.66637299999991
 23
2320.1388839999991
 33
0.0
 14
992.66637299999991
 24
1840.1388839999991
 34
0.0
 50
90.0
1001
ACAD
1000
DSTYLE
1002
{
1070
   287
1070
     3
1070
    40
1040
20.0
1070
   143
1040
0.039
1070
   172
1070
     1
1070
   271
1070
     0
1070
   279
1070
     0
1070
   288
1070
     1
1002
}
  0
DIMENSION
  5
7BEC
  8
3
  6
CONTINUOUS
  2
*D2
 10
761.64534400000025
 20
1840.1388839999991
 30
0.0
 11
761.64534400000002
 21
2079.405847999999
 31
0.0
 70
   128
 13
835.43023600000004
 23
2302.138884
 33
0.0
 14
947.66637300000002
 24
1840.1388839999991
 34
0.0
 50
90.0
1001
ACAD
1000
DSTYLE
1002
{
1070
   287
1070
     3
1070
    40
1040
20.0
1070
   143
1040
0.039
1070
   172
1070
     1
1070
   271
1070
     0
1070
   279
1070
     0
1070
   288
1070
     1
1002
}
  0
DIMENSION
  5
7BF9
  8
3
  6
CONTINUOUS
  2
*D3
 10
651.28973900000005
 20
1702.138884
 30
0.0
 11
651.28973899999994
 21
2088.2260780000001
 31
0.0
 70
   128
 13
825.43023600000004
 23
2302.138884
 33
0.0
 14
1047.6663729999991
 24
1702.138884
 34
0.0
 50
90.0
1001
ACAD
1000
DSTYLE
1002
{
1070
   287
1070
     3
1070
    40
1040
20.0
1070
   143
1040
0.039
1070
   172
1070
     1
1070
   271
1070
     0
1070
   279
1070
     0
1070
   288
1070
     1
1002
}
  0
DIMENSION
  5
7C09
  8
3
  6
CONTINUOUS
  2
*D4
 10
651.31010900000024
 20
1640.1388839999991
 30
0.0
 11
651.31010900000001
 21
1491.5674554285711
 31
0.0
 70
   128
 13
1047.6663729999991
 23
1702.138884
 33
0.0
 14
947.66637300000002
 24
1640.1388839999991
 34
0.0
 50
90.0
1001
ACAD
1000
DSTYLE
1002
{
1070
   287
1070
     3
1070
    40
1040
20.0
1070
   143
1040
0.039
1070
   172
1070
     1
1070
   271
1070
     0
1070
   279
1070
     0
1070
   288
1070
     1
1002
}
  0
DIMENSION
  5
7C16
  8
3
  6
CONTINUOUS
  2
*D5
 10
1347.666373
 20
1473.5075384528809
 30
0.0
 11
1136.245576
 21
1473.5075384528809
 31
0.0
 70
   128
 13
947.66637300000002
 23
1640.1388839999991
 33
0.0
 14
1347.666373
 24
1521.591936288251
 34
0.0
1001
ACAD
1000
DSTYLE
1002
{
1070
   287
1070
     3
1070
    40
1040
20.0
1070
   143
1040
0.039
1070
   172
1070
     1
1070
   271
1070
     0
1070
   279
1070
     0
1070
   288
1070
     1
1002
}
  0
DIMENSION
  5
7C22
  8
3
  6
CONTINUOUS
  2
*D6
 10
2267.666373
 20
1473.5075384528809
 30
0.0
 11
1807.6663729999991
 21
1523.5075384528809
 31
0.0
 70
     0
 13
1347.666373
 23
1521.591936288251
 33
0.0
 14
2267.666373
 24
1640.1388839999991
 34
0.0
1001
ACAD
1000
DSTYLE
1002
{
1070
   287
1070
     4
1070
    40
1040
20.0
1070
    75
1070
     1
1070
   143
1040
0.039
1070
   172
1070
     1
1070
   271
1070
     0
1070
   279
1070
     1
1070
   288
1070
     1
1002
}
  0
DIMENSION
  5
7C2F
  8
3
  6
CONTINUOUS
  2
*D7
 10
1347.666373
 20
2955.1324549999999
 30
0.0
 11
1161.817626
 21
2955.1324549999999
 31
0.0
 70
   128
 13
992.66637299999991
 23
2337.138884
 33
0.0
 14
1347.666373
 24
2904.7884035371708
 34
0.0
1001
ACAD
1000
DSTYLE
1002
{
1070
   287
1070
     3
1070
    40
1040
20.0
1070
   143
1040
0.039
1070
   172
1070
     1
1070
   271
1070
     0
1070
   279
1070
     0
1070
   288
1070
     1
1002
}
  0
LINE
  5
7C7F
  8
1
  6
CONTINUOUS
 10
3360.6459329999998
 20
2552.138884
 30
0.0
 11
3360.6459329999998
 21
2052.138884
 31
0.0
  0
DIMENSION
  5
7C8F
  8
3
  6
CONTINUOUS
  2
*D8
 10
3659.435613000001
 20
2052.138884
 30
0.0
 11
3659.4356130000001
 21
2299.3944149999988
 31
0.0
 70
   128
 13
3360.6459329999998
 23
2552.138884
 33
0.0
 14
3360.6459329999998
 24
2052.138884
 34
0.0
 50
90.0
1001
ACAD
1000
DSTYLE
1002
{
1070
   287
1070
     3
1070
     3
1000
φ<>
1070
    40
1040
20.0
1070
   143
1040
0.039
1070
   172
1070
     1
1070
   271
1070
     0
1070
   279
1070
     0
1070
   288
1070
     1
1002
}
  0
DIMENSION
  5
7C9E
  8
3
  6
CONTINUOUS
  2
*D9
 10
3179.6459329999989
 20
3056.3239749999989
 30
0.0
 11
3270.1459329999998
 21
3101.308673265688
 31
0.0
 70
   128
 13
3360.6459329999998
 23
2552.138884
 33
0.0
 14
3179.6459329999989
 24
3016.7219809999988
 34
0.0
1001
ACAD
1000
DSTYLE
1002
{
1070
   288
1070
     1
1070
   172
1070
     1
1070
    40
1040
20.0
1070
   271
1070
     0
1070
   143
1040
0.039
1002
}
  0
DIMENSION
  5
7CB7
  8
3
  6
CONTINUOUS
  2
*D10
 10
3179.6459329999989
 20
1463.7341142774969
 30
0.0
 11
3003.086088
 21
1463.7341142774969
 31
0.0
 70
   128
 13
2809.6459329999998
 23
1640.1388839999991
 33
0.0
 14
3179.6459329999989
 24
1511.748019277497
 34
0.0
1001
ACAD
1000
DSTYLE
1002
{
1070
   287
1070
     3
1070
    40
1040
20.0
1070
   143
1040
0.039
1070
   172
1070
     1
1070
   271
1070
     0
1070
   279
1070
     0
1070
   288
1070
     1
1002
}
  0
DIMENSION
  5
7CC3
  8
3
  6
CONTINUOUS
  2
*D11
 10
3479.6459329999998
 20
1463.7341142774969
 30
0.0
 11
3329.6459329999998
 21
1513.7341142774969
 31
0.0
 70
     0
 13
3179.6459329999989
 23
1511.748019277497
 33
0.0
 14
3479.6459329999998
 24
1640.1388839999991
 34
0.0
1001
ACAD
1000
DSTYLE
1002
{
1070
   287
1070
     4
1070
    40
1040
20.0
1070
    75
1070
     1
1070
   143
1040
0.039
1070
   172
1070
     1
1070
   271
1070
     0
1070
   279
1070
     1
1070
   288
1070
     1
1002
}
  0
DIMENSION
  5
7CD0
  8
3
  6
CONTINUOUS
  2
*D12
 10
2267.666373
 20
4251.0245329999989
 30
0.0
 11
1562.446557
 21
4251.0245329999989
 31
0.0
 70
   128
 13
947.66637300000002
 23
4059.248884000001
 33
0.0
 14
2267.666373
 24
4059.248884000001
 34
0.0
1001
ACAD
1000
DSTYLE
1002
{
1070
   287
1070
     3
1070
    40
1040
20.0
1070
   143
1040
0.039
1070
   172
1070
     1
1070
   271
1070
     0
1070
   279
1070
     0
1070
   288
1070
     1
1002
}
  0
DIMENSION
  5
7CDD
  8
3
  6
CONTINUOUS
  2
*D13
 10
2457.4686109999998
 20
3389.2488840000001
 30
0.0
 11
2457.4686109999989
 21
3757.7408979999991
 31
0.0
 70
   128
 13
2267.666373
 23
4059.248884000001
 33
0.0
 14
2267.666373
 24
3389.2488840000001
 34
0.0
 50
90.0
1001
ACAD
1000
DSTYLE
1002
{
1070
   287
1070
     3
1070
    40
1040
20.0
1070
   143
1040
0.039
1070
   172
1070
     1
1070
   271
1070
     0
1070
   279
1070
     0
1070
   288
1070
     1
1002
}
  0
DIMENSION
  5
7D3E
  8
3
  6
CONTINUOUS
  2
*D14
 10
2706.4700200000002
 20
1640.1388839999991
 30
0.0
 11
2706.4700199999988
 21
2278.4238770000002
 31
0.0
 70
   128
 13
2809.6459329999998
 23
2840.1388839999991
 33
0.0
 14
2809.6459329999998
 24
1640.1388839999991
 34
0.0
 50
90.0
1001
ACAD
1000
DSTYLE
1002
{
1070
   287
1070
     3
1070
    40
1040
20.0
1070
   143
1040
0.039
1070
   172
1070
     1
1070
   271
1070
     0
1070
   279
1070
     0
1070
   288
1070
     1
1002
}
  0
DIMENSION
  5
7D62
  8
3
  6
CONTINUOUS
  2
*D15
 10
3359.6459329999998
 20
2919.3124480000001
 30
0.0
 11
3170.6736190000001
 21
2919.3124480000001
 31
0.0
 70
   128
 13
2999.6459329999998
 23
2656.118884
 33
0.0
 14
3359.6459329999998
 24
2656.118884
 34
0.0
1001
ACAD
1000
DSTYLE
1002
{
1070
   287
1070
     3
1070
    40
1040
20.0
1070
   143
1040
0.039
1070
   172
1070
     1
1070
   271
1070
     0
1070
   279
1070
     0
1070
   288
1070
     1
1002
}
  0
DIMENSION
  5
7DF2
  8
3
  2
*D16
 10
1744.666373
 20
2955.1324549999999
 30
0.0
 11
1546.166373
 21
3005.1324549999999
 31
0.0
 70
     0
 13
1347.666373
 23
2904.7884035371708
 33
0.0
 14
1744.666373
 24
2302.138884
 34
0.0
1001
ACAD
1000
DSTYLE
1002
{
1070
   287
1070
     4
1070
    40
1040
20.0
1070
    75
1070
     1
1070
   143
1040
0.039
1070
   172
1070
     1
1070
   271
1070
     0
1070
   279
1070
     1
1070
   288
1070
     1
1002
}
  0
DIMENSION
  5
7E09
  8
3
  2
*D17
 10
651.28973899999994
 20
2657.138884
 30
0.0
 11
601.28973899999937
 21
2479.6388839999991
 31
0.0
 70
     0
 13
825.43023600000004
 23
2302.138884
 33
0.0
 14
1037.666373
 24
2657.138884
 34
0.0
 50
90.0
1001
ACAD
1000
DSTYLE
1002
{
1070
   287
1070
     4
1070
    40
1040
20.0
1070
    75
1070
     1
1070
   143
1040
0.039
1070
   172
1070
     1
1070
   271
1070
     0
1070
   279
1070
     1
1070
   288
1070
     1
1002
}
  0
ENDSEC
  0
EOF
