  0
SECTION
  2
HEADER
  9
$ACADVER
  1
AC1009
  9
$INSBASE
 10
0.0
 20
0.0
 30
0.0
  9
$EXTMIN
 10
500.0
 20
600.0
 30
0.0
  9
$EXTMAX
 10
3700.0
 20
5573.3045229999998
 30
0.0
  9
$LIMMIN
 10
0.0
 20
0.0
  9
$LIMMAX
 10
297.0
 20
210.0
  9
$ORTHOMODE
 70
     0
  9
$REGENMODE
 70
     1
  9
$FILLMODE
 70
     0
  9
$QTEXTMODE
 70
     0
  9
$MIRRTEXT
 70
     1
  9
$DRAGMODE
 70
     2
  9
$LTSCALE
 40
100.0
  9
$OSMODE
 70
    37
  9
$ATTMODE
 70
     1
  9
$TEXTSIZE
 40
180.0
  9
$TRACEWID
 40
0.05
  9
$TEXTSTYLE
  7
STANDARD
  9
$CLAYER
  8
3
  9
$CELTYPE
  6
BYLAYER
  9
$CECOLOR
 62
   256
  9
$DIMSCALE
 40
20.0
  9
$DIMASZ
 40
2.0
  9
$DIMEXO
 40
0.5
  9
$DIMDLI
 40
10.0
  9
$DIMRND
 40
0.0
  9
$DIMDLE
 40
0.0
  9
$DIMEXE
 40
1.0
  9
$DIMTP
 40
1.0
  9
$DIMTM
 40
1.0
  9
$DIMTXT
 40
3.0
  9
$DIMCEN
 40
0.0
  9
$DIMTSZ
 40
0.0
  9
$DIMTOL
 70
     0
  9
$DIMLIM
 70
     0
  9
$DIMTIH
 70
     0
  9
$DIMTOH
 70
     0
  9
$DIMSE1
 70
     0
  9
$DIMSE2
 70
     0
  9
$DIMTAD
 70
     1
  9
$DIMZIN
 70
     8
  9
$DIMBLK
  1

  9
$DIMASO
 70
     1
  9
$DIMSHO
 70
     1
  9
$DIMPOST
  1

  9
$DIMAPOST
  1

  9
$DIMALT
 70
     0
  9
$DIMALTD
 70
     2
  9
$DIMALTF
 40
0.039
  9
$DIMLFAC
 40
1.0
  9
$DIMTOFL
 70
     1
  9
$DIMTVP
 40
0.0
  9
$DIMTIX
 70
     0
  9
$DIMSOXD
 70
     0
  9
$DIMSAH
 70
     1
  9
$DIMBLK1
  1
OPEN
  9
$DIMBLK2
  1
OPEN
  9
$DIMSTYLE
  2
IGA
  9
$DIMCLRD
 70
     0
  9
$DIMCLRE
 70
     0
  9
$DIMCLRT
 70
     0
  9
$DIMTFAC
 40
10.0
  9
$DIMGAP
 40
1.0
  9
$LUNITS
 70
     2
  9
$LUPREC
 70
     3
  9
$SKETCHINC
 40
0.1
  9
$FILLETRAD
 40
50.0
  9
$AUNITS
 70
     0
  9
$AUPREC
 70
     0
  9
$MENU
  1
acad
  9
$ELEVATION
 40
0.0
  9
$PELEVATION
 40
0.0
  9
$THICKNESS
 40
0.0
  9
$LIMCHECK
 70
     0
  9
$BLIPMODE
 70
     0
  9
$CHAMFERA
 40
0.5
  9
$CHAMFERB
 40
0.5
  9
$SKPOLY
 70
     0
  9
$TDCREATE
 40
2450736.4384541661
  9
$TDUPDATE
 40
2454953.7674880549
  9
$TDINDWG
 40
0.0058305208
  9
$TDUSRTIMER
 40
0.0058305208
  9
$USRTIMER
 70
     1
  9
$ANGBASE
 50
0.0
  9
$ANGDIR
 70
     0
  9
$PDMODE
 70
     0
  9
$PDSIZE
 40
0.0
  9
$PLINEWID
 40
0.0
  9
$COORDS
 70
     1
  9
$SPLFRAME
 70
     0
  9
$SPLINETYPE
 70
     6
  9
$SPLINESEGS
 70
     8
  9
$ATTDIA
 70
     0
  9
$ATTREQ
 70
     1
  9
$HANDLING
 70
 10241
  9
$HANDSEED
  5
7E62
  9
$SURFTAB1
 70
     6
  9
$SURFTAB2
 70
     6
  9
$SURFTYPE
 70
     6
  9
$SURFU
 70
     6
  9
$SURFV
 70
     6
  9
$UCSNAME
  2

  9
$UCSORG
 10
0.0
 20
0.0
 30
0.0
  9
$UCSXDIR
 10
1.0
 20
0.0
 30
0.0
  9
$UCSYDIR
 10
0.0
 20
1.0
 30
0.0
  9
$PUCSNAME
  2

  9
$PUCSORG
 10
0.0
 20
0.0
 30
0.0
  9
$PUCSXDIR
 10
1.0
 20
0.0
 30
0.0
  9
$PUCSYDIR
 10
0.0
 20
1.0
 30
0.0
  9
$USERI1
 70
     0
  9
$USERI2
 70
     0
  9
$USERI3
 70
     0
  9
$USERI4
 70
     0
  9
$USERI5
 70
     0
  9
$USERR1
 40
0.0
  9
$USERR2
 40
0.0
  9
$USERR3
 40
0.0
  9
$USERR4
 40
0.0
  9
$USERR5
 40
0.0
  9
$WORLDVIEW
 70
     1
  9
$SHADEDGE
 70
     3
  9
$SHADEDIF
 70
    70
  9
$TILEMODE
 70
     1
  9
$MAXACTVP
 70
    16
  9
$PLIMCHECK
 70
     0
  9
$PEXTMIN
 10
1.0000000000000000E+020
 20
1.0000000000000000E+020
 30
1.0000000000000000E+020
  9
$PEXTMAX
 10
-1.0000000000000000E+020
 20
-1.0000000000000000E+020
 30
-1.0000000000000000E+020
  9
$PLIMMIN
 10
0.0
 20
0.0
  9
$PLIMMAX
 10
12.0
 20
9.0
  9
$UNITMODE
 70
     0
  9
$VISRETAIN
 70
     0
  9
$PLINEGEN
 70
     0
  9
$PSLTSCALE
 70
     1
  0
ENDSEC
  0
SECTION
  2
TABLES
  0
TABLE
  2
VPORT
 70
     2
  0
VPORT
  2
*ACTIVE
 70
     0
 10
0.0
 20
0.0
 11
1.0
 21
1.0
 12
6292.1124769529506
 22
3086.6374998146398
 13
0.0
 23
0.0
 14
10.0
 24
10.0
 15
10.0
 25
10.0
 16
0.0
 26
0.0
 36
1.0
 17
0.0
 27
0.0
 37
0.0
 40
5011.4968576296578
 41
3.1666666666666661
 42
50.0
 43
0.0
 44
0.0
 50
0.0
 51
0.0
 71
     0
 72
   100
 73
     1
 74
     0
 75
     0
 76
     0
 77
     0
 78
     0
  0
ENDTAB
  0
TABLE
  2
LTYPE
 70
     2
  0
LTYPE
  2
CONTINUOUS
 70
     0
  3
Solid line
 72
    65
 73
     0
 40
0.0
  0
LTYPE
  2
CENTER
 70
     0
  3
____ _ ____ _ ____ _ ____ _ ____ _ ____ _ ____ 
 72
    65
 73
     4
 40
2.0
 49
1.25
 49
-0.25
 49
0.25
 49
-0.25
  0
ENDTAB
  0
TABLE
  2
LAYER
 70
     6
  0
LAYER
  2
0
 70
     0
 62
     7
  6
CONTINUOUS
  0
LAYER
  2
3
 70
     0
 62
     2
  6
CONTINUOUS
  0
LAYER
  2
2
 70
     0
 62
     3
  6
CENTER
  0
LAYER
  2
1
 70
     0
 62
     4
  6
CONTINUOUS
  0
LAYER
  2
4
 70
     0
 62
     7
  6
CONTINUOUS
  0
LAYER
  2
DEFPOINTS
 70
     0
 62
     7
  6
CONTINUOUS
  0
ENDTAB
  0
TABLE
  2
STYLE
 70
     1
  0
STYLE
  2
STANDARD
 70
     0
 40
0.0
 41
1.0
 50
0.0
 71
     0
 42
180.0
  3
simplex.shx
  4
extfont.shx
  0
ENDTAB
  0
TABLE
  2
VIEW
 70
     0
  0
ENDTAB
  0
TABLE
  2
UCS
 70
     0
  0
ENDTAB
  0
TABLE
  2
APPID
 70
     1
  0
APPID
  2
ACAD
 70
     0
  0
ENDTAB
  0
TABLE
  2
DIMSTYLE
 70
     1
  0
DIMSTYLE
  2
IGA
 70
     0
  3

  4

  5

  6
OPEN
  7
OPEN
 40
2.0
 41
2.0
 42
0.5
 43
10.0
 44
1.0
 45
0.0
 46
0.0
 47
1.0
 48
1.0
140
3.0
141
0.0
142
0.0
143
0.03937
144
1.0
145
0.0
146
10.0
147
1.0
 71
     0
 72
     0
 73
     0
 74
     0
 75
     0
 76
     0
 77
     1
 78
     8
170
     0
171
     2
172
     0
173
     1
174
     0
175
     0
176
     0
177
     0
178
     0
  0
ENDTAB
  0
ENDSEC
  0
SECTION
  2
BLOCKS
  0
BLOCK
  8
0
  2
$MODEL_SPACE
 70
     0
 10
0.0
 20
0.0
 30
0.0
  3
$MODEL_SPACE
  1

  0
ENDBLK
  5
1B
  8
0
  0
BLOCK
 67
     1
  8
0
  2
$PAPER_SPACE
 70
     0
 10
0.0
 20
0.0
 30
0.0
  3
$PAPER_SPACE
  1

  0
ENDBLK
  5
18
 67
     1
  8
0
  0
BLOCK
  8
0
  2
_OPEN
 70
     0
 10
0.0
 20
0.0
 30
0.0
  3
_OPEN
  1

  0
LINE
  5
7B24
  8
0
  6
BYBLOCK
 62
     0
 10
-1.0
 20
0.166667
 30
0.0
 11
0.0
 21
0.0
 31
0.0
  0
LINE
  5
7B25
  8
0
  6
BYBLOCK
 62
     0
 10
0.0
 20
0.0
 30
0.0
 11
-1.0
 21
-0.166667
 31
0.0
  0
LINE
  5
7B26
  8
0
  6
BYBLOCK
 62
     0
 10
0.0
 20
0.0
 30
0.0
 11
-1.0
 21
0.0
 31
0.0
  0
ENDBLK
  5
7B27
  8
0
  0
BLOCK
  8
0
  2
*D1
 70
     1
 10
0.0
 20
0.0
 30
0.0
  3
*D1
  1

  0
LINE
  5
7DCE
  8
3
  6
CONTINUOUS
 62
     0
 10
1129.7122189999991
 20
2523.1948640000001
 30
0.0
 11
1129.7122189999991
 21
2640.516564
 31
0.0
  0
LINE
  5
7DCF
  8
3
  6
CONTINUOUS
 62
     0
 10
1609.712219
 20
2523.1948640000001
 30
0.0
 11
1609.712219
 21
2640.516564
 31
0.0
  0
LINE
  5
7DD0
  8
3
  6
CONTINUOUS
 62
     0
 10
1169.7122189999991
 20
2620.516564
 30
0.0
 11
1569.712219
 21
2620.516564
 31
0.0
  0
INSERT
  5
7DD1
  8
3
  6
CONTINUOUS
 62
     0
  2
_OPEN
 10
1129.7122189999991
 20
2620.516564
 30
0.0
 41
40.0
 42
40.0
 43
40.0
 50
180.0
  0
INSERT
  5
7DD2
  8
3
  6
CONTINUOUS
 62
     0
  2
_OPEN
 10
1609.712219
 20
2620.516564
 30
0.0
 41
40.0
 42
40.0
 43
40.0
  0
TEXT
  8
3
  40
60
  5
7E53
  62
0
  72
0
  71
0
 10
1227.63
 20
2564.32
 30
0.000000
  1
480
  0
POINT
  5
7DD4
  8
DEFPOINTS
  6
CONTINUOUS
 62
     0
 10
1129.7122189999991
 20
2513.1948640000001
 30
0.0
  0
POINT
  5
7DD5
  8
DEFPOINTS
  6
CONTINUOUS
 62
     0
 10
1609.712219
 20
2513.1948640000001
 30
0.0
  0
POINT
  5
7DD6
  8
DEFPOINTS
  6
CONTINUOUS
 62
     0
 10
1609.712219
 20
2620.516564
 30
0.0
  0
ENDBLK
  5
7C78
  8
0
  0
BLOCK
  8
0
  2
*D2
 70
     1
 10
0.0
 20
0.0
 30
0.0
  3
*D2
  1

  0
LINE
  5
7DD7
  8
3
  6
CONTINUOUS
 62
     0
 10
1129.7122189999991
 20
2523.1948640000001
 30
0.0
 11
1129.7122189999991
 21
2879.483851
 31
0.0
  0
LINE
  5
7DD8
  8
3
  6
CONTINUOUS
 62
     0
 10
1591.712219
 20
2783.4661602364572
 30
0.0
 11
1591.712219
 21
2879.483851
 31
0.0
  0
LINE
  5
7DD9
  8
3
  6
CONTINUOUS
 62
     0
 10
1169.7122189999991
 20
2859.483851
 30
0.0
 11
1551.712219
 21
2859.483851
 31
0.0
  0
INSERT
  5
7DDA
  8
3
  6
CONTINUOUS
 62
     0
  2
_OPEN
 10
1129.7122189999991
 20
2859.483851
 30
0.0
 41
40.0
 42
40.0
 43
40.0
 50
180.0
  0
INSERT
  5
7DDB
  8
3
  6
CONTINUOUS
 62
     0
  2
_OPEN
 10
1591.712219
 20
2859.483851
 30
0.0
 41
40.0
 42
40.0
 43
40.0
  0
TEXT
  8
3
  40
60
  5
7E54
  62
0
  72
0
  71
0
 10
1218.40
 20
2803.28
 30
0.000000
  1
462
  0
POINT
  5
7DDD
  8
DEFPOINTS
  6
CONTINUOUS
 62
     0
 10
1129.7122189999991
 20
2513.1948640000001
 30
0.0
  0
POINT
  5
7DDE
  8
DEFPOINTS
  6
CONTINUOUS
 62
     0
 10
1591.712219
 20
2773.4661602364572
 30
0.0
  0
POINT
  5
7DDF
  8
DEFPOINTS
  6
CONTINUOUS
 62
     0
 10
1591.712219
 20
2859.483851
 30
0.0
  0
ENDBLK
  5
7D8B
  8
0
  0
BLOCK
  8
0
  2
*D3
 70
     1
 10
0.0
 20
0.0
 30
0.0
  3
*D3
  1

  0
LINE
  5
7DE0
  8
3
  6
CONTINUOUS
 62
     0
 10
1946.712219
 20
2478.1948640000001
 30
0.0
 11
1946.712219
 21
2879.483851
 31
0.0
  0
LINE
  5
7DE1
  8
3
  6
CONTINUOUS
 62
     0
 10
1631.7122189999991
 20
2859.483851
 30
0.0
 11
1906.712219
 21
2859.483851
 31
0.0
  0
INSERT
  5
7DE2
  8
3
  6
CONTINUOUS
 62
     0
  2
_OPEN
 10
1591.712219
 20
2859.483851
 30
0.0
 41
40.0
 42
40.0
 43
40.0
 50
180.0
  0
INSERT
  5
7DE3
  8
3
  6
CONTINUOUS
 62
     0
  2
_OPEN
 10
1946.712219
 20
2859.483851
 30
0.0
 41
40.0
 42
40.0
 43
40.0
  0
TEXT
  8
3
  40
60
  5
7E55
  62
0
  72
0
  71
0
 10
1649.21
 20
2803.28
 30
0.000000
  1
355
  0
POINT
  5
7DE5
  8
DEFPOINTS
  6
CONTINUOUS
 62
     0
 10
1591.712219
 20
2778.6708092107292
 30
0.0
  0
POINT
  5
7DE6
  8
DEFPOINTS
  6
CONTINUOUS
 62
     0
 10
1946.712219
 20
2468.1948640000001
 30
0.0
  0
POINT
  5
7DE7
  8
DEFPOINTS
  6
CONTINUOUS
 62
     0
 10
1946.712219
 20
2859.483851
 30
0.0
  0
ENDBLK
  5
7D80
  8
0
  0
BLOCK
  8
0
  2
*D4
 70
     1
 10
0.0
 20
0.0
 30
0.0
  3
*D4
  1

  0
LINE
  5
7DE8
  8
3
  6
CONTINUOUS
 62
     0
 10
1636.712219
 20
2513.1948640000001
 30
0.0
 11
2165.5213039999999
 21
2513.1948640000001
 31
0.0
  0
LINE
  5
7DE9
  8
3
  6
CONTINUOUS
 62
     0
 10
2084.6376449999989
 20
2158.1948639999991
 30
0.0
 11
2165.5213039999999
 21
2158.1948639999991
 31
0.0
  0
LINE
  5
7DEA
  8
3
  6
CONTINUOUS
 62
     0
 10
2145.5213039999999
 20
2473.1948640000001
 30
0.0
 11
2145.5213039999999
 21
2198.1948640000001
 31
0.0
  0
INSERT
  5
7DEB
  8
3
  6
CONTINUOUS
 62
     0
  2
_OPEN
 10
2145.5213039999999
 20
2513.1948640000001
 30
0.0
 41
40.0
 42
40.0
 43
40.0
 50
90.0
  0
INSERT
  5
7DEC
  8
3
  6
CONTINUOUS
 62
     0
  2
_OPEN
 10
2145.5213039999999
 20
2158.1948639999991
 30
0.0
 41
40.0
 42
40.0
 43
40.0
 50
270.0
  0
TEXT
  8
3
  40
60
  5
7E56
  62
0
  72
0
  71
0
 10
1975.52
 20
2222.95
 30
0.000000
  1
355
  0
POINT
  5
7DEE
  8
DEFPOINTS
  6
CONTINUOUS
 62
     0
 10
1626.712219
 20
2513.1948640000001
 30
0.0
  0
POINT
  5
7DEF
  8
DEFPOINTS
  6
CONTINUOUS
 62
     0
 10
2074.6376449999998
 20
2158.1948639999991
 30
0.0
  0
POINT
  5
7DF0
  8
DEFPOINTS
  6
CONTINUOUS
 62
     0
 10
2145.5213039999999
 20
2158.1948639999991
 30
0.0
  0
ENDBLK
  5
7BA8
  8
0
  0
BLOCK
  8
0
  2
*D5
 70
     1
 10
0.0
 20
0.0
 30
0.0
  3
*D5
  1

  0
LINE
  5
7DF1
  8
3
  6
CONTINUOUS
 62
     0
 10
1901.712219
 20
1668.1948640000001
 30
0.0
 11
2165.521303999999
 21
1668.1948640000001
 31
0.0
  0
LINE
  5
7DF2
  8
3
  6
CONTINUOUS
 62
     0
 10
2145.5213039999999
 20
2118.1948640000001
 30
0.0
 11
2145.5213039999999
 21
1708.1948640000001
 31
0.0
  0
INSERT
  5
7DF3
  8
3
  6
CONTINUOUS
 62
     0
  2
_OPEN
 10
2145.5213039999999
 20
2158.1948639999991
 30
0.0
 41
40.0
 42
40.0
 43
40.0
 50
90.0
  0
INSERT
  5
7DF4
  8
3
  6
CONTINUOUS
 62
     0
  2
_OPEN
 10
2145.5213039999999
 20
1668.1948640000001
 30
0.0
 41
40.0
 42
40.0
 43
40.0
 50
270.0
  0
TEXT
  8
3
  40
60
  5
7E57
  62
0
  72
0
  71
0
 10
1975.52
 20
1806.99
 30
0.000000
  1
490
  0
POINT
  5
7DF6
  8
DEFPOINTS
  6
CONTINUOUS
 62
     0
 10
2074.6376449999998
 20
2158.1948639999991
 30
0.0
  0
POINT
  5
7DF7
  8
DEFPOINTS
  6
CONTINUOUS
 62
     0
 10
1891.712219
 20
1668.1948640000001
 30
0.0
  0
POINT
  5
7DF8
  8
DEFPOINTS
  6
CONTINUOUS
 62
     0
 10
2145.5213039999999
 20
1668.1948640000001
 30
0.0
  0
ENDBLK
  5
7B66
  8
0
  0
BLOCK
  8
0
  2
*D6
 70
     1
 10
0.0
 20
0.0
 30
0.0
  3
*D6
  1

  0
LINE
  5
7DF9
  8
3
  6
CONTINUOUS
 62
     0
 10
1901.712219
 20
1668.1948640000001
 30
0.0
 11
2165.5213039999999
 21
1668.1948640000001
 31
0.0
  0
LINE
  5
7DFA
  8
3
  6
CONTINUOUS
 62
     0
 10
2001.712219
 20
1606.1948640000001
 30
0.0
 11
2165.5213039999999
 21
1606.1948640000001
 31
0.0
  0
LINE
  5
7DFB
  8
3
  6
CONTINUOUS
 62
     0
 10
2145.5213039999999
 20
1708.1948640000001
 30
0.0
 11
2145.5213039999999
 21
1748.1948640000001
 31
0.0
  0
LINE
  5
7DFC
  8
3
  6
CONTINUOUS
 62
     0
 10
2145.5213039999999
 20
1566.1948640000001
 30
0.0
 11
2145.5213039999999
 21
1389.0520068571429
 31
0.0
  0
LINE
  5
7DFD
  8
3
  6
CONTINUOUS
 62
     0
 10
2145.5213039999999
 20
1668.1948640000001
 30
0.0
 11
2145.5213039999999
 21
1606.1948640000001
 31
0.0
  0
INSERT
  5
7DFE
  8
3
  6
CONTINUOUS
 62
     0
  2
_OPEN
 10
2145.5213039999999
 20
1668.1948640000001
 30
0.0
 41
40.0
 42
40.0
 43
40.0
 50
270.0
  0
INSERT
  5
7DFF
  8
3
  6
CONTINUOUS
 62
     0
  2
_OPEN
 10
2145.5213039999999
 20
1606.1948640000001
 30
0.0
 41
40.0
 42
40.0
 43
40.0
 50
90.0
  0
TEXT
  8
3
  40
60
  5
7E58
  62
0
  72
0
  71
0
 10
1975.52
 20
1351.42
 30
0.000000
  1
62
  0
POINT
  5
7E01
  8
DEFPOINTS
  6
CONTINUOUS
 62
     0
 10
1891.712219
 20
1668.1948640000001
 30
0.0
  0
POINT
  5
7E02
  8
DEFPOINTS
  6
CONTINUOUS
 62
     0
 10
1991.712219
 20
1606.1948640000001
 30
0.0
  0
POINT
  5
7E03
  8
DEFPOINTS
  6
CONTINUOUS
 62
     0
 10
2145.5213039999999
 20
1606.1948640000001
 30
0.0
  0
ENDBLK
  5
7D4C
  8
0
  0
BLOCK
  8
0
  2
*D7
 70
     1
 10
0.0
 20
0.0
 30
0.0
  3
*D7
  1

  0
LINE
  5
7E04
  8
3
  6
CONTINUOUS
 62
     0
 10
671.712219
 20
1596.1948640000001
 30
0.0
 11
671.712219
 21
1411.564668685739
 31
0.0
  0
LINE
  5
7E05
  8
3
  6
CONTINUOUS
 62
     0
 10
1591.712219
 20
1520.9764726857391
 30
0.0
 11
1591.712219
 21
1411.564668685739
 31
0.0
  0
LINE
  5
7E06
  8
3
  6
CONTINUOUS
 62
     0
 10
711.71221899999989
 20
1431.564668685739
 30
0.0
 11
1551.712219
 21
1431.564668685739
 31
0.0
  0
INSERT
  5
7E07
  8
3
  6
CONTINUOUS
 62
     0
  2
_OPEN
 10
671.712219
 20
1431.564668685739
 30
0.0
 41
40.0
 42
40.0
 43
40.0
 50
180.0
  0
INSERT
  5
7E08
  8
3
  6
CONTINUOUS
 62
     0
  2
_OPEN
 10
1591.712219
 20
1431.564668685739
 30
0.0
 41
40.0
 42
40.0
 43
40.0
  0
TEXT
  8
3
  40
60
  5
7E59
  62
0
  72
0
  71
0
 10
1015.47
 20
1375.36
 30
0.000000
  1
920
  0
POINT
  5
7E0A
  8
DEFPOINTS
  6
CONTINUOUS
 62
     0
 10
671.712219
 20
1606.1948640000001
 30
0.0
  0
POINT
  5
7E0B
  8
DEFPOINTS
  6
CONTINUOUS
 62
     0
 10
1591.712219
 20
1530.9764726857391
 30
0.0
  0
POINT
  5
7E0C
  8
DEFPOINTS
  6
CONTINUOUS
 62
     0
 10
1591.712219
 20
1431.564668685739
 30
0.0
  0
ENDBLK
  5
7D61
  8
0
  0
BLOCK
  8
0
  2
*D8
 70
     1
 10
0.0
 20
0.0
 30
0.0
  3
*D8
  1

  0
LINE
  5
7E0D
  8
3
  6
CONTINUOUS
 62
     0
 10
1991.712219
 20
1596.1948640000001
 30
0.0
 11
1991.712219
 21
1411.564668685739
 31
0.0
  0
LINE
  5
7E0E
  8
3
  6
CONTINUOUS
 62
     0
 10
1631.7122189999991
 20
1431.564668685739
 30
0.0
 11
1951.712219
 21
1431.564668685739
 31
0.0
  0
INSERT
  5
7E0F
  8
3
  6
CONTINUOUS
 62
     0
  2
_OPEN
 10
1591.712219
 20
1431.564668685739
 30
0.0
 41
40.0
 42
40.0
 43
40.0
 50
180.0
  0
INSERT
  5
7E10
  8
3
  6
CONTINUOUS
 62
     0
  2
_OPEN
 10
1991.712219
 20
1431.564668685739
 30
0.0
 41
40.0
 42
40.0
 43
40.0
  0
TEXT
  8
3
  40
60
  5
7E5A
  62
0
  72
0
  71
0
 10
1671.71
 20
1375.36
 30
0.000000
  1
400
  0
POINT
  5
7E12
  8
DEFPOINTS
  6
CONTINUOUS
 62
     0
 10
1591.712219
 20
1530.9764726857391
 30
0.0
  0
POINT
  5
7E13
  8
DEFPOINTS
  6
CONTINUOUS
 62
     0
 10
1991.712219
 20
1606.1948640000001
 30
0.0
  0
POINT
  5
7E14
  8
DEFPOINTS
  6
CONTINUOUS
 62
     0
 10
1991.712219
 20
1431.564668685739
 30
0.0
  0
ENDBLK
  5
7D56
  8
0
  0
BLOCK
  8
0
  2
*D9
 70
     1
 10
0.0
 20
0.0
 30
0.0
  3
*D9
  1

  0
LINE
  5
7E15
  8
3
  6
CONTINUOUS
 62
     0
 10
3296.581733
 20
2408.1948640000001
 30
0.0
 11
3615.5198420000002
 21
2408.1948640000001
 31
0.0
  0
LINE
  5
7E16
  8
3
  6
CONTINUOUS
 62
     0
 10
3296.581733
 20
1908.1948640000001
 30
0.0
 11
3615.5198420000002
 21
1908.1948640000001
 31
0.0
  0
LINE
  5
7E17
  8
3
  6
CONTINUOUS
 62
     0
 10
3595.5198420000011
 20
2368.1948640000001
 30
0.0
 11
3595.5198420000011
 21
1948.1948639999989
 31
0.0
  0
INSERT
  5
7E18
  8
3
  6
CONTINUOUS
 62
     0
  2
_OPEN
 10
3595.5198420000011
 20
2408.1948640000001
 30
0.0
 41
40.0
 42
40.0
 43
40.0
 50
90.0
  0
INSERT
  5
7E19
  8
3
  6
CONTINUOUS
 62
     0
  2
_OPEN
 10
3595.5198420000011
 20
1908.1948640000001
 30
0.0
 41
40.0
 42
40.0
 43
40.0
 50
270.0
  0
TEXT
  8
3
  40
60
  5
7E5B
  62
0
  72
0
  71
0
 10
3425.52
 20
2052.46
 30
0.000000
  1
φ500
  0
POINT
  5
7E1B
  8
DEFPOINTS
  6
CONTINUOUS
 62
     0
 10
3286.581733
 20
2408.1948640000001
 30
0.0
  0
POINT
  5
7E1C
  8
DEFPOINTS
  6
CONTINUOUS
 62
     0
 10
3286.581733
 20
1908.1948640000001
 30
0.0
  0
POINT
  5
7E1D
  8
DEFPOINTS
  6
CONTINUOUS
 62
     0
 10
3595.5198420000011
 20
1908.1948640000001
 30
0.0
  0
ENDBLK
  5
7D1C
  8
0
  0
BLOCK
  8
0
  2
*D10
 70
     1
 10
0.0
 20
0.0
 30
0.0
  3
*D10
  1

  0
LINE
  5
7DA2
  8
0
  6
BYBLOCK
 62
     0
 10
3286.581733
 20
2418.1948640000001
 30
0.0
 11
3286.581733
 21
3041.9235947785978
 31
0.0
  0
LINE
  5
7DA3
  8
0
  6
BYBLOCK
 62
     0
 10
3105.581733
 20
2999.94022
 30
0.0
 11
3105.581733
 21
3041.9235947785978
 31
0.0
  0
LINE
  5
7DA4
  8
0
  6
BYBLOCK
 62
     0
 10
3246.581733
 20
3021.9235947785978
 30
0.0
 11
3145.581733
 21
3021.9235947785978
 31
0.0
  0
TEXT
  5
7DA5
  8
3
 62
     0
 10
3137.5103044285711
 20
3055.1631667607321
 30
0.0
 40
60.0
  1
181
  0
INSERT
  5
7DA6
  8
0
  6
BYBLOCK
 62
     0
  2
_OPEN
 10
3286.581733
 20
3021.9235947785978
 30
0.0
 41
40.0
 42
40.0
 43
40.0
  0
INSERT
  5
7DA7
  8
0
  6
BYBLOCK
 62
     0
  2
_OPEN
 10
3105.581733
 20
3021.9235947785978
 30
0.0
 41
40.0
 42
40.0
 43
40.0
 50
180.0
  0
POINT
  5
7DA8
  8
DEFPOINTS
  6
BYBLOCK
 62
     0
 10
3286.581733
 20
2408.1948640000001
 30
0.0
  0
POINT
  5
7DA9
  8
DEFPOINTS
  6
BYBLOCK
 62
     0
 10
3105.581733
 20
2989.94022
 30
0.0
  0
POINT
  5
7DAA
  8
DEFPOINTS
  6
BYBLOCK
 62
     0
 10
3105.581733
 20
3021.9235947785978
 30
0.0
  0
ENDBLK
  5
7DAB
  8
0
  0
BLOCK
  8
0
  2
*D11
 70
     1
 10
0.0
 20
0.0
 30
0.0
  3
*D11
  1

  0
LINE
  5
7E1E
  8
3
  6
CONTINUOUS
 62
     0
 10
2735.581733
 20
1596.1948640000001
 30
0.0
 11
2735.581733
 21
1397.294067
 31
0.0
  0
LINE
  5
7E1F
  8
3
  6
CONTINUOUS
 62
     0
 10
3105.581733
 20
1504.8512960313751
 30
0.0
 11
3105.581733
 21
1397.294067
 31
0.0
  0
LINE
  5
7E20
  8
3
  6
CONTINUOUS
 62
     0
 10
2775.581733
 20
1417.294067
 30
0.0
 11
3065.581733
 21
1417.294067
 31
0.0
  0
INSERT
  5
7E21
  8
3
  6
CONTINUOUS
 62
     0
  2
_OPEN
 10
2735.581733
 20
1417.294067
 30
0.0
 41
40.0
 42
40.0
 43
40.0
 50
180.0
  0
INSERT
  5
7E22
  8
3
  6
CONTINUOUS
 62
     0
  2
_OPEN
 10
3105.581733
 20
1417.294067
 30
0.0
 41
40.0
 42
40.0
 43
40.0
  0
TEXT
  8
3
  40
60
  5
7E5C
  62
0
  72
0
  71
0
 10
2797.54
 20
1361.09
 30
0.000000
  1
370
  0
POINT
  5
7E24
  8
DEFPOINTS
  6
CONTINUOUS
 62
     0
 10
2735.581733
 20
1606.1948640000001
 30
0.0
  0
POINT
  5
7E25
  8
DEFPOINTS
  6
CONTINUOUS
 62
     0
 10
3105.581733
 20
1514.8512960313751
 30
0.0
  0
POINT
  5
7E26
  8
DEFPOINTS
  6
CONTINUOUS
 62
     0
 10
3105.581733
 20
1417.294067
 30
0.0
  0
ENDBLK
  5
7D96
  8
0
  0
BLOCK
  8
0
  2
*D12
 70
     1
 10
0.0
 20
0.0
 30
0.0
  3
*D12
  1

  0
LINE
  5
7E27
  8
3
  6
CONTINUOUS
 62
     0
 10
3405.581733
 20
1596.1948640000001
 30
0.0
 11
3405.581733
 21
1397.294067
 31
0.0
  0
LINE
  5
7E28
  8
3
  6
CONTINUOUS
 62
     0
 10
3145.581733
 20
1417.294067
 30
0.0
 11
3365.5817329999991
 21
1417.294067
 31
0.0
  0
INSERT
  5
7E29
  8
3
  6
CONTINUOUS
 62
     0
  2
_OPEN
 10
3105.581733
 20
1417.294067
 30
0.0
 41
40.0
 42
40.0
 43
40.0
 50
180.0
  0
INSERT
  5
7E2A
  8
3
  6
CONTINUOUS
 62
     0
  2
_OPEN
 10
3405.581733
 20
1417.294067
 30
0.0
 41
40.0
 42
40.0
 43
40.0
  0
TEXT
  8
3
  40
60
  5
7E5D
  62
0
  72
0
  71
0
 10
3135.58
 20
1361.09
 30
0.000000
  1
300
  0
POINT
  5
7E2C
  8
DEFPOINTS
  6
CONTINUOUS
 62
     0
 10
3105.581733
 20
1514.8512960313751
 30
0.0
  0
POINT
  5
7E2D
  8
DEFPOINTS
  6
CONTINUOUS
 62
     0
 10
3405.581733
 20
1606.1948640000001
 30
0.0
  0
POINT
  5
7E2E
  8
DEFPOINTS
  6
CONTINUOUS
 62
     0
 10
3405.581733
 20
1417.294067
 30
0.0
  0
ENDBLK
  5
7DA0
  8
0
  0
BLOCK
  8
0
  2
*D13
 70
     1
 10
0.0
 20
0.0
 30
0.0
  3
*D13
  1

  0
LINE
  5
7E2F
  8
3
  6
CONTINUOUS
 62
     0
 10
671.712219
 20
4214.4498539999986
 30
0.0
 11
671.712219
 21
4374.5915759999989
 31
0.0
  0
LINE
  5
7E30
  8
3
  6
CONTINUOUS
 62
     0
 10
1991.712219
 20
4214.4498539999986
 30
0.0
 11
1991.712219
 21
4374.5915759999989
 31
0.0
  0
LINE
  5
7E31
  8
3
  6
CONTINUOUS
 62
     0
 10
711.71221899999989
 20
4354.5915759999989
 30
0.0
 11
1951.712219
 21
4354.5915759999989
 31
0.0
  0
INSERT
  5
7E32
  8
3
  6
CONTINUOUS
 62
     0
  2
_OPEN
 10
671.712219
 20
4354.5915759999989
 30
0.0
 41
40.0
 42
40.0
 43
40.0
 50
180.0
  0
INSERT
  5
7E33
  8
3
  6
CONTINUOUS
 62
     0
  2
_OPEN
 10
1991.712219
 20
4354.5915759999989
 30
0.0
 41
40.0
 42
40.0
 43
40.0
  0
TEXT
  8
3
  40
60
  5
7E5E
  62
0
  72
0
  71
0
 10
1144.61
 20
4298.39
 30
0.000000
  1
1320
  0
POINT
  5
7E35
  8
DEFPOINTS
  6
CONTINUOUS
 62
     0
 10
671.712219
 20
4204.4498539999986
 30
0.0
  0
POINT
  5
7E36
  8
DEFPOINTS
  6
CONTINUOUS
 62
     0
 10
1991.712219
 20
4204.4498539999986
 30
0.0
  0
POINT
  5
7E37
  8
DEFPOINTS
  6
CONTINUOUS
 62
     0
 10
1991.712219
 20
4354.5915759999989
 30
0.0
  0
ENDBLK
  5
7CB2
  8
0
  0
BLOCK
  8
0
  2
*D14
 70
     1
 10
0.0
 20
0.0
 30
0.0
  3
*D14
  1

  0
LINE
  5
7E38
  8
3
  6
CONTINUOUS
 62
     0
 10
2001.712219
 20
4204.4498539999986
 30
0.0
 11
2202.4181290000001
 21
4204.4498539999986
 31
0.0
  0
LINE
  5
7E39
  8
3
  6
CONTINUOUS
 62
     0
 10
2001.712219
 20
3534.449854
 30
0.0
 11
2202.4181290000001
 21
3534.449854
 31
0.0
  0
LINE
  5
7E3A
  8
3
  6
CONTINUOUS
 62
     0
 10
2182.4181290000001
 20
4164.4498539999986
 30
0.0
 11
2182.4181290000001
 21
3574.449854
 31
0.0
  0
INSERT
  5
7E3B
  8
3
  6
CONTINUOUS
 62
     0
  2
_OPEN
 10
2182.4181290000001
 20
4204.4498539999986
 30
0.0
 41
40.0
 42
40.0
 43
40.0
 50
90.0
  0
INSERT
  5
7E3C
  8
3
  6
CONTINUOUS
 62
     0
  2
_OPEN
 10
2182.4181290000001
 20
3534.449854
 30
0.0
 41
40.0
 42
40.0
 43
40.0
 50
270.0
  0
TEXT
  8
3
  40
60
  5
7E5F
  62
0
  72
0
  71
0
 10
2012.42
 20
3788.65
 30
0.000000
  1
670
  0
POINT
  5
7E3E
  8
DEFPOINTS
  6
CONTINUOUS
 62
     0
 10
1991.712219
 20
4204.4498539999986
 30
0.0
  0
POINT
  5
7E3F
  8
DEFPOINTS
  6
CONTINUOUS
 62
     0
 10
1991.712219
 20
3534.449854
 30
0.0
  0
POINT
  5
7E40
  8
DEFPOINTS
  6
CONTINUOUS
 62
     0
 10
2182.4181290000001
 20
3534.449854
 30
0.0
  0
ENDBLK
  5
7C47
  8
0
  0
BLOCK
  8
0
  2
*D15
 70
     1
 10
0.0
 20
0.0
 30
0.0
  3
*D15
  1

  0
LINE
  5
7E41
  8
3
  6
CONTINUOUS
 62
     0
 10
2925.5817329999991
 20
2523.1948640000001
 30
0.0
 11
2925.5817329999991
 21
2892.3830670000002
 31
0.0
  0
LINE
  5
7E42
  8
3
  6
CONTINUOUS
 62
     0
 10
3285.581733
 20
2523.1948640000001
 30
0.0
 11
3285.581733
 21
2892.3830670000002
 31
0.0
  0
LINE
  5
7E43
  8
3
  6
CONTINUOUS
 62
     0
 10
2965.581733
 20
2872.3830670000002
 30
0.0
 11
3245.581733
 21
2872.3830670000002
 31
0.0
  0
INSERT
  5
7E44
  8
3
  6
CONTINUOUS
 62
     0
  2
_OPEN
 10
2925.5817329999991
 20
2872.3830670000002
 30
0.0
 41
40.0
 42
40.0
 43
40.0
 50
180.0
  0
INSERT
  5
7E45
  8
3
  6
CONTINUOUS
 62
     0
  2
_OPEN
 10
3285.581733
 20
2872.3830670000002
 30
0.0
 41
40.0
 42
40.0
 43
40.0
  0
TEXT
  8
3
  40
60
  5
7E60
  62
0
  72
0
  71
0
 10
2981.45
 20
2816.18
 30
0.000000
  1
360
  0
POINT
  5
7E47
  8
DEFPOINTS
  6
CONTINUOUS
 62
     0
 10
2925.5817329999991
 20
2513.1948640000001
 30
0.0
  0
POINT
  5
7E48
  8
DEFPOINTS
  6
CONTINUOUS
 62
     0
 10
3285.581733
 20
2513.1948640000001
 30
0.0
  0
POINT
  5
7E49
  8
DEFPOINTS
  6
CONTINUOUS
 62
     0
 10
3285.581733
 20
2872.3830670000002
 30
0.0
  0
ENDBLK
  5
7CEC
  8
0
  0
BLOCK
  8
0
  2
*D16
 70
     1
 10
0.0
 20
0.0
 30
0.0
  3
*D16
  1

  0
LINE
  5
7E4A
  8
3
  6
CONTINUOUS
 62
     0
 10
2725.581733
 20
2806.1948640000001
 30
0.0
 11
2559.2545140000002
 21
2806.1948640000001
 31
0.0
  0
LINE
  5
7E4B
  8
3
  6
CONTINUOUS
 62
     0
 10
2725.581733
 20
1606.1948640000001
 30
0.0
 11
2559.2545140000002
 21
1606.1948640000001
 31
0.0
  0
LINE
  5
7E4C
  8
3
  6
CONTINUOUS
 62
     0
 10
2579.2545140000002
 20
2766.1948640000001
 30
0.0
 11
2579.2545140000002
 21
1646.1948639999989
 31
0.0
  0
INSERT
  5
7E4D
  8
3
  6
CONTINUOUS
 62
     0
  2
_OPEN
 10
2579.2545140000002
 20
2806.1948640000001
 30
0.0
 41
40.0
 42
40.0
 43
40.0
 50
90.0
  0
INSERT
  5
7E4E
  8
3
  6
CONTINUOUS
 62
     0
  2
_OPEN
 10
2579.2545140000002
 20
1606.1948640000001
 30
0.0
 41
40.0
 42
40.0
 43
40.0
 50
270.0
  0
TEXT
  8
3
  40
60
  5
7E61
  62
0
  72
0
  71
0
 10
2409.25
 20
2124.55
 30
0.000000
  1
1200
  0
POINT
  5
7E50
  8
DEFPOINTS
  6
CONTINUOUS
 62
     0
 10
2735.581733
 20
2806.1948640000001
 30
0.0
  0
POINT
  5
7E51
  8
DEFPOINTS
  6
CONTINUOUS
 62
     0
 10
2735.581733
 20
1606.1948640000001
 30
0.0
  0
POINT
  5
7E52
  8
DEFPOINTS
  6
CONTINUOUS
 62
     0
 10
2579.2545140000002
 20
1606.1948640000001
 30
0.0
  0
ENDBLK
  5
7D06
  8
0
  0
ENDSEC
  0
SECTION
  2
ENTITIES
  0
LINE
  5
7A80
  8
1
  6
CONTINUOUS
 10
671.712219
 20
1606.1948640000001
 30
0.0
 11
671.712219
 21
2806.1948640000001
 31
0.0
  0
LINE
  5
7A81
  8
1
  6
CONTINUOUS
 10
1991.712219
 20
1606.1948640000001
 30
0.0
 11
1991.712219
 21
2806.1948640000001
 31
0.0
  0
LINE
  5
7A82
  8
1
  6
CONTINUOUS
 10
2735.581733
 20
2806.1948640000001
 30
0.0
 11
2735.581733
 21
1606.1948640000001
 31
0.0
  0
LINE
  5
7A83
  8
1
  6
CONTINUOUS
 10
3405.581733
 20
2806.1948640000001
 30
0.0
 11
3405.581733
 21
1606.1948640000001
 31
0.0
  0
LINE
  5
7A84
  8
1
  6
CONTINUOUS
 10
2775.581733
 20
1650.4648639999989
 30
0.0
 11
2775.581733
 21
2770.464864
 31
0.0
  0
LINE
  5
7A85
  8
1
  6
CONTINUOUS
 10
3365.5817329999991
 20
2770.464864
 30
0.0
 11
3365.5817329999991
 21
1650.4648639999989
 31
0.0
  0
LINE
  5
7A86
  8
1
  6
CONTINUOUS
 10
1951.712219
 20
1650.4648639999989
 30
0.0
 11
1951.712219
 21
2770.464864
 31
0.0
  0
LINE
  5
7A87
  8
1
  6
CONTINUOUS
 10
711.71221899999989
 20
2770.464864
 30
0.0
 11
711.71221899999989
 21
1650.4648639999989
 31
0.0
  0
LINE
  5
7A88
  8
1
  6
CONTINUOUS
 10
2765.581733
 20
2038.1948640000001
 30
0.0
 11
2825.5817329999991
 21
2038.1948640000001
 31
0.0
  0
LINE
  5
7A89
  8
1
  6
CONTINUOUS
 10
2825.5817329999991
 20
2278.1948640000001
 30
0.0
 11
2765.581733
 21
2278.1948640000001
 31
0.0
  0
LINE
  5
7A8A
  8
1
  6
CONTINUOUS
 10
2735.581733
 20
1606.1948640000001
 30
0.0
 11
3405.581733
 21
1606.1948640000001
 31
0.0
  0
LINE
  5
7A8B
  8
1
  6
CONTINUOUS
 10
2765.581733
 20
1880.1948640000001
 30
0.0
 11
2825.5817329999991
 21
1880.1948640000001
 31
0.0
  0
LINE
  5
7A8C
  8
1
  6
CONTINUOUS
 10
2825.5817329999991
 20
1980.1948640000001
 30
0.0
 11
2765.581733
 21
1980.1948640000001
 31
0.0
  0
LINE
  5
7A8D
  8
1
  6
CONTINUOUS
 10
2735.581733
 20
2497.464864
 30
0.0
 11
2855.581733
 21
2497.464864
 31
0.0
  0
LINE
  5
7A8E
  8
1
  6
CONTINUOUS
 10
2855.581733
 20
1752.464864
 30
0.0
 11
2735.581733
 21
1752.464864
 31
0.0
  0
LINE
  5
7A91
  8
1
  6
CONTINUOUS
 10
3365.5817329999991
 20
1650.4648639999989
 30
0.0
 11
2775.581733
 21
1650.4648639999989
 31
0.0
  0
LINE
  5
7A92
  8
1
  6
CONTINUOUS
 10
1626.712219
 20
2513.1948640000001
 30
0.0
 11
1112.712219
 21
2513.1948640000001
 31
0.0
  0
LINE
  5
7A93
  8
1
  6
CONTINUOUS
 10
771.712219
 20
1668.1948640000001
 30
0.0
 11
1891.712219
 21
1668.1948640000001
 31
0.0
  0
LINE
  5
7A94
  8
1
  6
CONTINUOUS
 10
771.712219
 20
1748.1948640000001
 30
0.0
 11
1946.712219
 21
1748.1948640000001
 31
0.0
  0
LINE
  5
7A95
  8
1
  6
CONTINUOUS
 10
1609.712219
 20
2488.1948640000001
 30
0.0
 11
1129.782218999999
 21
2488.1948640000001
 31
0.0
  0
ARC
  5
7A96
  8
1
  6
CONTINUOUS
 10
1561.248801
 20
2181.2744929999999
 30
0.0
 40
431.17249299999992
 50
183.12053399999999
 51
274.7365549999999
  0
LINE
  5
7A97
  8
1
  6
CONTINUOUS
 10
671.712219
 20
1606.1948640000001
 30
0.0
 11
1991.712219
 21
1606.1948640000001
 31
0.0
  0
LINE
  5
7A98
  8
1
  6
CONTINUOUS
 10
936.15221899999995
 20
1871.954864
 30
0.0
 11
1620.6022190000001
 21
2041.724864
 31
0.0
  0
LINE
  5
7A99
  8
1
  6
CONTINUOUS
 10
1543.5622189999999
 20
2268.1148640000001
 30
0.0
 11
897.63221899999985
 21
1985.1548640000001
 31
0.0
  0
LINE
  5
7AA1
  8
1
  6
CONTINUOUS
 10
711.71221899999989
 20
1650.4648639999989
 30
0.0
 11
1951.712219
 21
1650.4648639999989
 31
0.0
  0
LINE
  5
7AA2
  8
1
  6
CONTINUOUS
 10
1051.712219
 20
1798.1948640000001
 30
0.0
 11
1021.152218999999
 21
1859.524864
 31
0.0
  0
LINE
  5
7AA3
  8
1
  6
CONTINUOUS
 10
791.712219
 20
1798.1948640000001
 30
0.0
 11
822.27221899999995
 21
1859.524864
 31
0.0
  0
ARC
  5
7AA4
  8
1
  6
CONTINUOUS
 10
921.71221899999989
 20
1930.1948640000001
 30
0.0
 40
122.0
 50
324.60000000000002
 51
215.39999999999989
  0
LINE
  5
7AA5
  8
1
  6
CONTINUOUS
 10
791.712219
 20
1798.1948640000001
 30
0.0
 11
1051.712219
 21
1798.1948640000001
 31
0.0
  0
LINE
  5
7AA6
  8
1
  6
CONTINUOUS
 10
771.712219
 20
1748.1948640000001
 30
0.0
 11
771.712219
 21
1668.1948640000001
 31
0.0
  0
LINE
  5
7AA7
  8
1
  6
CONTINUOUS
 10
791.712219
 20
1748.1948640000001
 30
0.0
 11
791.712219
 21
1798.1948640000001
 31
0.0
  0
LINE
  5
7AA8
  8
1
  6
CONTINUOUS
 10
791.712219
 20
1798.1948640000001
 30
0.0
 11
841.712219
 21
1798.1948640000001
 31
0.0
  0
LINE
  5
7AA9
  8
1
  6
CONTINUOUS
 10
1051.712219
 20
1798.1948640000001
 30
0.0
 11
1001.712219
 21
1798.1948640000001
 31
0.0
  0
LINE
  5
7AAA
  8
1
  6
CONTINUOUS
 10
1051.712219
 20
1748.1948640000001
 30
0.0
 11
1051.712219
 21
1798.1948640000001
 31
0.0
  0
LINE
  5
7AAB
  8
2
  6
CENTER
 10
981.712219
 20
1930.1948640000001
 30
0.0
 11
861.71221899999989
 21
1930.1948640000001
 31
0.0
  0
CIRCLE
  5
7AAC
  8
1
  6
CONTINUOUS
 10
921.71221899999989
 20
1930.1948640000001
 30
0.0
 40
60.0
  0
LINE
  5
7AAD
  8
2
  6
CENTER
 10
921.71221899999989
 20
1870.1948640000001
 30
0.0
 11
921.71221899999989
 21
1990.1948640000001
 31
0.0
  0
LINE
  5
7AAE
  8
1
  6
CONTINUOUS
 10
1129.7122189999991
 20
2513.1948640000001
 30
0.0
 11
1130.712219
 21
2157.8148639999999
 31
0.0
  0
ARC
  5
7AAF
  8
1
  6
CONTINUOUS
 10
1564.712219
 20
2131.1948640000001
 30
0.0
 40
380.98000000000002
 50
274.83999999999992
 51
8.4700000000000006
  0
ARC
  5
7AB0
  8
1
  6
CONTINUOUS
 10
1602.841228
 20
2127.7337199999988
 30
0.0
 40
343.89392400000003
 50
9.976388
 51
88.859720999999993
  0
LINE
  5
7AB1
  8
1
  6
CONTINUOUS
 10
1236.712219
 20
2468.1948640000001
 30
0.0
 11
1946.712219
 21
2468.1948640000001
 31
0.0
  0
CIRCLE
  5
7AB2
  8
1
  6
CONTINUOUS
 10
1591.712219
 20
2158.1948639999991
 30
0.0
 40
275.0
  0
CIRCLE
  5
7AB3
  8
1
  6
CONTINUOUS
 10
1591.712219
 20
2158.1948639999991
 30
0.0
 40
250.0
  0
LINE
  5
7AB4
  8
1
  6
CONTINUOUS
 10
1236.712219
 20
2468.1948640000001
 30
0.0
 11
1236.712219
 21
1748.1948640000001
 31
0.0
  0
LINE
  5
7AB5
  8
2
  6
CENTER
 10
566.48116300000004
 20
2158.1948639999991
 30
0.0
 11
2074.6376449999998
 21
2158.1948639999991
 31
0.0
  0
CIRCLE
  5
7AB6
  8
1
  6
CONTINUOUS
 10
1591.712219
 20
2158.1948639999991
 30
0.0
 40
120.0
  0
LINE
  5
7AB7
  8
2
  6
CENTER
 10
1591.712219
 20
1530.9764726857391
 30
0.0
 11
1591.712219
 21
2773.4661602364572
 31
0.0
  0
LINE
  5
7AB8
  8
1
  6
CONTINUOUS
 10
1609.712219
 20
2471.5648639999999
 30
0.0
 11
1609.712219
 21
2513.1948640000001
 31
0.0
  0
LINE
  5
7AB9
  8
1
  6
CONTINUOUS
 10
1946.712219
 20
2468.1948640000001
 30
0.0
 11
1946.712219
 21
1748.1948640000001
 31
0.0
  0
LINE
  5
7ABC
  8
1
  6
CONTINUOUS
 10
1891.712219
 20
1748.1948640000001
 30
0.0
 11
1891.712219
 21
1668.1948640000001
 31
0.0
  0
LINE
  5
7ABD
  8
1
  6
CONTINUOUS
 10
2765.581733
 20
2278.1948640000001
 30
0.0
 11
2765.581733
 21
2038.1948640000001
 31
0.0
  0
LINE
  5
7ABE
  8
1
  6
CONTINUOUS
 10
2765.581733
 20
1980.1948640000001
 30
0.0
 11
2765.581733
 21
1880.1948640000001
 31
0.0
  0
LINE
  5
7ABF
  8
1
  6
CONTINUOUS
 10
3285.581733
 20
2513.1948640000001
 30
0.0
 11
3285.581733
 21
1748.1948640000001
 31
0.0
  0
LINE
  5
7AC0
  8
1
  6
CONTINUOUS
 10
2925.5817329999991
 20
2513.1948640000001
 30
0.0
 11
2925.5817329999991
 21
1748.1948640000001
 31
0.0
  0
LINE
  5
7AC1
  8
1
  6
CONTINUOUS
 10
2855.581733
 20
2497.464864
 30
0.0
 11
2855.581733
 21
1752.464864
 31
0.0
  0
LINE
  5
7AC2
  8
1
  6
CONTINUOUS
 10
2881.581733
 20
1668.1948640000001
 30
0.0
 11
3329.5817329999991
 21
1668.1948640000001
 31
0.0
  0
LINE
  5
7AC3
  8
1
  6
CONTINUOUS
 10
2881.581733
 20
1748.1948640000001
 30
0.0
 11
3329.5817329999991
 21
1748.1948640000001
 31
0.0
  0
LINE
  5
7AC4
  8
1
  6
CONTINUOUS
 10
2881.581733
 20
1748.1948640000001
 30
0.0
 11
2881.581733
 21
1668.1948640000001
 31
0.0
  0
LINE
  5
7AC5
  8
1
  6
CONTINUOUS
 10
3329.5817329999991
 20
1748.1948640000001
 30
0.0
 11
3329.5817329999991
 21
1668.1948640000001
 31
0.0
  0
LINE
  5
7AC6
  8
1
  6
CONTINUOUS
 10
3310.581733
 20
2513.1948640000001
 30
0.0
 11
2900.581733
 21
2513.1948640000001
 31
0.0
  0
LINE
  5
7AC7
  8
1
  6
CONTINUOUS
 10
2925.5817329999991
 20
2488.1948640000001
 30
0.0
 11
3285.581733
 21
2488.1948640000001
 31
0.0
  0
LINE
  5
7AC8
  8
1
  6
CONTINUOUS
 10
2825.5817329999991
 20
2177.1948640000001
 30
0.0
 11
2925.5817329999991
 21
2177.1948640000001
 31
0.0
  0
LINE
  5
7AC9
  8
1
  6
CONTINUOUS
 10
2825.5817329999991
 20
2139.1948640000001
 30
0.0
 11
2925.5817329999991
 21
2139.1948640000001
 31
0.0
  0
LINE
  5
7ACA
  8
1
  6
CONTINUOUS
 10
2825.5817329999991
 20
2038.1948640000001
 30
0.0
 11
2825.5817329999991
 21
2278.1948640000001
 31
0.0
  0
LINE
  5
7ACB
  8
1
  6
CONTINUOUS
 10
2825.5817329999991
 20
1880.1948640000001
 30
0.0
 11
2825.5817329999991
 21
1980.1948640000001
 31
0.0
  0
LINE
  5
7ACC
  8
1
  6
CONTINUOUS
 10
2825.5817329999991
 20
1911.1948640000001
 30
0.0
 11
2925.5817329999991
 21
1911.1948640000001
 31
0.0
  0
LINE
  5
7ACD
  8
1
  6
CONTINUOUS
 10
2825.5817329999991
 20
1949.1948640000001
 30
0.0
 11
2925.5817329999991
 21
1949.1948640000001
 31
0.0
  0
LINE
  5
7ACE
  8
1
  6
CONTINUOUS
 10
2735.581733
 20
2806.1948640000001
 30
0.0
 11
3405.581733
 21
2806.1948640000001
 31
0.0
  0
LINE
  5
7ACF
  8
1
  6
CONTINUOUS
 10
2775.581733
 20
2770.464864
 30
0.0
 11
3365.5817329999991
 21
2770.464864
 31
0.0
  0
LINE
  5
7AD0
  8
1
  6
CONTINUOUS
 10
1102.712219
 20
3722.449854
 30
0.0
 11
1946.712219
 21
3722.449854
 31
0.0
  0
LINE
  5
7AD1
  8
1
  6
CONTINUOUS
 10
1102.712219
 20
4086.449854
 30
0.0
 11
1946.712219
 21
4086.449854
 31
0.0
  0
LINE
  5
7AD2
  8
1
  6
CONTINUOUS
 10
771.712219
 20
4128.4498539999986
 30
0.0
 11
1891.712219
 21
4128.4498539999986
 31
0.0
  0
LINE
  5
7AD3
  8
1
  6
CONTINUOUS
 10
940.712219
 20
3680.449853999999
 30
0.0
 11
1572.712219
 21
3680.449853999999
 31
0.0
  0
LINE
  5
7AD4
  8
1
  6
CONTINUOUS
 10
1636.712219
 20
3722.449854
 30
0.0
 11
1102.712219
 21
4086.449854
 31
0.0
  0
LINE
  5
7AD5
  8
1
  6
CONTINUOUS
 10
1102.712219
 20
3722.449854
 30
0.0
 11
1636.712219
 21
4086.449854
 31
0.0
  0
LINE
  5
7AD6
  8
1
  6
CONTINUOUS
 10
671.712219
 20
2806.1948640000001
 30
0.0
 11
1991.712219
 21
2806.1948640000001
 31
0.0
  0
LINE
  5
7AD7
  8
1
  6
CONTINUOUS
 10
671.712219
 20
3534.449854
 30
0.0
 11
1991.712219
 21
3534.449854
 31
0.0
  0
LINE
  5
7AD8
  8
1
  6
CONTINUOUS
 10
671.712219
 20
4204.4498539999986
 30
0.0
 11
1991.712219
 21
4204.4498539999986
 31
0.0
  0
LINE
  5
7AD9
  8
1
  6
CONTINUOUS
 10
1817.212219
 20
3654.449854
 30
0.0
 11
817.21221899999989
 21
3654.449854
 31
0.0
  0
LINE
  5
7ADA
  8
1
  6
CONTINUOUS
 10
1951.712219
 20
2770.464864
 30
0.0
 11
711.71221899999989
 21
2770.464864
 31
0.0
  0
LINE
  5
7ADB
  8
1
  6
CONTINUOUS
 10
711.71221899999989
 20
4164.4498539999986
 30
0.0
 11
1951.712219
 21
4164.4498539999986
 31
0.0
  0
LINE
  5
7ADC
  8
1
  6
CONTINUOUS
 10
1951.712219
 20
3574.449854
 30
0.0
 11
711.71221899999989
 21
3574.449854
 31
0.0
  0
LINE
  5
7ADD
  8
1
  6
CONTINUOUS
 10
771.712219
 20
4128.4498539999986
 30
0.0
 11
771.712219
 21
3680.449853999999
 31
0.0
  0
LINE
  5
7ADE
  8
1
  6
CONTINUOUS
 10
1102.712219
 20
4086.449854
 30
0.0
 11
1102.712219
 21
3722.449854
 31
0.0
  0
LINE
  5
7ADF
  8
1
  6
CONTINUOUS
 10
1043.712219
 20
3704.6898540000002
 30
0.0
 11
1043.712219
 21
4054.6898540000002
 31
0.0
  0
LINE
  5
7AE0
  8
1
  6
CONTINUOUS
 10
799.71221899999989
 20
3704.6898540000002
 30
0.0
 11
799.71221899999989
 21
4054.6898540000002
 31
0.0
  0
LINE
  5
7AE1
  8
1
  6
CONTINUOUS
 10
671.712219
 20
3534.449854
 30
0.0
 11
671.712219
 21
4204.4498539999986
 31
0.0
  0
LINE
  5
7AE2
  8
1
  6
CONTINUOUS
 10
711.71221899999989
 20
3574.449854
 30
0.0
 11
711.71221899999989
 21
4164.4498539999986
 31
0.0
  0
LINE
  5
7AE3
  8
1
  6
CONTINUOUS
 10
799.71221899999989
 20
3704.6898540000002
 30
0.0
 11
1043.712219
 21
3704.6898540000002
 31
0.0
  0
LINE
  5
7AE4
  8
1
  6
CONTINUOUS
 10
871.71221899999989
 20
3564.449854
 30
0.0
 11
971.71221899999989
 21
3564.449854
 31
0.0
  0
LINE
  5
7AE5
  8
1
  6
CONTINUOUS
 10
971.71221899999989
 20
3624.449854
 30
0.0
 11
871.71221899999989
 21
3624.449854
 31
0.0
  0
LINE
  5
7AE6
  8
1
  6
CONTINUOUS
 10
771.712219
 20
3680.449853999999
 30
0.0
 11
902.712219
 21
3680.449853999999
 31
0.0
  0
LINE
  5
7AE7
  8
1
  6
CONTINUOUS
 10
902.712219
 20
3624.449854
 30
0.0
 11
902.712219
 21
3704.6898540000002
 31
0.0
  0
LINE
  5
7AE8
  8
1
  6
CONTINUOUS
 10
871.71221899999989
 20
3624.449854
 30
0.0
 11
871.71221899999989
 21
3564.449854
 31
0.0
  0
LINE
  5
7AE9
  8
1
  6
CONTINUOUS
 10
817.21221899999989
 20
3654.449854
 30
0.0
 11
817.21221899999989
 21
3534.449854
 31
0.0
  0
LINE
  5
7AEA
  8
1
  6
CONTINUOUS
 10
940.712219
 20
3624.449854
 30
0.0
 11
940.712219
 21
3704.6898540000002
 31
0.0
  0
LINE
  5
7AEB
  8
1
  6
CONTINUOUS
 10
971.71221899999989
 20
3564.449854
 30
0.0
 11
971.71221899999989
 21
3624.449854
 31
0.0
  0
LINE
  5
7AEC
  8
1
  6
CONTINUOUS
 10
799.71221899999989
 20
4054.6898540000002
 30
0.0
 11
1043.712219
 21
4054.6898540000002
 31
0.0
  0
LINE
  5
7AED
  8
1
  6
CONTINUOUS
 10
1610.712219
 20
3680.449853999999
 30
0.0
 11
1891.712219
 21
3680.449853999999
 31
0.0
  0
LINE
  5
7AEE
  8
1
  6
CONTINUOUS
 10
1636.712219
 20
3722.449854
 30
0.0
 11
1636.712219
 21
4086.449854
 31
0.0
  0
LINE
  5
7AEF
  8
1
  6
CONTINUOUS
 10
1681.712219
 20
3624.449854
 30
0.0
 11
1501.712219
 21
3624.449854
 31
0.0
  0
LINE
  5
7AF0
  8
1
  6
CONTINUOUS
 10
1501.712219
 20
3564.449854
 30
0.0
 11
1681.712219
 21
3564.449854
 31
0.0
  0
LINE
  5
7AF1
  8
1
  6
CONTINUOUS
 10
1501.712219
 20
3624.449854
 30
0.0
 11
1501.712219
 21
3564.449854
 31
0.0
  0
LINE
  5
7AF2
  8
1
  6
CONTINUOUS
 10
1610.712219
 20
3624.449854
 30
0.0
 11
1610.712219
 21
3722.449854
 31
0.0
  0
LINE
  5
7AF3
  8
1
  6
CONTINUOUS
 10
1572.712219
 20
3624.449854
 30
0.0
 11
1572.712219
 21
3722.449854
 31
0.0
  0
LINE
  5
7AF4
  8
1
  6
CONTINUOUS
 10
1681.712219
 20
3564.449854
 30
0.0
 11
1681.712219
 21
3624.449854
 31
0.0
  0
LINE
  5
7AF5
  8
1
  6
CONTINUOUS
 10
1817.212219
 20
3534.449854
 30
0.0
 11
1817.212219
 21
3654.449854
 31
0.0
  0
LINE
  5
7AF6
  8
1
  6
CONTINUOUS
 10
1946.712219
 20
3722.449854
 30
0.0
 11
1946.712219
 21
4086.449854
 31
0.0
  0
LINE
  5
7AF7
  8
1
  6
CONTINUOUS
 10
1991.712219
 20
3534.449854
 30
0.0
 11
1991.712219
 21
4204.4498539999986
 31
0.0
  0
LINE
  5
7AF8
  8
1
  6
CONTINUOUS
 10
1951.712219
 20
4164.4498539999986
 30
0.0
 11
1951.712219
 21
3574.449854
 31
0.0
  0
LINE
  5
7AF9
  8
1
  6
CONTINUOUS
 10
1891.712219
 20
3722.449854
 30
0.0
 11
1891.712219
 21
3680.449853999999
 31
0.0
  0
LINE
  5
7AFA
  8
1
  6
CONTINUOUS
 10
1891.712219
 20
4128.4498539999986
 30
0.0
 11
1891.712219
 21
4086.449854
 31
0.0
  0
LINE
  5
7AFB
  8
2
  6
CENTER
 10
582.46447499999999
 20
3904.449854
 30
0.0
 11
2047.145852365443
 21
3904.449854
 31
0.0
  0
LINE
  5
7AFC
  8
2
  6
CENTER
 10
3105.581733
 20
2865.139666
 30
0.0
 11
3105.581733
 21
1514.8512960313751
 31
0.0
  0
LINE
  5
7AFD
  8
2
  6
CENTER
 10
1591.712219
 20
3429.079596999999
 30
0.0
 11
1591.712219
 21
4269.3089841098863
 31
0.0
  0
LINE
  5
7AFE
  8
2
  6
CENTER
 10
2668.6310309999999
 20
2158.1948639999991
 30
0.0
 11
3480.217482
 21
2158.1948639999991
 31
0.0
  0
LINE
  5
7AFF
  8
4
  6
CONTINUOUS
 10
3700.0
 20
1000.0
 30
0.0
 11
3700.0
 21
600.0
 31
0.0
  0
LINE
  5
7B00
  8
4
  6
CONTINUOUS
 10
2300.0
 20
1000.0
 30
0.0
 11
2300.0
 21
600.0
 31
0.0
  0
LINE
  5
7B01
  8
4
  6
CONTINUOUS
 10
1300.0
 20
1000.0
 30
0.0
 11
1300.0
 21
600.0
 31
0.0
  0
LINE
  5
7B04
  8
4
  6
CONTINUOUS
 10
1300.0
 20
600.0
 30
0.0
 11
3700.0
 21
600.0
 31
0.0
  0
LINE
  5
7B05
  8
4
  6
CONTINUOUS
 10
1300.0
 20
800.0
 30
0.0
 11
3700.0
 21
800.0
 31
0.0
  0
TEXT
  5
7B06
  8
4
  6
CONTINUOUS
 10
1377.004162
 20
863.086052
 30
0.0
 40
100.0
  1
機器名称
  0
TEXT
  5
7B07
  8
4
  6
CONTINUOUS
 10
1372.516212
 20
643.29031299999986
 30
0.0
 40
100.0
  1
機器型番
  0
TEXT
  5
7B08
  8
4
  6
CONTINUOUS
 10
2355.3574910000002
 20
845.14353800000015
 30
0.0
 40
100.0
  1
ミツヤ多翼送風機
  0
TEXT
  5
7B09
  8
4
  6
CONTINUOUS
 10
2373.3089909999999
 20
634.31916899999999
 30
0.0
 40
100.0
  1
MF#3-4
  0
TEXT
  5
7B0B
  8
4
  6
CONTINUOUS
 10
1342.683569
 20
4766.8576830000002
 30
0.0
 40
108.0
  1
天井吊枠防振ベット
  0
TEXT
  5
7B0C
  8
4
  6
CONTINUOUS
 10
632.33518700000002
 20
5067.7619520000007
 30
0.0
 40
144.0
  1
ベルト駆動式片吸込両持多翼ファン
  0
LINE
  5
7B0D
  8
4
  6
CONTINUOUS
 10
500.0
 20
4938.8175090000004
 30
0.0
 11
3700.0
 21
4938.8175090000004
 31
0.0
  0
LINE
  5
7B0E
  8
4
  6
CONTINUOUS
 10
500.0
 20
5338.8175090000004
 30
0.0
 11
3700.0
 21
5338.8175090000004
 31
0.0
  0
LINE
  5
7B0F
  8
4
  6
CONTINUOUS
 10
1300.0
 20
1000.0
 30
0.0
 11
3700.0
 21
1000.0
 31
0.0
  0
LINE
  5
7B10
  8
4
  6
CONTINUOUS
 10
500.0
 20
5338.8175090000004
 30
0.0
 11
500.0
 21
4938.8175090000004
 31
0.0
  0
TEXT
  5
7B11
  8
4
  6
CONTINUOUS
 10
559.29605599999979
 20
4764.6389549999994
 30
0.0
 40
108.0
  1
右回転上向
  0
TEXT
  5
7B12
  8
4
  6
CONTINUOUS
 10
2937.9391179999998
 20
5412.122163
 30
0.0
 40
112.0
  1
No.
  0
TEXT
  5
7B13
  8
4
  6
CONTINUOUS
 10
2622.5921250000001
 20
4766.8576830000002
 30
0.0
 40
108.0
  1
縮尺：1/20
  0
LINE
  5
7B14
  8
4
  6
CONTINUOUS
 10
3700.0
 20
5338.8175090000004
 30
0.0
 11
3700.0
 21
4938.8175090000004
 31
0.0
  0
LINE
  5
7B16
  8
4
  6
CONTINUOUS
 10
2881.234845
 20
5362.5271659999999
 30
0.0
 11
2881.234845
 21
5573.3045229999998
 31
0.0
  0
LINE
  5
7B17
  8
4
  6
CONTINUOUS
 10
2881.234845
 20
5573.3045229999998
 30
0.0
 11
3700.0
 21
5573.3045229999998
 31
0.0
  0
LINE
  5
7B18
  8
4
  6
CONTINUOUS
 10
3700.0
 20
5573.3045229999998
 30
0.0
 11
3700.0
 21
5362.5271659999999
 31
0.0
  0
LINE
  5
7B19
  8
4
  6
CONTINUOUS
 10
3700.0
 20
5362.5271659999999
 30
0.0
 11
2881.234845
 21
5362.5271659999999
 31
0.0
  0
LINE
  5
7B1E
  8
1
  6
CONTINUOUS
 10
1817.212219
 20
1748.1948640000001
 30
0.0
 11
1817.212219
 21
2418.1948640000001
 31
0.0
  0
LINE
  5
7B1F
  8
1
  6
CONTINUOUS
 10
1817.212219
 20
2418.1948640000001
 30
0.0
 11
1567.2122189999991
 21
2493.1948640000001
 31
0.0
  0
LINE
  5
7B20
  8
1
  6
CONTINUOUS
 10
1567.2122189999991
 20
2493.1948640000001
 30
0.0
 11
817.21221899999989
 21
1983.1948640000001
 31
0.0
  0
LINE
  5
7B21
  8
1
  6
CONTINUOUS
 10
817.21221899999989
 20
1983.1948640000001
 30
0.0
 11
817.21221899999989
 21
1748.1948640000001
 31
0.0
  0
DIMENSION
  5
7B35
  8
3
  6
CONTINUOUS
  2
*D1
 10
1609.712219
 20
2620.516564
 30
0.0
 11
1347.627391
 21
2620.516564
 31
0.0
 70
   128
 13
1129.7122189999991
 23
2513.1948640000001
 33
0.0
 14
1609.712219
 24
2513.1948640000001
 34
0.0
1001
ACAD
1000
DSTYLE
1002
{
1070
   287
1070
     3
1070
    40
1040
20.0
1070
   143
1040
0.039
1070
   172
1070
     1
1070
   271
1070
     0
1070
   279
1070
     0
1070
   288
1070
     1
1002
}
  0
DIMENSION
  5
7B42
  8
3
  6
CONTINUOUS
  2
*D2
 10
1591.712219
 20
2859.483851
 30
0.0
 11
1338.4031970000001
 21
2859.483851
 31
0.0
 70
   128
 13
1129.7122189999991
 23
2513.1948640000001
 33
0.0
 14
1591.712219
 24
2773.4661602364572
 34
0.0
1001
ACAD
1000
DSTYLE
1002
{
1070
   287
1070
     3
1070
    40
1040
20.0
1070
   143
1040
0.039
1070
   172
1070
     1
1070
   271
1070
     0
1070
   279
1070
     0
1070
   288
1070
     1
1002
}
  0
DIMENSION
  5
7B4E
  8
3
  6
CONTINUOUS
  2
*D3
 10
1946.712219
 20
2859.483851
 30
0.0
 11
1769.2122189999991
 21
2909.483851
 31
0.0
 70
     0
 13
1591.712219
 23
2778.6708092107292
 33
0.0
 14
1946.712219
 24
2468.1948640000001
 34
0.0
1001
ACAD
1000
DSTYLE
1002
{
1070
   287
1070
     4
1070
    40
1040
20.0
1070
    75
1070
     1
1070
   143
1040
0.039
1070
   172
1070
     1
1070
   271
1070
     0
1070
   279
1070
     1
1070
   288
1070
     1
1002
}
  0
DIMENSION
  5
7B5B
  8
3
  6
CONTINUOUS
  2
*D4
 10
2145.5213039999999
 20
2158.1948639999991
 30
0.0
 11
2145.5213039999999
 21
2329.1473850000002
 31
0.0
 70
   128
 13
1626.712219
 23
2513.1948640000001
 33
0.0
 14
2074.6376449999998
 24
2158.1948639999991
 34
0.0
 50
90.0
1001
ACAD
1000
DSTYLE
1002
{
1070
   287
1070
     3
1070
    40
1040
20.0
1070
   143
1040
0.039
1070
   172
1070
     1
1070
   271
1070
     0
1070
   279
1070
     0
1070
   288
1070
     1
1002
}
  0
DIMENSION
  5
7B67
  8
3
  6
CONTINUOUS
  2
*D5
 10
2145.5213039999999
 20
1668.1948640000001
 30
0.0
 11
2095.521303999999
 21
1913.1948640000001
 31
0.0
 70
     0
 13
2074.6376449999998
 23
2158.1948639999991
 33
0.0
 14
1891.712219
 24
1668.1948640000001
 34
0.0
 50
90.0
1001
ACAD
1000
DSTYLE
1002
{
1070
   287
1070
     4
1070
    40
1040
20.0
1070
    75
1070
     1
1070
   143
1040
0.039
1070
   172
1070
     1
1070
   271
1070
     0
1070
   279
1070
     1
1070
   288
1070
     1
1002
}
  0
DIMENSION
  5
7B77
  8
3
  6
CONTINUOUS
  2
*D6
 10
2145.5213039999999
 20
1606.1948640000001
 30
0.0
 11
2145.5213039999999
 21
1457.6234354285709
 31
0.0
 70
   128
 13
1891.712219
 23
1668.1948640000001
 33
0.0
 14
1991.712219
 24
1606.1948640000001
 34
0.0
 50
90.0
1001
ACAD
1000
DSTYLE
1002
{
1070
   287
1070
     3
1070
    40
1040
20.0
1070
   143
1040
0.039
1070
   172
1070
     1
1070
   271
1070
     0
1070
   279
1070
     0
1070
   288
1070
     1
1002
}
  0
DIMENSION
  5
7B84
  8
3
  6
CONTINUOUS
  2
*D7
 10
1591.712219
 20
1431.564668685739
 30
0.0
 11
1135.470634
 21
1431.564668685739
 31
0.0
 70
   128
 13
671.712219
 23
1606.1948640000001
 33
0.0
 14
1591.712219
 24
1530.9764726857391
 34
0.0
1001
ACAD
1000
DSTYLE
1002
{
1070
   287
1070
     3
1070
    40
1040
20.0
1070
   143
1040
0.039
1070
   172
1070
     1
1070
   271
1070
     0
1070
   279
1070
     0
1070
   288
1070
     1
1002
}
  0
DIMENSION
  5
7B90
  8
3
  6
CONTINUOUS
  2
*D8
 10
1991.712219
 20
1431.564668685739
 30
0.0
 11
1791.712219
 21
1481.564668685739
 31
0.0
 70
     0
 13
1591.712219
 23
1530.9764726857391
 33
0.0
 14
1991.712219
 24
1606.1948640000001
 34
0.0
1001
ACAD
1000
DSTYLE
1002
{
1070
   287
1070
     4
1070
    40
1040
20.0
1070
    75
1070
     1
1070
   143
1040
0.039
1070
   172
1070
     1
1070
   271
1070
     0
1070
   279
1070
     1
1070
   288
1070
     1
1002
}
  0
LINE
  5
7BEB
  8
1
  6
CONTINUOUS
 10
3286.581733
 20
2408.1948640000001
 30
0.0
 11
3286.581733
 21
1908.1948640000001
 31
0.0
  0
DIMENSION
  5
7BFA
  8
3
  6
CONTINUOUS
  2
*D9
 10
3595.5198420000011
 20
1908.1948640000001
 30
0.0
 11
3595.5198420000002
 21
2158.6585329999998
 31
0.0
 70
   128
 13
3286.581733
 23
2408.1948640000001
 33
0.0
 14
3286.581733
 24
1908.1948640000001
 34
0.0
 50
90.0
1001
ACAD
1000
DSTYLE
1002
{
1070
   287
1070
     3
1070
     3
1000
φ<>
1070
    40
1040
20.0
1070
   143
1040
0.039
1070
   172
1070
     1
1070
   271
1070
     0
1070
   279
1070
     0
1070
   288
1070
     1
1002
}
  0
DIMENSION
  5
7C09
  8
3
  6
CONTINUOUS
  2
*D10
 10
3105.581733
 20
3021.9235947785978
 30
0.0
 11
3196.081733
 21
3085.1631667607321
 31
0.0
 70
   128
 13
3286.581733
 23
2408.1948640000001
 33
0.0
 14
3105.581733
 24
2989.94022
 34
0.0
1001
ACAD
1000
DSTYLE
1002
{
1070
   288
1070
     1
1070
   172
1070
     1
1070
    40
1040
20.0
1070
   271
1070
     0
1070
   143
1040
0.039
1002
}
  0
DIMENSION
  5
7C22
  8
3
  6
CONTINUOUS
  2
*D11
 10
3105.581733
 20
1417.294067
 30
0.0
 11
2917.5406480000001
 21
1417.294067
 31
0.0
 70
   128
 13
2735.581733
 23
1606.1948640000001
 33
0.0
 14
3105.581733
 24
1514.8512960313751
 34
0.0
1001
ACAD
1000
DSTYLE
1002
{
1070
   287
1070
     3
1070
    40
1040
20.0
1070
   143
1040
0.039
1070
   172
1070
     1
1070
   271
1070
     0
1070
   279
1070
     0
1070
   288
1070
     1
1002
}
  0
DIMENSION
  5
7C2E
  8
3
  6
CONTINUOUS
  2
*D12
 10
3405.581733
 20
1417.294067
 30
0.0
 11
3255.581733
 21
1467.294067
 31
0.0
 70
     0
 13
3105.581733
 23
1514.8512960313751
 33
0.0
 14
3405.581733
 24
1606.1948640000001
 34
0.0
1001
ACAD
1000
DSTYLE
1002
{
1070
   287
1070
     4
1070
    40
1040
20.0
1070
    75
1070
     1
1070
   143
1040
0.039
1070
   172
1070
     1
1070
   271
1070
     0
1070
   279
1070
     1
1070
   288
1070
     1
1002
}
  0
DIMENSION
  5
7C3B
  8
3
  6
CONTINUOUS
  2
*D13
 10
1991.712219
 20
4354.5915759999989
 30
0.0
 11
1264.6095459999999
 21
4354.5915759999989
 31
0.0
 70
   128
 13
671.712219
 23
4204.4498539999986
 33
0.0
 14
1991.712219
 24
4204.4498539999986
 34
0.0
1001
ACAD
1000
DSTYLE
1002
{
1070
   287
1070
     3
1070
    40
1040
20.0
1070
   143
1040
0.039
1070
   172
1070
     1
1070
   271
1070
     0
1070
   279
1070
     0
1070
   288
1070
     1
1002
}
  0
DIMENSION
  5
7C48
  8
3
  6
CONTINUOUS
  2
*D14
 10
2182.4181290000001
 20
3534.449854
 30
0.0
 11
2182.4181290000001
 21
3894.8494289999999
 31
0.0
 70
   128
 13
1991.712219
 23
4204.4498539999986
 33
0.0
 14
1991.712219
 24
3534.449854
 34
0.0
 50
90.0
1001
ACAD
1000
DSTYLE
1002
{
1070
   287
1070
     3
1070
    40
1040
20.0
1070
   143
1040
0.039
1070
   172
1070
     1
1070
   271
1070
     0
1070
   279
1070
     0
1070
   288
1070
     1
1002
}
  0
DIMENSION
  5
7CE1
  8
3
  6
CONTINUOUS
  2
*D15
 10
3285.581733
 20
2872.3830670000002
 30
0.0
 11
3101.4535799999999
 21
2872.3830670000002
 31
0.0
 70
   128
 13
2925.5817329999991
 23
2513.1948640000001
 33
0.0
 14
3285.581733
 24
2513.1948640000001
 34
0.0
1001
ACAD
1000
DSTYLE
1002
{
1070
   287
1070
     3
1070
    40
1040
20.0
1070
   143
1040
0.039
1070
   172
1070
     1
1070
   271
1070
     0
1070
   279
1070
     0
1070
   288
1070
     1
1002
}
  0
DIMENSION
  5
7D07
  8
3
  6
CONTINUOUS
  2
*D16
 10
2579.2545140000002
 20
1606.1948640000001
 30
0.0
 11
2579.2545140000002
 21
2230.7531119999999
 31
0.0
 70
   128
 13
2735.581733
 23
2806.1948640000001
 33
0.0
 14
2735.581733
 24
1606.1948640000001
 34
0.0
 50
90.0
1001
ACAD
1000
DSTYLE
1002
{
1070
   287
1070
     3
1070
    40
1040
20.0
1070
   143
1040
0.039
1070
   172
1070
     1
1070
   271
1070
     0
1070
   279
1070
     0
1070
   288
1070
     1
1002
}
  0
ENDSEC
  0
EOF
