  0
SECTION
  2
HEADER
  9
$ACADVER
  1
AC1009
  9
$INSBASE
 10
0.0
 20
0.0
 30
0.0
  9
$EXTMIN
 10
461.1855139999999
 20
600.0
 30
0.0
  9
$EXTMAX
 10
3700.0
 20
5573.3045229999998
 30
0.0
  9
$LIMMIN
 10
0.0
 20
0.0
  9
$LIMMAX
 10
297.0
 20
210.0
  9
$ORTHOMODE
 70
     0
  9
$REGENMODE
 70
     1
  9
$FILLMODE
 70
     0
  9
$QTEXTMODE
 70
     0
  9
$MIRRTEXT
 70
     1
  9
$DRAGMODE
 70
     2
  9
$LTSCALE
 40
100.0
  9
$OSMODE
 70
    37
  9
$ATTMODE
 70
     1
  9
$TEXTSIZE
 40
180.0
  9
$TRACEWID
 40
0.05
  9
$TEXTSTYLE
  7
STANDARD
  9
$CLAYER
  8
3
  9
$CELTYPE
  6
BYLAYER
  9
$CECOLOR
 62
   256
  9
$DIMSCALE
 40
20.0
  9
$DIMASZ
 40
2.0
  9
$DIMEXO
 40
0.5
  9
$DIMDLI
 40
10.0
  9
$DIMRND
 40
0.0
  9
$DIMDLE
 40
0.0
  9
$DIMEXE
 40
1.0
  9
$DIMTP
 40
1.0
  9
$DIMTM
 40
1.0
  9
$DIMTXT
 40
3.0
  9
$DIMCEN
 40
0.0
  9
$DIMTSZ
 40
0.0
  9
$DIMTOL
 70
     0
  9
$DIMLIM
 70
     0
  9
$DIMTIH
 70
     0
  9
$DIMTOH
 70
     0
  9
$DIMSE1
 70
     0
  9
$DIMSE2
 70
     0
  9
$DIMTAD
 70
     1
  9
$DIMZIN
 70
     8
  9
$DIMBLK
  1

  9
$DIMASO
 70
     1
  9
$DIMSHO
 70
     1
  9
$DIMPOST
  1

  9
$DIMAPOST
  1

  9
$DIMALT
 70
     0
  9
$DIMALTD
 70
     2
  9
$DIMALTF
 40
0.039
  9
$DIMLFAC
 40
1.0
  9
$DIMTOFL
 70
     1
  9
$DIMTVP
 40
0.0
  9
$DIMTIX
 70
     0
  9
$DIMSOXD
 70
     0
  9
$DIMSAH
 70
     1
  9
$DIMBLK1
  1
OPEN
  9
$DIMBLK2
  1
OPEN
  9
$DIMSTYLE
  2
IGA
  9
$DIMCLRD
 70
     0
  9
$DIMCLRE
 70
     0
  9
$DIMCLRT
 70
     0
  9
$DIMTFAC
 40
10.0
  9
$DIMGAP
 40
1.0
  9
$LUNITS
 70
     2
  9
$LUPREC
 70
     3
  9
$SKETCHINC
 40
0.1
  9
$FILLETRAD
 40
50.0
  9
$AUNITS
 70
     0
  9
$AUPREC
 70
     0
  9
$MENU
  1
acad
  9
$ELEVATION
 40
0.0
  9
$PELEVATION
 40
0.0
  9
$THICKNESS
 40
0.0
  9
$LIMCHECK
 70
     0
  9
$BLIPMODE
 70
     0
  9
$CHAMFERA
 40
0.5
  9
$CHAMFERB
 40
0.5
  9
$SKPOLY
 70
     0
  9
$TDCREATE
 40
2450736.4063373841
  9
$TDUPDATE
 40
2454953.7674376038
  9
$TDINDWG
 40
0.0211955787
  9
$TDUSRTIMER
 40
0.0211955787
  9
$USRTIMER
 70
     1
  9
$ANGBASE
 50
0.0
  9
$ANGDIR
 70
     0
  9
$PDMODE
 70
     0
  9
$PDSIZE
 40
0.0
  9
$PLINEWID
 40
0.0
  9
$COORDS
 70
     1
  9
$SPLFRAME
 70
     0
  9
$SPLINETYPE
 70
     6
  9
$SPLINESEGS
 70
     8
  9
$ATTDIA
 70
     0
  9
$ATTREQ
 70
     1
  9
$HANDLING
 70
 10241
  9
$HANDSEED
  5
7DD7
  9
$SURFTAB1
 70
     6
  9
$SURFTAB2
 70
     6
  9
$SURFTYPE
 70
     6
  9
$SURFU
 70
     6
  9
$SURFV
 70
     6
  9
$UCSNAME
  2

  9
$UCSORG
 10
0.0
 20
0.0
 30
0.0
  9
$UCSXDIR
 10
1.0
 20
0.0
 30
0.0
  9
$UCSYDIR
 10
0.0
 20
1.0
 30
0.0
  9
$PUCSNAME
  2

  9
$PUCSORG
 10
0.0
 20
0.0
 30
0.0
  9
$PUCSXDIR
 10
1.0
 20
0.0
 30
0.0
  9
$PUCSYDIR
 10
0.0
 20
1.0
 30
0.0
  9
$USERI1
 70
     0
  9
$USERI2
 70
     0
  9
$USERI3
 70
     0
  9
$USERI4
 70
     0
  9
$USERI5
 70
     0
  9
$USERR1
 40
0.0
  9
$USERR2
 40
0.0
  9
$USERR3
 40
0.0
  9
$USERR4
 40
0.0
  9
$USERR5
 40
0.0
  9
$WORLDVIEW
 70
     1
  9
$SHADEDGE
 70
     3
  9
$SHADEDIF
 70
    70
  9
$TILEMODE
 70
     1
  9
$MAXACTVP
 70
    16
  9
$PLIMCHECK
 70
     0
  9
$PEXTMIN
 10
1.0000000000000000E+020
 20
1.0000000000000000E+020
 30
1.0000000000000000E+020
  9
$PEXTMAX
 10
-1.0000000000000000E+020
 20
-1.0000000000000000E+020
 30
-1.0000000000000000E+020
  9
$PLIMMIN
 10
0.0
 20
0.0
  9
$PLIMMAX
 10
12.0
 20
9.0
  9
$UNITMODE
 70
     0
  9
$VISRETAIN
 70
     0
  9
$PLINEGEN
 70
     0
  9
$PSLTSCALE
 70
     1
  0
ENDSEC
  0
SECTION
  2
TABLES
  0
TABLE
  2
VPORT
 70
     2
  0
VPORT
  2
*ACTIVE
 70
     0
 10
0.0
 20
0.0
 11
1.0
 21
1.0
 12
6272.7757764909884
 22
3086.6374998146398
 13
0.0
 23
0.0
 14
10.0
 24
10.0
 15
10.0
 25
10.0
 16
0.0
 26
0.0
 36
1.0
 17
0.0
 27
0.0
 37
0.0
 40
5011.4968576296578
 41
3.1666666666666661
 42
50.0
 43
0.0
 44
0.0
 50
0.0
 51
0.0
 71
     0
 72
   100
 73
     1
 74
     0
 75
     0
 76
     0
 77
     0
 78
     0
  0
ENDTAB
  0
TABLE
  2
LTYPE
 70
     2
  0
LTYPE
  2
CONTINUOUS
 70
     0
  3
Solid line
 72
    65
 73
     0
 40
0.0
  0
LTYPE
  2
CENTER
 70
     0
  3
____ _ ____ _ ____ _ ____ _ ____ _ ____ _ ____ 
 72
    65
 73
     4
 40
2.0
 49
1.25
 49
-0.25
 49
0.25
 49
-0.25
  0
ENDTAB
  0
TABLE
  2
LAYER
 70
     6
  0
LAYER
  2
0
 70
     0
 62
     7
  6
CONTINUOUS
  0
LAYER
  2
3
 70
     0
 62
     2
  6
CONTINUOUS
  0
LAYER
  2
2
 70
     0
 62
     3
  6
CENTER
  0
LAYER
  2
1
 70
     0
 62
     4
  6
CONTINUOUS
  0
LAYER
  2
4
 70
     0
 62
     7
  6
CONTINUOUS
  0
LAYER
  2
DEFPOINTS
 70
     0
 62
     7
  6
CONTINUOUS
  0
ENDTAB
  0
TABLE
  2
STYLE
 70
     1
  0
STYLE
  2
STANDARD
 70
     0
 40
0.0
 41
1.0
 50
0.0
 71
     0
 42
180.0
  3
simplex.shx
  4
extfont.shx
  0
ENDTAB
  0
TABLE
  2
VIEW
 70
     0
  0
ENDTAB
  0
TABLE
  2
UCS
 70
     0
  0
ENDTAB
  0
TABLE
  2
APPID
 70
     1
  0
APPID
  2
ACAD
 70
     0
  0
ENDTAB
  0
TABLE
  2
DIMSTYLE
 70
     1
  0
DIMSTYLE
  2
IGA
 70
     0
  3

  4

  5

  6
OPEN
  7
OPEN
 40
2.0
 41
2.0
 42
0.5
 43
10.0
 44
1.0
 45
0.0
 46
0.0
 47
1.0
 48
1.0
140
3.0
141
0.0
142
0.0
143
0.03937
144
1.0
145
0.0
146
10.0
147
1.0
 71
     0
 72
     0
 73
     0
 74
     0
 75
     0
 76
     0
 77
     1
 78
     8
170
     0
171
     2
172
     0
173
     1
174
     0
175
     0
176
     0
177
     0
178
     0
  0
ENDTAB
  0
ENDSEC
  0
SECTION
  2
BLOCKS
  0
BLOCK
  8
0
  2
$MODEL_SPACE
 70
     0
 10
0.0
 20
0.0
 30
0.0
  3
$MODEL_SPACE
  1

  0
ENDBLK
  5
1B
  8
0
  0
BLOCK
 67
     1
  8
0
  2
$PAPER_SPACE
 70
     0
 10
0.0
 20
0.0
 30
0.0
  3
$PAPER_SPACE
  1

  0
ENDBLK
  5
18
 67
     1
  8
0
  0
BLOCK
  8
0
  2
_OPEN
 70
     0
 10
0.0
 20
0.0
 30
0.0
  3
_OPEN
  1

  0
LINE
  5
7B2A
  8
0
  6
BYBLOCK
 62
     0
 10
-1.0
 20
0.166667
 30
0.0
 11
0.0
 21
0.0
 31
0.0
  0
LINE
  5
7B2B
  8
0
  6
BYBLOCK
 62
     0
 10
0.0
 20
0.0
 30
0.0
 11
-1.0
 21
-0.166667
 31
0.0
  0
LINE
  5
7B2C
  8
0
  6
BYBLOCK
 62
     0
 10
0.0
 20
0.0
 30
0.0
 11
-1.0
 21
0.0
 31
0.0
  0
ENDBLK
  5
7B2D
  8
0
  0
BLOCK
  8
0
  2
*D1
 70
     1
 10
0.0
 20
0.0
 30
0.0
  3
*D1
  1

  0
LINE
  5
7D43
  8
3
  6
CONTINUOUS
 62
     0
 10
1884.5098359300439
 20
2562.2191800000001
 30
0.0
 11
2082.7659759300441
 21
2562.2191800000001
 31
0.0
  0
LINE
  5
7D44
  8
3
  6
CONTINUOUS
 62
     0
 10
1884.5098359300439
 20
2082.2191800000001
 30
0.0
 11
2082.7659759300441
 21
2082.2191800000001
 31
0.0
  0
LINE
  5
7D45
  8
3
  6
CONTINUOUS
 62
     0
 10
2062.7659759300441
 20
2522.2191800000001
 30
0.0
 11
2062.7659759300441
 21
2122.2191800000001
 31
0.0
  0
INSERT
  5
7D46
  8
3
  6
CONTINUOUS
 62
     0
  2
_OPEN
 10
2062.7659759300441
 20
2562.2191800000001
 30
0.0
 41
40.0
 42
40.0
 43
40.0
 50
90.0
  0
INSERT
  5
7D47
  8
3
  6
CONTINUOUS
 62
     0
  2
_OPEN
 10
2062.7659759300441
 20
2082.2191800000001
 30
0.0
 41
40.0
 42
40.0
 43
40.0
 50
270.0
  0
TEXT
  8
3
  40
60
  5
7DC8
  62
0
  72
0
  71
0
 10
1892.77
 20
2199.10
 30
0.000000
  1
480
  0
POINT
  5
7D49
  8
DEFPOINTS
  6
CONTINUOUS
 62
     0
 10
1874.5098359300439
 20
2562.2191800000001
 30
0.0
  0
POINT
  5
7D4A
  8
DEFPOINTS
  6
CONTINUOUS
 62
     0
 10
1874.5098359300439
 20
2082.2191800000001
 30
0.0
  0
POINT
  5
7D4B
  8
DEFPOINTS
  6
CONTINUOUS
 62
     0
 10
2062.7659759300441
 20
2082.2191800000001
 30
0.0
  0
ENDBLK
  5
7BAB
  8
0
  0
BLOCK
  8
0
  2
*D2
 70
     1
 10
0.0
 20
0.0
 30
0.0
  3
*D2
  1

  0
LINE
  5
7D4C
  8
3
  6
CONTINUOUS
 62
     0
 10
1929.5098359300439
 20
2562.2191800000001
 30
0.0
 11
2210.3539729300442
 21
2562.2191800000001
 31
0.0
  0
LINE
  5
7D4D
  8
3
  6
CONTINUOUS
 62
     0
 10
2013.8960059300441
 20
2100.2191800000001
 30
0.0
 11
2210.3539729300442
 21
2100.2191800000001
 31
0.0
  0
LINE
  5
7D4E
  8
3
  6
CONTINUOUS
 62
     0
 10
2190.3539729300451
 20
2522.2191800000001
 30
0.0
 11
2190.3539729300451
 21
2140.2191800000001
 31
0.0
  0
INSERT
  5
7D4F
  8
3
  6
CONTINUOUS
 62
     0
  2
_OPEN
 10
2190.3539729300451
 20
2562.2191800000001
 30
0.0
 41
40.0
 42
40.0
 43
40.0
 50
90.0
  0
INSERT
  5
7D50
  8
3
  6
CONTINUOUS
 62
     0
  2
_OPEN
 10
2190.3539729300451
 20
2100.2191800000001
 30
0.0
 41
40.0
 42
40.0
 43
40.0
 50
270.0
  0
TEXT
  8
3
  40
60
  5
7DC9
  62
0
  72
0
  71
0
 10
2020.35
 20
2194.20
 30
0.000000
  1
462
  0
POINT
  5
7D52
  8
DEFPOINTS
  6
CONTINUOUS
 62
     0
 10
1919.5098359300439
 20
2562.2191800000001
 30
0.0
  0
POINT
  5
7D53
  8
DEFPOINTS
  6
CONTINUOUS
 62
     0
 10
2003.8960059300441
 20
2100.2191800000001
 30
0.0
  0
POINT
  5
7D54
  8
DEFPOINTS
  6
CONTINUOUS
 62
     0
 10
2190.3539729300451
 20
2100.2191800000001
 30
0.0
  0
ENDBLK
  5
7BB6
  8
0
  0
BLOCK
  8
0
  2
*D3
 70
     1
 10
0.0
 20
0.0
 30
0.0
  3
*D3
  1

  0
LINE
  5
7D55
  8
3
  6
CONTINUOUS
 62
     0
 10
1829.5098359300439
 20
1665.2191800000001
 30
0.0
 11
2210.3539729300442
 21
1665.2191800000001
 31
0.0
  0
LINE
  5
7D56
  8
3
  6
CONTINUOUS
 62
     0
 10
2190.3539729300442
 20
2060.2191800000001
 30
0.0
 11
2190.3539729300442
 21
1705.2191800000001
 31
0.0
  0
INSERT
  5
7D57
  8
3
  6
CONTINUOUS
 62
     0
  2
_OPEN
 10
2190.3539729300442
 20
2100.2191800000001
 30
0.0
 41
40.0
 42
40.0
 43
40.0
 50
90.0
  0
INSERT
  5
7D58
  8
3
  6
CONTINUOUS
 62
     0
  2
_OPEN
 10
2190.3539729300442
 20
1665.2191800000001
 30
0.0
 41
40.0
 42
40.0
 43
40.0
 50
270.0
  0
TEXT
  8
3
  40
60
  5
7DCA
  62
0
  72
0
  71
0
 10
2020.35
 20
1776.52
 30
0.000000
  1
435
  0
POINT
  5
7D5A
  8
DEFPOINTS
  6
CONTINUOUS
 62
     0
 10
2003.8960059300441
 20
2100.2191800000001
 30
0.0
  0
POINT
  5
7D5B
  8
DEFPOINTS
  6
CONTINUOUS
 62
     0
 10
1819.5098359300439
 20
1665.2191800000001
 30
0.0
  0
POINT
  5
7D5C
  8
DEFPOINTS
  6
CONTINUOUS
 62
     0
 10
2190.3539729300442
 20
1665.2191800000001
 30
0.0
  0
ENDBLK
  5
7B53
  8
0
  0
BLOCK
  8
0
  2
*D4
 70
     1
 10
0.0
 20
0.0
 30
0.0
  3
*D4
  1

  0
LINE
  5
7D5D
  8
3
  6
CONTINUOUS
 62
     0
 10
1829.5098359300439
 20
1665.2191800000001
 30
0.0
 11
2211.5376949300439
 21
1665.2191800000001
 31
0.0
  0
LINE
  5
7D5E
  8
3
  6
CONTINUOUS
 62
     0
 10
1929.5098359300439
 20
1603.2191799999989
 30
0.0
 11
2211.5376949300439
 21
1603.2191799999989
 31
0.0
  0
LINE
  5
7D5F
  8
3
  6
CONTINUOUS
 62
     0
 10
2191.5376949300439
 20
1705.2191800000001
 30
0.0
 11
2191.5376949300439
 21
1745.2191800000001
 31
0.0
  0
LINE
  5
7D60
  8
3
  6
CONTINUOUS
 62
     0
 10
2191.5376949300439
 20
1563.2191800000001
 30
0.0
 11
2191.5376949300439
 21
1386.076322857142
 31
0.0
  0
LINE
  5
7D61
  8
3
  6
CONTINUOUS
 62
     0
 10
2191.5376949300439
 20
1665.2191800000001
 30
0.0
 11
2191.5376949300439
 21
1603.2191799999989
 31
0.0
  0
INSERT
  5
7D62
  8
3
  6
CONTINUOUS
 62
     0
  2
_OPEN
 10
2191.5376949300439
 20
1665.2191800000001
 30
0.0
 41
40.0
 42
40.0
 43
40.0
 50
270.0
  0
INSERT
  5
7D63
  8
3
  6
CONTINUOUS
 62
     0
  2
_OPEN
 10
2191.5376949300439
 20
1603.2191799999989
 30
0.0
 41
40.0
 42
40.0
 43
40.0
 50
90.0
  0
TEXT
  8
3
  40
60
  5
7DCB
  62
0
  72
0
  71
0
 10
2021.54
 20
1348.45
 30
0.000000
  1
62
  0
POINT
  5
7D65
  8
DEFPOINTS
  6
CONTINUOUS
 62
     0
 10
1819.5098359300439
 20
1665.2191800000001
 30
0.0
  0
POINT
  5
7D66
  8
DEFPOINTS
  6
CONTINUOUS
 62
     0
 10
1919.5098359300439
 20
1603.2191799999989
 30
0.0
  0
POINT
  5
7D67
  8
DEFPOINTS
  6
CONTINUOUS
 62
     0
 10
2191.5376949300439
 20
1603.2191799999989
 30
0.0
  0
ENDBLK
  5
7D0A
  8
0
  0
BLOCK
  8
0
  2
*D5
 70
     1
 10
0.0
 20
0.0
 30
0.0
  3
*D5
  1

  0
LINE
  5
7D68
  8
3
  6
CONTINUOUS
 62
     0
 10
1874.5098359300439
 20
2075.2191800000001
 30
0.0
 11
1874.5098359300439
 21
2962.6460229999998
 31
0.0
  0
LINE
  5
7D69
  8
3
  6
CONTINUOUS
 62
     0
 10
1519.5098359300439
 20
2849.2813527050239
 30
0.0
 11
1519.5098359300439
 21
2962.6460229999998
 31
0.0
  0
LINE
  5
7D6A
  8
3
  6
CONTINUOUS
 62
     0
 10
1834.5098359300439
 20
2942.6460229999998
 30
0.0
 11
1559.5098359300439
 21
2942.6460229999998
 31
0.0
  0
INSERT
  5
7D6B
  8
3
  6
CONTINUOUS
 62
     0
  2
_OPEN
 10
1874.5098359300439
 20
2942.6460229999998
 30
0.0
 41
40.0
 42
40.0
 43
40.0
  0
INSERT
  5
7D6C
  8
3
  6
CONTINUOUS
 62
     0
  2
_OPEN
 10
1519.5098359300439
 20
2942.6460229999998
 30
0.0
 41
40.0
 42
40.0
 43
40.0
 50
180.0
  0
TEXT
  8
3
  40
60
  5
7DCC
  62
0
  72
0
  71
0
 10
1564.91
 20
2886.45
 30
0.000000
  1
355
  0
POINT
  5
7D6E
  8
DEFPOINTS
  6
CONTINUOUS
 62
     0
 10
1874.5098359300439
 20
2065.2191800000001
 30
0.0
  0
POINT
  5
7D6F
  8
DEFPOINTS
  6
CONTINUOUS
 62
     0
 10
1519.5098359300439
 20
2839.2813527050239
 30
0.0
  0
POINT
  5
7D70
  8
DEFPOINTS
  6
CONTINUOUS
 62
     0
 10
1519.5098359300439
 20
2942.6460229999998
 30
0.0
  0
ENDBLK
  5
7CB1
  8
0
  0
BLOCK
  8
0
  2
*D6
 70
     1
 10
0.0
 20
0.0
 30
0.0
  3
*D6
  1

  0
LINE
  5
7D71
  8
3
  6
CONTINUOUS
 62
     0
 10
599.50983593004446
 20
1593.2191800000001
 30
0.0
 11
599.50983593004446
 21
1417.529669999999
 31
0.0
  0
LINE
  5
7D72
  8
3
  6
CONTINUOUS
 62
     0
 10
1519.5098359300439
 20
1455.6713765922391
 30
0.0
 11
1519.5098359300439
 21
1417.529669999999
 31
0.0
  0
LINE
  5
7D73
  8
3
  6
CONTINUOUS
 62
     0
 10
639.50983593004457
 20
1437.529669999999
 30
0.0
 11
1479.5098359300439
 21
1437.529669999999
 31
0.0
  0
INSERT
  5
7D74
  8
3
  6
CONTINUOUS
 62
     0
  2
_OPEN
 10
599.50983593004446
 20
1437.529669999999
 30
0.0
 41
40.0
 42
40.0
 43
40.0
 50
180.0
  0
INSERT
  5
7D75
  8
3
  6
CONTINUOUS
 62
     0
  2
_OPEN
 10
1519.5098359300439
 20
1437.529669999999
 30
0.0
 41
40.0
 42
40.0
 43
40.0
  0
TEXT
  8
3
  40
60
  5
7DCD
  62
0
  72
0
  71
0
 10
912.248
 20
1381.33
 30
0.000000
  1
920
  0
POINT
  5
7D77
  8
DEFPOINTS
  6
CONTINUOUS
 62
     0
 10
599.50983593004446
 20
1603.2191799999989
 30
0.0
  0
POINT
  5
7D78
  8
DEFPOINTS
  6
CONTINUOUS
 62
     0
 10
1519.5098359300439
 20
1465.6713765922391
 30
0.0
  0
POINT
  5
7D79
  8
DEFPOINTS
  6
CONTINUOUS
 62
     0
 10
1519.5098359300439
 20
1437.529669999999
 30
0.0
  0
ENDBLK
  5
7D20
  8
0
  0
BLOCK
  8
0
  2
*D7
 70
     1
 10
0.0
 20
0.0
 30
0.0
  3
*D7
  1

  0
LINE
  5
7D7A
  8
3
  6
CONTINUOUS
 62
     0
 10
1919.5098359300439
 20
1593.2191800000001
 30
0.0
 11
1919.5098359300439
 21
1417.529669999999
 31
0.0
  0
LINE
  5
7D7B
  8
3
  6
CONTINUOUS
 62
     0
 10
1559.5098359300439
 20
1437.529669999999
 30
0.0
 11
1879.5098359300439
 21
1437.529669999999
 31
0.0
  0
INSERT
  5
7D7C
  8
3
  6
CONTINUOUS
 62
     0
  2
_OPEN
 10
1519.5098359300439
 20
1437.529669999999
 30
0.0
 41
40.0
 42
40.0
 43
40.0
 50
180.0
  0
INSERT
  5
7D7D
  8
3
  6
CONTINUOUS
 62
     0
  2
_OPEN
 10
1919.5098359300439
 20
1437.529669999999
 30
0.0
 41
40.0
 42
40.0
 43
40.0
  0
TEXT
  8
3
  40
60
  5
7DCE
  62
0
  72
0
  71
0
 10
1599.51
 20
1381.33
 30
0.000000
  1
400
  0
POINT
  5
7D7F
  8
DEFPOINTS
  6
CONTINUOUS
 62
     0
 10
1519.5098359300439
 20
1460.6640012541029
 30
0.0
  0
POINT
  5
7D80
  8
DEFPOINTS
  6
CONTINUOUS
 62
     0
 10
1919.5098359300439
 20
1603.2191799999989
 30
0.0
  0
POINT
  5
7D81
  8
DEFPOINTS
  6
CONTINUOUS
 62
     0
 10
1919.5098359300439
 20
1437.529669999999
 30
0.0
  0
ENDBLK
  5
7D15
  8
0
  0
BLOCK
  8
0
  2
*D8
 70
     1
 10
0.0
 20
0.0
 30
0.0
  3
*D8
  1

  0
LINE
  5
7D82
  8
3
  6
CONTINUOUS
 62
     0
 10
2783.7791819300442
 20
1593.2191800000001
 30
0.0
 11
2783.7791819300442
 21
1403.68289
 31
0.0
  0
LINE
  5
7D83
  8
3
  6
CONTINUOUS
 62
     0
 10
3153.7791819300442
 20
1476.789951626587
 30
0.0
 11
3153.7791819300442
 21
1403.68289
 31
0.0
  0
LINE
  5
7D84
  8
3
  6
CONTINUOUS
 62
     0
 10
2823.7791819300442
 20
1423.68289
 30
0.0
 11
3113.7791819300442
 21
1423.68289
 31
0.0
  0
INSERT
  5
7D85
  8
3
  6
CONTINUOUS
 62
     0
  2
_OPEN
 10
2783.7791819300442
 20
1423.68289
 30
0.0
 41
40.0
 42
40.0
 43
40.0
 50
180.0
  0
INSERT
  5
7D86
  8
3
  6
CONTINUOUS
 62
     0
  2
_OPEN
 10
3153.7791819300442
 20
1423.68289
 30
0.0
 41
40.0
 42
40.0
 43
40.0
  0
TEXT
  8
3
  40
60
  5
7DCF
  62
0
  72
0
  71
0
 10
2850.60
 20
1367.48
 30
0.000000
  1
370
  0
POINT
  5
7D88
  8
DEFPOINTS
  6
CONTINUOUS
 62
     0
 10
2783.7791819300442
 20
1603.2191799999989
 30
0.0
  0
POINT
  5
7D89
  8
DEFPOINTS
  6
CONTINUOUS
 62
     0
 10
3153.7791819300442
 20
1486.789951626587
 30
0.0
  0
POINT
  5
7D8A
  8
DEFPOINTS
  6
CONTINUOUS
 62
     0
 10
3153.7791819300442
 20
1423.68289
 30
0.0
  0
ENDBLK
  5
7CDD
  8
0
  0
BLOCK
  8
0
  2
*D9
 70
     1
 10
0.0
 20
0.0
 30
0.0
  3
*D9
  1

  0
LINE
  5
7D8B
  8
3
  6
CONTINUOUS
 62
     0
 10
3453.7791819300451
 20
1593.2191800000001
 30
0.0
 11
3453.7791819300451
 21
1403.68289
 31
0.0
  0
LINE
  5
7D8C
  8
3
  6
CONTINUOUS
 62
     0
 10
3193.7791819300442
 20
1423.68289
 30
0.0
 11
3413.7791819300451
 21
1423.68289
 31
0.0
  0
INSERT
  5
7D8D
  8
3
  6
CONTINUOUS
 62
     0
  2
_OPEN
 10
3153.7791819300442
 20
1423.68289
 30
0.0
 41
40.0
 42
40.0
 43
40.0
 50
180.0
  0
INSERT
  5
7D8E
  8
3
  6
CONTINUOUS
 62
     0
  2
_OPEN
 10
3453.7791819300451
 20
1423.68289
 30
0.0
 41
40.0
 42
40.0
 43
40.0
  0
TEXT
  8
3
  40
60
  5
7DD0
  62
0
  72
0
  71
0
 10
3183.78
 20
1367.48
 30
0.000000
  1
300
  0
POINT
  5
7D90
  8
DEFPOINTS
  6
CONTINUOUS
 62
     0
 10
3153.7791819300442
 20
1486.789951626587
 30
0.0
  0
POINT
  5
7D91
  8
DEFPOINTS
  6
CONTINUOUS
 62
     0
 10
3453.7791819300451
 20
1603.2191799999989
 30
0.0
  0
POINT
  5
7D92
  8
DEFPOINTS
  6
CONTINUOUS
 62
     0
 10
3453.7791819300451
 20
1423.68289
 30
0.0
  0
ENDBLK
  5
7CE7
  8
0
  0
BLOCK
  8
0
  2
*D10
 70
     1
 10
0.0
 20
0.0
 30
0.0
  3
*D10
  1

  0
LINE
  5
7D93
  8
3
  6
CONTINUOUS
 62
     0
 10
3333.7791819300451
 20
2599.2191800000001
 30
0.0
 11
3333.7791819300451
 21
2903.8141129999999
 31
0.0
  0
LINE
  5
7D94
  8
3
  6
CONTINUOUS
 62
     0
 10
2973.7791819300442
 20
2599.2191800000001
 30
0.0
 11
2973.7791819300442
 21
2903.8141129999999
 31
0.0
  0
LINE
  5
7D95
  8
3
  6
CONTINUOUS
 62
     0
 10
3293.7791819300442
 20
2883.8141129999999
 30
0.0
 11
3013.7791819300442
 21
2883.8141129999999
 31
0.0
  0
INSERT
  5
7D96
  8
3
  6
CONTINUOUS
 62
     0
  2
_OPEN
 10
3333.7791819300451
 20
2883.8141129999999
 30
0.0
 41
40.0
 42
40.0
 43
40.0
  0
INSERT
  5
7D97
  8
3
  6
CONTINUOUS
 62
     0
  2
_OPEN
 10
2973.7791819300442
 20
2883.8141129999999
 30
0.0
 41
40.0
 42
40.0
 43
40.0
 50
180.0
  0
TEXT
  8
3
  40
60
  5
7DD1
  62
0
  72
0
  71
0
 10
3037.08
 20
2827.61
 30
0.000000
  1
360
  0
POINT
  5
7D99
  8
DEFPOINTS
  6
CONTINUOUS
 62
     0
 10
3333.7791819300451
 20
2589.2191800000001
 30
0.0
  0
POINT
  5
7D9A
  8
DEFPOINTS
  6
CONTINUOUS
 62
     0
 10
2973.7791819300442
 20
2589.2191800000001
 30
0.0
  0
POINT
  5
7D9B
  8
DEFPOINTS
  6
CONTINUOUS
 62
     0
 10
2973.7791819300442
 20
2883.8141129999999
 30
0.0
  0
ENDBLK
  5
7BF2
  8
0
  0
BLOCK
  8
0
  2
*D11
 70
     1
 10
0.0
 20
0.0
 30
0.0
  3
*D11
  1

  0
LINE
  5
7CC9
  8
0
  6
BYBLOCK
 62
     0
 10
3334.7791819300442
 20
2360.2191800000001
 30
0.0
 11
3334.7791819300442
 21
3021.4779329999992
 31
0.0
  0
LINE
  5
7CCA
  8
0
  6
BYBLOCK
 62
     0
 10
3153.7791819300442
 20
2969.9691280000002
 30
0.0
 11
3153.7791819300442
 21
3021.4779329999992
 31
0.0
  0
LINE
  5
7CCB
  8
0
  6
BYBLOCK
 62
     0
 10
3294.7791819300442
 20
3001.4779329999992
 30
0.0
 11
3193.7791819300442
 21
3001.4779329999992
 31
0.0
  0
TEXT
  5
7CCC
  8
3
 62
     0
 10
3185.7077533586162
 20
3036.028238352515
 30
0.0
 40
60.0
  1
181
  0
INSERT
  5
7CCD
  8
0
  6
BYBLOCK
 62
     0
  2
_OPEN
 10
3334.7791819300442
 20
3001.4779329999992
 30
0.0
 41
40.0
 42
40.0
 43
40.0
  0
INSERT
  5
7CCE
  8
0
  6
BYBLOCK
 62
     0
  2
_OPEN
 10
3153.7791819300442
 20
3001.4779329999992
 30
0.0
 41
40.0
 42
40.0
 43
40.0
 50
180.0
  0
POINT
  5
7CCF
  8
DEFPOINTS
  6
BYBLOCK
 62
     0
 10
3334.7791819300442
 20
2350.2191800000001
 30
0.0
  0
POINT
  5
7CD0
  8
DEFPOINTS
  6
BYBLOCK
 62
     0
 10
3153.7791819300442
 20
2959.9691280000002
 30
0.0
  0
POINT
  5
7CD1
  8
DEFPOINTS
  6
BYBLOCK
 62
     0
 10
3153.7791819300442
 20
3001.4779329999992
 30
0.0
  0
ENDBLK
  5
7CD2
  8
0
  0
BLOCK
  8
0
  2
*D12
 70
     1
 10
0.0
 20
0.0
 30
0.0
  3
*D12
  1

  0
LINE
  5
7D9C
  8
3
  6
CONTINUOUS
 62
     0
 10
3344.7791819300451
 20
2350.2191800000001
 30
0.0
 11
3628.5436439300452
 21
2350.2191800000001
 31
0.0
  0
LINE
  5
7D9D
  8
3
  6
CONTINUOUS
 62
     0
 10
3344.7791819300451
 20
1850.2191800000001
 30
0.0
 11
3628.5436439300452
 21
1850.2191799999989
 31
0.0
  0
LINE
  5
7D9E
  8
3
  6
CONTINUOUS
 62
     0
 10
3608.5436439300452
 20
2310.2191800000001
 30
0.0
 11
3608.5436439300452
 21
1890.2191799999989
 31
0.0
  0
INSERT
  5
7D9F
  8
3
  6
CONTINUOUS
 62
     0
  2
_OPEN
 10
3608.5436439300452
 20
2350.2191800000001
 30
0.0
 41
40.0
 42
40.0
 43
40.0
 50
90.0
  0
INSERT
  5
7DA0
  8
3
  6
CONTINUOUS
 62
     0
  2
_OPEN
 10
3608.5436439300452
 20
1850.2191799999989
 30
0.0
 41
40.0
 42
40.0
 43
40.0
 50
270.0
  0
TEXT
  8
3
  40
60
  5
7DD2
  62
0
  72
0
  71
0
 10
3438.54
 20
2002.99
 30
0.000000
  1
φ500
  0
POINT
  5
7DA2
  8
DEFPOINTS
  6
CONTINUOUS
 62
     0
 10
3334.7791819300442
 20
2350.2191800000001
 30
0.0
  0
POINT
  5
7DA3
  8
DEFPOINTS
  6
CONTINUOUS
 62
     0
 10
3334.7791819300442
 20
1850.2191800000001
 30
0.0
  0
POINT
  5
7DA4
  8
DEFPOINTS
  6
CONTINUOUS
 62
     0
 10
3608.5436439300452
 20
1850.2191799999989
 30
0.0
  0
ENDBLK
  5
7CBC
  8
0
  0
BLOCK
  8
0
  2
*D13
 70
     1
 10
0.0
 20
0.0
 30
0.0
  3
*D13
  1

  0
LINE
  5
7DA5
  8
3
  6
CONTINUOUS
 62
     0
 10
599.50983593004446
 20
4035.3291800000002
 30
0.0
 11
599.50983593004446
 21
4237.338409
 31
0.0
  0
LINE
  5
7DA6
  8
3
  6
CONTINUOUS
 62
     0
 10
1919.5098359300439
 20
4035.3291800000002
 30
0.0
 11
1919.5098359300439
 21
4237.338409
 31
0.0
  0
LINE
  5
7DA7
  8
3
  6
CONTINUOUS
 62
     0
 10
639.50983593004457
 20
4217.338408999999
 30
0.0
 11
1879.5098359300439
 21
4217.338408999999
 31
0.0
  0
INSERT
  5
7DA8
  8
3
  6
CONTINUOUS
 62
     0
  2
_OPEN
 10
599.50983593004446
 20
4217.338408999999
 30
0.0
 41
40.0
 42
40.0
 43
40.0
 50
180.0
  0
INSERT
  5
7DA9
  8
3
  6
CONTINUOUS
 62
     0
  2
_OPEN
 10
1919.5098359300439
 20
4217.338408999999
 30
0.0
 41
40.0
 42
40.0
 43
40.0
  0
TEXT
  8
3
  40
60
  5
7DD3
  62
0
  72
0
  71
0
 10
1172.33
 20
4161.14
 30
0.000000
  1
1320
  0
POINT
  5
7DAB
  8
DEFPOINTS
  6
CONTINUOUS
 62
     0
 10
599.50983593004446
 20
4025.3291799999988
 30
0.0
  0
POINT
  5
7DAC
  8
DEFPOINTS
  6
CONTINUOUS
 62
     0
 10
1919.5098359300439
 20
4025.3291799999988
 30
0.0
  0
POINT
  5
7DAD
  8
DEFPOINTS
  6
CONTINUOUS
 62
     0
 10
1919.5098359300439
 20
4217.338408999999
 30
0.0
  0
ENDBLK
  5
7C78
  8
0
  0
BLOCK
  8
0
  2
*D14
 70
     1
 10
0.0
 20
0.0
 30
0.0
  3
*D14
  1

  0
LINE
  5
7DAE
  8
3
  6
CONTINUOUS
 62
     0
 10
1929.5098359300439
 20
4025.3291799999988
 30
0.0
 11
2127.1335299300449
 21
4025.3291799999988
 31
0.0
  0
LINE
  5
7DAF
  8
3
  6
CONTINUOUS
 62
     0
 10
1929.5098359300439
 20
3355.3291800000002
 30
0.0
 11
2127.1335299300449
 21
3355.3291800000002
 31
0.0
  0
LINE
  5
7DB0
  8
3
  6
CONTINUOUS
 62
     0
 10
2107.1335299300449
 20
3985.3291800000002
 30
0.0
 11
2107.1335299300449
 21
3395.3291800000002
 31
0.0
  0
INSERT
  5
7DB1
  8
3
  6
CONTINUOUS
 62
     0
  2
_OPEN
 10
2107.1335299300449
 20
4025.3291799999988
 30
0.0
 41
40.0
 42
40.0
 43
40.0
 50
90.0
  0
INSERT
  5
7DB2
  8
3
  6
CONTINUOUS
 62
     0
  2
_OPEN
 10
2107.1335299300449
 20
3355.3291800000002
 30
0.0
 41
40.0
 42
40.0
 43
40.0
 50
270.0
  0
TEXT
  8
3
  40
60
  5
7DD4
  62
0
  72
0
  71
0
 10
1937.13
 20
3593.39
 30
0.000000
  1
670
  0
POINT
  5
7DB4
  8
DEFPOINTS
  6
CONTINUOUS
 62
     0
 10
1919.5098359300439
 20
4025.3291799999988
 30
0.0
  0
POINT
  5
7DB5
  8
DEFPOINTS
  6
CONTINUOUS
 62
     0
 10
1919.5098359300439
 20
3355.3291800000002
 30
0.0
  0
POINT
  5
7DB6
  8
DEFPOINTS
  6
CONTINUOUS
 62
     0
 10
2107.1335299300449
 20
3355.3291800000002
 30
0.0
  0
ENDBLK
  5
7C6D
  8
0
  0
BLOCK
  8
0
  2
*D15
 70
     1
 10
0.0
 20
0.0
 30
0.0
  3
*D15
  1

  0
LINE
  5
7DB7
  8
3
  6
CONTINUOUS
 62
     0
 10
2773.7791819300451
 20
2803.2191800000001
 30
0.0
 11
2615.8300539300449
 21
2803.2191800000001
 31
0.0
  0
LINE
  5
7DB8
  8
3
  6
CONTINUOUS
 62
     0
 10
2773.7791819300451
 20
1603.2191799999989
 30
0.0
 11
2615.8300539300449
 21
1603.2191799999989
 31
0.0
  0
LINE
  5
7DB9
  8
3
  6
CONTINUOUS
 62
     0
 10
2635.830053930044
 20
2763.2191800000001
 30
0.0
 11
2635.830053930044
 21
1643.2191800000001
 31
0.0
  0
INSERT
  5
7DBA
  8
3
  6
CONTINUOUS
 62
     0
  2
_OPEN
 10
2635.830053930044
 20
2803.2191800000001
 30
0.0
 41
40.0
 42
40.0
 43
40.0
 50
90.0
  0
INSERT
  5
7DBB
  8
3
  6
CONTINUOUS
 62
     0
  2
_OPEN
 10
2635.830053930044
 20
1603.2191799999989
 30
0.0
 41
40.0
 42
40.0
 43
40.0
 50
270.0
  0
TEXT
  8
3
  40
60
  5
7DD5
  62
0
  72
0
  71
0
 10
2465.83
 20
2085.73
 30
0.000000
  1
1200
  0
POINT
  5
7DBD
  8
DEFPOINTS
  6
CONTINUOUS
 62
     0
 10
2783.7791819300442
 20
2803.2191800000001
 30
0.0
  0
POINT
  5
7DBE
  8
DEFPOINTS
  6
CONTINUOUS
 62
     0
 10
2783.7791819300442
 20
1603.2191799999989
 30
0.0
  0
POINT
  5
7DBF
  8
DEFPOINTS
  6
CONTINUOUS
 62
     0
 10
2635.830053930044
 20
1603.2191799999989
 30
0.0
  0
ENDBLK
  5
7C9A
  8
0
  0
BLOCK
  8
0
  2
*D16
 70
     1
 10
0.0
 20
0.0
 30
0.0
  3
*D16
  1

  0
LINE
  5
7DC0
  8
3
 62
     0
 10
1109.5098359300439
 20
2465.2191800000001
 30
0.0
 11
1109.5098359300439
 21
2962.6460229999998
 31
0.0
  0
LINE
  5
7DC1
  8
3
 62
     0
 10
1479.5098359300439
 20
2942.6460229999998
 30
0.0
 11
1149.5098359300439
 21
2942.6460229999998
 31
0.0
  0
INSERT
  5
7DC2
  8
3
 62
     0
  2
_OPEN
 10
1519.5098359300439
 20
2942.6460229999998
 30
0.0
 41
40.0
 42
40.0
 43
40.0
  0
INSERT
  5
7DC3
  8
3
 62
     0
  2
_OPEN
 10
1109.5098359300439
 20
2942.6460229999998
 30
0.0
 41
40.0
 42
40.0
 43
40.0
 50
180.0
  0
TEXT
  8
3
  40
60
  5
7DD6
  62
0
  72
0
  71
0
 10
1194.51
 20
2886.45
 30
0.000000
  1
410
  0
POINT
  5
7DC5
  8
DEFPOINTS
 62
     0
 10
1519.5098359300439
 20
2839.2813527050239
 30
0.0
  0
POINT
  5
7DC6
  8
DEFPOINTS
 62
     0
 10
1109.5098359300439
 20
2455.2191800000001
 30
0.0
  0
POINT
  5
7DC7
  8
DEFPOINTS
 62
     0
 10
1109.5098359300439
 20
2942.6460229999998
 30
0.0
  0
ENDBLK
  5
7CFD
  8
0
  0
ENDSEC
  0
SECTION
  2
ENTITIES
  0
LINE
  5
7A81
  8
1
  6
CONTINUOUS
 10
599.50983593004446
 20
1603.2191799999989
 30
0.0
 11
599.50983593004446
 21
2803.2191800000001
 31
0.0
  0
LINE
  5
7A82
  8
1
  6
CONTINUOUS
 10
1919.5098359300439
 20
1603.2191799999989
 30
0.0
 11
1919.5098359300439
 21
2803.2191800000001
 31
0.0
  0
LINE
  5
7A89
  8
1
  6
CONTINUOUS
 10
1879.5098359300439
 20
1643.2191800000001
 30
0.0
 11
1879.5098359300439
 21
2763.2191800000001
 31
0.0
  0
LINE
  5
7A8A
  8
1
  6
CONTINUOUS
 10
639.50983593004457
 20
2763.2191800000001
 30
0.0
 11
639.50983593004457
 21
1643.2191800000001
 31
0.0
  0
LINE
  5
7A8B
  8
1
  6
CONTINUOUS
 10
2823.7791819300442
 20
1643.2191800000001
 30
0.0
 11
2823.7791819300442
 21
2763.2191800000001
 31
0.0
  0
LINE
  5
7A8C
  8
1
  6
CONTINUOUS
 10
3413.7791819300451
 20
2763.2191800000001
 30
0.0
 11
3413.7791819300451
 21
1643.2191800000001
 31
0.0
  0
ARC
  5
7A8E
  8
1
  6
CONTINUOUS
 10
849.50983593004446
 20
1927.2191800000001
 30
0.0
 40
122.0
 50
324.60000000000002
 51
215.39999999999989
  0
LINE
  5
7A8F
  8
1
  6
CONTINUOUS
 10
719.50983593004457
 20
1795.2191800000001
 30
0.0
 11
979.50983593004457
 21
1795.2191800000001
 31
0.0
  0
LINE
  5
7A90
  8
1
  6
CONTINUOUS
 10
699.50983593004446
 20
1745.2191800000001
 30
0.0
 11
1829.5098359300439
 21
1745.2191800000001
 31
0.0
  0
LINE
  5
7A91
  8
1
  6
CONTINUOUS
 10
699.50983593004446
 20
1665.2191800000001
 30
0.0
 11
1819.5098359300439
 21
1665.2191800000001
 31
0.0
  0
LINE
  5
7A92
  8
1
  6
CONTINUOUS
 10
599.50983593004446
 20
1603.2191799999989
 30
0.0
 11
1919.5098359300439
 21
1603.2191799999989
 31
0.0
  0
LINE
  5
7A93
  8
2
  6
CENTER
 10
766.39920599999994
 20
1927.2191800000001
 30
0.0
 11
886.39920600000005
 21
1927.2191800000001
 31
0.0
  0
CIRCLE
  5
7A94
  8
1
  6
CONTINUOUS
 10
849.50983593004446
 20
1927.2191800000001
 30
0.0
 40
60.0
  0
LINE
  5
7A9C
  8
1
  6
CONTINUOUS
 10
639.50983593004457
 20
1643.2191800000001
 30
0.0
 11
1879.5098359300439
 21
1643.2191800000001
 31
0.0
  0
LINE
  5
7A9D
  8
1
  6
CONTINUOUS
 10
719.50983593004457
 20
1795.2191800000001
 30
0.0
 11
750.06983593004452
 21
1856.53918
 31
0.0
  0
LINE
  5
7A9E
  8
1
  6
CONTINUOUS
 10
719.50983593004457
 20
1795.2191800000001
 30
0.0
 11
769.50983593004457
 21
1795.2191800000001
 31
0.0
  0
LINE
  5
7A9F
  8
1
  6
CONTINUOUS
 10
719.50983593004457
 20
1745.2191800000001
 30
0.0
 11
719.50983593004457
 21
1795.2191800000001
 31
0.0
  0
LINE
  5
7AA0
  8
1
  6
CONTINUOUS
 10
699.50983593004446
 20
1745.2191800000001
 30
0.0
 11
699.50983593004446
 21
1665.2191800000001
 31
0.0
  0
CIRCLE
  5
7AA1
  8
1
  6
CONTINUOUS
 10
1519.5098359300439
 20
2100.2191800000001
 30
0.0
 40
120.0
  0
LINE
  5
7AA2
  8
2
  6
CENTER
 10
535.67218751315147
 20
2100.2191800000001
 30
0.0
 11
1980.785376
 21
2100.2191800000001
 31
0.0
  0
ARC
  5
7AA3
  8
1
  6
CONTINUOUS
 10
1542.589464930044
 20
2130.682597999999
 30
0.0
 40
431.17249299999992
 50
93.120533999999992
 51
184.73655500000001
  0
ARC
  5
7AA4
  8
1
  6
CONTINUOUS
 10
1492.5098359300439
 20
2127.2191800000001
 30
0.0
 40
380.98000000000002
 50
184.83999999999989
 51
278.47000000000003
  0
LINE
  5
7AA5
  8
1
  6
CONTINUOUS
 10
1109.5098359300439
 20
2455.2191800000001
 30
0.0
 11
1829.5098359300439
 21
2455.2191800000001
 31
0.0
  0
CIRCLE
  5
7AA6
  8
1
  6
CONTINUOUS
 10
1519.5098359300439
 20
2100.2191800000001
 30
0.0
 40
275.0
  0
LINE
  5
7AA7
  8
1
  6
CONTINUOUS
 10
829.52983593004456
 20
1983.78918
 30
0.0
 11
1479.5498359300441
 21
2213.3691800000001
 31
0.0
  0
LINE
  5
7AA8
  8
1
  6
CONTINUOUS
 10
1539.3198359300441
 20
1981.8691799999999
 30
0.0
 11
859.41983593004443
 21
1868.03918
 31
0.0
  0
LINE
  5
7AA9
  8
1
  6
CONTINUOUS
 10
979.50983593004457
 20
1795.2191800000001
 30
0.0
 11
948.94983593004463
 21
1856.53918
 31
0.0
  0
LINE
  5
7AAA
  8
1
  6
CONTINUOUS
 10
1109.5098359300439
 20
2455.2191800000001
 30
0.0
 11
1109.5098359300439
 21
1745.2191800000001
 31
0.0
  0
LINE
  5
7AAB
  8
1
  6
CONTINUOUS
 10
979.50983593004457
 20
1795.2191800000001
 30
0.0
 11
929.50983593004457
 21
1795.2191800000001
 31
0.0
  0
LINE
  5
7AAC
  8
1
  6
CONTINUOUS
 10
979.50983593004457
 20
1745.2191800000001
 30
0.0
 11
979.50983593004457
 21
1795.2191800000001
 31
0.0
  0
LINE
  5
7AAD
  8
2
  6
CENTER
 10
826.39920599999994
 20
1867.2191800000001
 30
0.0
 11
826.39920599999994
 21
1987.2191800000001
 31
0.0
  0
ARC
  5
7AAE
  8
1
  6
CONTINUOUS
 10
1489.0486929300439
 20
2089.0901709999998
 30
0.0
 40
343.89392400000003
 50
279.97638799999987
 51
358.85972099999998
  0
LINE
  5
7AAF
  8
1
  6
CONTINUOUS
 10
1829.5098359300439
 20
2455.2191800000001
 30
0.0
 11
1829.5098359300439
 21
1745.2191800000001
 31
0.0
  0
LINE
  5
7AB0
  8
1
  6
CONTINUOUS
 10
1819.5098359300439
 20
1745.2191800000001
 30
0.0
 11
1819.5098359300439
 21
1665.2191800000001
 31
0.0
  0
LINE
  5
7AB1
  8
1
  6
CONTINUOUS
 10
1874.5098359300439
 20
2562.2191800000001
 30
0.0
 11
1519.129835930044
 21
2561.2191800000001
 31
0.0
  0
LINE
  5
7AB2
  8
2
  6
CENTER
 10
1496.399206
 20
4121.2127870000004
 30
0.0
 11
1496.399206
 21
3226.2991390000002
 31
0.0
  0
LINE
  5
7AB3
  8
1
  6
CONTINUOUS
 10
1849.5098359300439
 20
2082.2191800000001
 30
0.0
 11
1849.5098359300439
 21
2562.1491799999999
 31
0.0
  0
LINE
  5
7AB4
  8
1
  6
CONTINUOUS
 10
1874.5098359300439
 20
2579.2191800000001
 30
0.0
 11
1874.5098359300439
 21
2065.2191800000001
 31
0.0
  0
LINE
  5
7AB5
  8
1
  6
CONTINUOUS
 10
1832.879835930044
 20
2082.2191800000001
 30
0.0
 11
1874.5098359300439
 21
2082.2191800000001
 31
0.0
  0
LINE
  5
7AB6
  8
1
  6
CONTINUOUS
 10
2929.7791819300442
 20
1745.2191800000001
 30
0.0
 11
3377.7791819300442
 21
1745.2191800000001
 31
0.0
  0
LINE
  5
7AB7
  8
1
  6
CONTINUOUS
 10
2929.7791819300442
 20
1665.2191800000001
 30
0.0
 11
3377.7791819300442
 21
1665.2191800000001
 31
0.0
  0
LINE
  5
7AB8
  8
1
  6
CONTINUOUS
 10
2973.7791819300442
 20
2055.2191799999991
 30
0.0
 11
3333.7791819300451
 21
2055.2191799999991
 31
0.0
  0
LINE
  5
7AB9
  8
1
  6
CONTINUOUS
 10
3333.7791819300451
 20
2589.2191800000001
 30
0.0
 11
2973.7791819300442
 21
2589.2191800000001
 31
0.0
  0
LINE
  5
7ABA
  8
1
  6
CONTINUOUS
 10
3333.7791819300451
 20
2055.2191799999991
 30
0.0
 11
2973.7791819300442
 21
2589.2191800000001
 31
0.0
  0
LINE
  5
7ABB
  8
1
  6
CONTINUOUS
 10
2973.7791819300442
 20
2055.2191799999991
 30
0.0
 11
3333.7791819300451
 21
2589.2191800000001
 31
0.0
  0
LINE
  5
7ABC
  8
1
  6
CONTINUOUS
 10
3413.7791819300451
 20
1643.2191800000001
 30
0.0
 11
2823.7791819300442
 21
1643.2191800000001
 31
0.0
  0
LINE
  5
7ABD
  8
1
  6
CONTINUOUS
 10
2973.7791819300442
 20
2589.2191800000001
 30
0.0
 11
2973.7791819300442
 21
1745.2191800000001
 31
0.0
  0
LINE
  5
7ABE
  8
1
  6
CONTINUOUS
 10
2903.7791819300442
 20
2490.2191800000001
 30
0.0
 11
2903.7791819300442
 21
1745.2191800000001
 31
0.0
  0
LINE
  5
7AC0
  8
1
  6
CONTINUOUS
 10
2903.7791819300442
 20
1745.2191800000001
 30
0.0
 11
2783.7791819300442
 21
1745.2191800000001
 31
0.0
  0
LINE
  5
7AC3
  8
1
  6
CONTINUOUS
 10
2929.7791819300442
 20
1745.2191800000001
 30
0.0
 11
2929.7791819300442
 21
1665.2191800000001
 31
0.0
  0
LINE
  5
7AC4
  8
1
  6
CONTINUOUS
 10
2783.7791819300442
 20
2490.2191800000001
 30
0.0
 11
2903.7791819300442
 21
2490.2191800000001
 31
0.0
  0
LINE
  5
7AC5
  8
1
  6
CONTINUOUS
 10
2873.7791819300451
 20
2119.2191799999991
 30
0.0
 11
2973.7791819300442
 21
2119.2191799999991
 31
0.0
  0
LINE
  5
7AC6
  8
1
  6
CONTINUOUS
 10
2873.7791819300451
 20
2081.2191800000001
 30
0.0
 11
2973.7791819300442
 21
2081.2191800000001
 31
0.0
  0
LINE
  5
7AC7
  8
1
  6
CONTINUOUS
 10
2873.7791819300451
 20
1908.2191800000001
 30
0.0
 11
2973.7791819300442
 21
1908.2191800000001
 31
0.0
  0
LINE
  5
7AC8
  8
1
  6
CONTINUOUS
 10
2873.7791819300451
 20
1946.2191799999989
 30
0.0
 11
2973.7791819300442
 21
1946.2191799999989
 31
0.0
  0
LINE
  5
7AC9
  8
1
  6
CONTINUOUS
 10
2813.7791819300442
 20
2220.2191800000001
 30
0.0
 11
2813.7791819300442
 21
1980.2191799999989
 31
0.0
  0
LINE
  5
7ACA
  8
1
  6
CONTINUOUS
 10
2873.7791819300451
 20
2220.2191800000001
 30
0.0
 11
2813.7791819300442
 21
2220.2191800000001
 31
0.0
  0
LINE
  5
7ACB
  8
1
  6
CONTINUOUS
 10
2873.7791819300451
 20
1980.2191799999989
 30
0.0
 11
2813.7791819300442
 21
1980.2191799999989
 31
0.0
  0
LINE
  5
7ACC
  8
1
  6
CONTINUOUS
 10
2873.7791819300451
 20
1980.2191799999989
 30
0.0
 11
2873.7791819300451
 21
2220.2191800000001
 31
0.0
  0
LINE
  5
7ACD
  8
1
  6
CONTINUOUS
 10
2813.7791819300442
 20
1877.2191800000001
 30
0.0
 11
2873.7791819300451
 21
1877.2191800000001
 31
0.0
  0
LINE
  5
7ACE
  8
1
  6
CONTINUOUS
 10
2873.7791819300451
 20
1977.2191800000001
 30
0.0
 11
2813.7791819300442
 21
1977.2191800000001
 31
0.0
  0
LINE
  5
7ACF
  8
1
  6
CONTINUOUS
 10
2813.7791819300442
 20
1977.2191800000001
 30
0.0
 11
2813.7791819300442
 21
1877.2191800000001
 31
0.0
  0
LINE
  5
7AD0
  8
1
  6
CONTINUOUS
 10
2873.7791819300451
 20
1877.2191800000001
 30
0.0
 11
2873.7791819300451
 21
1977.2191800000001
 31
0.0
  0
LINE
  5
7AD1
  8
1
  6
CONTINUOUS
 10
3333.7791819300451
 20
2589.2191800000001
 30
0.0
 11
3333.7791819300451
 21
1745.2191800000001
 31
0.0
  0
LINE
  5
7AD2
  8
1
  6
CONTINUOUS
 10
3377.7791819300442
 20
1745.2191800000001
 30
0.0
 11
3377.7791819300442
 21
1665.2191800000001
 31
0.0
  0
LINE
  5
7AD3
  8
1
  6
CONTINUOUS
 10
809.50983593004446
 20
3385.3291800000002
 30
0.0
 11
889.50983593004457
 21
3385.3291800000002
 31
0.0
  0
LINE
  5
7AD4
  8
1
  6
CONTINUOUS
 10
727.50983593004457
 20
3875.5691799999991
 30
0.0
 11
971.50983593004457
 21
3875.5691799999991
 31
0.0
  0
LINE
  5
7AD5
  8
1
  6
CONTINUOUS
 10
727.50983593004457
 20
3525.5691799999991
 30
0.0
 11
971.50983593004457
 21
3525.5691799999991
 31
0.0
  0
LINE
  5
7AD6
  8
1
  6
CONTINUOUS
 10
699.50983593004446
 20
3501.3291799999988
 30
0.0
 11
830.50983593004457
 21
3501.3291799999988
 31
0.0
  0
LINE
  5
7AD7
  8
1
  6
CONTINUOUS
 10
699.50983593004446
 20
3949.3291800000002
 30
0.0
 11
1819.5098359300439
 21
3949.3291800000002
 31
0.0
  0
LINE
  5
7AD8
  8
1
  6
CONTINUOUS
 10
889.50983593004457
 20
3445.3291799999988
 30
0.0
 11
809.50983593004446
 21
3445.3291799999988
 31
0.0
  0
LINE
  5
7AD9
  8
1
  6
CONTINUOUS
 10
599.50983593004446
 20
2803.2191800000001
 30
0.0
 11
1919.5098359300439
 21
2803.2191800000001
 31
0.0
  0
LINE
  5
7ADA
  8
1
  6
CONTINUOUS
 10
599.50983593004446
 20
3355.3291800000002
 30
0.0
 11
1919.5098359300439
 21
3355.3291800000002
 31
0.0
  0
LINE
  5
7ADB
  8
1
  6
CONTINUOUS
 10
599.50983593004446
 20
4025.3291799999988
 30
0.0
 11
1919.5098359300439
 21
4025.3291799999988
 31
0.0
  0
LINE
  5
7ADC
  8
1
  6
CONTINUOUS
 10
1745.0098359300439
 20
3475.3291800000002
 30
0.0
 11
745.00983593004446
 21
3475.3291800000002
 31
0.0
  0
LINE
  5
7ADD
  8
1
  6
CONTINUOUS
 10
1879.5098359300439
 20
2763.2191800000001
 30
0.0
 11
639.50983593004457
 21
2763.2191800000001
 31
0.0
  0
LINE
  5
7ADE
  8
1
  6
CONTINUOUS
 10
639.50983593004457
 20
3985.3291800000002
 30
0.0
 11
1879.5098359300439
 21
3985.3291800000002
 31
0.0
  0
LINE
  5
7ADF
  8
1
  6
CONTINUOUS
 10
1879.5098359300439
 20
3395.3291799999988
 30
0.0
 11
639.50983593004457
 21
3395.3291799999988
 31
0.0
  0
LINE
  5
7AE0
  8
1
  6
CONTINUOUS
 10
727.50983593004457
 20
3525.5691799999991
 30
0.0
 11
727.50983593004457
 21
3875.5691799999991
 31
0.0
  0
LINE
  5
7AE1
  8
1
  6
CONTINUOUS
 10
699.50983593004446
 20
3949.3291800000002
 30
0.0
 11
699.50983593004446
 21
3501.3291799999988
 31
0.0
  0
LINE
  5
7AE2
  8
1
  6
CONTINUOUS
 10
599.50983593004446
 20
3355.3291800000002
 30
0.0
 11
599.50983593004446
 21
4025.3291799999988
 31
0.0
  0
LINE
  5
7AE3
  8
1
  6
CONTINUOUS
 10
639.50983593004457
 20
3395.3291799999988
 30
0.0
 11
639.50983593004457
 21
3985.3291800000002
 31
0.0
  0
LINE
  5
7AE4
  8
1
  6
CONTINUOUS
 10
809.50983593004446
 20
3445.3291799999988
 30
0.0
 11
809.50983593004446
 21
3385.3291800000002
 31
0.0
  0
LINE
  5
7AE5
  8
1
  6
CONTINUOUS
 10
745.00983593004446
 20
3475.3291800000002
 30
0.0
 11
745.00983593004446
 21
3355.3291800000002
 31
0.0
  0
LINE
  5
7AE6
  8
1
  6
CONTINUOUS
 10
1639.5098359300439
 20
3445.3291799999988
 30
0.0
 11
1399.5098359300439
 21
3445.3291799999988
 31
0.0
  0
LINE
  5
7AE7
  8
1
  6
CONTINUOUS
 10
868.50983593004446
 20
3501.3291799999988
 30
0.0
 11
1500.5098359300439
 21
3501.3291799999988
 31
0.0
  0
LINE
  5
7AE8
  8
1
  6
CONTINUOUS
 10
1111.3198359300441
 20
3907.3291799999988
 30
0.0
 11
1874.5098359300439
 21
3907.3291799999988
 31
0.0
  0
LINE
  5
7AE9
  8
1
  6
CONTINUOUS
 10
1111.3198359300441
 20
3543.3291800000002
 30
0.0
 11
1874.5098359300439
 21
3543.3291800000002
 31
0.0
  0
LINE
  5
7AEA
  8
1
  6
CONTINUOUS
 10
1399.5098359300439
 20
3385.3291800000002
 30
0.0
 11
1639.5098359300439
 21
3385.3291800000002
 31
0.0
  0
LINE
  5
7AEB
  8
1
  6
CONTINUOUS
 10
971.50983593004457
 20
3525.5691799999991
 30
0.0
 11
971.50983593004457
 21
3875.5691799999991
 31
0.0
  0
LINE
  5
7AEC
  8
1
  6
CONTINUOUS
 10
1111.3198359300441
 20
3543.3291800000002
 30
0.0
 11
1111.3198359300441
 21
3907.3291799999988
 31
0.0
  0
LINE
  5
7AED
  8
1
  6
CONTINUOUS
 10
868.50983593004446
 20
3445.3291799999988
 30
0.0
 11
868.50983593004446
 21
3525.5691799999991
 31
0.0
  0
LINE
  5
7AEE
  8
1
  6
CONTINUOUS
 10
830.50983593004457
 20
3445.3291799999988
 30
0.0
 11
830.50983593004457
 21
3525.5691799999991
 31
0.0
  0
LINE
  5
7AEF
  8
1
  6
CONTINUOUS
 10
889.50983593004457
 20
3445.3291799999988
 30
0.0
 11
889.50983593004457
 21
3385.3291800000002
 31
0.0
  0
LINE
  5
7AF0
  8
1
  6
CONTINUOUS
 10
1399.5098359300439
 20
3385.3291800000002
 30
0.0
 11
1399.5098359300439
 21
3445.3291799999988
 31
0.0
  0
LINE
  5
7AF1
  8
1
  6
CONTINUOUS
 10
1874.5098359300439
 20
3518.3291800000002
 30
0.0
 11
1874.5098359300439
 21
3932.3291799999988
 31
0.0
  0
LINE
  5
7AF2
  8
1
  6
CONTINUOUS
 10
1849.5098359300439
 20
3543.3291800000002
 30
0.0
 11
1849.5098359300439
 21
3907.3291799999988
 31
0.0
  0
LINE
  5
7AF3
  8
1
  6
CONTINUOUS
 10
1919.5098359300439
 20
3355.3291800000002
 30
0.0
 11
1919.5098359300439
 21
4025.3291799999988
 31
0.0
  0
LINE
  5
7AF4
  8
1
  6
CONTINUOUS
 10
1879.5098359300439
 20
3985.3291800000002
 30
0.0
 11
1879.5098359300439
 21
3395.3291799999988
 31
0.0
  0
LINE
  5
7AF5
  8
1
  6
CONTINUOUS
 10
1538.5098359300439
 20
3501.3291799999988
 30
0.0
 11
1819.5098359300439
 21
3501.3291799999988
 31
0.0
  0
LINE
  5
7AF6
  8
1
  6
CONTINUOUS
 10
1500.5098359300439
 20
3445.3291799999988
 30
0.0
 11
1500.5098359300439
 21
3543.3291800000002
 31
0.0
  0
LINE
  5
7AF7
  8
1
  6
CONTINUOUS
 10
1538.5098359300439
 20
3445.3291799999988
 30
0.0
 11
1538.5098359300439
 21
3543.3291800000002
 31
0.0
  0
LINE
  5
7AF8
  8
1
  6
CONTINUOUS
 10
1639.5098359300439
 20
3385.3291800000002
 30
0.0
 11
1639.5098359300439
 21
3445.3291799999988
 31
0.0
  0
LINE
  5
7AF9
  8
1
  6
CONTINUOUS
 10
1819.5098359300439
 20
3543.3291800000002
 30
0.0
 11
1819.5098359300439
 21
3501.3291799999988
 31
0.0
  0
LINE
  5
7AFA
  8
1
  6
CONTINUOUS
 10
1745.0098359300439
 20
3355.3291800000002
 30
0.0
 11
1745.0098359300439
 21
3475.3291800000002
 31
0.0
  0
LINE
  5
7AFB
  8
1
  6
CONTINUOUS
 10
1819.5098359300439
 20
3949.3291800000002
 30
0.0
 11
1819.5098359300439
 21
3907.3291799999988
 31
0.0
  0
LINE
  5
7AFC
  8
1
  6
CONTINUOUS
 10
2823.7791819300442
 20
2763.2191800000001
 30
0.0
 11
3413.7791819300451
 21
2763.2191800000001
 31
0.0
  0
LINE
  5
7AFD
  8
2
  6
CENTER
 10
3153.7791819300442
 20
2864.150265893742
 30
0.0
 11
3153.7791819300442
 21
1490.9762015203301
 31
0.0
  0
LINE
  5
7AFE
  8
2
  6
CENTER
 10
461.1855139999999
 20
3725.3291800000002
 30
0.0
 11
1959.0934896594081
 21
3725.3291800000002
 31
0.0
  0
LINE
  5
7B00
  8
2
  6
CENTER
 10
2690.982763
 20
2100.2191800000001
 30
0.0
 11
3472.5667210000001
 21
2100.2191800000001
 31
0.0
  0
LINE
  5
7B01
  8
1
  6
CONTINUOUS
 10
2783.7791819300442
 20
1603.2191799999989
 30
0.0
 11
2783.7791819300442
 21
2803.2191800000001
 31
0.0
  0
LINE
  5
7B02
  8
1
  6
CONTINUOUS
 10
2783.7791819300442
 20
2803.2191800000001
 30
0.0
 11
3453.7791819300451
 21
2803.2191800000001
 31
0.0
  0
LINE
  5
7B03
  8
1
  6
CONTINUOUS
 10
3453.7791819300451
 20
2803.2191800000001
 30
0.0
 11
3453.7791819300451
 21
1603.2191799999989
 31
0.0
  0
LINE
  5
7B04
  8
1
  6
CONTINUOUS
 10
3453.7791819300451
 20
1603.2191799999989
 30
0.0
 11
2783.7791819300442
 21
1603.2191799999989
 31
0.0
  0
LINE
  5
7B05
  8
4
  6
CONTINUOUS
 10
3700.0
 20
1000.0
 30
0.0
 11
3700.0
 21
600.0
 31
0.0
  0
LINE
  5
7B06
  8
4
  6
CONTINUOUS
 10
2300.0
 20
1000.0
 30
0.0
 11
2300.0
 21
600.0
 31
0.0
  0
LINE
  5
7B07
  8
4
  6
CONTINUOUS
 10
1300.0
 20
1000.0
 30
0.0
 11
1300.0
 21
600.0
 31
0.0
  0
LINE
  5
7B0A
  8
4
  6
CONTINUOUS
 10
1300.0
 20
600.0
 30
0.0
 11
3700.0
 21
600.0
 31
0.0
  0
LINE
  5
7B0B
  8
4
  6
CONTINUOUS
 10
1300.0
 20
800.0
 30
0.0
 11
3700.0
 21
800.0
 31
0.0
  0
TEXT
  5
7B0C
  8
4
  6
CONTINUOUS
 10
1377.004162
 20
863.086052
 30
0.0
 40
100.0
  1
機器名称
  0
TEXT
  5
7B0D
  8
4
  6
CONTINUOUS
 10
1372.516212
 20
643.29031299999986
 30
0.0
 40
100.0
  1
機器型番
  0
TEXT
  5
7B0E
  8
4
  6
CONTINUOUS
 10
2355.3574910000002
 20
845.14353800000015
 30
0.0
 40
100.0
  1
ミツヤ多翼送風機
  0
TEXT
  5
7B0F
  8
4
  6
CONTINUOUS
 10
2373.3089909999999
 20
634.31916899999999
 30
0.0
 40
100.0
  1
MF#3-4
  0
TEXT
  5
7B11
  8
4
  6
CONTINUOUS
 10
1367.9207719999999
 20
4766.8576830000002
 30
0.0
 40
108.0
  1
天井吊枠防振ベット
  0
TEXT
  5
7B12
  8
4
  6
CONTINUOUS
 10
632.33518700000002
 20
5067.7619520000007
 30
0.0
 40
144.0
  1
ベルト駆動式片吸込両持多翼ファン
  0
LINE
  5
7B13
  8
4
  6
CONTINUOUS
 10
500.0
 20
4938.8175090000004
 30
0.0
 11
3700.0
 21
4938.8175090000004
 31
0.0
  0
LINE
  5
7B14
  8
4
  6
CONTINUOUS
 10
500.0
 20
5338.8175090000004
 30
0.0
 11
3700.0
 21
5338.8175090000004
 31
0.0
  0
LINE
  5
7B15
  8
4
  6
CONTINUOUS
 10
1300.0
 20
1000.0
 30
0.0
 11
3700.0
 21
1000.0
 31
0.0
  0
LINE
  5
7B16
  8
4
  6
CONTINUOUS
 10
500.0
 20
5338.8175090000004
 30
0.0
 11
500.0
 21
4938.8175090000004
 31
0.0
  0
TEXT
  5
7B17
  8
4
  6
CONTINUOUS
 10
496.20310799999999
 20
4764.6389549999994
 30
0.0
 40
108.0
  1
右回転右横向
  0
TEXT
  5
7B18
  8
4
  6
CONTINUOUS
 10
2937.9391179999998
 20
5412.122163
 30
0.0
 40
112.0
  1
No.
  0
TEXT
  5
7B19
  8
4
  6
CONTINUOUS
 10
2622.5921250000001
 20
4766.8576830000002
 30
0.0
 40
108.0
  1
縮尺：1/20
  0
LINE
  5
7B1A
  8
4
  6
CONTINUOUS
 10
3700.0
 20
5338.8175090000004
 30
0.0
 11
3700.0
 21
4938.8175090000004
 31
0.0
  0
LINE
  5
7B1C
  8
4
  6
CONTINUOUS
 10
2881.234845
 20
5362.5271659999999
 30
0.0
 11
2881.234845
 21
5573.3045229999998
 31
0.0
  0
LINE
  5
7B1D
  8
4
  6
CONTINUOUS
 10
2881.234845
 20
5573.3045229999998
 30
0.0
 11
3700.0
 21
5573.3045229999998
 31
0.0
  0
LINE
  5
7B1E
  8
4
  6
CONTINUOUS
 10
3700.0
 20
5573.3045229999998
 30
0.0
 11
3700.0
 21
5362.5271659999999
 31
0.0
  0
LINE
  5
7B1F
  8
4
  6
CONTINUOUS
 10
3700.0
 20
5362.5271659999999
 30
0.0
 11
2881.234845
 21
5362.5271659999999
 31
0.0
  0
LINE
  5
7B24
  8
1
  6
CONTINUOUS
 10
1770.0098359300439
 20
1745.2191800000001
 30
0.0
 11
1770.0098359300439
 21
2415.2191800000001
 31
0.0
  0
LINE
  5
7B25
  8
1
  6
CONTINUOUS
 10
1770.0098359300439
 20
2415.2191800000001
 30
0.0
 11
1530.0098359300439
 21
2490.2191800000001
 31
0.0
  0
LINE
  5
7B26
  8
1
  6
CONTINUOUS
 10
1530.0098359300439
 20
2490.2191800000001
 30
0.0
 11
770.00983593004446
 21
1980.2191799999989
 31
0.0
  0
LINE
  5
7B27
  8
1
  6
CONTINUOUS
 10
770.00983593004446
 20
1980.2191799999989
 30
0.0
 11
770.00983593004446
 21
1745.2191800000001
 31
0.0
  0
DIMENSION
  5
7B3B
  8
3
  6
CONTINUOUS
  2
*D1
 10
2062.7659759300441
 20
2082.2191800000001
 30
0.0
 11
2062.7659759300441
 21
2305.300338999999
 31
0.0
 70
   128
 13
1874.5098359300439
 23
2562.2191800000001
 33
0.0
 14
1874.5098359300439
 24
2082.2191800000001
 34
0.0
 50
90.0
1001
ACAD
1000
DSTYLE
1002
{
1070
   287
1070
     3
1070
    40
1040
20.0
1070
   143
1040
0.039
1070
   172
1070
     1
1070
   271
1070
     0
1070
   279
1070
     0
1070
   288
1070
     1
1002
}
  0
DIMENSION
  5
7B48
  8
3
  6
CONTINUOUS
  2
*D2
 10
2190.3539729300451
 20
2100.2191800000001
 30
0.0
 11
2190.3539729300442
 21
2300.3976829999988
 31
0.0
 70
   128
 13
1919.5098359300439
 23
2562.2191800000001
 33
0.0
 14
2003.8960059300441
 24
2100.2191800000001
 34
0.0
 50
90.0
1001
ACAD
1000
DSTYLE
1002
{
1070
   287
1070
     3
1070
    40
1040
20.0
1070
   143
1040
0.039
1070
   172
1070
     1
1070
   271
1070
     0
1070
   279
1070
     0
1070
   288
1070
     1
1002
}
  0
DIMENSION
  5
7B54
  8
3
  6
CONTINUOUS
  2
*D3
 10
2190.3539729300442
 20
1665.2191800000001
 30
0.0
 11
2140.3539729300442
 21
1882.7191800000001
 31
0.0
 70
     0
 13
2003.8960059300441
 23
2100.2191800000001
 33
0.0
 14
1819.5098359300439
 24
1665.2191800000001
 34
0.0
 50
90.0
1001
ACAD
1000
DSTYLE
1002
{
1070
   287
1070
     4
1070
    40
1040
20.0
1070
    75
1070
     1
1070
   143
1040
0.039
1070
   172
1070
     1
1070
   271
1070
     0
1070
   279
1070
     1
1070
   288
1070
     1
1002
}
  0
DIMENSION
  5
7B64
  8
3
  6
CONTINUOUS
  2
*D4
 10
2191.5376949300439
 20
1603.2191799999989
 30
0.0
 11
2191.5376949300439
 21
1454.6477514285709
 31
0.0
 70
   128
 13
1819.5098359300439
 23
1665.2191800000001
 33
0.0
 14
1919.5098359300439
 24
1603.2191799999989
 34
0.0
 50
90.0
1001
ACAD
1000
DSTYLE
1002
{
1070
   287
1070
     3
1070
    40
1040
20.0
1070
   143
1040
0.039
1070
   172
1070
     1
1070
   271
1070
     0
1070
   279
1070
     0
1070
   288
1070
     1
1002
}
  0
DIMENSION
  5
7B71
  8
3
  6
CONTINUOUS
  2
*D5
 10
1519.5098359300439
 20
2942.6460229999998
 30
0.0
 11
1684.9092279300439
 21
2942.6460229999998
 31
0.0
 70
   128
 13
1874.5098359300439
 23
2065.2191800000001
 33
0.0
 14
1519.5098359300439
 24
2839.2813527050239
 34
0.0
1001
ACAD
1000
DSTYLE
1002
{
1070
   287
1070
     3
1070
    40
1040
20.0
1070
   143
1040
0.039
1070
   172
1070
     1
1070
   271
1070
     0
1070
   279
1070
     0
1070
   288
1070
     1
1002
}
  0
DIMENSION
  5
7B7E
  8
3
  6
CONTINUOUS
  2
*D6
 10
1519.5098359300439
 20
1437.529669999999
 30
0.0
 11
1032.2475389300439
 21
1437.529669999999
 31
0.0
 70
   128
 13
599.50983593004446
 23
1603.2191799999989
 33
0.0
 14
1519.5098359300439
 24
1465.6713765922391
 34
0.0
1001
ACAD
1000
DSTYLE
1002
{
1070
   287
1070
     3
1070
    40
1040
20.0
1070
   143
1040
0.039
1070
   172
1070
     1
1070
   271
1070
     0
1070
   279
1070
     0
1070
   288
1070
     1
1002
}
  0
DIMENSION
  5
7B8A
  8
3
  6
CONTINUOUS
  2
*D7
 10
1919.5098359300439
 20
1437.529669999999
 30
0.0
 11
1719.5098359300439
 21
1487.529669999999
 31
0.0
 70
     0
 13
1519.5098359300439
 23
1460.6640012541029
 33
0.0
 14
1919.5098359300439
 24
1603.2191799999989
 34
0.0
1001
ACAD
1000
DSTYLE
1002
{
1070
   287
1070
     4
1070
    40
1040
20.0
1070
    75
1070
     1
1070
   143
1040
0.039
1070
   172
1070
     1
1070
   271
1070
     0
1070
   279
1070
     1
1070
   288
1070
     1
1002
}
  0
DIMENSION
  5
7BC3
  8
3
  6
CONTINUOUS
  2
*D8
 10
3153.7791819300442
 20
1423.68289
 30
0.0
 11
2970.6036589300438
 21
1423.68289
 31
0.0
 70
   128
 13
2783.7791819300442
 23
1603.2191799999989
 33
0.0
 14
3153.7791819300442
 24
1486.789951626587
 34
0.0
1001
ACAD
1000
DSTYLE
1002
{
1070
   287
1070
     3
1070
    40
1040
20.0
1070
   143
1040
0.039
1070
   172
1070
     1
1070
   271
1070
     0
1070
   279
1070
     0
1070
   288
1070
     1
1002
}
  0
DIMENSION
  5
7BCF
  8
3
  6
CONTINUOUS
  2
*D9
 10
3453.7791819300451
 20
1423.68289
 30
0.0
 11
3303.7791819300442
 21
1473.68289
 31
0.0
 70
     0
 13
3153.7791819300442
 23
1486.789951626587
 33
0.0
 14
3453.7791819300451
 24
1603.2191799999989
 34
0.0
1001
ACAD
1000
DSTYLE
1002
{
1070
   287
1070
     4
1070
    40
1040
20.0
1070
    75
1070
     1
1070
   143
1040
0.039
1070
   172
1070
     1
1070
   271
1070
     0
1070
   279
1070
     1
1070
   288
1070
     1
1002
}
  0
DIMENSION
  5
7BDC
  8
3
  6
CONTINUOUS
  2
*D10
 10
2973.7791819300442
 20
2883.8141129999999
 30
0.0
 11
3157.0784239300451
 21
2883.8141129999999
 31
0.0
 70
   128
 13
3333.7791819300451
 23
2589.2191800000001
 33
0.0
 14
2973.7791819300442
 24
2589.2191800000001
 34
0.0
1001
ACAD
1000
DSTYLE
1002
{
1070
   287
1070
     3
1070
    40
1040
20.0
1070
   143
1040
0.039
1070
   172
1070
     1
1070
   271
1070
     0
1070
   279
1070
     0
1070
   288
1070
     1
1002
}
  0
LINE
  5
7BF3
  8
1
  6
CONTINUOUS
 10
3334.7791819300442
 20
2350.2191800000001
 30
0.0
 11
3334.7791819300442
 21
1850.2191800000001
 31
0.0
  0
DIMENSION
  5
7C05
  8
3
  6
CONTINUOUS
  2
*D11
 10
3153.7791819300442
 20
3001.4779329999992
 30
0.0
 11
3244.2791819300442
 21
3066.028238352515
 31
0.0
 70
   128
 13
3334.7791819300442
 23
2350.2191800000001
 33
0.0
 14
3153.7791819300442
 24
2959.9691280000002
 34
0.0
1001
ACAD
1000
DSTYLE
1002
{
1070
   288
1070
     1
1070
   172
1070
     1
1070
    40
1040
20.0
1070
   271
1070
     0
1070
   143
1040
0.039
1002
}
  0
DIMENSION
  5
7C1E
  8
3
  6
CONTINUOUS
  2
*D12
 10
3608.5436439300452
 20
1850.2191799999989
 30
0.0
 11
3608.5436439300438
 21
2109.1939719999991
 31
0.0
 70
   128
 13
3334.7791819300442
 23
2350.2191800000001
 33
0.0
 14
3334.7791819300442
 24
1850.2191800000001
 34
0.0
 50
90.0
1001
ACAD
1000
DSTYLE
1002
{
1070
   287
1070
     3
1070
     3
1000
φ<>
1070
    40
1040
20.0
1070
   143
1040
0.039
1070
   172
1070
     1
1070
   271
1070
     0
1070
   279
1070
     0
1070
   288
1070
     1
1002
}
  0
DIMENSION
  5
7C2B
  8
3
  6
CONTINUOUS
  2
*D13
 10
1919.5098359300439
 20
4217.338408999999
 30
0.0
 11
1292.330775930044
 21
4217.338408999999
 31
0.0
 70
   128
 13
599.50983593004446
 23
4025.3291799999988
 33
0.0
 14
1919.5098359300439
 24
4025.3291799999988
 34
0.0
1001
ACAD
1000
DSTYLE
1002
{
1070
   287
1070
     3
1070
    40
1040
20.0
1070
   143
1040
0.039
1070
   172
1070
     1
1070
   271
1070
     0
1070
   279
1070
     0
1070
   288
1070
     1
1002
}
  0
DIMENSION
  5
7C38
  8
3
  6
CONTINUOUS
  2
*D14
 10
2107.1335299300449
 20
3355.3291800000002
 30
0.0
 11
2107.133529930044
 21
3699.5871979999988
 31
0.0
 70
   128
 13
1919.5098359300439
 23
4025.3291799999988
 33
0.0
 14
1919.5098359300439
 24
3355.3291800000002
 34
0.0
 50
90.0
1001
ACAD
1000
DSTYLE
1002
{
1070
   287
1070
     3
1070
    40
1040
20.0
1070
   143
1040
0.039
1070
   172
1070
     1
1070
   271
1070
     0
1070
   279
1070
     0
1070
   288
1070
     1
1002
}
  0
DIMENSION
  5
7C9B
  8
3
  6
CONTINUOUS
  2
*D15
 10
2635.830053930044
 20
1603.2191799999989
 30
0.0
 11
2635.830053930044
 21
2191.9288219999989
 31
0.0
 70
   128
 13
2783.7791819300442
 23
2803.2191800000001
 33
0.0
 14
2783.7791819300442
 24
1603.2191799999989
 34
0.0
 50
90.0
1001
ACAD
1000
DSTYLE
1002
{
1070
   287
1070
     3
1070
    40
1040
20.0
1070
   143
1040
0.039
1070
   172
1070
     1
1070
   271
1070
     0
1070
   279
1070
     0
1070
   288
1070
     1
1002
}
  0
LINE
  5
7CA6
  8
2
 10
1519.5098359300439
 20
1458.5340650988021
 30
0.0
 11
1519.5098359300439
 21
2839.341823362216
 31
0.0
  0
DIMENSION
  5
7CF3
  8
3
  2
*D16
 10
1109.5098359300439
 20
2942.6460229999998
 30
0.0
 11
1314.5098359300439
 21
2992.6460229999998
 31
0.0
 70
     0
 13
1519.5098359300439
 23
2839.2813527050239
 33
0.0
 14
1109.5098359300439
 24
2455.2191800000001
 34
0.0
1001
ACAD
1000
DSTYLE
1002
{
1070
   287
1070
     4
1070
    40
1040
20.0
1070
    75
1070
     1
1070
   143
1040
0.039
1070
   172
1070
     1
1070
   271
1070
     0
1070
   279
1070
     1
1070
   288
1070
     1
1002
}
  0
ENDSEC
  0
EOF
