  0
SECTION
  2
HEADER
  9
$ACADVER
  1
AC1009
  9
$INSBASE
 10
0.0
 20
0.0
 30
0.0
  9
$EXTMIN
 10
500.0
 20
600.0
 30
0.0
  9
$EXTMAX
 10
3700.0
 20
5573.3045229999998
 30
0.0
  9
$LIMMIN
 10
0.0
 20
0.0
  9
$LIMMAX
 10
297.0
 20
210.0
  9
$ORTHOMODE
 70
     0
  9
$REGENMODE
 70
     1
  9
$FILLMODE
 70
     0
  9
$QTEXTMODE
 70
     0
  9
$MIRRTEXT
 70
     1
  9
$DRAGMODE
 70
     2
  9
$LTSCALE
 40
100.0
  9
$OSMODE
 70
    37
  9
$ATTMODE
 70
     1
  9
$TEXTSIZE
 40
180.0
  9
$TRACEWID
 40
0.05
  9
$TEXTSTYLE
  7
STANDARD
  9
$CLAYER
  8
3
  9
$CELTYPE
  6
BYLAYER
  9
$CECOLOR
 62
   256
  9
$DIMSCALE
 40
20.0
  9
$DIMASZ
 40
2.0
  9
$DIMEXO
 40
0.5
  9
$DIMDLI
 40
10.0
  9
$DIMRND
 40
0.0
  9
$DIMDLE
 40
0.0
  9
$DIMEXE
 40
1.0
  9
$DIMTP
 40
1.0
  9
$DIMTM
 40
1.0
  9
$DIMTXT
 40
3.0
  9
$DIMCEN
 40
0.0
  9
$DIMTSZ
 40
0.0
  9
$DIMTOL
 70
     0
  9
$DIMLIM
 70
     0
  9
$DIMTIH
 70
     0
  9
$DIMTOH
 70
     0
  9
$DIMSE1
 70
     0
  9
$DIMSE2
 70
     0
  9
$DIMTAD
 70
     1
  9
$DIMZIN
 70
     8
  9
$DIMBLK
  1

  9
$DIMASO
 70
     1
  9
$DIMSHO
 70
     1
  9
$DIMPOST
  1

  9
$DIMAPOST
  1

  9
$DIMALT
 70
     0
  9
$DIMALTD
 70
     2
  9
$DIMALTF
 40
0.039
  9
$DIMLFAC
 40
1.0
  9
$DIMTOFL
 70
     1
  9
$DIMTVP
 40
0.0
  9
$DIMTIX
 70
     0
  9
$DIMSOXD
 70
     0
  9
$DIMSAH
 70
     1
  9
$DIMBLK1
  1
OPEN
  9
$DIMBLK2
  1
OPEN
  9
$DIMSTYLE
  2
IGA
  9
$DIMCLRD
 70
     0
  9
$DIMCLRE
 70
     0
  9
$DIMCLRT
 70
     0
  9
$DIMTFAC
 40
10.0
  9
$DIMGAP
 40
1.0
  9
$LUNITS
 70
     2
  9
$LUPREC
 70
     3
  9
$SKETCHINC
 40
0.1
  9
$FILLETRAD
 40
50.0
  9
$AUNITS
 70
     0
  9
$AUPREC
 70
     0
  9
$MENU
  1
acad
  9
$ELEVATION
 40
0.0
  9
$PELEVATION
 40
0.0
  9
$THICKNESS
 40
0.0
  9
$LIMCHECK
 70
     0
  9
$BLIPMODE
 70
     0
  9
$CHAMFERA
 40
0.5
  9
$CHAMFERB
 40
0.5
  9
$SKPOLY
 70
     0
  9
$TDCREATE
 40
2450736.464747801
  9
$TDUPDATE
 40
2454953.7673880551
  9
$TDINDWG
 40
0.0048399653
  9
$TDUSRTIMER
 40
0.0048399653
  9
$USRTIMER
 70
     1
  9
$ANGBASE
 50
0.0
  9
$ANGDIR
 70
     0
  9
$PDMODE
 70
     0
  9
$PDSIZE
 40
0.0
  9
$PLINEWID
 40
0.0
  9
$COORDS
 70
     1
  9
$SPLFRAME
 70
     0
  9
$SPLINETYPE
 70
     6
  9
$SPLINESEGS
 70
     8
  9
$ATTDIA
 70
     0
  9
$ATTREQ
 70
     1
  9
$HANDLING
 70
 10241
  9
$HANDSEED
  5
7DD7
  9
$SURFTAB1
 70
     6
  9
$SURFTAB2
 70
     6
  9
$SURFTYPE
 70
     6
  9
$SURFU
 70
     6
  9
$SURFV
 70
     6
  9
$UCSNAME
  2

  9
$UCSORG
 10
0.0
 20
0.0
 30
0.0
  9
$UCSXDIR
 10
1.0
 20
0.0
 30
0.0
  9
$UCSYDIR
 10
0.0
 20
1.0
 30
0.0
  9
$PUCSNAME
  2

  9
$PUCSORG
 10
0.0
 20
0.0
 30
0.0
  9
$PUCSXDIR
 10
1.0
 20
0.0
 30
0.0
  9
$PUCSYDIR
 10
0.0
 20
1.0
 30
0.0
  9
$USERI1
 70
     0
  9
$USERI2
 70
     0
  9
$USERI3
 70
     0
  9
$USERI4
 70
     0
  9
$USERI5
 70
     0
  9
$USERR1
 40
0.0
  9
$USERR2
 40
0.0
  9
$USERR3
 40
0.0
  9
$USERR4
 40
0.0
  9
$USERR5
 40
0.0
  9
$WORLDVIEW
 70
     1
  9
$SHADEDGE
 70
     3
  9
$SHADEDIF
 70
    70
  9
$TILEMODE
 70
     1
  9
$MAXACTVP
 70
    16
  9
$PLIMCHECK
 70
     0
  9
$PEXTMIN
 10
1.0000000000000000E+020
 20
1.0000000000000000E+020
 30
1.0000000000000000E+020
  9
$PEXTMAX
 10
-1.0000000000000000E+020
 20
-1.0000000000000000E+020
 30
-1.0000000000000000E+020
  9
$PLIMMIN
 10
0.0
 20
0.0
  9
$PLIMMAX
 10
12.0
 20
9.0
  9
$UNITMODE
 70
     0
  9
$VISRETAIN
 70
     0
  9
$PLINEGEN
 70
     0
  9
$PSLTSCALE
 70
     1
  0
ENDSEC
  0
SECTION
  2
TABLES
  0
TABLE
  2
VPORT
 70
     2
  0
VPORT
  2
*ACTIVE
 70
     0
 10
0.0
 20
0.0
 11
1.0
 21
1.0
 12
6292.1124769529506
 22
3086.6374998146398
 13
0.0
 23
0.0
 14
10.0
 24
10.0
 15
10.0
 25
10.0
 16
0.0
 26
0.0
 36
1.0
 17
0.0
 27
0.0
 37
0.0
 40
5011.4968576296578
 41
3.1666666666666661
 42
50.0
 43
0.0
 44
0.0
 50
0.0
 51
0.0
 71
     0
 72
   100
 73
     1
 74
     0
 75
     0
 76
     0
 77
     0
 78
     0
  0
ENDTAB
  0
TABLE
  2
LTYPE
 70
     2
  0
LTYPE
  2
CONTINUOUS
 70
     0
  3
Solid line
 72
    65
 73
     0
 40
0.0
  0
LTYPE
  2
CENTER
 70
     0
  3
____ _ ____ _ ____ _ ____ _ ____ _ ____ _ ____ 
 72
    65
 73
     4
 40
2.0
 49
1.25
 49
-0.25
 49
0.25
 49
-0.25
  0
ENDTAB
  0
TABLE
  2
LAYER
 70
     6
  0
LAYER
  2
0
 70
     0
 62
     7
  6
CONTINUOUS
  0
LAYER
  2
3
 70
     0
 62
     2
  6
CONTINUOUS
  0
LAYER
  2
2
 70
     0
 62
     3
  6
CENTER
  0
LAYER
  2
1
 70
     0
 62
     4
  6
CONTINUOUS
  0
LAYER
  2
4
 70
     0
 62
     7
  6
CONTINUOUS
  0
LAYER
  2
DEFPOINTS
 70
     0
 62
     7
  6
CONTINUOUS
  0
ENDTAB
  0
TABLE
  2
STYLE
 70
     1
  0
STYLE
  2
STANDARD
 70
     0
 40
0.0
 41
1.0
 50
0.0
 71
     0
 42
180.0
  3
simplex.shx
  4
extfont.shx
  0
ENDTAB
  0
TABLE
  2
VIEW
 70
     0
  0
ENDTAB
  0
TABLE
  2
UCS
 70
     0
  0
ENDTAB
  0
TABLE
  2
APPID
 70
     1
  0
APPID
  2
ACAD
 70
     0
  0
ENDTAB
  0
TABLE
  2
DIMSTYLE
 70
     1
  0
DIMSTYLE
  2
IGA
 70
     0
  3

  4

  5

  6
OPEN
  7
OPEN
 40
2.0
 41
2.0
 42
0.5
 43
10.0
 44
1.0
 45
0.0
 46
0.0
 47
1.0
 48
1.0
140
3.0
141
0.0
142
0.0
143
0.03937
144
1.0
145
0.0
146
10.0
147
1.0
 71
     0
 72
     0
 73
     0
 74
     0
 75
     0
 76
     0
 77
     1
 78
     8
170
     0
171
     2
172
     0
173
     1
174
     0
175
     0
176
     0
177
     0
178
     0
  0
ENDTAB
  0
ENDSEC
  0
SECTION
  2
BLOCKS
  0
BLOCK
  8
0
  2
$MODEL_SPACE
 70
     0
 10
0.0
 20
0.0
 30
0.0
  3
$MODEL_SPACE
  1

  0
ENDBLK
  5
1B
  8
0
  0
BLOCK
 67
     1
  8
0
  2
$PAPER_SPACE
 70
     0
 10
0.0
 20
0.0
 30
0.0
  3
$PAPER_SPACE
  1

  0
ENDBLK
  5
18
 67
     1
  8
0
  0
BLOCK
  8
0
  2
_OPEN
 70
     0
 10
0.0
 20
0.0
 30
0.0
  3
_OPEN
  1

  0
LINE
  5
7B1C
  8
0
  6
BYBLOCK
 62
     0
 10
-1.0
 20
0.166667
 30
0.0
 11
0.0
 21
0.0
 31
0.0
  0
LINE
  5
7B1D
  8
0
  6
BYBLOCK
 62
     0
 10
0.0
 20
0.0
 30
0.0
 11
-1.0
 21
-0.166667
 31
0.0
  0
LINE
  5
7B1E
  8
0
  6
BYBLOCK
 62
     0
 10
0.0
 20
0.0
 30
0.0
 11
-1.0
 21
0.0
 31
0.0
  0
ENDBLK
  5
7B1F
  8
0
  0
BLOCK
  8
0
  2
*D1
 70
     1
 10
0.0
 20
0.0
 30
0.0
  3
*D1
  1

  0
LINE
  5
7D39
  8
3
  6
CONTINUOUS
 62
     0
 10
1906.6044670000001
 20
2201.2834349999998
 30
0.0
 11
2115.6606310000002
 21
2201.2834349999998
 31
0.0
  0
LINE
  5
7D3A
  8
3
  6
CONTINUOUS
 62
     0
 10
1906.6044670000001
 20
1721.2834350000001
 30
0.0
 11
2115.6606310000002
 21
1721.2834350000001
 31
0.0
  0
LINE
  5
7D3B
  8
3
  6
CONTINUOUS
 62
     0
 10
2095.6606310000002
 20
2161.2834349999998
 30
0.0
 11
2095.6606310000002
 21
1761.2834350000001
 31
0.0
  0
INSERT
  5
7D3C
  8
3
  6
CONTINUOUS
 62
     0
  2
_OPEN
 10
2095.6606310000002
 20
2201.2834349999998
 30
0.0
 41
40.0
 42
40.0
 43
40.0
 50
90.0
  0
INSERT
  5
7D3D
  8
3
  6
CONTINUOUS
 62
     0
  2
_OPEN
 10
2095.6606310000002
 20
1721.2834350000001
 30
0.0
 41
40.0
 42
40.0
 43
40.0
 50
270.0
  0
TEXT
  8
3
  40
60
  5
7DC7
  62
0
  72
0
  71
0
 10
1925.66
 20
1862.38
 30
0.000000
  1
480
  0
POINT
  5
7D3F
  8
DEFPOINTS
  6
CONTINUOUS
 62
     0
 10
1896.6044670000001
 20
2201.2834349999998
 30
0.0
  0
POINT
  5
7D40
  8
DEFPOINTS
  6
CONTINUOUS
 62
     0
 10
1896.6044670000001
 20
1721.2834350000001
 30
0.0
  0
POINT
  5
7D41
  8
DEFPOINTS
  6
CONTINUOUS
 62
     0
 10
2095.6606310000002
 20
1721.2834350000001
 30
0.0
  0
ENDBLK
  5
7BAC
  8
0
  0
BLOCK
  8
0
  2
*D2
 70
     1
 10
0.0
 20
0.0
 30
0.0
  3
*D2
  1

  0
LINE
  5
7D42
  8
3
  6
CONTINUOUS
 62
     0
 10
2054.244616
 20
2183.2834349999998
 30
0.0
 11
2258.2400750000002
 21
2183.2834349999998
 31
0.0
  0
LINE
  5
7D43
  8
3
  6
CONTINUOUS
 62
     0
 10
1951.6044670000001
 20
1721.2834350000001
 30
0.0
 11
2258.2400750000002
 21
1721.2834350000001
 31
0.0
  0
LINE
  5
7D44
  8
3
  6
CONTINUOUS
 62
     0
 10
2238.2400750000002
 20
2143.2834349999998
 30
0.0
 11
2238.2400750000002
 21
1761.2834350000001
 31
0.0
  0
INSERT
  5
7D45
  8
3
  6
CONTINUOUS
 62
     0
  2
_OPEN
 10
2238.2400750000002
 20
2183.2834349999998
 30
0.0
 41
40.0
 42
40.0
 43
40.0
 50
90.0
  0
INSERT
  5
7D46
  8
3
  6
CONTINUOUS
 62
     0
  2
_OPEN
 10
2238.2400750000002
 20
1721.2834350000001
 30
0.0
 41
40.0
 42
40.0
 43
40.0
 50
270.0
  0
TEXT
  8
3
  40
60
  5
7DC8
  62
0
  72
0
  71
0
 10
2068.24
 20
1857.47
 30
0.000000
  1
462
  0
POINT
  5
7D48
  8
DEFPOINTS
  6
CONTINUOUS
 62
     0
 10
2044.244615999999
 20
2183.2834349999998
 30
0.0
  0
POINT
  5
7D49
  8
DEFPOINTS
  6
CONTINUOUS
 62
     0
 10
1941.6044670000001
 20
1721.2834350000001
 30
0.0
  0
POINT
  5
7D4A
  8
DEFPOINTS
  6
CONTINUOUS
 62
     0
 10
2238.2400750000002
 20
1721.2834350000001
 30
0.0
  0
ENDBLK
  5
7BB7
  8
0
  0
BLOCK
  8
0
  2
*D3
 70
     1
 10
0.0
 20
0.0
 30
0.0
  3
*D3
  1

  0
LINE
  5
7D4B
  8
3
  6
CONTINUOUS
 62
     0
 10
2054.244616
 20
2183.2834349999998
 30
0.0
 11
2410.6525879999999
 21
2183.2834349999998
 31
0.0
  0
LINE
  5
7D4C
  8
3
  6
CONTINUOUS
 62
     0
 10
1851.6044670000001
 20
1583.2834350000001
 30
0.0
 11
2410.6525879999999
 21
1583.2834350000001
 31
0.0
  0
LINE
  5
7D4D
  8
3
  6
CONTINUOUS
 62
     0
 10
2390.6525879999999
 20
2143.2834349999998
 30
0.0
 11
2390.6525879999999
 21
1623.2834350000001
 31
0.0
  0
INSERT
  5
7D4E
  8
3
  6
CONTINUOUS
 62
     0
  2
_OPEN
 10
2390.6525879999999
 20
2183.2834349999998
 30
0.0
 41
40.0
 42
40.0
 43
40.0
 50
90.0
  0
INSERT
  5
7D4F
  8
3
  6
CONTINUOUS
 62
     0
  2
_OPEN
 10
2390.6525879999999
 20
1583.2834350000001
 30
0.0
 41
40.0
 42
40.0
 43
40.0
 50
270.0
  0
TEXT
  8
3
  40
60
  5
7DC9
  62
0
  72
0
  71
0
 10
2220.65
 20
1749.41
 30
0.000000
  1
600
  0
POINT
  5
7D51
  8
DEFPOINTS
  6
CONTINUOUS
 62
     0
 10
2044.244615999999
 20
2183.2834349999998
 30
0.0
  0
POINT
  5
7D52
  8
DEFPOINTS
  6
CONTINUOUS
 62
     0
 10
1841.6044670000001
 20
1583.2834350000001
 30
0.0
  0
POINT
  5
7D53
  8
DEFPOINTS
  6
CONTINUOUS
 62
     0
 10
2390.6525879999999
 20
1583.2834350000001
 30
0.0
  0
ENDBLK
  5
7B54
  8
0
  0
BLOCK
  8
0
  2
*D4
 70
     1
 10
0.0
 20
0.0
 30
0.0
  3
*D4
  1

  0
LINE
  5
7D54
  8
3
  6
CONTINUOUS
 62
     0
 10
1851.6044670000001
 20
1583.2834350000001
 30
0.0
 11
2410.605505
 21
1583.2834350000001
 31
0.0
  0
LINE
  5
7D55
  8
3
  6
CONTINUOUS
 62
     0
 10
1951.6044670000001
 20
1521.2834350000001
 30
0.0
 11
2410.605505
 21
1521.2834350000001
 31
0.0
  0
LINE
  5
7D56
  8
3
  6
CONTINUOUS
 62
     0
 10
2390.605505
 20
1623.2834350000001
 30
0.0
 11
2390.605505
 21
1663.2834350000001
 31
0.0
  0
LINE
  5
7D57
  8
3
  6
CONTINUOUS
 62
     0
 10
2390.605505
 20
1481.2834350000001
 30
0.0
 11
2390.605505
 21
1304.1405778571429
 31
0.0
  0
LINE
  5
7D58
  8
3
  6
CONTINUOUS
 62
     0
 10
2390.605505
 20
1583.2834350000001
 30
0.0
 11
2390.605505
 21
1521.2834350000001
 31
0.0
  0
INSERT
  5
7D59
  8
3
  6
CONTINUOUS
 62
     0
  2
_OPEN
 10
2390.605505
 20
1583.2834350000001
 30
0.0
 41
40.0
 42
40.0
 43
40.0
 50
270.0
  0
INSERT
  5
7D5A
  8
3
  6
CONTINUOUS
 62
     0
  2
_OPEN
 10
2390.605505
 20
1521.2834350000001
 30
0.0
 41
40.0
 42
40.0
 43
40.0
 50
90.0
  0
TEXT
  8
3
  40
60
  5
7DCA
  62
0
  72
0
  71
0
 10
2220.61
 20
1266.51
 30
0.000000
  1
62
  0
POINT
  5
7D5C
  8
DEFPOINTS
  6
CONTINUOUS
 62
     0
 10
1841.6044670000001
 20
1583.2834350000001
 30
0.0
  0
POINT
  5
7D5D
  8
DEFPOINTS
  6
CONTINUOUS
 62
     0
 10
1941.6044670000001
 20
1521.2834350000001
 30
0.0
  0
POINT
  5
7D5E
  8
DEFPOINTS
  6
CONTINUOUS
 62
     0
 10
2390.605505
 20
1521.2834350000001
 30
0.0
  0
ENDBLK
  5
7D07
  8
0
  0
BLOCK
  8
0
  2
*D5
 70
     1
 10
0.0
 20
0.0
 30
0.0
  3
*D5
  1

  0
LINE
  5
7D5F
  8
3
  6
CONTINUOUS
 62
     0
 10
1896.6044670000001
 20
2228.2834349999998
 30
0.0
 11
1896.6044670000001
 21
2853.0864200000001
 31
0.0
  0
LINE
  5
7D60
  8
3
  6
CONTINUOUS
 62
     0
 10
1541.604466999999
 20
2800.0937509999999
 30
0.0
 11
1541.604466999999
 21
2853.0864200000001
 31
0.0
  0
LINE
  5
7D61
  8
3
  6
CONTINUOUS
 62
     0
 10
1856.6044670000001
 20
2833.0864200000001
 30
0.0
 11
1581.6044670000001
 21
2833.0864200000001
 31
0.0
  0
INSERT
  5
7D62
  8
3
  6
CONTINUOUS
 62
     0
  2
_OPEN
 10
1896.6044670000001
 20
2833.0864200000001
 30
0.0
 41
40.0
 42
40.0
 43
40.0
  0
INSERT
  5
7D63
  8
3
  6
CONTINUOUS
 62
     0
  2
_OPEN
 10
1541.604466999999
 20
2833.0864200000001
 30
0.0
 41
40.0
 42
40.0
 43
40.0
 50
180.0
  0
TEXT
  8
3
  40
60
  5
7DCB
  62
0
  72
0
  71
0
 10
1592.17
 20
2776.89
 30
0.000000
  1
355
  0
POINT
  5
7D65
  8
DEFPOINTS
  6
CONTINUOUS
 62
     0
 10
1896.6044670000001
 20
2218.2834349999998
 30
0.0
  0
POINT
  5
7D66
  8
DEFPOINTS
  6
CONTINUOUS
 62
     0
 10
1541.604466999999
 20
2790.0937509999999
 30
0.0
  0
POINT
  5
7D67
  8
DEFPOINTS
  6
CONTINUOUS
 62
     0
 10
1541.604466999999
 20
2833.0864200000001
 30
0.0
  0
ENDBLK
  5
7BA1
  8
0
  0
BLOCK
  8
0
  2
*D6
 70
     1
 10
0.0
 20
0.0
 30
0.0
  3
*D6
  1

  0
LINE
  5
7D68
  8
3
  6
CONTINUOUS
 62
     0
 10
1941.6044670000001
 20
1511.2834350000001
 30
0.0
 11
1941.6044670000001
 21
1339.5006900000001
 31
0.0
  0
LINE
  5
7D69
  8
3
  6
CONTINUOUS
 62
     0
 10
1541.604466999999
 20
1366.395358
 30
0.0
 11
1541.604466999999
 21
1379.5006900000001
 31
0.0
  0
LINE
  5
7D6A
  8
3
  6
CONTINUOUS
 62
     0
 10
1901.6044670000001
 20
1359.5006900000001
 30
0.0
 11
1581.6044670000001
 21
1359.5006900000001
 31
0.0
  0
INSERT
  5
7D6B
  8
3
  6
CONTINUOUS
 62
     0
  2
_OPEN
 10
1941.6044670000001
 20
1359.5006900000001
 30
0.0
 41
40.0
 42
40.0
 43
40.0
  0
INSERT
  5
7D6C
  8
3
  6
CONTINUOUS
 62
     0
  2
_OPEN
 10
1541.604466999999
 20
1359.5006900000001
 30
0.0
 41
40.0
 42
40.0
 43
40.0
 50
180.0
  0
TEXT
  8
3
  40
60
  5
7DCC
  62
0
  72
0
  71
0
 10
1621.67
 20
1303.30
 30
0.000000
  1
400
  0
POINT
  5
7D6E
  8
DEFPOINTS
  6
CONTINUOUS
 62
     0
 10
1941.6044670000001
 20
1521.2834350000001
 30
0.0
  0
POINT
  5
7D6F
  8
DEFPOINTS
  6
CONTINUOUS
 62
     0
 10
1541.604466999999
 20
1356.395358
 30
0.0
  0
POINT
  5
7D70
  8
DEFPOINTS
  6
CONTINUOUS
 62
     0
 10
1541.604466999999
 20
1359.5006900000001
 30
0.0
  0
ENDBLK
  5
7B7E
  8
0
  0
BLOCK
  8
0
  2
*D7
 70
     1
 10
0.0
 20
0.0
 30
0.0
  3
*D7
  1

  0
LINE
  5
7D71
  8
3
  6
CONTINUOUS
 62
     0
 10
621.604467
 20
1511.2834350000001
 30
0.0
 11
621.604467
 21
1339.5006900000001
 31
0.0
  0
LINE
  5
7D72
  8
3
  6
CONTINUOUS
 62
     0
 10
1501.604466999999
 20
1359.5006900000001
 30
0.0
 11
661.60446699999989
 21
1359.5006900000001
 31
0.0
  0
INSERT
  5
7D73
  8
3
  6
CONTINUOUS
 62
     0
  2
_OPEN
 10
1541.604466999999
 20
1359.5006900000001
 30
0.0
 41
40.0
 42
40.0
 43
40.0
  0
INSERT
  5
7D74
  8
3
  6
CONTINUOUS
 62
     0
  2
_OPEN
 10
621.604467
 20
1359.5006900000001
 30
0.0
 41
40.0
 42
40.0
 43
40.0
 50
180.0
  0
TEXT
  8
3
  40
60
  5
7DCD
  62
0
  72
0
  71
0
 10
961.604
 20
1303.30
 30
0.000000
  1
920
  0
POINT
  5
7D76
  8
DEFPOINTS
  6
CONTINUOUS
 62
     0
 10
1541.604466999999
 20
1356.395358
 30
0.0
  0
POINT
  5
7D77
  8
DEFPOINTS
  6
CONTINUOUS
 62
     0
 10
621.604467
 20
1521.2834350000001
 30
0.0
  0
POINT
  5
7D78
  8
DEFPOINTS
  6
CONTINUOUS
 62
     0
 10
621.604467
 20
1359.5006900000001
 30
0.0
  0
ENDBLK
  5
7B8A
  8
0
  0
BLOCK
  8
0
  2
*D8
 70
     1
 10
0.0
 20
0.0
 30
0.0
  3
*D8
  1

  0
LINE
  5
7D79
  8
3
  6
CONTINUOUS
 62
     0
 10
3278.543682
 20
2433.2834349999998
 30
0.0
 11
3610.286576
 21
2433.2834349999998
 31
0.0
  0
LINE
  5
7D7A
  8
3
  6
CONTINUOUS
 62
     0
 10
3278.543682
 20
1933.2834350000001
 30
0.0
 11
3610.286576
 21
1933.2834349999989
 31
0.0
  0
LINE
  5
7D7B
  8
3
  6
CONTINUOUS
 62
     0
 10
3590.286576
 20
2393.2834349999998
 30
0.0
 11
3590.286576
 21
1973.2834349999989
 31
0.0
  0
INSERT
  5
7D7C
  8
3
  6
CONTINUOUS
 62
     0
  2
_OPEN
 10
3590.286576
 20
2433.2834349999998
 30
0.0
 41
40.0
 42
40.0
 43
40.0
 50
90.0
  0
INSERT
  5
7D7D
  8
3
  6
CONTINUOUS
 62
     0
  2
_OPEN
 10
3590.286576
 20
1933.2834349999989
 30
0.0
 41
40.0
 42
40.0
 43
40.0
 50
270.0
  0
TEXT
  8
3
  40
60
  5
7DCE
  62
0
  72
0
  71
0
 10
3420.29
 20
2058.86
 30
0.000000
  1
φ500
  0
POINT
  5
7D7F
  8
DEFPOINTS
  6
CONTINUOUS
 62
     0
 10
3268.543682
 20
2433.2834349999998
 30
0.0
  0
POINT
  5
7D80
  8
DEFPOINTS
  6
CONTINUOUS
 62
     0
 10
3268.543682
 20
1933.2834350000001
 30
0.0
  0
POINT
  5
7D81
  8
DEFPOINTS
  6
CONTINUOUS
 62
     0
 10
3590.286576
 20
1933.2834349999989
 30
0.0
  0
ENDBLK
  5
7CC1
  8
0
  0
BLOCK
  8
0
  2
*D9
 70
     1
 10
0.0
 20
0.0
 30
0.0
  3
*D9
  1

  0
LINE
  5
7CCE
  8
0
  6
BYBLOCK
 62
     0
 10
3268.543682
 20
2443.2834349999998
 30
0.0
 11
3268.543682
 21
2994.3090849999999
 31
0.0
  0
LINE
  5
7CCF
  8
0
  6
BYBLOCK
 62
     0
 10
3087.543682
 20
2898.7073019999998
 30
0.0
 11
3087.543682
 21
2994.3090849999999
 31
0.0
  0
LINE
  5
7CD0
  8
0
  6
BYBLOCK
 62
     0
 10
3228.543682
 20
2974.3090849999999
 30
0.0
 11
3127.543682
 21
2974.3090849999999
 31
0.0
  0
TEXT
  5
7CD1
  8
3
 62
     0
 10
3119.4722534285711
 20
3004.4904256732202
 30
0.0
 40
60.0
  1
181
  0
INSERT
  5
7CD2
  8
0
  6
BYBLOCK
 62
     0
  2
_OPEN
 10
3268.543682
 20
2974.3090849999999
 30
0.0
 41
40.0
 42
40.0
 43
40.0
  0
INSERT
  5
7CD3
  8
0
  6
BYBLOCK
 62
     0
  2
_OPEN
 10
3087.543682
 20
2974.3090849999999
 30
0.0
 41
40.0
 42
40.0
 43
40.0
 50
180.0
  0
POINT
  5
7CD4
  8
DEFPOINTS
  6
BYBLOCK
 62
     0
 10
3268.543682
 20
2433.2834349999998
 30
0.0
  0
POINT
  5
7CD5
  8
DEFPOINTS
  6
BYBLOCK
 62
     0
 10
3087.543682
 20
2888.7073019999998
 30
0.0
  0
POINT
  5
7CD6
  8
DEFPOINTS
  6
BYBLOCK
 62
     0
 10
3087.543682
 20
2974.3090849999999
 30
0.0
  0
ENDBLK
  5
7CD7
  8
0
  0
BLOCK
  8
0
  2
*D10
 70
     1
 10
0.0
 20
0.0
 30
0.0
  3
*D10
  1

  0
LINE
  5
7D82
  8
3
  6
CONTINUOUS
 62
     0
 10
621.604467
 20
3950.393435
 30
0.0
 11
621.604467
 21
4158.5400460000001
 31
0.0
  0
LINE
  5
7D83
  8
3
  6
CONTINUOUS
 62
     0
 10
1941.6044670000001
 20
3950.393435
 30
0.0
 11
1941.6044670000001
 21
4158.5400460000001
 31
0.0
  0
LINE
  5
7D84
  8
3
  6
CONTINUOUS
 62
     0
 10
661.60446699999989
 20
4138.5400460000001
 30
0.0
 11
1901.6044670000001
 21
4138.5400460000001
 31
0.0
  0
INSERT
  5
7D85
  8
3
  6
CONTINUOUS
 62
     0
  2
_OPEN
 10
621.604467
 20
4138.5400460000001
 30
0.0
 41
40.0
 42
40.0
 43
40.0
 50
180.0
  0
INSERT
  5
7D86
  8
3
  6
CONTINUOUS
 62
     0
  2
_OPEN
 10
1941.6044670000001
 20
4138.5400460000001
 30
0.0
 41
40.0
 42
40.0
 43
40.0
  0
TEXT
  8
3
  40
60
  5
7DCF
  62
0
  72
0
  71
0
 10
1110.35
 20
4082.34
 30
0.000000
  1
1320
  0
POINT
  5
7D88
  8
DEFPOINTS
  6
CONTINUOUS
 62
     0
 10
621.604467
 20
3940.393435
 30
0.0
  0
POINT
  5
7D89
  8
DEFPOINTS
  6
CONTINUOUS
 62
     0
 10
1941.6044670000001
 20
3940.393435
 30
0.0
  0
POINT
  5
7D8A
  8
DEFPOINTS
  6
CONTINUOUS
 62
     0
 10
1941.6044670000001
 20
4138.5400460000001
 30
0.0
  0
ENDBLK
  5
7C63
  8
0
  0
BLOCK
  8
0
  2
*D11
 70
     1
 10
0.0
 20
0.0
 30
0.0
  3
*D11
  1

  0
LINE
  5
7D8B
  8
3
  6
CONTINUOUS
 62
     0
 10
1951.6044670000001
 20
3940.393435
 30
0.0
 11
2179.575569000001
 21
3940.393435
 31
0.0
  0
LINE
  5
7D8C
  8
3
  6
CONTINUOUS
 62
     0
 10
1951.6044670000001
 20
3270.393434999999
 30
0.0
 11
2179.575569000001
 21
3270.393434999999
 31
0.0
  0
LINE
  5
7D8D
  8
3
  6
CONTINUOUS
 62
     0
 10
2159.575569000001
 20
3900.393435
 30
0.0
 11
2159.575569000001
 21
3310.393435
 31
0.0
  0
INSERT
  5
7D8E
  8
3
  6
CONTINUOUS
 62
     0
  2
_OPEN
 10
2159.575569000001
 20
3940.393435
 30
0.0
 41
40.0
 42
40.0
 43
40.0
 50
90.0
  0
INSERT
  5
7D8F
  8
3
  6
CONTINUOUS
 62
     0
  2
_OPEN
 10
2159.575569000001
 20
3270.393434999999
 30
0.0
 41
40.0
 42
40.0
 43
40.0
 50
270.0
  0
TEXT
  8
3
  40
60
  5
7DD0
  62
0
  72
0
  71
0
 10
1989.58
 20
3524.56
 30
0.000000
  1
670
  0
POINT
  5
7D91
  8
DEFPOINTS
  6
CONTINUOUS
 62
     0
 10
1941.6044670000001
 20
3940.393435
 30
0.0
  0
POINT
  5
7D92
  8
DEFPOINTS
  6
CONTINUOUS
 62
     0
 10
1941.6044670000001
 20
3270.393434999999
 30
0.0
  0
POINT
  5
7D93
  8
DEFPOINTS
  6
CONTINUOUS
 62
     0
 10
2159.575569000001
 20
3270.393434999999
 30
0.0
  0
ENDBLK
  5
7C1E
  8
0
  0
BLOCK
  8
0
  2
*D12
 70
     1
 10
0.0
 20
0.0
 30
0.0
  3
*D12
  1

  0
LINE
  5
7D94
  8
3
  6
CONTINUOUS
 62
     0
 10
2717.543682
 20
1511.2834350000001
 30
0.0
 11
2717.543682
 21
1323.186166
 31
0.0
  0
LINE
  5
7D95
  8
3
  6
CONTINUOUS
 62
     0
 10
3087.543682
 20
1392.022616
 30
0.0
 11
3087.543682
 21
1323.186166
 31
0.0
  0
LINE
  5
7D96
  8
3
  6
CONTINUOUS
 62
     0
 10
2757.543682
 20
1343.186165999999
 30
0.0
 11
3047.543682
 21
1343.186165999999
 31
0.0
  0
INSERT
  5
7D97
  8
3
  6
CONTINUOUS
 62
     0
  2
_OPEN
 10
2717.543682
 20
1343.186165999999
 30
0.0
 41
40.0
 42
40.0
 43
40.0
 50
180.0
  0
INSERT
  5
7D98
  8
3
  6
CONTINUOUS
 62
     0
  2
_OPEN
 10
3087.543682
 20
1343.186165999999
 30
0.0
 41
40.0
 42
40.0
 43
40.0
  0
TEXT
  8
3
  40
60
  5
7DD1
  62
0
  72
0
  71
0
 10
2800.33
 20
1286.99
 30
0.000000
  1
370
  0
POINT
  5
7D9A
  8
DEFPOINTS
  6
CONTINUOUS
 62
     0
 10
2717.543682
 20
1521.2834350000001
 30
0.0
  0
POINT
  5
7D9B
  8
DEFPOINTS
  6
CONTINUOUS
 62
     0
 10
3087.543682
 20
1402.0226159999991
 30
0.0
  0
POINT
  5
7D9C
  8
DEFPOINTS
  6
CONTINUOUS
 62
     0
 10
3087.543682
 20
1343.186165999999
 30
0.0
  0
ENDBLK
  5
7C6E
  8
0
  0
BLOCK
  8
0
  2
*D13
 70
     1
 10
0.0
 20
0.0
 30
0.0
  3
*D13
  1

  0
LINE
  5
7D9D
  8
3
  6
CONTINUOUS
 62
     0
 10
3387.543682
 20
1511.2834350000001
 30
0.0
 11
3387.543682
 21
1323.186166
 31
0.0
  0
LINE
  5
7D9E
  8
3
  6
CONTINUOUS
 62
     0
 10
3127.543682
 20
1343.186165999999
 30
0.0
 11
3347.5436819999991
 21
1343.186165999999
 31
0.0
  0
INSERT
  5
7D9F
  8
3
  6
CONTINUOUS
 62
     0
  2
_OPEN
 10
3087.543682
 20
1343.186165999999
 30
0.0
 41
40.0
 42
40.0
 43
40.0
 50
180.0
  0
INSERT
  5
7DA0
  8
3
  6
CONTINUOUS
 62
     0
  2
_OPEN
 10
3387.543682
 20
1343.186165999999
 30
0.0
 41
40.0
 42
40.0
 43
40.0
  0
TEXT
  8
3
  40
60
  5
7DD2
  62
0
  72
0
  71
0
 10
3117.54
 20
1286.99
 30
0.000000
  1
300
  0
POINT
  5
7DA2
  8
DEFPOINTS
  6
CONTINUOUS
 62
     0
 10
3087.543682
 20
1402.0226159999991
 30
0.0
  0
POINT
  5
7DA3
  8
DEFPOINTS
  6
CONTINUOUS
 62
     0
 10
3387.543682
 20
1521.2834350000001
 30
0.0
  0
POINT
  5
7DA4
  8
DEFPOINTS
  6
CONTINUOUS
 62
     0
 10
3387.543682
 20
1343.186165999999
 30
0.0
  0
ENDBLK
  5
7C78
  8
0
  0
BLOCK
  8
0
  2
*D14
 70
     1
 10
0.0
 20
0.0
 30
0.0
  3
*D14
  1

  0
LINE
  5
7DA5
  8
3
  6
CONTINUOUS
 62
     0
 10
2907.543682
 20
2547.2634349999998
 30
0.0
 11
2907.543682
 21
2811.5866299999998
 31
0.0
  0
LINE
  5
7DA6
  8
3
  6
CONTINUOUS
 62
     0
 10
3267.543682
 20
2547.2634349999998
 30
0.0
 11
3267.543682
 21
2811.5866299999998
 31
0.0
  0
LINE
  5
7DA7
  8
3
  6
CONTINUOUS
 62
     0
 10
2947.543682
 20
2791.5866299999998
 30
0.0
 11
3227.543682
 21
2791.5866299999998
 31
0.0
  0
INSERT
  5
7DA8
  8
3
  6
CONTINUOUS
 62
     0
  2
_OPEN
 10
2907.543682
 20
2791.5866299999998
 30
0.0
 41
40.0
 42
40.0
 43
40.0
 50
180.0
  0
INSERT
  5
7DA9
  8
3
  6
CONTINUOUS
 62
     0
  2
_OPEN
 10
3267.543682
 20
2791.5866299999998
 30
0.0
 41
40.0
 42
40.0
 43
40.0
  0
TEXT
  8
3
  40
60
  5
7DD3
  62
0
  72
0
  71
0
 10
2950.51
 20
2735.39
 30
0.000000
  1
360
  0
POINT
  5
7DAB
  8
DEFPOINTS
  6
CONTINUOUS
 62
     0
 10
2907.543682
 20
2537.2634349999998
 30
0.0
  0
POINT
  5
7DAC
  8
DEFPOINTS
  6
CONTINUOUS
 62
     0
 10
3267.543682
 20
2537.2634349999998
 30
0.0
  0
POINT
  5
7DAD
  8
DEFPOINTS
  6
CONTINUOUS
 62
     0
 10
3267.543682
 20
2791.5866299999998
 30
0.0
  0
ENDBLK
  5
7C9B
  8
0
  0
BLOCK
  8
0
  2
*D15
 70
     1
 10
0.0
 20
0.0
 30
0.0
  3
*D15
  1

  0
LINE
  5
7DAE
  8
3
  6
CONTINUOUS
 62
     0
 10
2707.543682
 20
2721.2834349999998
 30
0.0
 11
2586.2660940000001
 21
2721.2834349999998
 31
0.0
  0
LINE
  5
7DAF
  8
3
  6
CONTINUOUS
 62
     0
 10
2707.543682
 20
1521.2834350000001
 30
0.0
 11
2586.2660940000001
 21
1521.2834350000001
 31
0.0
  0
LINE
  5
7DB0
  8
3
  6
CONTINUOUS
 62
     0
 10
2606.2660940000001
 20
2681.2834349999998
 30
0.0
 11
2606.2660940000001
 21
1561.2834350000001
 31
0.0
  0
INSERT
  5
7DB1
  8
3
  6
CONTINUOUS
 62
     0
  2
_OPEN
 10
2606.2660940000001
 20
2721.2834349999998
 30
0.0
 41
40.0
 42
40.0
 43
40.0
 50
90.0
  0
INSERT
  5
7DB2
  8
3
  6
CONTINUOUS
 62
     0
  2
_OPEN
 10
2606.2660940000001
 20
1521.2834350000001
 30
0.0
 41
40.0
 42
40.0
 43
40.0
 50
270.0
  0
TEXT
  8
3
  40
60
  5
7DD4
  62
0
  72
0
  71
0
 10
2436.27
 20
2034.64
 30
0.000000
  1
1200
  0
POINT
  5
7DB4
  8
DEFPOINTS
  6
CONTINUOUS
 62
     0
 10
2717.543682
 20
2721.2834349999998
 30
0.0
  0
POINT
  5
7DB5
  8
DEFPOINTS
  6
CONTINUOUS
 62
     0
 10
2717.543682
 20
1521.2834350000001
 30
0.0
  0
POINT
  5
7DB6
  8
DEFPOINTS
  6
CONTINUOUS
 62
     0
 10
2606.2660940000001
 20
1521.2834350000001
 30
0.0
  0
ENDBLK
  5
7CA9
  8
0
  0
BLOCK
  8
0
  2
*D16
 70
     1
 10
0.0
 20
0.0
 30
0.0
  3
*D16
  1

  0
LINE
  5
7DB7
  8
3
 62
     0
 10
1144.604466999999
 20
2193.2834349999998
 30
0.0
 11
1144.604466999999
 21
2853.0864200000001
 31
0.0
  0
LINE
  5
7DB8
  8
3
 62
     0
 10
1501.604466999999
 20
2833.0864200000001
 30
0.0
 11
1184.604466999999
 21
2833.0864200000001
 31
0.0
  0
INSERT
  5
7DB9
  8
3
 62
     0
  2
_OPEN
 10
1541.604466999999
 20
2833.0864200000001
 30
0.0
 41
40.0
 42
40.0
 43
40.0
  0
INSERT
  5
7DBA
  8
3
 62
     0
  2
_OPEN
 10
1144.604466999999
 20
2833.0864200000001
 30
0.0
 41
40.0
 42
40.0
 43
40.0
 50
180.0
  0
TEXT
  8
3
  40
60
  5
7DD5
  62
0
  72
0
  71
0
 10
1223.10
 20
2776.89
 30
0.000000
  1
397
  0
POINT
  5
7DBC
  8
DEFPOINTS
 62
     0
 10
1541.604466999999
 20
2790.0937509999999
 30
0.0
  0
POINT
  5
7DBD
  8
DEFPOINTS
 62
     0
 10
1144.604466999999
 20
2183.2834349999998
 30
0.0
  0
POINT
  5
7DBE
  8
DEFPOINTS
 62
     0
 10
1144.604466999999
 20
2833.0864200000001
 30
0.0
  0
ENDBLK
  5
7D16
  8
0
  0
BLOCK
  8
0
  2
*D17
 70
     1
 10
0.0
 20
0.0
 30
0.0
  3
*D17
  1

  0
LINE
  5
7DBF
  8
3
 62
     0
 10
1861.6044670000001
 20
2538.2834349999998
 30
0.0
 11
2410.6525879999999
 21
2538.2834349999998
 31
0.0
  0
LINE
  5
7DC0
  8
3
 62
     0
 10
2390.6525879999999
 20
2223.2834349999998
 30
0.0
 11
2390.6525879999999
 21
2498.2834349999998
 31
0.0
  0
INSERT
  5
7DC1
  8
3
 62
     0
  2
_OPEN
 10
2390.6525879999999
 20
2183.2834349999998
 30
0.0
 41
40.0
 42
40.0
 43
40.0
 50
270.0
  0
INSERT
  5
7DC2
  8
3
 62
     0
  2
_OPEN
 10
2390.6525879999999
 20
2538.2834349999998
 30
0.0
 41
40.0
 42
40.0
 43
40.0
 50
90.0
  0
TEXT
  8
3
  40
60
  5
7DD6
  62
0
  72
0
  71
0
 10
2220.65
 20
2254.58
 30
0.000000
  1
355
  0
POINT
  5
7DC4
  8
DEFPOINTS
 62
     0
 10
2044.244615999999
 20
2183.2834349999998
 30
0.0
  0
POINT
  5
7DC5
  8
DEFPOINTS
 62
     0
 10
1851.6044670000001
 20
2538.2834349999998
 30
0.0
  0
POINT
  5
7DC6
  8
DEFPOINTS
 62
     0
 10
2390.6525879999999
 20
2538.2834349999998
 30
0.0
  0
ENDBLK
  5
7CF9
  8
0
  0
ENDSEC
  0
SECTION
  2
ENTITIES
  0
LINE
  5
7A7E
  8
1
  6
CONTINUOUS
 10
1941.6044670000001
 20
1521.2834350000001
 30
0.0
 11
1941.6044670000001
 21
2721.2834349999998
 31
0.0
  0
LINE
  5
7A7F
  8
1
  6
CONTINUOUS
 10
621.604467
 20
1521.2834350000001
 30
0.0
 11
621.604467
 21
2721.2834349999998
 31
0.0
  0
LINE
  5
7A80
  8
1
  6
CONTINUOUS
 10
2717.543682
 20
2721.2834349999998
 30
0.0
 11
2717.543682
 21
1521.2834350000001
 31
0.0
  0
LINE
  5
7A81
  8
1
  6
CONTINUOUS
 10
3387.543682
 20
2721.2834349999998
 30
0.0
 11
3387.543682
 21
1521.2834350000001
 31
0.0
  0
LINE
  5
7A82
  8
1
  6
CONTINUOUS
 10
1901.6044670000001
 20
1558.2834350000001
 30
0.0
 11
1901.6044670000001
 21
2678.2834349999998
 31
0.0
  0
LINE
  5
7A83
  8
1
  6
CONTINUOUS
 10
661.60446699999989
 20
2678.2834349999998
 30
0.0
 11
661.60446699999989
 21
1558.2834350000001
 31
0.0
  0
LINE
  5
7A84
  8
1
  6
CONTINUOUS
 10
2757.543682
 20
1558.2834350000001
 30
0.0
 11
2757.543682
 21
2678.2834349999998
 31
0.0
  0
LINE
  5
7A85
  8
1
  6
CONTINUOUS
 10
3347.5436819999991
 20
2678.2834349999998
 30
0.0
 11
3347.5436819999991
 21
1558.2834350000001
 31
0.0
  0
LINE
  5
7A86
  8
1
  6
CONTINUOUS
 10
2717.543682
 20
1521.2834350000001
 30
0.0
 11
3387.543682
 21
1521.2834350000001
 31
0.0
  0
LINE
  5
7A87
  8
1
  6
CONTINUOUS
 10
3267.543682
 20
2228.2834349999998
 30
0.0
 11
2907.543682
 21
2228.2834349999998
 31
0.0
  0
LINE
  5
7A88
  8
1
  6
CONTINUOUS
 10
2907.543682
 20
1694.2834350000001
 30
0.0
 11
3267.543682
 21
1694.2834350000001
 31
0.0
  0
LINE
  5
7A89
  8
1
  6
CONTINUOUS
 10
2863.5436819999991
 20
1583.2834350000001
 30
0.0
 11
3311.5436819999991
 21
1583.2834350000001
 31
0.0
  0
LINE
  5
7A8A
  8
1
  6
CONTINUOUS
 10
2863.5436819999991
 20
1663.2834350000001
 30
0.0
 11
3311.5436819999991
 21
1663.2834350000001
 31
0.0
  0
LINE
  5
7A8B
  8
1
  6
CONTINUOUS
 10
3267.543682
 20
2537.2634349999998
 30
0.0
 11
2907.543682
 21
2537.2634349999998
 31
0.0
  0
LINE
  5
7A8C
  8
1
  6
CONTINUOUS
 10
2907.543682
 20
2228.2834349999998
 30
0.0
 11
3267.543682
 21
1694.2834350000001
 31
0.0
  0
LINE
  5
7A8D
  8
1
  6
CONTINUOUS
 10
3267.543682
 20
2228.2834349999998
 30
0.0
 11
2907.543682
 21
1694.2834350000001
 31
0.0
  0
LINE
  5
7A8E
  8
1
  6
CONTINUOUS
 10
3347.5436819999991
 20
1558.2834350000001
 30
0.0
 11
2757.543682
 21
1558.2834350000001
 31
0.0
  0
LINE
  5
7A8F
  8
1
  6
CONTINUOUS
 10
621.604467
 20
1521.2834350000001
 30
0.0
 11
1941.6044670000001
 21
1521.2834350000001
 31
0.0
  0
LINE
  5
7A90
  8
2
  6
CENTER
 10
552.88126499999987
 20
2183.2834349999998
 30
0.0
 11
2044.244615999999
 21
2183.2834349999998
 31
0.0
  0
LINE
  5
7A91
  8
1
  6
CONTINUOUS
 10
721.604467
 20
1583.2834350000001
 30
0.0
 11
1841.6044670000001
 21
1583.2834350000001
 31
0.0
  0
LINE
  5
7A92
  8
1
  6
CONTINUOUS
 10
721.604467
 20
1663.2834350000001
 30
0.0
 11
1851.6044670000001
 21
1663.2834350000001
 31
0.0
  0
CIRCLE
  5
7A93
  8
1
  6
CONTINUOUS
 10
1541.604466999999
 20
2183.2834349999998
 30
0.0
 40
120.0
  0
LINE
  5
7A94
  8
1
  6
CONTINUOUS
 10
1231.604466999999
 20
2538.2834349999998
 30
0.0
 11
1851.6044670000001
 21
2538.2834349999998
 31
0.0
  0
CIRCLE
  5
7A95
  8
1
  6
CONTINUOUS
 10
1541.604466999999
 20
2183.2834349999998
 30
0.0
 40
275.0
  0
LINE
  5
7A96
  8
1
  6
CONTINUOUS
 10
1586.9144670000001
 20
2072.163434999999
 30
0.0
 11
894.25446699999998
 21
1789.7234350000001
 31
0.0
  0
ARC
  5
7A97
  8
1
  6
CONTINUOUS
 10
1557.3596556060161
 20
2137.818998499205
 30
0.0
 40
415.84575538233679
 50
173.01027804922231
 51
267.77466416649833
  0
ARC
  5
7A98
  8
1
  6
CONTINUOUS
 10
1510.439658406536
 20
2171.8948098706192
 30
0.0
 40
366.20859549172968
 50
80.525683360531232
 51
177.412384135401
  0
LINE
  5
7A99
  8
1
  6
CONTINUOUS
 10
1527.1044670000001
 20
2404.0134349999998
 30
0.0
 11
767.104467
 21
1894.0134350000001
 31
0.0
  0
CIRCLE
  5
7A9A
  8
1
  6
CONTINUOUS
 10
1541.604466999999
 20
2183.2834349999998
 30
0.0
 40
250.0
  0
LINE
  5
7A9B
  8
1
  6
CONTINUOUS
 10
661.60446699999989
 20
1558.2834350000001
 30
0.0
 11
1901.6044670000001
 21
1558.2834350000001
 31
0.0
  0
LINE
  5
7A9C
  8
1
  6
CONTINUOUS
 10
741.60446699999989
 20
1713.2834350000001
 30
0.0
 11
1001.604466999999
 21
1713.2834350000001
 31
0.0
  0
ARC
  5
7A9D
  8
1
  6
CONTINUOUS
 10
871.604467
 20
1845.2834349999989
 30
0.0
 40
122.0
 50
324.60000000000002
 51
215.39999999999989
  0
LINE
  5
7A9E
  8
1
  6
CONTINUOUS
 10
840.38446699999986
 20
1896.5134350000001
 30
0.0
 11
1479.1644670000001
 21
2285.7534350000001
 31
0.0
  0
LINE
  5
7A9F
  8
2
  6
CENTER
 10
811.604467
 20
1845.2834349999989
 30
0.0
 11
931.604467
 21
1845.2834349999989
 31
0.0
  0
CIRCLE
  5
7AA0
  8
1
  6
CONTINUOUS
 10
871.604467
 20
1845.2834349999989
 30
0.0
 40
60.0
  0
LINE
  5
7AA1
  8
1
  6
CONTINUOUS
 10
741.60446699999989
 20
1713.2834350000001
 30
0.0
 11
772.16446699999995
 21
1774.603435
 31
0.0
  0
LINE
  5
7AA2
  8
1
  6
CONTINUOUS
 10
767.104467
 20
1894.0134350000001
 30
0.0
 11
767.104467
 21
1659.0134350000001
 31
0.0
  0
LINE
  5
7AA3
  8
1
  6
CONTINUOUS
 10
741.60446699999989
 20
1713.2834350000001
 30
0.0
 11
791.60446699999989
 21
1713.2834350000001
 31
0.0
  0
LINE
  5
7AA4
  8
1
  6
CONTINUOUS
 10
721.604467
 20
1663.2834350000001
 30
0.0
 11
721.604467
 21
1583.2834350000001
 31
0.0
  0
LINE
  5
7AA5
  8
1
  6
CONTINUOUS
 10
741.60446699999989
 20
1663.2834350000001
 30
0.0
 11
741.60446699999989
 21
1713.2834350000001
 31
0.0
  0
LINE
  5
7AA6
  8
2
  6
CENTER
 10
871.604467
 20
1785.2834350000001
 30
0.0
 11
871.604467
 21
1905.2834350000001
 31
0.0
  0
LINE
  5
7AA7
  8
1
  6
CONTINUOUS
 10
1001.604466999999
 20
1713.2834350000001
 30
0.0
 11
971.04446699999994
 21
1774.603435
 31
0.0
  0
LINE
  5
7AA8
  8
1
  6
CONTINUOUS
 10
1231.604466999999
 20
1663.2834350000001
 30
0.0
 11
1231.604466999999
 21
2538.2834349999998
 31
0.0
  0
LINE
  5
7AA9
  8
1
  6
CONTINUOUS
 10
1001.604466999999
 20
1713.2834350000001
 30
0.0
 11
951.60446699999989
 21
1713.2834350000001
 31
0.0
  0
LINE
  5
7AAA
  8
1
  6
CONTINUOUS
 10
1001.604466999999
 20
1663.2834350000001
 30
0.0
 11
1001.604466999999
 21
1713.2834350000001
 31
0.0
  0
LINE
  5
7AAC
  8
1
  6
CONTINUOUS
 10
1896.6044670000001
 20
1704.2834349999989
 30
0.0
 11
1896.6044670000001
 21
2218.2834349999998
 31
0.0
  0
LINE
  5
7AAD
  8
1
  6
CONTINUOUS
 10
1871.6044670000001
 20
2201.2834349999998
 30
0.0
 11
1871.6044670000001
 21
1721.353435
 31
0.0
  0
LINE
  5
7AAE
  8
1
  6
CONTINUOUS
 10
1851.6044670000001
 20
1663.2834350000001
 30
0.0
 11
1851.6044670000001
 21
2538.2834349999998
 31
0.0
  0
LINE
  5
7AAF
  8
1
  6
CONTINUOUS
 10
1767.1044670000001
 20
1659.0134350000001
 30
0.0
 11
1767.1044670000001
 21
2329.0134349999998
 31
0.0
  0
LINE
  5
7AB0
  8
1
  6
CONTINUOUS
 10
1896.6044670000001
 20
1721.2834350000001
 30
0.0
 11
1541.224467
 21
1722.2834350000001
 31
0.0
  0
LINE
  5
7AB1
  8
1
  6
CONTINUOUS
 10
1841.6044670000001
 20
1663.2834350000001
 30
0.0
 11
1841.6044670000001
 21
1583.2834350000001
 31
0.0
  0
ARC
  5
7AB2
  8
1
  6
CONTINUOUS
 10
1511.1433239999999
 20
2194.4124440000001
 30
0.0
 40
343.89392400000003
 50
1.140279
 51
80.023612000000014
  0
LINE
  5
7AB3
  8
2
  6
CENTER
 10
1541.604466999999
 20
1356.395358
 30
0.0
 11
1541.604466999999
 21
2790.0937509999999
 31
0.0
  0
LINE
  5
7AB4
  8
1
  6
CONTINUOUS
 10
1767.1044670000001
 20
2329.0134349999998
 30
0.0
 11
1527.1044670000001
 21
2404.0134349999998
 31
0.0
  0
LINE
  5
7AB5
  8
1
  6
CONTINUOUS
 10
1854.974467
 20
2201.2834349999998
 30
0.0
 11
1896.6044670000001
 21
2201.2834349999998
 31
0.0
  0
LINE
  5
7AB6
  8
1
  6
CONTINUOUS
 10
2907.543682
 20
2537.2634349999998
 30
0.0
 11
2907.543682
 21
1663.2834350000001
 31
0.0
  0
LINE
  5
7AB7
  8
1
  6
CONTINUOUS
 10
2837.543682
 20
2408.2834349999998
 30
0.0
 11
2837.543682
 21
1663.2834350000001
 31
0.0
  0
LINE
  5
7AB9
  8
1
  6
CONTINUOUS
 10
2837.543682
 20
1663.2834350000001
 30
0.0
 11
2717.543682
 21
1663.2834350000001
 31
0.0
  0
LINE
  5
7ABC
  8
1
  6
CONTINUOUS
 10
2863.5436819999991
 20
1663.2834350000001
 30
0.0
 11
2863.5436819999991
 21
1583.2834350000001
 31
0.0
  0
LINE
  5
7ABD
  8
1
  6
CONTINUOUS
 10
2807.543682
 20
2063.2834349999998
 30
0.0
 11
2747.5436819999991
 21
2063.2834349999998
 31
0.0
  0
LINE
  5
7ABE
  8
1
  6
CONTINUOUS
 10
2807.543682
 20
2303.2834349999998
 30
0.0
 11
2747.5436819999991
 21
2303.2834349999998
 31
0.0
  0
LINE
  5
7ABF
  8
1
  6
CONTINUOUS
 10
2747.5436819999991
 20
1795.2834349999989
 30
0.0
 11
2807.543682
 21
1795.2834349999989
 31
0.0
  0
LINE
  5
7AC0
  8
1
  6
CONTINUOUS
 10
2807.543682
 20
1895.2834349999989
 30
0.0
 11
2747.5436819999991
 21
1895.2834349999989
 31
0.0
  0
LINE
  5
7AC1
  8
1
  6
CONTINUOUS
 10
2717.543682
 20
2408.2834349999998
 30
0.0
 11
2837.543682
 21
2408.2834349999998
 31
0.0
  0
LINE
  5
7AC2
  8
1
  6
CONTINUOUS
 10
2747.5436819999991
 20
2303.2834349999998
 30
0.0
 11
2747.5436819999991
 21
2063.2834349999998
 31
0.0
  0
LINE
  5
7AC3
  8
1
  6
CONTINUOUS
 10
2747.5436819999991
 20
1895.2834349999989
 30
0.0
 11
2747.5436819999991
 21
1795.2834349999989
 31
0.0
  0
LINE
  5
7AC4
  8
1
  6
CONTINUOUS
 10
2807.543682
 20
2063.2834349999998
 30
0.0
 11
2807.543682
 21
2303.2834349999998
 31
0.0
  0
LINE
  5
7AC5
  8
1
  6
CONTINUOUS
 10
2807.543682
 20
2164.2834349999998
 30
0.0
 11
2907.543682
 21
2164.2834349999998
 31
0.0
  0
LINE
  5
7AC6
  8
1
  6
CONTINUOUS
 10
2807.543682
 20
2202.2834349999998
 30
0.0
 11
2907.543682
 21
2202.2834349999998
 31
0.0
  0
LINE
  5
7AC7
  8
1
  6
CONTINUOUS
 10
2807.543682
 20
1795.2834349999989
 30
0.0
 11
2807.543682
 21
1895.2834349999989
 31
0.0
  0
LINE
  5
7AC8
  8
1
  6
CONTINUOUS
 10
2807.543682
 20
1826.2834350000001
 30
0.0
 11
2907.543682
 21
1826.2834350000001
 31
0.0
  0
LINE
  5
7AC9
  8
1
  6
CONTINUOUS
 10
2807.543682
 20
1864.2834350000001
 30
0.0
 11
2907.543682
 21
1864.2834350000001
 31
0.0
  0
LINE
  5
7ACA
  8
1
  6
CONTINUOUS
 10
3267.543682
 20
2537.2634349999998
 30
0.0
 11
3267.543682
 21
1663.2834350000001
 31
0.0
  0
LINE
  5
7ACB
  8
1
  6
CONTINUOUS
 10
3311.5436819999991
 20
1663.2834350000001
 30
0.0
 11
3311.5436819999991
 21
1583.2834350000001
 31
0.0
  0
LINE
  5
7ACC
  8
1
  6
CONTINUOUS
 10
2717.543682
 20
2721.2834349999998
 30
0.0
 11
3387.543682
 21
2721.2834349999998
 31
0.0
  0
LINE
  5
7ACD
  8
1
  6
CONTINUOUS
 10
2757.543682
 20
2678.2834349999998
 30
0.0
 11
3347.5436819999991
 21
2678.2834349999998
 31
0.0
  0
LINE
  5
7ACE
  8
1
  6
CONTINUOUS
 10
1421.604466999999
 20
3300.393435
 30
0.0
 11
1661.6044670000001
 21
3300.393435
 31
0.0
  0
LINE
  5
7ACF
  8
1
  6
CONTINUOUS
 10
721.604467
 20
3864.393435
 30
0.0
 11
1841.6044670000001
 21
3864.393435
 31
0.0
  0
LINE
  5
7AD0
  8
1
  6
CONTINUOUS
 10
1661.6044670000001
 20
3360.393435
 30
0.0
 11
1421.604466999999
 21
3360.393435
 31
0.0
  0
LINE
  5
7AD1
  8
1
  6
CONTINUOUS
 10
1133.4144670000001
 20
3822.393435
 30
0.0
 11
1896.6044670000001
 21
3822.393435
 31
0.0
  0
LINE
  5
7AD2
  8
1
  6
CONTINUOUS
 10
1133.4144670000001
 20
3458.393435
 30
0.0
 11
1896.6044670000001
 21
3458.393435
 31
0.0
  0
LINE
  5
7AD3
  8
1
  6
CONTINUOUS
 10
621.604467
 20
3270.393434999999
 30
0.0
 11
1941.6044670000001
 21
3270.393434999999
 31
0.0
  0
LINE
  5
7AD4
  8
1
  6
CONTINUOUS
 10
621.604467
 20
3940.393435
 30
0.0
 11
1941.6044670000001
 21
3940.393435
 31
0.0
  0
LINE
  5
7AD5
  8
1
  6
CONTINUOUS
 10
621.604467
 20
2721.2834349999998
 30
0.0
 11
1941.6044670000001
 21
2721.2834349999998
 31
0.0
  0
LINE
  5
7AD6
  8
1
  6
CONTINUOUS
 10
1767.1044670000001
 20
3390.393435
 30
0.0
 11
767.104467
 21
3390.393435
 31
0.0
  0
LINE
  5
7AD7
  8
1
  6
CONTINUOUS
 10
1901.6044670000001
 20
2678.2834349999998
 30
0.0
 11
661.60446699999989
 21
2678.2834349999998
 31
0.0
  0
LINE
  5
7AD8
  8
1
  6
CONTINUOUS
 10
661.60446699999989
 20
3900.393435
 30
0.0
 11
1901.6044670000001
 21
3900.393435
 31
0.0
  0
LINE
  5
7AD9
  8
1
  6
CONTINUOUS
 10
1901.6044670000001
 20
3310.393435
 30
0.0
 11
661.60446699999989
 21
3310.393435
 31
0.0
  0
LINE
  5
7ADA
  8
1
  6
CONTINUOUS
 10
749.60446699999989
 20
3440.6334350000002
 30
0.0
 11
993.60446699999989
 21
3440.6334350000002
 31
0.0
  0
LINE
  5
7ADB
  8
1
  6
CONTINUOUS
 10
749.60446699999989
 20
3790.6334350000002
 30
0.0
 11
993.60446699999989
 21
3790.6334350000002
 31
0.0
  0
LINE
  5
7ADC
  8
1
  6
CONTINUOUS
 10
890.60446699999989
 20
3416.393434999999
 30
0.0
 11
1522.604466999999
 21
3416.393434999999
 31
0.0
  0
LINE
  5
7ADD
  8
1
  6
CONTINUOUS
 10
721.604467
 20
3864.393435
 30
0.0
 11
721.604467
 21
3416.393434999999
 31
0.0
  0
LINE
  5
7ADE
  8
1
  6
CONTINUOUS
 10
749.60446699999989
 20
3440.6334350000002
 30
0.0
 11
749.60446699999989
 21
3790.6334350000002
 31
0.0
  0
LINE
  5
7ADF
  8
1
  6
CONTINUOUS
 10
621.604467
 20
3270.393434999999
 30
0.0
 11
621.604467
 21
3940.393435
 31
0.0
  0
LINE
  5
7AE0
  8
1
  6
CONTINUOUS
 10
661.60446699999989
 20
3310.393435
 30
0.0
 11
661.60446699999989
 21
3900.393435
 31
0.0
  0
LINE
  5
7AE1
  8
1
  6
CONTINUOUS
 10
721.604467
 20
3416.393434999999
 30
0.0
 11
852.604467
 21
3416.393434999999
 31
0.0
  0
LINE
  5
7AE2
  8
1
  6
CONTINUOUS
 10
767.104467
 20
3390.393435
 30
0.0
 11
767.104467
 21
3270.393434999999
 31
0.0
  0
LINE
  5
7AE3
  8
1
  6
CONTINUOUS
 10
911.604467
 20
3360.393435
 30
0.0
 11
831.604467
 21
3360.393435
 31
0.0
  0
LINE
  5
7AE4
  8
1
  6
CONTINUOUS
 10
911.604467
 20
3360.393435
 30
0.0
 11
911.604467
 21
3300.393435
 31
0.0
  0
LINE
  5
7AE5
  8
1
  6
CONTINUOUS
 10
831.604467
 20
3360.393435
 30
0.0
 11
831.604467
 21
3300.393435
 31
0.0
  0
LINE
  5
7AE6
  8
1
  6
CONTINUOUS
 10
852.604467
 20
3360.393435
 30
0.0
 11
852.604467
 21
3440.6334350000002
 31
0.0
  0
LINE
  5
7AE7
  8
1
  6
CONTINUOUS
 10
890.60446699999989
 20
3360.393435
 30
0.0
 11
890.60446699999989
 21
3440.6334350000002
 31
0.0
  0
LINE
  5
7AE8
  8
1
  6
CONTINUOUS
 10
831.604467
 20
3300.393435
 30
0.0
 11
911.604467
 21
3300.393435
 31
0.0
  0
LINE
  5
7AE9
  8
1
  6
CONTINUOUS
 10
1133.4144670000001
 20
3458.393435
 30
0.0
 11
1133.4144670000001
 21
3822.393435
 31
0.0
  0
LINE
  5
7AEA
  8
1
  6
CONTINUOUS
 10
993.60446699999989
 20
3440.6334350000002
 30
0.0
 11
993.60446699999989
 21
3790.6334350000002
 31
0.0
  0
LINE
  5
7AEB
  8
1
  6
CONTINUOUS
 10
1421.604466999999
 20
3300.393435
 30
0.0
 11
1421.604466999999
 21
3360.393435
 31
0.0
  0
LINE
  5
7AEC
  8
1
  6
CONTINUOUS
 10
1522.604466999999
 20
3360.393435
 30
0.0
 11
1522.604466999999
 21
3459.393434999999
 31
0.0
  0
LINE
  5
7AED
  8
1
  6
CONTINUOUS
 10
1871.6044670000001
 20
3459.393434999999
 30
0.0
 11
1871.6044670000001
 21
3821.393435
 31
0.0
  0
LINE
  5
7AEE
  8
1
  6
CONTINUOUS
 10
1896.6044670000001
 20
3433.393435
 30
0.0
 11
1896.6044670000001
 21
3847.393435
 31
0.0
  0
LINE
  5
7AEF
  8
1
  6
CONTINUOUS
 10
1941.6044670000001
 20
3270.393434999999
 30
0.0
 11
1941.6044670000001
 21
3940.393435
 31
0.0
  0
LINE
  5
7AF0
  8
1
  6
CONTINUOUS
 10
1901.6044670000001
 20
3900.393435
 30
0.0
 11
1901.6044670000001
 21
3310.393435
 31
0.0
  0
LINE
  5
7AF1
  8
1
  6
CONTINUOUS
 10
1560.6044670000001
 20
3416.393434999999
 30
0.0
 11
1841.6044670000001
 21
3416.393434999999
 31
0.0
  0
LINE
  5
7AF2
  8
1
  6
CONTINUOUS
 10
1560.6044670000001
 20
3360.393435
 30
0.0
 11
1560.6044670000001
 21
3459.393434999999
 31
0.0
  0
LINE
  5
7AF3
  8
1
  6
CONTINUOUS
 10
1661.6044670000001
 20
3300.393435
 30
0.0
 11
1661.6044670000001
 21
3360.393435
 31
0.0
  0
LINE
  5
7AF4
  8
1
  6
CONTINUOUS
 10
1767.1044670000001
 20
3270.393434999999
 30
0.0
 11
1767.1044670000001
 21
3390.393435
 31
0.0
  0
LINE
  5
7AF5
  8
1
  6
CONTINUOUS
 10
1841.6044670000001
 20
3458.393435
 30
0.0
 11
1841.6044670000001
 21
3416.393434999999
 31
0.0
  0
LINE
  5
7AF6
  8
1
  6
CONTINUOUS
 10
1841.6044670000001
 20
3864.393435
 30
0.0
 11
1841.6044670000001
 21
3822.393435
 31
0.0
  0
LINE
  5
7AF7
  8
2
  6
CENTER
 10
3087.543682
 20
2785.446105
 30
0.0
 11
3087.543682
 21
1402.0226159999991
 31
0.0
  0
LINE
  5
7AF8
  8
2
  6
CENTER
 10
562.99853299999995
 20
3640.393435
 30
0.0
 11
1996.0849343074001
 21
3640.393435
 31
0.0
  0
LINE
  5
7AF9
  8
2
  6
CENTER
 10
1541.604466999999
 20
3162.816554
 30
0.0
 11
1541.604466999999
 21
4007.0279032490589
 31
0.0
  0
LINE
  5
7AFA
  8
2
  6
CENTER
 10
2641.7447529999999
 20
2183.2834349999998
 30
0.0
 11
3490.8014290000001
 21
2183.2834349999998
 31
0.0
  0
LINE
  5
7AFB
  8
4
  6
CONTINUOUS
 10
3700.0
 20
1000.0
 30
0.0
 11
3700.0
 21
600.0
 31
0.0
  0
LINE
  5
7AFC
  8
4
  6
CONTINUOUS
 10
2300.0
 20
1000.0
 30
0.0
 11
2300.0
 21
600.0
 31
0.0
  0
LINE
  5
7AFD
  8
4
  6
CONTINUOUS
 10
1300.0
 20
1000.0
 30
0.0
 11
1300.0
 21
600.0
 31
0.0
  0
LINE
  5
7B00
  8
4
  6
CONTINUOUS
 10
1300.0
 20
600.0
 30
0.0
 11
3700.0
 21
600.0
 31
0.0
  0
LINE
  5
7B01
  8
4
  6
CONTINUOUS
 10
1300.0
 20
800.0
 30
0.0
 11
3700.0
 21
800.0
 31
0.0
  0
TEXT
  5
7B02
  8
4
  6
CONTINUOUS
 10
1377.004162
 20
863.086052
 30
0.0
 40
100.0
  1
機器名称
  0
TEXT
  5
7B03
  8
4
  6
CONTINUOUS
 10
1372.516212
 20
643.29031299999986
 30
0.0
 40
100.0
  1
機器型番
  0
TEXT
  5
7B04
  8
4
  6
CONTINUOUS
 10
2355.3574910000002
 20
845.14353800000015
 30
0.0
 40
100.0
  1
ミツヤ多翼送風機
  0
TEXT
  5
7B05
  8
4
  6
CONTINUOUS
 10
2373.3089909999999
 20
634.31916899999999
 30
0.0
 40
100.0
  1
MF#3-4
  0
TEXT
  5
7B07
  8
4
  6
CONTINUOUS
 10
1520.916119999999
 20
4766.8576830000002
 30
0.0
 40
108.0
  1
天井吊枠防振ベット
  0
TEXT
  5
7B08
  8
4
  6
CONTINUOUS
 10
632.33518700000002
 20
5067.7619520000007
 30
0.0
 40
144.0
  1
ベルト駆動式片吸込両持多翼ファン
  0
LINE
  5
7B09
  8
4
  6
CONTINUOUS
 10
500.0
 20
4938.8175090000004
 30
0.0
 11
3700.0
 21
4938.8175090000004
 31
0.0
  0
LINE
  5
7B0A
  8
4
  6
CONTINUOUS
 10
500.0
 20
5338.8175090000004
 30
0.0
 11
3700.0
 21
5338.8175090000004
 31
0.0
  0
LINE
  5
7B0B
  8
4
  6
CONTINUOUS
 10
1300.0
 20
1000.0
 30
0.0
 11
3700.0
 21
1000.0
 31
0.0
  0
LINE
  5
7B0C
  8
4
  6
CONTINUOUS
 10
500.0
 20
5338.8175090000004
 30
0.0
 11
500.0
 21
4938.8175090000004
 31
0.0
  0
TEXT
  5
7B0D
  8
4
  6
CONTINUOUS
 10
649.19845499999985
 20
4764.6389549999994
 30
0.0
 40
108.0
  1
左回転右横向
  0
TEXT
  5
7B0E
  8
4
  6
CONTINUOUS
 10
2937.9391179999998
 20
5412.122163
 30
0.0
 40
112.0
  1
No.
  0
TEXT
  5
7B0F
  8
4
  6
CONTINUOUS
 10
2875.523557
 20
4766.8576830000002
 30
0.0
 40
108.0
  1
縮尺：1/20
  0
LINE
  5
7B10
  8
4
  6
CONTINUOUS
 10
3700.0
 20
5338.8175090000004
 30
0.0
 11
3700.0
 21
4938.8175090000004
 31
0.0
  0
LINE
  5
7B12
  8
4
  6
CONTINUOUS
 10
2881.234845
 20
5362.5271659999999
 30
0.0
 11
2881.234845
 21
5573.3045229999998
 31
0.0
  0
LINE
  5
7B13
  8
4
  6
CONTINUOUS
 10
2881.234845
 20
5573.3045229999998
 30
0.0
 11
3700.0
 21
5573.3045229999998
 31
0.0
  0
LINE
  5
7B14
  8
4
  6
CONTINUOUS
 10
3700.0
 20
5573.3045229999998
 30
0.0
 11
3700.0
 21
5362.5271659999999
 31
0.0
  0
LINE
  5
7B15
  8
4
  6
CONTINUOUS
 10
3700.0
 20
5362.5271659999999
 30
0.0
 11
2881.234845
 21
5362.5271659999999
 31
0.0
  0
DIMENSION
  5
7B2D
  8
3
  6
CONTINUOUS
  2
*D1
 10
2095.6606310000002
 20
1721.2834350000001
 30
0.0
 11
2095.6606309999988
 21
1968.5827829999989
 31
0.0
 70
   128
 13
1896.6044670000001
 23
2201.2834349999998
 33
0.0
 14
1896.6044670000001
 24
1721.2834350000001
 34
0.0
 50
90.0
1001
ACAD
1000
DSTYLE
1002
{
1070
   287
1070
     3
1070
    40
1040
20.0
1070
   143
1040
0.039
1070
   172
1070
     1
1070
   271
1070
     0
1070
   279
1070
     0
1070
   288
1070
     1
1002
}
  0
DIMENSION
  5
7B3A
  8
3
  6
CONTINUOUS
  2
*D2
 10
2238.2400750000002
 20
1721.2834350000001
 30
0.0
 11
2238.2400750000002
 21
1963.6708410000001
 31
0.0
 70
   128
 13
2044.244615999999
 23
2183.2834349999998
 33
0.0
 14
1941.6044670000001
 24
1721.2834350000001
 34
0.0
 50
90.0
1001
ACAD
1000
DSTYLE
1002
{
1070
   287
1070
     3
1070
    40
1040
20.0
1070
   143
1040
0.039
1070
   172
1070
     1
1070
   271
1070
     0
1070
   279
1070
     0
1070
   288
1070
     1
1002
}
  0
DIMENSION
  5
7B55
  8
3
  6
CONTINUOUS
  2
*D3
 10
2390.6525879999999
 20
1583.2834350000001
 30
0.0
 11
2390.6525879999999
 21
1855.6078849999999
 31
0.0
 70
   128
 13
2044.244615999999
 23
2183.2834349999998
 33
0.0
 14
1841.6044670000001
 24
1583.2834350000001
 34
0.0
 50
90.0
1001
ACAD
1000
DSTYLE
1002
{
1070
   287
1070
     3
1070
    40
1040
20.0
1070
   143
1040
0.039
1070
   172
1070
     1
1070
   271
1070
     0
1070
   279
1070
     0
1070
   288
1070
     1
1002
}
  0
DIMENSION
  5
7B65
  8
3
  6
CONTINUOUS
  2
*D4
 10
2390.605505
 20
1521.2834350000001
 30
0.0
 11
2390.6055049999991
 21
1372.7120064285709
 31
0.0
 70
   128
 13
1841.6044670000001
 23
1583.2834350000001
 33
0.0
 14
1941.6044670000001
 24
1521.2834350000001
 34
0.0
 50
90.0
1001
ACAD
1000
DSTYLE
1002
{
1070
   287
1070
     3
1070
    40
1040
20.0
1070
   143
1040
0.039
1070
   172
1070
     1
1070
   271
1070
     0
1070
   279
1070
     0
1070
   288
1070
     1
1002
}
  0
DIMENSION
  5
7B72
  8
3
  6
CONTINUOUS
  2
*D5
 10
1541.604466999999
 20
2833.0864200000001
 30
0.0
 11
1712.1710760000001
 21
2833.0864200000001
 31
0.0
 70
   128
 13
1896.6044670000001
 23
2218.2834349999998
 33
0.0
 14
1541.604466999999
 24
2790.0937509999999
 34
0.0
1001
ACAD
1000
DSTYLE
1002
{
1070
   287
1070
     3
1070
    40
1040
20.0
1070
   143
1040
0.039
1070
   172
1070
     1
1070
   271
1070
     0
1070
   279
1070
     0
1070
   288
1070
     1
1002
}
  0
DIMENSION
  5
7B7F
  8
3
  6
CONTINUOUS
  2
*D6
 10
1541.604466999999
 20
1359.5006900000001
 30
0.0
 11
1741.670284
 21
1359.5006900000001
 31
0.0
 70
   128
 13
1941.6044670000001
 23
1521.2834350000001
 33
0.0
 14
1541.604466999999
 24
1356.395358
 34
0.0
1001
ACAD
1000
DSTYLE
1002
{
1070
   287
1070
     3
1070
    40
1040
20.0
1070
   143
1040
0.039
1070
   172
1070
     1
1070
   271
1070
     0
1070
   279
1070
     0
1070
   288
1070
     1
1002
}
  0
DIMENSION
  5
7B8B
  8
3
  6
CONTINUOUS
  2
*D7
 10
621.604467
 20
1359.5006900000001
 30
0.0
 11
1081.604466999999
 21
1409.5006900000001
 31
0.0
 70
     0
 13
1541.604466999999
 23
1356.395358
 33
0.0
 14
621.604467
 24
1521.2834350000001
 34
0.0
1001
ACAD
1000
DSTYLE
1002
{
1070
   287
1070
     4
1070
    40
1040
20.0
1070
    75
1070
     1
1070
   143
1040
0.039
1070
   172
1070
     1
1070
   271
1070
     0
1070
   279
1070
     1
1070
   288
1070
     1
1002
}
  0
LINE
  5
7BDB
  8
1
  6
CONTINUOUS
 10
3268.543682
 20
2433.2834349999998
 30
0.0
 11
3268.543682
 21
1933.2834350000001
 31
0.0
  0
DIMENSION
  5
7BEA
  8
3
  6
CONTINUOUS
  2
*D8
 10
3590.286576
 20
1933.2834349999989
 30
0.0
 11
3590.286576
 21
2165.0608870000001
 31
0.0
 70
   128
 13
3268.543682
 23
2433.2834349999998
 33
0.0
 14
3268.543682
 24
1933.2834350000001
 34
0.0
 50
90.0
1001
ACAD
1000
DSTYLE
1002
{
1070
   287
1070
     3
1070
     3
1000
φ<>
1070
    40
1040
20.0
1070
   143
1040
0.039
1070
   172
1070
     1
1070
   271
1070
     0
1070
   279
1070
     0
1070
   288
1070
     1
1002
}
  0
DIMENSION
  5
7BF9
  8
3
  6
CONTINUOUS
  2
*D9
 10
3087.543682
 20
2974.3090849999999
 30
0.0
 11
3178.043682
 21
3034.4904256732211
 31
0.0
 70
   128
 13
3268.543682
 23
2433.2834349999998
 33
0.0
 14
3087.543682
 24
2888.7073019999998
 34
0.0
1001
ACAD
1000
DSTYLE
1002
{
1070
   288
1070
     1
1070
   172
1070
     1
1070
    40
1040
20.0
1070
   271
1070
     0
1070
   143
1040
0.039
1002
}
  0
DIMENSION
  5
7C12
  8
3
  6
CONTINUOUS
  2
*D10
 10
1941.6044670000001
 20
4138.5400460000001
 30
0.0
 11
1230.350876
 21
4138.5400460000001
 31
0.0
 70
   128
 13
621.604467
 23
3940.393435
 33
0.0
 14
1941.6044670000001
 24
3940.393435
 34
0.0
1001
ACAD
1000
DSTYLE
1002
{
1070
   287
1070
     3
1070
    40
1040
20.0
1070
   143
1040
0.039
1070
   172
1070
     1
1070
   271
1070
     0
1070
   279
1070
     0
1070
   288
1070
     1
1002
}
  0
DIMENSION
  5
7C1F
  8
3
  6
CONTINUOUS
  2
*D11
 10
2159.575569000001
 20
3270.393434999999
 30
0.0
 11
2159.5755690000001
 21
3630.7580299999991
 31
0.0
 70
   128
 13
1941.6044670000001
 23
3940.393435
 33
0.0
 14
1941.6044670000001
 24
3270.393434999999
 34
0.0
 50
90.0
1001
ACAD
1000
DSTYLE
1002
{
1070
   287
1070
     3
1070
    40
1040
20.0
1070
   143
1040
0.039
1070
   172
1070
     1
1070
   271
1070
     0
1070
   279
1070
     0
1070
   288
1070
     1
1002
}
  0
DIMENSION
  5
7C2C
  8
3
  6
CONTINUOUS
  2
*D12
 10
3087.543682
 20
1343.186165999999
 30
0.0
 11
2920.3280009999999
 21
1343.186165999999
 31
0.0
 70
   128
 13
2717.543682
 23
1521.2834350000001
 33
0.0
 14
3087.543682
 24
1402.0226159999991
 34
0.0
1001
ACAD
1000
DSTYLE
1002
{
1070
   287
1070
     3
1070
    40
1040
20.0
1070
   143
1040
0.039
1070
   172
1070
     1
1070
   271
1070
     0
1070
   279
1070
     0
1070
   288
1070
     1
1002
}
  0
DIMENSION
  5
7C38
  8
3
  6
CONTINUOUS
  2
*D13
 10
3387.543682
 20
1343.186165999999
 30
0.0
 11
3237.543682
 21
1393.186166
 31
0.0
 70
     0
 13
3087.543682
 23
1402.0226159999991
 33
0.0
 14
3387.543682
 24
1521.2834350000001
 34
0.0
1001
ACAD
1000
DSTYLE
1002
{
1070
   287
1070
     4
1070
    40
1040
20.0
1070
    75
1070
     1
1070
   143
1040
0.039
1070
   172
1070
     1
1070
   271
1070
     0
1070
   279
1070
     1
1070
   288
1070
     1
1002
}
  0
DIMENSION
  5
7C9C
  8
3
  6
CONTINUOUS
  2
*D14
 10
3267.543682
 20
2791.5866299999998
 30
0.0
 11
3070.5132050000002
 21
2791.5866299999998
 31
0.0
 70
   128
 13
2907.543682
 23
2537.2634349999998
 33
0.0
 14
3267.543682
 24
2537.2634349999998
 34
0.0
1001
ACAD
1000
DSTYLE
1002
{
1070
   287
1070
     3
1070
    40
1040
20.0
1070
   143
1040
0.039
1070
   172
1070
     1
1070
   271
1070
     0
1070
   279
1070
     0
1070
   288
1070
     1
1002
}
  0
DIMENSION
  5
7CAA
  8
3
  6
CONTINUOUS
  2
*D15
 10
2606.2660940000001
 20
1521.2834350000001
 30
0.0
 11
2606.2660940000001
 21
2140.838389
 31
0.0
 70
   128
 13
2717.543682
 23
2721.2834349999998
 33
0.0
 14
2717.543682
 24
1521.2834350000001
 34
0.0
 50
90.0
1001
ACAD
1000
DSTYLE
1002
{
1070
   287
1070
     3
1070
    40
1040
20.0
1070
   143
1040
0.039
1070
   172
1070
     1
1070
   271
1070
     0
1070
   279
1070
     0
1070
   288
1070
     1
1002
}
  0
DIMENSION
  5
7CE3
  8
3
  2
*D16
 10
1144.604466999999
 20
2833.0864200000001
 30
0.0
 11
1343.104466999999
 21
2883.0864200000001
 31
0.0
 70
     0
 13
1541.604466999999
 23
2790.0937509999999
 33
0.0
 14
1144.604466999999
 24
2183.2834349999998
 34
0.0
1001
ACAD
1000
DSTYLE
1002
{
1070
   287
1070
     4
1070
    40
1040
20.0
1070
    75
1070
     1
1070
   143
1040
0.039
1070
   172
1070
     1
1070
   271
1070
     0
1070
   279
1070
     1
1070
   288
1070
     1
1002
}
  0
DIMENSION
  5
7CFA
  8
3
  2
*D17
 10
2390.6525879999999
 20
2538.2834349999998
 30
0.0
 11
2340.652587999999
 21
2360.7834349999998
 31
0.0
 70
     0
 13
2044.244615999999
 23
2183.2834349999998
 33
0.0
 14
1851.6044670000001
 24
2538.2834349999998
 34
0.0
 50
90.0
1001
ACAD
1000
DSTYLE
1002
{
1070
   287
1070
     4
1070
    40
1040
20.0
1070
    75
1070
     1
1070
   143
1040
0.039
1070
   172
1070
     1
1070
   271
1070
     0
1070
   279
1070
     1
1070
   288
1070
     1
1002
}
  0
ENDSEC
  0
EOF
