  0
SECTION
  2
HEADER
  9
$ACADVER
  1
AC1009
  9
$INSBASE
 10
0.0
 20
0.0
 30
0.0
  9
$EXTMIN
 10
500.0
 20
600.0
 30
0.0
  9
$EXTMAX
 10
3700.0
 20
5573.3045229999998
 30
0.0
  9
$LIMMIN
 10
0.0
 20
0.0
  9
$LIMMAX
 10
297.0
 20
210.0
  9
$ORTHOMODE
 70
     0
  9
$REGENMODE
 70
     1
  9
$FILLMODE
 70
     0
  9
$QTEXTMODE
 70
     0
  9
$MIRRTEXT
 70
     1
  9
$DRAGMODE
 70
     2
  9
$LTSCALE
 40
100.0
  9
$OSMODE
 70
    37
  9
$ATTMODE
 70
     1
  9
$TEXTSIZE
 40
180.0
  9
$TRACEWID
 40
0.05
  9
$TEXTSTYLE
  7
STANDARD
  9
$CLAYER
  8
3
  9
$CELTYPE
  6
BYLAYER
  9
$CECOLOR
 62
   256
  9
$DIMSCALE
 40
20.0
  9
$DIMASZ
 40
2.0
  9
$DIMEXO
 40
0.5
  9
$DIMDLI
 40
10.0
  9
$DIMRND
 40
0.0
  9
$DIMDLE
 40
0.0
  9
$DIMEXE
 40
1.0
  9
$DIMTP
 40
1.0
  9
$DIMTM
 40
1.0
  9
$DIMTXT
 40
3.0
  9
$DIMCEN
 40
0.0
  9
$DIMTSZ
 40
0.0
  9
$DIMTOL
 70
     0
  9
$DIMLIM
 70
     0
  9
$DIMTIH
 70
     0
  9
$DIMTOH
 70
     0
  9
$DIMSE1
 70
     0
  9
$DIMSE2
 70
     0
  9
$DIMTAD
 70
     1
  9
$DIMZIN
 70
     8
  9
$DIMBLK
  1

  9
$DIMASO
 70
     1
  9
$DIMSHO
 70
     1
  9
$DIMPOST
  1

  9
$DIMAPOST
  1

  9
$DIMALT
 70
     0
  9
$DIMALTD
 70
     2
  9
$DIMALTF
 40
0.039
  9
$DIMLFAC
 40
1.0
  9
$DIMTOFL
 70
     1
  9
$DIMTVP
 40
0.0
  9
$DIMTIX
 70
     0
  9
$DIMSOXD
 70
     0
  9
$DIMSAH
 70
     1
  9
$DIMBLK1
  1
OPEN
  9
$DIMBLK2
  1
OPEN
  9
$DIMSTYLE
  2
IGA
  9
$DIMCLRD
 70
     0
  9
$DIMCLRE
 70
     0
  9
$DIMCLRT
 70
     0
  9
$DIMTFAC
 40
10.0
  9
$DIMGAP
 40
1.0
  9
$LUNITS
 70
     2
  9
$LUPREC
 70
     3
  9
$SKETCHINC
 40
0.1
  9
$FILLETRAD
 40
50.0
  9
$AUNITS
 70
     0
  9
$AUPREC
 70
     0
  9
$MENU
  1
acad
  9
$ELEVATION
 40
0.0
  9
$PELEVATION
 40
0.0
  9
$THICKNESS
 40
0.0
  9
$LIMCHECK
 70
     0
  9
$BLIPMODE
 70
     0
  9
$CHAMFERA
 40
0.5
  9
$CHAMFERB
 40
0.5
  9
$SKPOLY
 70
     0
  9
$TDCREATE
 40
2450736.4248327538
  9
$TDUPDATE
 40
2454953.7673346992
  9
$TDINDWG
 40
0.0037917477
  9
$TDUSRTIMER
 40
0.0037917477
  9
$USRTIMER
 70
     1
  9
$ANGBASE
 50
0.0
  9
$ANGDIR
 70
     0
  9
$PDMODE
 70
     0
  9
$PDSIZE
 40
0.0
  9
$PLINEWID
 40
0.0
  9
$COORDS
 70
     1
  9
$SPLFRAME
 70
     0
  9
$SPLINETYPE
 70
     6
  9
$SPLINESEGS
 70
     8
  9
$ATTDIA
 70
     0
  9
$ATTREQ
 70
     1
  9
$HANDLING
 70
 10241
  9
$HANDSEED
  5
7EC1
  9
$SURFTAB1
 70
     6
  9
$SURFTAB2
 70
     6
  9
$SURFTYPE
 70
     6
  9
$SURFU
 70
     6
  9
$SURFV
 70
     6
  9
$UCSNAME
  2

  9
$UCSORG
 10
0.0
 20
0.0
 30
0.0
  9
$UCSXDIR
 10
1.0
 20
0.0
 30
0.0
  9
$UCSYDIR
 10
0.0
 20
1.0
 30
0.0
  9
$PUCSNAME
  2

  9
$PUCSORG
 10
0.0
 20
0.0
 30
0.0
  9
$PUCSXDIR
 10
1.0
 20
0.0
 30
0.0
  9
$PUCSYDIR
 10
0.0
 20
1.0
 30
0.0
  9
$USERI1
 70
     0
  9
$USERI2
 70
     0
  9
$USERI3
 70
     0
  9
$USERI4
 70
     0
  9
$USERI5
 70
     0
  9
$USERR1
 40
0.0
  9
$USERR2
 40
0.0
  9
$USERR3
 40
0.0
  9
$USERR4
 40
0.0
  9
$USERR5
 40
0.0
  9
$WORLDVIEW
 70
     1
  9
$SHADEDGE
 70
     3
  9
$SHADEDIF
 70
    70
  9
$TILEMODE
 70
     1
  9
$MAXACTVP
 70
    16
  9
$PLIMCHECK
 70
     0
  9
$PEXTMIN
 10
1.0000000000000000E+020
 20
1.0000000000000000E+020
 30
1.0000000000000000E+020
  9
$PEXTMAX
 10
-1.0000000000000000E+020
 20
-1.0000000000000000E+020
 30
-1.0000000000000000E+020
  9
$PLIMMIN
 10
0.0
 20
0.0
  9
$PLIMMAX
 10
12.0
 20
9.0
  9
$UNITMODE
 70
     0
  9
$VISRETAIN
 70
     0
  9
$PLINEGEN
 70
     0
  9
$PSLTSCALE
 70
     1
  0
ENDSEC
  0
SECTION
  2
TABLES
  0
TABLE
  2
VPORT
 70
     2
  0
VPORT
  2
*ACTIVE
 70
     0
 10
0.0
 20
0.0
 11
1.0
 21
1.0
 12
6292.1124769529506
 22
3086.6374998146398
 13
0.0
 23
0.0
 14
10.0
 24
10.0
 15
10.0
 25
10.0
 16
0.0
 26
0.0
 36
1.0
 17
0.0
 27
0.0
 37
0.0
 40
5011.4968576296578
 41
3.1666666666666661
 42
50.0
 43
0.0
 44
0.0
 50
0.0
 51
0.0
 71
     0
 72
   100
 73
     1
 74
     0
 75
     0
 76
     0
 77
     0
 78
     0
  0
ENDTAB
  0
TABLE
  2
LTYPE
 70
     2
  0
LTYPE
  2
CONTINUOUS
 70
     0
  3
Solid line
 72
    65
 73
     0
 40
0.0
  0
LTYPE
  2
CENTER
 70
     0
  3
____ _ ____ _ ____ _ ____ _ ____ _ ____ _ ____ 
 72
    65
 73
     4
 40
2.0
 49
1.25
 49
-0.25
 49
0.25
 49
-0.25
  0
ENDTAB
  0
TABLE
  2
LAYER
 70
     6
  0
LAYER
  2
0
 70
     0
 62
     7
  6
CONTINUOUS
  0
LAYER
  2
3
 70
     0
 62
     2
  6
CONTINUOUS
  0
LAYER
  2
2
 70
     0
 62
     3
  6
CENTER
  0
LAYER
  2
1
 70
     0
 62
     4
  6
CONTINUOUS
  0
LAYER
  2
4
 70
     0
 62
     7
  6
CONTINUOUS
  0
LAYER
  2
DEFPOINTS
 70
     0
 62
     7
  6
CONTINUOUS
  0
ENDTAB
  0
TABLE
  2
STYLE
 70
     1
  0
STYLE
  2
STANDARD
 70
     0
 40
0.0
 41
1.0
 50
0.0
 71
     0
 42
180.0
  3
simplex.shx
  4
extfont.shx
  0
ENDTAB
  0
TABLE
  2
VIEW
 70
     0
  0
ENDTAB
  0
TABLE
  2
UCS
 70
     0
  0
ENDTAB
  0
TABLE
  2
APPID
 70
     1
  0
APPID
  2
ACAD
 70
     0
  0
ENDTAB
  0
TABLE
  2
DIMSTYLE
 70
     1
  0
DIMSTYLE
  2
IGA
 70
     0
  3

  4

  5

  6
OPEN
  7
OPEN
 40
2.0
 41
2.0
 42
0.5
 43
10.0
 44
1.0
 45
0.0
 46
0.0
 47
1.0
 48
1.0
140
3.0
141
0.0
142
0.0
143
0.03937
144
1.0
145
0.0
146
10.0
147
1.0
 71
     0
 72
     0
 73
     0
 74
     0
 75
     0
 76
     0
 77
     1
 78
     8
170
     0
171
     2
172
     0
173
     1
174
     0
175
     0
176
     0
177
     0
178
     0
  0
ENDTAB
  0
ENDSEC
  0
SECTION
  2
BLOCKS
  0
BLOCK
  8
0
  2
$MODEL_SPACE
 70
     0
 10
0.0
 20
0.0
 30
0.0
  3
$MODEL_SPACE
  1

  0
ENDBLK
  5
1B
  8
0
  0
BLOCK
 67
     1
  8
0
  2
$PAPER_SPACE
 70
     0
 10
0.0
 20
0.0
 30
0.0
  3
$PAPER_SPACE
  1

  0
ENDBLK
  5
18
 67
     1
  8
0
  0
BLOCK
  8
0
  2
_OPEN
 70
     0
 10
0.0
 20
0.0
 30
0.0
  3
_OPEN
  1

  0
LINE
  5
7BD0
  8
0
  6
BYBLOCK
 62
     0
 10
-1.0
 20
0.166667
 30
0.0
 11
0.0
 21
0.0
 31
0.0
  0
LINE
  5
7BD1
  8
0
  6
BYBLOCK
 62
     0
 10
0.0
 20
0.0
 30
0.0
 11
-1.0
 21
-0.166667
 31
0.0
  0
LINE
  5
7BD2
  8
0
  6
BYBLOCK
 62
     0
 10
0.0
 20
0.0
 30
0.0
 11
-1.0
 21
0.0
 31
0.0
  0
ENDBLK
  5
7BD3
  8
0
  0
BLOCK
  8
0
  2
*D1
 70
     1
 10
0.0
 20
0.0
 30
0.0
  3
*D1
  1

  0
LINE
  5
7E2B
  8
3
  6
CONTINUOUS
 62
     0
 10
1569.364219
 20
2478.6967220000001
 30
0.0
 11
1569.364219
 21
2633.775224999999
 31
0.0
  0
LINE
  5
7E2C
  8
3
  6
CONTINUOUS
 62
     0
 10
1089.364219
 20
2478.6967220000001
 30
0.0
 11
1089.364219
 21
2633.775224999999
 31
0.0
  0
LINE
  5
7E2D
  8
3
  6
CONTINUOUS
 62
     0
 10
1529.364219
 20
2613.775224999999
 30
0.0
 11
1129.3642189999989
 21
2613.775224999999
 31
0.0
  0
INSERT
  5
7E2E
  8
3
  6
CONTINUOUS
 62
     0
  2
_OPEN
 10
1569.364219
 20
2613.775224999999
 30
0.0
 41
40.0
 42
40.0
 43
40.0
  0
INSERT
  5
7E2F
  8
3
  6
CONTINUOUS
 62
     0
  2
_OPEN
 10
1089.364219
 20
2613.775224999999
 30
0.0
 41
40.0
 42
40.0
 43
40.0
 50
180.0
  0
TEXT
  8
3
  40
60
  5
7EB2
  62
0
  72
0
  71
0
 10
1183.14
 20
2557.58
 30
0.000000
  1
480
  0
POINT
  5
7E31
  8
DEFPOINTS
  6
CONTINUOUS
 62
     0
 10
1569.364219
 20
2468.6967219999992
 30
0.0
  0
POINT
  5
7E32
  8
DEFPOINTS
  6
CONTINUOUS
 62
     0
 10
1089.364219
 20
2468.6967219999992
 30
0.0
  0
POINT
  5
7E33
  8
DEFPOINTS
  6
CONTINUOUS
 62
     0
 10
1089.364219
 20
2613.775224999999
 30
0.0
  0
ENDBLK
  5
7D1C
  8
0
  0
BLOCK
  8
0
  2
*D2
 70
     1
 10
0.0
 20
0.0
 30
0.0
  3
*D2
  1

  0
LINE
  5
7E34
  8
3
  6
CONTINUOUS
 62
     0
 10
1569.364219
 20
2478.6967220000001
 30
0.0
 11
1569.364219
 21
2875.592447
 31
0.0
  0
LINE
  5
7E35
  8
3
  6
CONTINUOUS
 62
     0
 10
1107.364219
 20
2628.1362140000001
 30
0.0
 11
1107.364219
 21
2875.592447
 31
0.0
  0
LINE
  5
7E36
  8
3
  6
CONTINUOUS
 62
     0
 10
1529.364219
 20
2855.592447
 30
0.0
 11
1147.364219
 21
2855.592447
 31
0.0
  0
INSERT
  5
7E37
  8
3
  6
CONTINUOUS
 62
     0
  2
_OPEN
 10
1569.364219
 20
2855.592447
 30
0.0
 41
40.0
 42
40.0
 43
40.0
  0
INSERT
  5
7E38
  8
3
  6
CONTINUOUS
 62
     0
  2
_OPEN
 10
1107.364219
 20
2855.592447
 30
0.0
 41
40.0
 42
40.0
 43
40.0
 50
180.0
  0
TEXT
  8
3
  40
60
  5
7EB3
  62
0
  72
0
  71
0
 10
1174.06
 20
2799.39
 30
0.000000
  1
462
  0
POINT
  5
7E3A
  8
DEFPOINTS
  6
CONTINUOUS
 62
     0
 10
1569.364219
 20
2468.6967219999992
 30
0.0
  0
POINT
  5
7E3B
  8
DEFPOINTS
  6
CONTINUOUS
 62
     0
 10
1107.364219
 20
2618.1362140000001
 30
0.0
  0
POINT
  5
7E3C
  8
DEFPOINTS
  6
CONTINUOUS
 62
     0
 10
1107.364219
 20
2855.592447
 30
0.0
  0
ENDBLK
  5
7D27
  8
0
  0
BLOCK
  8
0
  2
*D3
 70
     1
 10
0.0
 20
0.0
 30
0.0
  3
*D3
  1

  0
LINE
  5
7E3D
  8
3
  6
CONTINUOUS
 62
     0
 10
752.36421900000005
 20
2433.6967220000001
 30
0.0
 11
752.36421900000005
 21
2875.592447
 31
0.0
  0
LINE
  5
7E3E
  8
3
  6
CONTINUOUS
 62
     0
 10
1067.364219
 20
2855.592447
 30
0.0
 11
792.36421900000005
 21
2855.592447
 31
0.0
  0
INSERT
  5
7E3F
  8
3
  6
CONTINUOUS
 62
     0
  2
_OPEN
 10
1107.364219
 20
2855.592447
 30
0.0
 41
40.0
 42
40.0
 43
40.0
  0
INSERT
  5
7E40
  8
3
  6
CONTINUOUS
 62
     0
  2
_OPEN
 10
752.36421900000005
 20
2855.592447
 30
0.0
 41
40.0
 42
40.0
 43
40.0
 50
180.0
  0
TEXT
  8
3
  40
60
  5
7EB4
  62
0
  72
0
  71
0
 10
809.864
 20
2799.39
 30
0.000000
  1
355
  0
POINT
  5
7E42
  8
DEFPOINTS
  6
CONTINUOUS
 62
     0
 10
1107.364219
 20
2618.1362140000001
 30
0.0
  0
POINT
  5
7E43
  8
DEFPOINTS
  6
CONTINUOUS
 62
     0
 10
752.36421900000005
 20
2423.6967219999992
 30
0.0
  0
POINT
  5
7E44
  8
DEFPOINTS
  6
CONTINUOUS
 62
     0
 10
752.36421900000005
 20
2855.592447
 30
0.0
  0
ENDBLK
  5
7D31
  8
0
  0
BLOCK
  8
0
  2
*D4
 70
     1
 10
0.0
 20
0.0
 30
0.0
  3
*D4
  1

  0
LINE
  5
7E45
  8
3
  6
CONTINUOUS
 62
     0
 10
1596.364219
 20
2468.6967219999992
 30
0.0
 11
2212.1918700000001
 21
2468.6967219999992
 31
0.0
  0
LINE
  5
7E46
  8
3
  6
CONTINUOUS
 62
     0
 10
2131.6519969999999
 20
2113.6967219999992
 30
0.0
 11
2212.1918700000001
 21
2113.6967219999992
 31
0.0
  0
LINE
  5
7E47
  8
3
  6
CONTINUOUS
 62
     0
 10
2192.1918700000001
 20
2508.6967219999992
 30
0.0
 11
2192.1918700000001
 21
2548.6967219999992
 31
0.0
  0
LINE
  5
7E48
  8
3
  6
CONTINUOUS
 62
     0
 10
2192.1918700000001
 20
2073.6967219999992
 30
0.0
 11
2192.1918700000001
 21
2033.696721999999
 31
0.0
  0
LINE
  5
7E49
  8
3
  6
CONTINUOUS
 62
     0
 10
2192.1918700000001
 20
2468.6967219999992
 30
0.0
 11
2192.1918700000001
 21
2113.6967219999992
 31
0.0
  0
INSERT
  5
7E4A
  8
3
  6
CONTINUOUS
 62
     0
  2
_OPEN
 10
2192.1918700000001
 20
2468.6967219999992
 30
0.0
 41
40.0
 42
40.0
 43
40.0
 50
270.0
  0
INSERT
  5
7E4B
  8
3
  6
CONTINUOUS
 62
     0
  2
_OPEN
 10
2192.1918700000001
 20
2113.6967219999992
 30
0.0
 41
40.0
 42
40.0
 43
40.0
 50
90.0
  0
TEXT
  8
3
  40
60
  5
7EB5
  62
0
  72
0
  71
0
 10
2022.19
 20
2225.35
 30
0.000000
  1
355
  0
POINT
  5
7E4D
  8
DEFPOINTS
  6
CONTINUOUS
 62
     0
 10
1586.364219
 20
2468.6967219999992
 30
0.0
  0
POINT
  5
7E4E
  8
DEFPOINTS
  6
CONTINUOUS
 62
     0
 10
2121.6519969999999
 20
2113.6967219999992
 30
0.0
  0
POINT
  5
7E4F
  8
DEFPOINTS
  6
CONTINUOUS
 62
     0
 10
2192.1918700000001
 20
2113.6967219999992
 30
0.0
  0
ENDBLK
  5
7C6A
  8
0
  0
BLOCK
  8
0
  2
*D5
 70
     1
 10
0.0
 20
0.0
 30
0.0
  3
*D5
  1

  0
LINE
  5
7E50
  8
3
  6
CONTINUOUS
 62
     0
 10
1937.364219
 20
1623.6967219999999
 30
0.0
 11
2212.1918700000001
 21
1623.6967219999999
 31
0.0
  0
LINE
  5
7E51
  8
3
  6
CONTINUOUS
 62
     0
 10
2192.1918700000001
 20
2073.6967219999992
 30
0.0
 11
2192.1918700000001
 21
1663.6967219999999
 31
0.0
  0
INSERT
  5
7E52
  8
3
  6
CONTINUOUS
 62
     0
  2
_OPEN
 10
2192.1918700000001
 20
2113.6967219999992
 30
0.0
 41
40.0
 42
40.0
 43
40.0
 50
90.0
  0
INSERT
  5
7E53
  8
3
  6
CONTINUOUS
 62
     0
  2
_OPEN
 10
2192.1918700000001
 20
1623.6967219999999
 30
0.0
 41
40.0
 42
40.0
 43
40.0
 50
270.0
  0
TEXT
  8
3
  40
60
  5
7EB6
  62
0
  72
0
  71
0
 10
2022.19
 20
1762.50
 30
0.000000
  1
490
  0
POINT
  5
7E55
  8
DEFPOINTS
  6
CONTINUOUS
 62
     0
 10
2121.6519969999999
 20
2113.6967219999992
 30
0.0
  0
POINT
  5
7E56
  8
DEFPOINTS
  6
CONTINUOUS
 62
     0
 10
1927.364219
 20
1623.6967219999999
 30
0.0
  0
POINT
  5
7E57
  8
DEFPOINTS
  6
CONTINUOUS
 62
     0
 10
2192.1918700000001
 20
1623.6967219999999
 30
0.0
  0
ENDBLK
  5
7C1F
  8
0
  0
BLOCK
  8
0
  2
*D6
 70
     1
 10
0.0
 20
0.0
 30
0.0
  3
*D6
  1

  0
LINE
  5
7E58
  8
3
  6
CONTINUOUS
 62
     0
 10
1937.364219
 20
1623.6967219999999
 30
0.0
 11
2212.1918700000001
 21
1623.6967219999999
 31
0.0
  0
LINE
  5
7E59
  8
3
  6
CONTINUOUS
 62
     0
 10
2037.364219
 20
1561.6967219999999
 30
0.0
 11
2212.1918700000001
 21
1561.6967219999999
 31
0.0
  0
LINE
  5
7E5A
  8
3
  6
CONTINUOUS
 62
     0
 10
2192.1918700000001
 20
1663.6967219999999
 30
0.0
 11
2192.1918700000001
 21
1703.6967219999999
 31
0.0
  0
LINE
  5
7E5B
  8
3
  6
CONTINUOUS
 62
     0
 10
2192.1918700000001
 20
1521.6967219999999
 30
0.0
 11
2192.1918700000001
 21
1344.553864857143
 31
0.0
  0
LINE
  5
7E5C
  8
3
  6
CONTINUOUS
 62
     0
 10
2192.1918700000001
 20
1623.6967219999999
 30
0.0
 11
2192.1918700000001
 21
1561.6967219999999
 31
0.0
  0
INSERT
  5
7E5D
  8
3
  6
CONTINUOUS
 62
     0
  2
_OPEN
 10
2192.1918700000001
 20
1623.6967219999999
 30
0.0
 41
40.0
 42
40.0
 43
40.0
 50
270.0
  0
INSERT
  5
7E5E
  8
3
  6
CONTINUOUS
 62
     0
  2
_OPEN
 10
2192.1918700000001
 20
1561.6967219999999
 30
0.0
 41
40.0
 42
40.0
 43
40.0
 50
90.0
  0
TEXT
  8
3
  40
60
  5
7EB7
  62
0
  72
0
  71
0
 10
2022.19
 20
1306.93
 30
0.000000
  1
62
  0
POINT
  5
7E60
  8
DEFPOINTS
  6
CONTINUOUS
 62
     0
 10
1927.364219
 20
1623.6967219999999
 30
0.0
  0
POINT
  5
7E61
  8
DEFPOINTS
  6
CONTINUOUS
 62
     0
 10
2027.364219
 20
1561.6967219999999
 30
0.0
  0
POINT
  5
7E62
  8
DEFPOINTS
  6
CONTINUOUS
 62
     0
 10
2192.1918700000001
 20
1561.6967219999999
 30
0.0
  0
ENDBLK
  5
7DFD
  8
0
  0
BLOCK
  8
0
  2
*D7
 70
     1
 10
0.0
 20
0.0
 30
0.0
  3
*D7
  1

  0
LINE
  5
7E63
  8
3
  6
CONTINUOUS
 62
     0
 10
707.36421900000005
 20
1551.6967219999999
 30
0.0
 11
707.36421900000005
 21
1341.7047660000001
 31
0.0
  0
LINE
  5
7E64
  8
3
  6
CONTINUOUS
 62
     0
 10
1107.364219
 20
1371.342209006066
 30
0.0
 11
1107.364219
 21
1341.7047660000001
 31
0.0
  0
LINE
  5
7E65
  8
3
  6
CONTINUOUS
 62
     0
 10
747.36421900000005
 20
1361.7047660000001
 30
0.0
 11
1067.364219
 21
1361.7047660000001
 31
0.0
  0
INSERT
  5
7E66
  8
3
  6
CONTINUOUS
 62
     0
  2
_OPEN
 10
707.36421900000005
 20
1361.7047660000001
 30
0.0
 41
40.0
 42
40.0
 43
40.0
 50
180.0
  0
INSERT
  5
7E67
  8
3
  6
CONTINUOUS
 62
     0
  2
_OPEN
 10
1107.364219
 20
1361.7047660000001
 30
0.0
 41
40.0
 42
40.0
 43
40.0
  0
TEXT
  8
3
  40
60
  5
7EB8
  62
0
  72
0
  71
0
 10
779.433
 20
1305.50
 30
0.000000
  1
400
  0
POINT
  5
7E69
  8
DEFPOINTS
  6
CONTINUOUS
 62
     0
 10
707.36421900000005
 20
1561.6967219999999
 30
0.0
  0
POINT
  5
7E6A
  8
DEFPOINTS
  6
CONTINUOUS
 62
     0
 10
1107.364219
 20
1381.342209006066
 30
0.0
  0
POINT
  5
7E6B
  8
DEFPOINTS
  6
CONTINUOUS
 62
     0
 10
1107.364219
 20
1361.7047660000001
 30
0.0
  0
ENDBLK
  5
7DE3
  8
0
  0
BLOCK
  8
0
  2
*D8
 70
     1
 10
0.0
 20
0.0
 30
0.0
  3
*D8
  1

  0
LINE
  5
7E6C
  8
3
  6
CONTINUOUS
 62
     0
 10
2027.364219
 20
1551.6967219999999
 30
0.0
 11
2027.364219
 21
1341.7047660000001
 31
0.0
  0
LINE
  5
7E6D
  8
3
  6
CONTINUOUS
 62
     0
 10
1147.364219
 20
1361.7047660000001
 30
0.0
 11
1987.364219
 21
1361.7047660000001
 31
0.0
  0
INSERT
  5
7E6E
  8
3
  6
CONTINUOUS
 62
     0
  2
_OPEN
 10
1107.364219
 20
1361.7047660000001
 30
0.0
 41
40.0
 42
40.0
 43
40.0
 50
180.0
  0
INSERT
  5
7E6F
  8
3
  6
CONTINUOUS
 62
     0
  2
_OPEN
 10
2027.364219
 20
1361.7047660000001
 30
0.0
 41
40.0
 42
40.0
 43
40.0
  0
TEXT
  8
3
  40
60
  5
7EB9
  62
0
  72
0
  71
0
 10
1447.36
 20
1305.50
 30
0.000000
  1
920
  0
POINT
  5
7E71
  8
DEFPOINTS
  6
CONTINUOUS
 62
     0
 10
1107.364219
 20
1381.342209006066
 30
0.0
  0
POINT
  5
7E72
  8
DEFPOINTS
  6
CONTINUOUS
 62
     0
 10
2027.364219
 20
1561.6967219999999
 30
0.0
  0
POINT
  5
7E73
  8
DEFPOINTS
  6
CONTINUOUS
 62
     0
 10
2027.364219
 20
1361.7047660000001
 30
0.0
  0
ENDBLK
  5
7DD8
  8
0
  0
BLOCK
  8
0
  2
*D9
 70
     1
 10
0.0
 20
0.0
 30
0.0
  3
*D9
  1

  0
LINE
  5
7E74
  8
3
  6
CONTINUOUS
 62
     0
 10
3305.0814279999991
 20
2478.6967220000001
 30
0.0
 11
3305.0814279999991
 21
2856.0898520000001
 31
0.0
  0
LINE
  5
7E75
  8
3
  6
CONTINUOUS
 62
     0
 10
2945.0814279999991
 20
2478.6967220000001
 30
0.0
 11
2945.0814279999991
 21
2856.0898520000001
 31
0.0
  0
LINE
  5
7E76
  8
3
  6
CONTINUOUS
 62
     0
 10
3265.081428
 20
2836.0898520000001
 30
0.0
 11
2985.081428
 21
2836.0898520000001
 31
0.0
  0
INSERT
  5
7E77
  8
3
  6
CONTINUOUS
 62
     0
  2
_OPEN
 10
3305.0814279999991
 20
2836.0898520000001
 30
0.0
 41
40.0
 42
40.0
 43
40.0
  0
INSERT
  5
7E78
  8
3
  6
CONTINUOUS
 62
     0
  2
_OPEN
 10
2945.0814279999991
 20
2836.0898520000001
 30
0.0
 41
40.0
 42
40.0
 43
40.0
 50
180.0
  0
TEXT
  8
3
  40
60
  5
7EBA
  62
0
  72
0
  71
0
 10
3006.61
 20
2779.89
 30
0.000000
  1
360
  0
POINT
  5
7E7A
  8
DEFPOINTS
  6
CONTINUOUS
 62
     0
 10
3305.0814279999991
 20
2468.6967219999992
 30
0.0
  0
POINT
  5
7E7B
  8
DEFPOINTS
  6
CONTINUOUS
 62
     0
 10
2945.0814279999991
 20
2468.6967219999992
 30
0.0
  0
POINT
  5
7E7C
  8
DEFPOINTS
  6
CONTINUOUS
 62
     0
 10
2945.0814279999991
 20
2836.0898520000001
 30
0.0
  0
ENDBLK
  5
7C98
  8
0
  0
BLOCK
  8
0
  2
*D10
 70
     1
 10
0.0
 20
0.0
 30
0.0
  3
*D10
  1

  0
LINE
  5
7E7D
  8
3
  6
CONTINUOUS
 62
     0
 10
3316.0814279999991
 20
2363.6967219999992
 30
0.0
 11
3631.9586630000008
 21
2363.6967219999992
 31
0.0
  0
LINE
  5
7E7E
  8
3
  6
CONTINUOUS
 62
     0
 10
3316.0814279999991
 20
1863.6967219999999
 30
0.0
 11
3631.9586630000008
 21
1863.6967219999999
 31
0.0
  0
LINE
  5
7E7F
  8
3
  6
CONTINUOUS
 62
     0
 10
3611.9586630000008
 20
2323.6967219999992
 30
0.0
 11
3611.9586630000008
 21
1903.696721999999
 31
0.0
  0
INSERT
  5
7E80
  8
3
  6
CONTINUOUS
 62
     0
  2
_OPEN
 10
3611.9586630000008
 20
2363.6967219999992
 30
0.0
 41
40.0
 42
40.0
 43
40.0
 50
90.0
  0
INSERT
  5
7E81
  8
3
  6
CONTINUOUS
 62
     0
  2
_OPEN
 10
3611.9586630000008
 20
1863.6967219999999
 30
0.0
 41
40.0
 42
40.0
 43
40.0
 50
270.0
  0
TEXT
  8
3
  40
60
  5
7EBB
  62
0
  72
0
  71
0
 10
3441.96
 20
2013.87
 30
0.000000
  1
φ500
  0
POINT
  5
7E83
  8
DEFPOINTS
  6
CONTINUOUS
 62
     0
 10
3306.081428
 20
2363.6967219999992
 30
0.0
  0
POINT
  5
7E84
  8
DEFPOINTS
  6
CONTINUOUS
 62
     0
 10
3306.081428
 20
1863.6967219999999
 30
0.0
  0
POINT
  5
7E85
  8
DEFPOINTS
  6
CONTINUOUS
 62
     0
 10
3611.9586630000008
 20
1863.6967219999999
 30
0.0
  0
ENDBLK
  5
7DCE
  8
0
  0
BLOCK
  8
0
  2
*D11
 70
     1
 10
0.0
 20
0.0
 30
0.0
  3
*D11
  1

  0
LINE
  5
7DFF
  8
0
  6
BYBLOCK
 62
     0
 10
3306.081428
 20
2373.6967219999992
 30
0.0
 11
3306.081428
 21
2980.673554
 31
0.0
  0
LINE
  5
7E00
  8
0
  6
BYBLOCK
 62
     0
 10
3125.081428
 20
2938.0486155527292
 30
0.0
 11
3125.081428
 21
2980.673554
 31
0.0
  0
LINE
  5
7E01
  8
0
  6
BYBLOCK
 62
     0
 10
3266.0814279999991
 20
2960.6735539999991
 30
0.0
 11
3165.081428
 21
2960.6735539999991
 31
0.0
  0
TEXT
  5
7E02
  8
3
 62
     0
 10
3157.0099994285711
 20
2996.9037619835631
 30
0.0
 40
60.0
  1
181
  0
INSERT
  5
7E03
  8
0
  6
BYBLOCK
 62
     0
  2
_OPEN
 10
3306.081428
 20
2960.6735539999991
 30
0.0
 41
40.0
 42
40.0
 43
40.0
  0
INSERT
  5
7E04
  8
0
  6
BYBLOCK
 62
     0
  2
_OPEN
 10
3125.081428
 20
2960.6735539999991
 30
0.0
 41
40.0
 42
40.0
 43
40.0
 50
180.0
  0
POINT
  5
7E05
  8
DEFPOINTS
  6
BYBLOCK
 62
     0
 10
3306.081428
 20
2363.6967219999992
 30
0.0
  0
POINT
  5
7E06
  8
DEFPOINTS
  6
BYBLOCK
 62
     0
 10
3125.081428
 20
2928.0486155527292
 30
0.0
  0
POINT
  5
7E07
  8
DEFPOINTS
  6
BYBLOCK
 62
     0
 10
3125.081428
 20
2960.6735539999991
 30
0.0
  0
ENDBLK
  5
7E08
  8
0
  0
BLOCK
  8
0
  2
*D12
 70
     1
 10
0.0
 20
0.0
 30
0.0
  3
*D12
  1

  0
LINE
  5
7E86
  8
3
  6
CONTINUOUS
 62
     0
 10
707.36421900000005
 20
3998.0767219999998
 30
0.0
 11
707.36421900000005
 21
4149.8763070000005
 31
0.0
  0
LINE
  5
7E87
  8
3
  6
CONTINUOUS
 62
     0
 10
2027.364219
 20
3998.0767219999998
 30
0.0
 11
2027.364219
 21
4149.8763070000005
 31
0.0
  0
LINE
  5
7E88
  8
3
  6
CONTINUOUS
 62
     0
 10
747.36421900000005
 20
4129.8763070000005
 30
0.0
 11
1987.364219
 21
4129.8763070000005
 31
0.0
  0
INSERT
  5
7E89
  8
3
  6
CONTINUOUS
 62
     0
  2
_OPEN
 10
707.36421900000005
 20
4129.8763070000005
 30
0.0
 41
40.0
 42
40.0
 43
40.0
 50
180.0
  0
INSERT
  5
7E8A
  8
3
  6
CONTINUOUS
 62
     0
  2
_OPEN
 10
2027.364219
 20
4129.8763070000005
 30
0.0
 41
40.0
 42
40.0
 43
40.0
  0
TEXT
  8
3
  40
60
  5
7EBC
  62
0
  72
0
  71
0
 10
1214.89
 20
4073.68
 30
0.000000
  1
1320
  0
POINT
  5
7E8C
  8
DEFPOINTS
  6
CONTINUOUS
 62
     0
 10
707.36421900000005
 20
3988.0767219999989
 30
0.0
  0
POINT
  5
7E8D
  8
DEFPOINTS
  6
CONTINUOUS
 62
     0
 10
2027.364219
 20
3988.0767219999989
 30
0.0
  0
POINT
  5
7E8E
  8
DEFPOINTS
  6
CONTINUOUS
 62
     0
 10
2027.364219
 20
4129.8763070000005
 30
0.0
  0
ENDBLK
  5
7CCF
  8
0
  0
BLOCK
  8
0
  2
*D13
 70
     1
 10
0.0
 20
0.0
 30
0.0
  3
*D13
  1

  0
LINE
  5
7E8F
  8
3
  6
CONTINUOUS
 62
     0
 10
2037.364219
 20
3988.0767219999989
 30
0.0
 11
2239.4078500000001
 21
3988.0767219999989
 31
0.0
  0
LINE
  5
7E90
  8
3
  6
CONTINUOUS
 62
     0
 10
2037.364219
 20
3318.0767219999998
 30
0.0
 11
2239.4078500000001
 21
3318.0767219999998
 31
0.0
  0
LINE
  5
7E91
  8
3
  6
CONTINUOUS
 62
     0
 10
2219.4078500000001
 20
3948.0767219999989
 30
0.0
 11
2219.4078500000001
 21
3358.0767219999989
 31
0.0
  0
INSERT
  5
7E92
  8
3
  6
CONTINUOUS
 62
     0
  2
_OPEN
 10
2219.4078500000001
 20
3988.0767219999989
 30
0.0
 41
40.0
 42
40.0
 43
40.0
 50
90.0
  0
INSERT
  5
7E93
  8
3
  6
CONTINUOUS
 62
     0
  2
_OPEN
 10
2219.4078500000001
 20
3318.0767219999998
 30
0.0
 41
40.0
 42
40.0
 43
40.0
 50
270.0
  0
TEXT
  8
3
  40
60
  5
7EBD
  62
0
  72
0
  71
0
 10
2049.41
 20
3552.37
 30
0.000000
  1
670
  0
POINT
  5
7E95
  8
DEFPOINTS
  6
CONTINUOUS
 62
     0
 10
2027.364219
 20
3988.0767219999989
 30
0.0
  0
POINT
  5
7E96
  8
DEFPOINTS
  6
CONTINUOUS
 62
     0
 10
2027.364219
 20
3318.0767219999998
 30
0.0
  0
POINT
  5
7E97
  8
DEFPOINTS
  6
CONTINUOUS
 62
     0
 10
2219.4078500000001
 20
3318.0767219999998
 30
0.0
  0
ENDBLK
  5
7CDC
  8
0
  0
BLOCK
  8
0
  2
*D14
 70
     1
 10
0.0
 20
0.0
 30
0.0
  3
*D14
  1

  0
LINE
  5
7E98
  8
3
  6
CONTINUOUS
 62
     0
 10
2755.081428
 20
1551.6967219999999
 30
0.0
 11
2755.081428
 21
1342.8047019999999
 31
0.0
  0
LINE
  5
7E99
  8
3
  6
CONTINUOUS
 62
     0
 10
3125.081428
 20
1444.5605390000001
 30
0.0
 11
3125.081428
 21
1342.8047019999999
 31
0.0
  0
LINE
  5
7E9A
  8
3
  6
CONTINUOUS
 62
     0
 10
2795.081428
 20
1362.8047019999999
 30
0.0
 11
3085.081428
 21
1362.8047019999999
 31
0.0
  0
INSERT
  5
7E9B
  8
3
  6
CONTINUOUS
 62
     0
  2
_OPEN
 10
2755.081428
 20
1362.8047019999999
 30
0.0
 41
40.0
 42
40.0
 43
40.0
 50
180.0
  0
INSERT
  5
7E9C
  8
3
  6
CONTINUOUS
 62
     0
  2
_OPEN
 10
3125.081428
 20
1362.8047019999999
 30
0.0
 41
40.0
 42
40.0
 43
40.0
  0
TEXT
  8
3
  40
60
  5
7EBE
  62
0
  72
0
  71
0
 10
2843.66
 20
1306.60
 30
0.000000
  1
370
  0
POINT
  5
7E9E
  8
DEFPOINTS
  6
CONTINUOUS
 62
     0
 10
2755.081428
 20
1561.6967219999999
 30
0.0
  0
POINT
  5
7E9F
  8
DEFPOINTS
  6
CONTINUOUS
 62
     0
 10
3125.081428
 20
1454.5605390000001
 30
0.0
  0
POINT
  5
7EA0
  8
DEFPOINTS
  6
CONTINUOUS
 62
     0
 10
3125.081428
 20
1362.8047019999999
 30
0.0
  0
ENDBLK
  5
7D75
  8
0
  0
BLOCK
  8
0
  2
*D15
 70
     1
 10
0.0
 20
0.0
 30
0.0
  3
*D15
  1

  0
LINE
  5
7EA1
  8
3
  6
CONTINUOUS
 62
     0
 10
3425.081428
 20
1551.6967219999999
 30
0.0
 11
3425.081428
 21
1342.8047019999999
 31
0.0
  0
LINE
  5
7EA2
  8
3
  6
CONTINUOUS
 62
     0
 10
3165.081428
 20
1362.8047019999999
 30
0.0
 11
3385.081428
 21
1362.8047019999999
 31
0.0
  0
INSERT
  5
7EA3
  8
3
  6
CONTINUOUS
 62
     0
  2
_OPEN
 10
3125.081428
 20
1362.8047019999999
 30
0.0
 41
40.0
 42
40.0
 43
40.0
 50
180.0
  0
INSERT
  5
7EA4
  8
3
  6
CONTINUOUS
 62
     0
  2
_OPEN
 10
3425.081428
 20
1362.8047019999999
 30
0.0
 41
40.0
 42
40.0
 43
40.0
  0
TEXT
  8
3
  40
60
  5
7EBF
  62
0
  72
0
  71
0
 10
3155.08
 20
1306.60
 30
0.000000
  1
300
  0
POINT
  5
7EA6
  8
DEFPOINTS
  6
CONTINUOUS
 62
     0
 10
3125.081428
 20
1454.5605390000001
 30
0.0
  0
POINT
  5
7EA7
  8
DEFPOINTS
  6
CONTINUOUS
 62
     0
 10
3425.081428
 20
1561.6967219999999
 30
0.0
  0
POINT
  5
7EA8
  8
DEFPOINTS
  6
CONTINUOUS
 62
     0
 10
3425.081428
 20
1362.8047019999999
 30
0.0
  0
ENDBLK
  5
7D6A
  8
0
  0
BLOCK
  8
0
  2
*D16
 70
     1
 10
0.0
 20
0.0
 30
0.0
  3
*D16
  1

  0
LINE
  5
7EA9
  8
3
  6
CONTINUOUS
 62
     0
 10
2745.081428
 20
2761.6967219999992
 30
0.0
 11
2608.409369
 21
2761.6967219999992
 31
0.0
  0
LINE
  5
7EAA
  8
3
  6
CONTINUOUS
 62
     0
 10
2745.081428
 20
1561.6967219999999
 30
0.0
 11
2608.409369
 21
1561.6967219999999
 31
0.0
  0
LINE
  5
7EAB
  8
3
  6
CONTINUOUS
 62
     0
 10
2628.409369
 20
2721.6967219999992
 30
0.0
 11
2628.409369
 21
1601.6967219999999
 31
0.0
  0
INSERT
  5
7EAC
  8
3
  6
CONTINUOUS
 62
     0
  2
_OPEN
 10
2628.409369
 20
2761.6967219999992
 30
0.0
 41
40.0
 42
40.0
 43
40.0
 50
90.0
  0
INSERT
  5
7EAD
  8
3
  6
CONTINUOUS
 62
     0
  2
_OPEN
 10
2628.409369
 20
1561.6967219999999
 30
0.0
 41
40.0
 42
40.0
 43
40.0
 50
270.0
  0
TEXT
  8
3
  40
60
  5
7EC0
  62
0
  72
0
  71
0
 10
2458.41
 20
2065.89
 30
0.000000
  1
1200
  0
POINT
  5
7EAF
  8
DEFPOINTS
  6
CONTINUOUS
 62
     0
 10
2755.081428
 20
2761.6967219999992
 30
0.0
  0
POINT
  5
7EB0
  8
DEFPOINTS
  6
CONTINUOUS
 62
     0
 10
2755.081428
 20
1561.6967219999999
 30
0.0
  0
POINT
  5
7EB1
  8
DEFPOINTS
  6
CONTINUOUS
 62
     0
 10
2628.409369
 20
1561.6967219999999
 30
0.0
  0
ENDBLK
  5
7D81
  8
0
  0
ENDSEC
  0
SECTION
  2
ENTITIES
  0
LINE
  5
7AD6
  8
1
  6
CONTINUOUS
 10
2027.364219
 20
3988.0767219999989
 30
0.0
 11
707.36421900000005
 21
3988.0767219999989
 31
0.0
  0
LINE
  5
7AD7
  8
1
  6
CONTINUOUS
 10
2027.364219
 20
3318.0767219999998
 30
0.0
 11
707.36421900000005
 21
3318.0767219999998
 31
0.0
  0
LINE
  5
7AD8
  8
1
  6
CONTINUOUS
 10
2027.364219
 20
1561.6967219999999
 30
0.0
 11
707.36421900000005
 21
1561.6967219999999
 31
0.0
  0
LINE
  5
7AD9
  8
1
  6
CONTINUOUS
 10
2027.364219
 20
2761.6967219999992
 30
0.0
 11
707.36421900000005
 21
2761.6967219999992
 31
0.0
  0
ARC
  5
7ADA
  8
1
  6
CONTINUOUS
 10
1777.364219
 20
1885.696721999999
 30
0.0
 40
122.0
 50
324.60000000000002
 51
215.39999999999989
  0
LINE
  5
7ADB
  8
1
  6
CONTINUOUS
 10
1758.364219
 20
3464.0767219999998
 30
0.0
 11
1126.364219
 21
3464.0767219999998
 31
0.0
  0
LINE
  5
7ADC
  8
1
  6
CONTINUOUS
 10
1899.3642189999989
 20
3838.316722
 30
0.0
 11
1655.364219
 21
3838.316722
 31
0.0
  0
LINE
  5
7ADD
  8
1
  6
CONTINUOUS
 10
1899.3642189999989
 20
3488.316722
 30
0.0
 11
1655.364219
 21
3488.316722
 31
0.0
  0
LINE
  5
7ADE
  8
1
  6
CONTINUOUS
 10
1927.364219
 20
3912.0767219999998
 30
0.0
 11
807.36421900000005
 21
3912.0767219999998
 31
0.0
  0
LINE
  5
7ADF
  8
1
  6
CONTINUOUS
 10
1907.364219
 20
1753.6967219999999
 30
0.0
 11
1647.3642189999989
 21
1753.6967219999999
 31
0.0
  0
LINE
  5
7AE0
  8
1
  6
CONTINUOUS
 10
1927.364219
 20
1703.6967219999999
 30
0.0
 11
752.36421900000005
 21
1703.6967219999999
 31
0.0
  0
LINE
  5
7AE1
  8
1
  6
CONTINUOUS
 10
1927.364219
 20
1623.6967219999999
 30
0.0
 11
807.36421900000005
 21
1623.6967219999999
 31
0.0
  0
LINE
  5
7AE2
  8
1
  6
CONTINUOUS
 10
1801.444219
 20
1940.656721999999
 30
0.0
 11
1155.5142189999999
 21
2223.6167220000002
 31
0.0
  0
LINE
  5
7AE3
  8
1
  6
CONTINUOUS
 10
1078.4742189999999
 20
1997.226721999999
 30
0.0
 11
1762.924219
 21
1827.456721999999
 31
0.0
  0
LINE
  5
7AEB
  8
1
  6
CONTINUOUS
 10
1881.864219
 20
3438.0767219999989
 30
0.0
 11
881.86421900000005
 21
3438.0767219999989
 31
0.0
  0
LINE
  5
7AEC
  8
1
  6
CONTINUOUS
 10
747.36421900000005
 20
3948.0767219999989
 30
0.0
 11
1987.364219
 21
3948.0767219999989
 31
0.0
  0
LINE
  5
7AED
  8
1
  6
CONTINUOUS
 10
1987.364219
 20
3358.0767219999989
 30
0.0
 11
747.36421900000005
 21
3358.0767219999989
 31
0.0
  0
LINE
  5
7AEE
  8
1
  6
CONTINUOUS
 10
747.36421900000005
 20
1605.9667219999999
 30
0.0
 11
1987.364219
 21
1605.9667219999999
 31
0.0
  0
LINE
  5
7AEF
  8
1
  6
CONTINUOUS
 10
1987.364219
 20
2725.9667219999992
 30
0.0
 11
747.36421900000005
 21
2725.9667219999992
 31
0.0
  0
LINE
  5
7AF0
  8
1
  6
CONTINUOUS
 10
707.36421900000005
 20
1561.6967219999999
 30
0.0
 11
707.36421900000005
 21
2761.6967219999992
 31
0.0
  0
LINE
  5
7AF1
  8
1
  6
CONTINUOUS
 10
747.36421900000005
 20
2725.9667219999992
 30
0.0
 11
747.36421900000005
 21
1605.9667219999999
 31
0.0
  0
CIRCLE
  5
7AF2
  8
1
  6
CONTINUOUS
 10
1107.364219
 20
2113.6967219999992
 30
0.0
 40
275.0
  0
LINE
  5
7AF3
  8
1
  6
CONTINUOUS
 10
1462.364219
 20
2423.6967219999992
 30
0.0
 11
752.36421900000005
 21
2423.6967219999992
 31
0.0
  0
ARC
  5
7AF4
  8
1
  6
CONTINUOUS
 10
1134.364219
 20
2086.6967219999992
 30
0.0
 40
380.98000000000002
 50
171.53
 51
265.16000000000003
  0
LINE
  5
7AF5
  8
1
  6
CONTINUOUS
 10
1089.364219
 20
2443.6967219999992
 30
0.0
 11
1569.294218999999
 21
2443.6967219999992
 31
0.0
  0
CIRCLE
  5
7AF6
  8
1
  6
CONTINUOUS
 10
1107.364219
 20
2113.6967219999992
 30
0.0
 40
120.0
  0
LINE
  5
7AF7
  8
1
  6
CONTINUOUS
 10
1072.364219
 20
2468.6967219999992
 30
0.0
 11
1586.364219
 21
2468.6967219999992
 31
0.0
  0
LINE
  5
7AF8
  8
2
  6
CENTER
 10
3471.9167117788161
 20
2113.6967219999992
 30
0.0
 11
2713.9188662394008
 21
2113.6967219999992
 31
0.0
  0
CIRCLE
  5
7AF9
  8
1
  6
CONTINUOUS
 10
1107.364219
 20
2113.6967219999992
 30
0.0
 40
250.0
  0
LINE
  5
7AFA
  8
1
  6
CONTINUOUS
 10
752.36421900000005
 20
2423.6967219999992
 30
0.0
 11
752.36421900000005
 21
1703.6967219999999
 31
0.0
  0
LINE
  5
7AFB
  8
1
  6
CONTINUOUS
 10
807.36421900000005
 20
1703.6967219999999
 30
0.0
 11
807.36421900000005
 21
1623.6967219999999
 31
0.0
  0
ARC
  5
7AFC
  8
1
  6
CONTINUOUS
 10
1096.235210999999
 20
2083.2355779999998
 30
0.0
 40
343.89392400000003
 50
91.140279000000007
 51
170.02361200000001
  0
LINE
  5
7AFD
  8
1
  6
CONTINUOUS
 10
1089.364219
 20
2427.066722
 30
0.0
 11
1089.364219
 21
2468.6967219999992
 31
0.0
  0
LINE
  5
7AFE
  8
1
  6
CONTINUOUS
 10
1462.364219
 20
2423.6967219999992
 30
0.0
 11
1462.364219
 21
1703.6967219999999
 31
0.0
  0
ARC
  5
7AFF
  8
1
  6
CONTINUOUS
 10
1137.827636999999
 20
2136.7763509999991
 30
0.0
 40
431.17249299999992
 50
265.26344499999999
 51
356.87946599999998
  0
LINE
  5
7B00
  8
1
  6
CONTINUOUS
 10
1647.3642189999989
 20
1753.6967219999999
 30
0.0
 11
1677.924219
 21
1815.0267219999989
 31
0.0
  0
LINE
  5
7B01
  8
1
  6
CONTINUOUS
 10
1647.3642189999989
 20
1703.6967219999999
 30
0.0
 11
1647.3642189999989
 21
1753.6967219999999
 31
0.0
  0
LINE
  5
7B02
  8
1
  6
CONTINUOUS
 10
1647.3642189999989
 20
1753.6967219999999
 30
0.0
 11
1697.3642189999989
 21
1753.6967219999999
 31
0.0
  0
LINE
  5
7B03
  8
2
  6
CENTER
 10
1107.364219
 20
1396.991869467234
 30
0.0
 11
1107.364219
 21
2618.1362140000001
 31
0.0
  0
LINE
  5
7B04
  8
1
  6
CONTINUOUS
 10
1569.364219
 20
2468.6967219999992
 30
0.0
 11
1568.364219
 21
2113.3167219999991
 31
0.0
  0
LINE
  5
7B05
  8
1
  6
CONTINUOUS
 10
1596.364219
 20
3506.0767219999989
 30
0.0
 11
1062.3642189999989
 21
3870.0767219999989
 31
0.0
  0
LINE
  5
7B06
  8
1
  6
CONTINUOUS
 10
1062.3642189999989
 20
3506.0767219999989
 30
0.0
 11
1596.364219
 21
3870.0767219999989
 31
0.0
  0
LINE
  5
7B07
  8
1
  6
CONTINUOUS
 10
1197.364219
 20
3348.0767219999998
 30
0.0
 11
1017.364218999999
 21
3348.0767219999998
 31
0.0
  0
LINE
  5
7B08
  8
1
  6
CONTINUOUS
 10
1017.364218999999
 20
3408.0767219999998
 30
0.0
 11
1197.364219
 21
3408.0767219999998
 31
0.0
  0
LINE
  5
7B09
  8
1
  6
CONTINUOUS
 10
1596.364219
 20
3870.0767219999989
 30
0.0
 11
752.36421900000005
 21
3870.0767219999989
 31
0.0
  0
LINE
  5
7B0A
  8
1
  6
CONTINUOUS
 10
1596.364219
 20
3506.0767219999989
 30
0.0
 11
752.36421900000005
 21
3506.0767219999989
 31
0.0
  0
LINE
  5
7B0B
  8
1
  6
CONTINUOUS
 10
707.36421900000005
 20
3318.0767219999998
 30
0.0
 11
707.36421900000005
 21
3988.0767219999989
 31
0.0
  0
LINE
  5
7B0C
  8
1
  6
CONTINUOUS
 10
1062.3642189999989
 20
3506.0767219999989
 30
0.0
 11
1062.3642189999989
 21
3870.0767219999989
 31
0.0
  0
LINE
  5
7B0D
  8
1
  6
CONTINUOUS
 10
752.36421900000005
 20
3506.0767219999989
 30
0.0
 11
752.36421900000005
 21
3870.0767219999989
 31
0.0
  0
LINE
  5
7B0E
  8
1
  6
CONTINUOUS
 10
747.36421900000005
 20
3358.0767219999989
 30
0.0
 11
747.36421900000005
 21
3948.0767219999989
 31
0.0
  0
LINE
  5
7B0F
  8
1
  6
CONTINUOUS
 10
1088.364219
 20
3464.0767219999998
 30
0.0
 11
807.36421900000005
 21
3464.0767219999998
 31
0.0
  0
LINE
  5
7B10
  8
1
  6
CONTINUOUS
 10
807.36421900000005
 20
3506.0767219999989
 30
0.0
 11
807.36421900000005
 21
3464.0767219999998
 31
0.0
  0
LINE
  5
7B11
  8
1
  6
CONTINUOUS
 10
881.86421900000005
 20
3438.0767219999989
 30
0.0
 11
881.86421900000005
 21
3318.0767219999998
 31
0.0
  0
LINE
  5
7B12
  8
1
  6
CONTINUOUS
 10
1017.364218999999
 20
3348.0767219999998
 30
0.0
 11
1017.364218999999
 21
3408.0767219999998
 31
0.0
  0
LINE
  5
7B13
  8
1
  6
CONTINUOUS
 10
1088.364219
 20
3408.0767219999998
 30
0.0
 11
1088.364219
 21
3506.0767219999989
 31
0.0
  0
LINE
  5
7B14
  8
1
  6
CONTINUOUS
 10
807.36421900000005
 20
3912.0767219999998
 30
0.0
 11
807.36421900000005
 21
3870.0767219999989
 31
0.0
  0
LINE
  5
7B15
  8
1
  6
CONTINUOUS
 10
1655.364219
 20
3488.316722
 30
0.0
 11
1655.364219
 21
3838.316722
 31
0.0
  0
LINE
  5
7B16
  8
1
  6
CONTINUOUS
 10
1596.364219
 20
3870.0767219999989
 30
0.0
 11
1596.364219
 21
3506.0767219999989
 31
0.0
  0
LINE
  5
7B17
  8
1
  6
CONTINUOUS
 10
1197.364219
 20
3408.0767219999998
 30
0.0
 11
1197.364219
 21
3348.0767219999998
 31
0.0
  0
LINE
  5
7B18
  8
1
  6
CONTINUOUS
 10
1126.364219
 20
3408.0767219999998
 30
0.0
 11
1126.364219
 21
3506.0767219999989
 31
0.0
  0
LINE
  5
7B1B
  8
1
  6
CONTINUOUS
 10
2755.081428
 20
2761.6967219999992
 30
0.0
 11
2755.081428
 21
1561.6967219999999
 31
0.0
  0
LINE
  5
7B1C
  8
1
  6
CONTINUOUS
 10
3425.081428
 20
2761.6967219999992
 30
0.0
 11
3425.081428
 21
1561.6967219999999
 31
0.0
  0
LINE
  5
7B1D
  8
1
  6
CONTINUOUS
 10
2027.364219
 20
1561.6967219999999
 30
0.0
 11
2027.364219
 21
2761.6967219999992
 31
0.0
  0
LINE
  5
7B1E
  8
1
  6
CONTINUOUS
 10
2795.081428
 20
1605.9667219999999
 30
0.0
 11
2795.081428
 21
2725.9667219999992
 31
0.0
  0
LINE
  5
7B1F
  8
1
  6
CONTINUOUS
 10
3385.081428
 20
2725.9667219999992
 30
0.0
 11
3385.081428
 21
1605.9667219999999
 31
0.0
  0
LINE
  5
7B22
  8
1
  6
CONTINUOUS
 10
1987.364219
 20
1605.9667219999999
 30
0.0
 11
1987.364219
 21
2725.9667219999992
 31
0.0
  0
LINE
  5
7B23
  8
1
  6
CONTINUOUS
 10
2785.081428
 20
1993.6967219999999
 30
0.0
 11
2845.081428
 21
1993.6967219999999
 31
0.0
  0
LINE
  5
7B24
  8
1
  6
CONTINUOUS
 10
2845.081428
 20
2233.6967219999992
 30
0.0
 11
2785.081428
 21
2233.6967219999992
 31
0.0
  0
LINE
  5
7B25
  8
1
  6
CONTINUOUS
 10
2755.081428
 20
1561.6967219999999
 30
0.0
 11
3425.081428
 21
1561.6967219999999
 31
0.0
  0
LINE
  5
7B26
  8
1
  6
CONTINUOUS
 10
2785.081428
 20
1835.696721999999
 30
0.0
 11
2845.081428
 21
1835.696721999999
 31
0.0
  0
LINE
  5
7B27
  8
1
  6
CONTINUOUS
 10
2845.081428
 20
1935.696721999999
 30
0.0
 11
2785.081428
 21
1935.696721999999
 31
0.0
  0
LINE
  5
7B28
  8
1
  6
CONTINUOUS
 10
2755.081428
 20
2452.9667219999992
 30
0.0
 11
2875.081428
 21
2452.9667219999992
 31
0.0
  0
LINE
  5
7B29
  8
1
  6
CONTINUOUS
 10
2875.081428
 20
1707.9667219999999
 30
0.0
 11
2755.081428
 21
1707.9667219999999
 31
0.0
  0
LINE
  5
7B2C
  8
1
  6
CONTINUOUS
 10
3385.081428
 20
1605.9667219999999
 30
0.0
 11
2795.081428
 21
1605.9667219999999
 31
0.0
  0
LINE
  5
7B3D
  8
1
  6
CONTINUOUS
 10
1907.364219
 20
1753.6967219999999
 30
0.0
 11
1876.8042190000001
 21
1815.0267219999989
 31
0.0
  0
LINE
  5
7B3E
  8
1
  6
CONTINUOUS
 10
1907.364219
 20
1753.6967219999999
 30
0.0
 11
1857.364219
 21
1753.6967219999999
 31
0.0
  0
LINE
  5
7B3F
  8
1
  6
CONTINUOUS
 10
1907.364219
 20
1703.6967219999999
 30
0.0
 11
1907.364219
 21
1753.6967219999999
 31
0.0
  0
LINE
  5
7B40
  8
1
  6
CONTINUOUS
 10
1927.364219
 20
1703.6967219999999
 30
0.0
 11
1927.364219
 21
1623.6967219999999
 31
0.0
  0
CIRCLE
  5
7B41
  8
1
  6
CONTINUOUS
 10
1777.364219
 20
1885.696721999999
 30
0.0
 40
60.0
  0
LINE
  5
7B42
  8
2
  6
CENTER
 10
1717.364219
 20
1885.696721999999
 30
0.0
 11
1837.364219
 21
1885.696721999999
 31
0.0
  0
LINE
  5
7B43
  8
2
  6
CENTER
 10
1777.364219
 20
1825.696721999999
 30
0.0
 11
1777.364219
 21
1945.6967219999999
 31
0.0
  0
LINE
  5
7B5D
  8
1
  6
CONTINUOUS
 10
2785.081428
 20
2233.6967219999992
 30
0.0
 11
2785.081428
 21
1993.6967219999999
 31
0.0
  0
LINE
  5
7B5E
  8
1
  6
CONTINUOUS
 10
2785.081428
 20
1935.696721999999
 30
0.0
 11
2785.081428
 21
1835.696721999999
 31
0.0
  0
LINE
  5
7B5F
  8
1
  6
CONTINUOUS
 10
3305.0814279999991
 20
2468.6967219999992
 30
0.0
 11
3305.0814279999991
 21
1703.6967219999999
 31
0.0
  0
LINE
  5
7B60
  8
1
  6
CONTINUOUS
 10
2945.0814279999991
 20
2468.6967219999992
 30
0.0
 11
2945.0814279999991
 21
1703.6967219999999
 31
0.0
  0
LINE
  5
7B61
  8
1
  6
CONTINUOUS
 10
2875.081428
 20
2452.9667219999992
 30
0.0
 11
2875.081428
 21
1707.9667219999999
 31
0.0
  0
LINE
  5
7B62
  8
1
  6
CONTINUOUS
 10
2901.081428
 20
1623.6967219999999
 30
0.0
 11
3349.081428
 21
1623.6967219999999
 31
0.0
  0
LINE
  5
7B63
  8
1
  6
CONTINUOUS
 10
2901.081428
 20
1703.6967219999999
 30
0.0
 11
3349.081428
 21
1703.6967219999999
 31
0.0
  0
LINE
  5
7B64
  8
1
  6
CONTINUOUS
 10
2901.081428
 20
1703.6967219999999
 30
0.0
 11
2901.081428
 21
1623.6967219999999
 31
0.0
  0
LINE
  5
7B65
  8
1
  6
CONTINUOUS
 10
3349.081428
 20
1703.6967219999999
 30
0.0
 11
3349.081428
 21
1623.6967219999999
 31
0.0
  0
LINE
  5
7B66
  8
1
  6
CONTINUOUS
 10
3330.0814279999991
 20
2468.6967219999992
 30
0.0
 11
2918.081428
 21
2468.6967219999992
 31
0.0
  0
LINE
  5
7B67
  8
1
  6
CONTINUOUS
 10
2945.0814279999991
 20
2443.6967219999992
 30
0.0
 11
3305.0814279999991
 21
2443.6967219999992
 31
0.0
  0
LINE
  5
7B68
  8
1
  6
CONTINUOUS
 10
2845.081428
 20
2132.6967219999992
 30
0.0
 11
2945.0814279999991
 21
2132.6967219999992
 31
0.0
  0
LINE
  5
7B69
  8
1
  6
CONTINUOUS
 10
2845.081428
 20
2094.6967219999992
 30
0.0
 11
2945.0814279999991
 21
2094.6967219999992
 31
0.0
  0
LINE
  5
7B6A
  8
1
  6
CONTINUOUS
 10
2845.081428
 20
1993.6967219999999
 30
0.0
 11
2845.081428
 21
2233.6967219999992
 31
0.0
  0
LINE
  5
7B6B
  8
1
  6
CONTINUOUS
 10
2845.081428
 20
1835.696721999999
 30
0.0
 11
2845.081428
 21
1935.696721999999
 31
0.0
  0
LINE
  5
7B6C
  8
1
  6
CONTINUOUS
 10
2845.081428
 20
1866.6967219999999
 30
0.0
 11
2945.0814279999991
 21
1866.6967219999999
 31
0.0
  0
LINE
  5
7B6D
  8
1
  6
CONTINUOUS
 10
2845.081428
 20
1904.696721999999
 30
0.0
 11
2945.0814279999991
 21
1904.696721999999
 31
0.0
  0
LINE
  5
7B6E
  8
1
  6
CONTINUOUS
 10
2755.081428
 20
2761.6967219999992
 30
0.0
 11
3425.081428
 21
2761.6967219999992
 31
0.0
  0
LINE
  5
7B6F
  8
1
  6
CONTINUOUS
 10
2795.081428
 20
2725.9667219999992
 30
0.0
 11
3385.081428
 21
2725.9667219999992
 31
0.0
  0
LINE
  5
7B7D
  8
1
  6
CONTINUOUS
 10
2027.364219
 20
3318.0767219999998
 30
0.0
 11
2027.364219
 21
3988.0767219999989
 31
0.0
  0
LINE
  5
7B7E
  8
1
  6
CONTINUOUS
 10
1899.3642189999989
 20
3488.316722
 30
0.0
 11
1899.3642189999989
 21
3838.316722
 31
0.0
  0
LINE
  5
7B7F
  8
1
  6
CONTINUOUS
 10
1927.364219
 20
3912.0767219999998
 30
0.0
 11
1927.364219
 21
3464.0767219999998
 31
0.0
  0
LINE
  5
7B80
  8
1
  6
CONTINUOUS
 10
1987.364219
 20
3948.0767219999989
 30
0.0
 11
1987.364219
 21
3358.0767219999989
 31
0.0
  0
LINE
  5
7B81
  8
1
  6
CONTINUOUS
 10
1927.364219
 20
3464.0767219999998
 30
0.0
 11
1796.364219
 21
3464.0767219999998
 31
0.0
  0
LINE
  5
7B82
  8
1
  6
CONTINUOUS
 10
1727.364219
 20
3408.0767219999998
 30
0.0
 11
1827.364219
 21
3408.0767219999998
 31
0.0
  0
LINE
  5
7B83
  8
1
  6
CONTINUOUS
 10
1827.364219
 20
3348.0767219999998
 30
0.0
 11
1727.364219
 21
3348.0767219999998
 31
0.0
  0
LINE
  5
7B84
  8
1
  6
CONTINUOUS
 10
1827.364219
 20
3408.0767219999998
 30
0.0
 11
1827.364219
 21
3348.0767219999998
 31
0.0
  0
LINE
  5
7B85
  8
1
  6
CONTINUOUS
 10
1727.364219
 20
3348.0767219999998
 30
0.0
 11
1727.364219
 21
3408.0767219999998
 31
0.0
  0
LINE
  5
7B86
  8
1
  6
CONTINUOUS
 10
1758.364219
 20
3408.0767219999998
 30
0.0
 11
1758.364219
 21
3488.316722
 31
0.0
  0
LINE
  5
7B87
  8
1
  6
CONTINUOUS
 10
1796.364219
 20
3408.0767219999998
 30
0.0
 11
1796.364219
 21
3488.316722
 31
0.0
  0
LINE
  5
7B88
  8
1
  6
CONTINUOUS
 10
1881.864219
 20
3318.0767219999998
 30
0.0
 11
1881.864219
 21
3438.0767219999989
 31
0.0
  0
LINE
  5
7BA7
  8
2
  6
CENTER
 10
3125.081428
 20
2800.6250319999999
 30
0.0
 11
3125.081428
 21
1454.5605390000001
 31
0.0
  0
LINE
  5
7BA8
  8
2
  6
CENTER
 10
666.04365490402051
 20
3688.0767219999989
 30
0.0
 11
2096.6577229999998
 21
3688.0767219999989
 31
0.0
  0
LINE
  5
7BA9
  8
2
  6
CENTER
 10
1107.364219
 20
3270.002721976387
 30
0.0
 11
1107.364219
 21
4032.5272371375531
 31
0.0
  0
LINE
  5
7BAA
  8
2
  6
CENTER
 10
2121.6519969999999
 20
2113.6967219999992
 30
0.0
 11
612.45000900000002
 21
2113.6967219999992
 31
0.0
  0
LINE
  5
7BAB
  8
4
  6
CONTINUOUS
 10
3700.0
 20
1000.0
 30
0.0
 11
3700.0
 21
600.0
 31
0.0
  0
LINE
  5
7BAC
  8
4
  6
CONTINUOUS
 10
2300.0
 20
1000.0
 30
0.0
 11
2300.0
 21
600.0
 31
0.0
  0
LINE
  5
7BAD
  8
4
  6
CONTINUOUS
 10
1300.0
 20
1000.0
 30
0.0
 11
1300.0
 21
600.0
 31
0.0
  0
LINE
  5
7BB0
  8
4
  6
CONTINUOUS
 10
1300.0
 20
600.0
 30
0.0
 11
3700.0
 21
600.0
 31
0.0
  0
LINE
  5
7BB1
  8
4
  6
CONTINUOUS
 10
1300.0
 20
800.0
 30
0.0
 11
3700.0
 21
800.0
 31
0.0
  0
TEXT
  5
7BB2
  8
4
  6
CONTINUOUS
 10
1377.004162
 20
863.086052
 30
0.0
 40
100.0
  1
機器名称
  0
TEXT
  5
7BB3
  8
4
  6
CONTINUOUS
 10
1372.516212
 20
643.29031299999986
 30
0.0
 40
100.0
  1
機器型番
  0
TEXT
  5
7BB4
  8
4
  6
CONTINUOUS
 10
2355.3574910000002
 20
845.14353800000015
 30
0.0
 40
100.0
  1
ミツヤ多翼送風機
  0
TEXT
  5
7BB5
  8
4
  6
CONTINUOUS
 10
2373.3089909999999
 20
634.31916899999999
 30
0.0
 40
100.0
  1
MF#3-4
  0
TEXT
  5
7BB7
  8
4
  6
CONTINUOUS
 10
1355.302183
 20
4766.8576830000002
 30
0.0
 40
108.0
  1
天井吊枠防振ベット
  0
TEXT
  5
7BB8
  8
4
  6
CONTINUOUS
 10
632.33518700000002
 20
5067.7619520000007
 30
0.0
 40
144.0
  1
ベルト駆動式片吸込両持多翼ファン
  0
LINE
  5
7BB9
  8
4
  6
CONTINUOUS
 10
500.0
 20
4938.8175090000004
 30
0.0
 11
3700.0
 21
4938.8175090000004
 31
0.0
  0
LINE
  5
7BBA
  8
4
  6
CONTINUOUS
 10
500.0
 20
5338.8175090000004
 30
0.0
 11
3700.0
 21
5338.8175090000004
 31
0.0
  0
LINE
  5
7BBB
  8
4
  6
CONTINUOUS
 10
1300.0
 20
1000.0
 30
0.0
 11
3700.0
 21
1000.0
 31
0.0
  0
LINE
  5
7BBC
  8
4
  6
CONTINUOUS
 10
500.0
 20
5338.8175090000004
 30
0.0
 11
500.0
 21
4938.8175090000004
 31
0.0
  0
TEXT
  5
7BBD
  8
4
  6
CONTINUOUS
 10
584.53325899999993
 20
4764.6389549999994
 30
0.0
 40
108.0
  1
左回転上向
  0
TEXT
  5
7BBE
  8
4
  6
CONTINUOUS
 10
2937.9391179999998
 20
5412.122163
 30
0.0
 40
112.0
  1
No.
  0
TEXT
  5
7BBF
  8
4
  6
CONTINUOUS
 10
2622.5921250000001
 20
4766.8576830000002
 30
0.0
 40
108.0
  1
縮尺：1/20
  0
LINE
  5
7BC0
  8
4
  6
CONTINUOUS
 10
3700.0
 20
5338.8175090000004
 30
0.0
 11
3700.0
 21
4938.8175090000004
 31
0.0
  0
LINE
  5
7BC2
  8
4
  6
CONTINUOUS
 10
2881.234845
 20
5362.5271659999999
 30
0.0
 11
2881.234845
 21
5573.3045229999998
 31
0.0
  0
LINE
  5
7BC3
  8
4
  6
CONTINUOUS
 10
2881.234845
 20
5573.3045229999998
 30
0.0
 11
3700.0
 21
5573.3045229999998
 31
0.0
  0
LINE
  5
7BC4
  8
4
  6
CONTINUOUS
 10
3700.0
 20
5573.3045229999998
 30
0.0
 11
3700.0
 21
5362.5271659999999
 31
0.0
  0
LINE
  5
7BC5
  8
4
  6
CONTINUOUS
 10
3700.0
 20
5362.5271659999999
 30
0.0
 11
2881.234845
 21
5362.5271659999999
 31
0.0
  0
LINE
  5
7BCA
  8
1
  6
CONTINUOUS
 10
906.86421900000005
 20
1707.9667219999999
 30
0.0
 11
906.86421900000005
 21
2377.9667219999992
 31
0.0
  0
LINE
  5
7BCB
  8
1
  6
CONTINUOUS
 10
906.86421900000005
 20
2377.9667219999992
 30
0.0
 11
1156.864219
 21
2452.9667219999992
 31
0.0
  0
LINE
  5
7BCC
  8
1
  6
CONTINUOUS
 10
1156.864219
 20
2452.9667219999992
 30
0.0
 11
1906.864219
 21
1942.966721999999
 31
0.0
  0
LINE
  5
7BCD
  8
1
  6
CONTINUOUS
 10
1906.864219
 20
1942.966721999999
 30
0.0
 11
1906.864219
 21
1707.9667219999999
 31
0.0
  0
DIMENSION
  5
7BEE
  8
3
  6
CONTINUOUS
  2
*D1
 10
1089.364219
 20
2613.775224999999
 30
0.0
 11
1303.1366419999999
 21
2613.775224999999
 31
0.0
 70
   128
 13
1569.364219
 23
2468.6967219999992
 33
0.0
 14
1089.364219
 24
2468.6967219999992
 34
0.0
1001
ACAD
1000
DSTYLE
1002
{
1070
   287
1070
     3
1070
    40
1040
20.0
1070
   143
1040
0.039
1070
   172
1070
     1
1070
   271
1070
     0
1070
   279
1070
     0
1070
   288
1070
     1
1002
}
  0
DIMENSION
  5
7BFB
  8
3
  6
CONTINUOUS
  2
*D2
 10
1107.364219
 20
2855.592447
 30
0.0
 11
1294.0646479999989
 21
2855.592447
 31
0.0
 70
   128
 13
1569.364219
 23
2468.6967219999992
 33
0.0
 14
1107.364219
 24
2618.1362140000001
 34
0.0
1001
ACAD
1000
DSTYLE
1002
{
1070
   287
1070
     3
1070
    40
1040
20.0
1070
   143
1040
0.039
1070
   172
1070
     1
1070
   271
1070
     0
1070
   279
1070
     0
1070
   288
1070
     1
1002
}
  0
DIMENSION
  5
7C07
  8
3
  6
CONTINUOUS
  2
*D3
 10
752.36421900000005
 20
2855.592447
 30
0.0
 11
929.86421900000005
 21
2905.592447
 31
0.0
 70
     0
 13
1107.364219
 23
2618.1362140000001
 33
0.0
 14
752.36421900000005
 24
2423.6967219999992
 34
0.0
1001
ACAD
1000
DSTYLE
1002
{
1070
   287
1070
     4
1070
    40
1040
20.0
1070
    75
1070
     1
1070
   143
1040
0.039
1070
   172
1070
     1
1070
   271
1070
     0
1070
   279
1070
     1
1070
   288
1070
     1
1002
}
  0
DIMENSION
  5
7C14
  8
3
  6
CONTINUOUS
  2
*D4
 10
2192.1918700000001
 20
2113.6967219999992
 30
0.0
 11
2192.1918700000001
 21
2331.5538649999999
 31
0.0
 70
   128
 13
1586.364219
 23
2468.6967219999992
 33
0.0
 14
2121.6519969999999
 24
2113.6967219999992
 34
0.0
 50
90.0
1001
ACAD
1000
DSTYLE
1002
{
1070
   287
1070
     3
1070
    40
1040
20.0
1070
   143
1040
0.039
1070
   172
1070
     1
1070
   271
1070
     0
1070
   279
1070
     0
1070
   288
1070
     1
1002
}
  0
DIMENSION
  5
7C20
  8
3
  6
CONTINUOUS
  2
*D5
 10
2192.1918700000001
 20
1623.6967219999999
 30
0.0
 11
2142.1918699999992
 21
1868.6967219999999
 31
0.0
 70
     0
 13
2121.6519969999999
 23
2113.6967219999992
 33
0.0
 14
1927.364219
 24
1623.6967219999999
 34
0.0
 50
90.0
1001
ACAD
1000
DSTYLE
1002
{
1070
   287
1070
     4
1070
    40
1040
20.0
1070
    75
1070
     1
1070
   143
1040
0.039
1070
   172
1070
     1
1070
   271
1070
     0
1070
   279
1070
     1
1070
   288
1070
     1
1002
}
  0
DIMENSION
  5
7C30
  8
3
  6
CONTINUOUS
  2
*D6
 10
2192.1918700000001
 20
1561.6967219999999
 30
0.0
 11
2192.1918699999992
 21
1413.125293428571
 31
0.0
 70
   128
 13
1927.364219
 23
1623.6967219999999
 33
0.0
 14
2027.364219
 24
1561.6967219999999
 34
0.0
 50
90.0
1001
ACAD
1000
DSTYLE
1002
{
1070
   287
1070
     3
1070
    40
1040
20.0
1070
   143
1040
0.039
1070
   172
1070
     1
1070
   271
1070
     0
1070
   279
1070
     0
1070
   288
1070
     1
1002
}
  0
DIMENSION
  5
7C3D
  8
3
  6
CONTINUOUS
  2
*D7
 10
1107.364219
 20
1361.7047660000001
 30
0.0
 11
899.43298699999991
 21
1361.7047660000001
 31
0.0
 70
   128
 13
707.36421900000005
 23
1561.6967219999999
 33
0.0
 14
1107.364219
 24
1381.342209006066
 34
0.0
1001
ACAD
1000
DSTYLE
1002
{
1070
   287
1070
     3
1070
    40
1040
20.0
1070
   143
1040
0.039
1070
   172
1070
     1
1070
   271
1070
     0
1070
   279
1070
     0
1070
   288
1070
     1
1002
}
  0
DIMENSION
  5
7C49
  8
3
  6
CONTINUOUS
  2
*D8
 10
2027.364219
 20
1361.7047660000001
 30
0.0
 11
1567.364219
 21
1411.7047660000001
 31
0.0
 70
     0
 13
1107.364219
 23
1381.342209006066
 33
0.0
 14
2027.364219
 24
1561.6967219999999
 34
0.0
1001
ACAD
1000
DSTYLE
1002
{
1070
   287
1070
     4
1070
    40
1040
20.0
1070
    75
1070
     1
1070
   143
1040
0.039
1070
   172
1070
     1
1070
   271
1070
     0
1070
   279
1070
     1
1070
   288
1070
     1
1002
}
  0
DIMENSION
  5
7C82
  8
3
  6
CONTINUOUS
  2
*D9
 10
2945.0814279999991
 20
2836.0898520000001
 30
0.0
 11
3126.607066
 21
2836.0898520000001
 31
0.0
 70
   128
 13
3305.0814279999991
 23
2468.6967219999992
 33
0.0
 14
2945.0814279999991
 24
2468.6967219999992
 34
0.0
1001
ACAD
1000
DSTYLE
1002
{
1070
   287
1070
     3
1070
    40
1040
20.0
1070
   143
1040
0.039
1070
   172
1070
     1
1070
   271
1070
     0
1070
   279
1070
     0
1070
   288
1070
     1
1002
}
  0
LINE
  5
7C99
  8
1
  6
CONTINUOUS
 10
3306.081428
 20
2363.6967219999992
 30
0.0
 11
3306.081428
 21
1863.6967219999999
 31
0.0
  0
DIMENSION
  5
7CA8
  8
3
  6
CONTINUOUS
  2
*D10
 10
3611.9586630000008
 20
1863.6967219999999
 30
0.0
 11
3611.9586630000008
 21
2120.0701389999999
 31
0.0
 70
   128
 13
3306.081428
 23
2363.6967219999992
 33
0.0
 14
3306.081428
 24
1863.6967219999999
 34
0.0
 50
90.0
1001
ACAD
1000
DSTYLE
1002
{
1070
   287
1070
     3
1070
     3
1000
φ<>
1070
    40
1040
20.0
1070
   143
1040
0.039
1070
   172
1070
     1
1070
   271
1070
     0
1070
   279
1070
     0
1070
   288
1070
     1
1002
}
  0
DIMENSION
  5
7CB7
  8
3
  6
CONTINUOUS
  2
*D11
 10
3125.081428
 20
2960.6735539999991
 30
0.0
 11
3215.581428
 21
3026.9037619835631
 31
0.0
 70
   128
 13
3306.081428
 23
2363.6967219999992
 33
0.0
 14
3125.081428
 24
2928.0486155527292
 34
0.0
1001
ACAD
1000
DSTYLE
1002
{
1070
   288
1070
     1
1070
   172
1070
     1
1070
    40
1040
20.0
1070
   271
1070
     0
1070
   143
1040
0.039
1002
}
  0
DIMENSION
  5
7CD0
  8
3
  6
CONTINUOUS
  2
*D12
 10
2027.364219
 20
4129.8763070000005
 30
0.0
 11
1334.8886070000001
 21
4129.8763070000005
 31
0.0
 70
   128
 13
707.36421900000005
 23
3988.0767219999989
 33
0.0
 14
2027.364219
 24
3988.0767219999989
 34
0.0
1001
ACAD
1000
DSTYLE
1002
{
1070
   287
1070
     3
1070
    40
1040
20.0
1070
   143
1040
0.039
1070
   172
1070
     1
1070
   271
1070
     0
1070
   279
1070
     0
1070
   288
1070
     1
1002
}
  0
DIMENSION
  5
7CDD
  8
3
  6
CONTINUOUS
  2
*D13
 10
2219.4078500000001
 20
3318.0767219999998
 30
0.0
 11
2219.4078500000001
 21
3658.5721880000001
 31
0.0
 70
   128
 13
2027.364219
 23
3988.0767219999989
 33
0.0
 14
2027.364219
 24
3318.0767219999998
 34
0.0
 50
90.0
1001
ACAD
1000
DSTYLE
1002
{
1070
   287
1070
     3
1070
    40
1040
20.0
1070
   143
1040
0.039
1070
   172
1070
     1
1070
   271
1070
     0
1070
   279
1070
     0
1070
   288
1070
     1
1002
}
  0
DIMENSION
  5
7CEA
  8
3
  6
CONTINUOUS
  2
*D14
 10
3125.081428
 20
1362.8047019999999
 30
0.0
 11
2963.6612979999991
 21
1362.8047019999999
 31
0.0
 70
   128
 13
2755.081428
 23
1561.6967219999999
 33
0.0
 14
3125.081428
 24
1454.5605390000001
 34
0.0
1001
ACAD
1000
DSTYLE
1002
{
1070
   287
1070
     3
1070
    40
1040
20.0
1070
   143
1040
0.039
1070
   172
1070
     1
1070
   271
1070
     0
1070
   279
1070
     0
1070
   288
1070
     1
1002
}
  0
DIMENSION
  5
7CF6
  8
3
  6
CONTINUOUS
  2
*D15
 10
3425.081428
 20
1362.8047019999999
 30
0.0
 11
3275.081428
 21
1412.804701999999
 31
0.0
 70
     0
 13
3125.081428
 23
1454.5605390000001
 33
0.0
 14
3425.081428
 24
1561.6967219999999
 34
0.0
1001
ACAD
1000
DSTYLE
1002
{
1070
   287
1070
     4
1070
    40
1040
20.0
1070
    75
1070
     1
1070
   143
1040
0.039
1070
   172
1070
     1
1070
   271
1070
     0
1070
   279
1070
     1
1070
   288
1070
     1
1002
}
  0
DIMENSION
  5
7D82
  8
3
  6
CONTINUOUS
  2
*D16
 10
2628.409369
 20
1561.6967219999999
 30
0.0
 11
2628.4093689999991
 21
2172.0861850000001
 31
0.0
 70
   128
 13
2755.081428
 23
2761.6967219999992
 33
0.0
 14
2755.081428
 24
1561.6967219999999
 34
0.0
 50
90.0
1001
ACAD
1000
DSTYLE
1002
{
1070
   287
1070
     3
1070
    40
1040
20.0
1070
   143
1040
0.039
1070
   172
1070
     1
1070
   271
1070
     0
1070
   279
1070
     0
1070
   288
1070
     1
1002
}
  0
ENDSEC
  0
EOF
