  0
SECTION
  2
HEADER
  9
$ACADVER
  1
AC1009
  9
$INSBASE
 10
0.0
 20
0.0
 30
0.0
  9
$EXTMIN
 10
500.0
 20
600.0
 30
0.0
  9
$EXTMAX
 10
3700.0
 20
5573.3045229999998
 30
0.0
  9
$LIMMIN
 10
0.0
 20
0.0
  9
$LIMMAX
 10
297.0
 20
210.0
  9
$ORTHOMODE
 70
     0
  9
$REGENMODE
 70
     1
  9
$FILLMODE
 70
     0
  9
$QTEXTMODE
 70
     0
  9
$MIRRTEXT
 70
     1
  9
$DRAGMODE
 70
     2
  9
$LTSCALE
 40
100.0
  9
$OSMODE
 70
    37
  9
$ATTMODE
 70
     1
  9
$TEXTSIZE
 40
180.0
  9
$TRACEWID
 40
0.05
  9
$TEXTSTYLE
  7
STANDARD
  9
$CLAYER
  8
3
  9
$CELTYPE
  6
BYLAYER
  9
$CECOLOR
 62
   256
  9
$DIMSCALE
 40
20.0
  9
$DIMASZ
 40
2.0
  9
$DIMEXO
 40
0.5
  9
$DIMDLI
 40
10.0
  9
$DIMRND
 40
0.0
  9
$DIMDLE
 40
0.0
  9
$DIMEXE
 40
1.0
  9
$DIMTP
 40
1.0
  9
$DIMTM
 40
1.0
  9
$DIMTXT
 40
3.0
  9
$DIMCEN
 40
0.0
  9
$DIMTSZ
 40
0.0
  9
$DIMTOL
 70
     0
  9
$DIMLIM
 70
     0
  9
$DIMTIH
 70
     0
  9
$DIMTOH
 70
     0
  9
$DIMSE1
 70
     0
  9
$DIMSE2
 70
     0
  9
$DIMTAD
 70
     1
  9
$DIMZIN
 70
     8
  9
$DIMBLK
  1

  9
$DIMASO
 70
     1
  9
$DIMSHO
 70
     1
  9
$DIMPOST
  1

  9
$DIMAPOST
  1

  9
$DIMALT
 70
     0
  9
$DIMALTD
 70
     2
  9
$DIMALTF
 40
0.039
  9
$DIMLFAC
 40
1.0
  9
$DIMTOFL
 70
     1
  9
$DIMTVP
 40
0.0
  9
$DIMTIX
 70
     0
  9
$DIMSOXD
 70
     0
  9
$DIMSAH
 70
     1
  9
$DIMBLK1
  1
OPEN
  9
$DIMBLK2
  1
OPEN
  9
$DIMSTYLE
  2
IGA
  9
$DIMCLRD
 70
     0
  9
$DIMCLRE
 70
     0
  9
$DIMCLRT
 70
     0
  9
$DIMTFAC
 40
10.0
  9
$DIMGAP
 40
1.0
  9
$LUNITS
 70
     2
  9
$LUPREC
 70
     3
  9
$SKETCHINC
 40
0.1
  9
$FILLETRAD
 40
50.0
  9
$AUNITS
 70
     0
  9
$AUPREC
 70
     0
  9
$MENU
  1
acad
  9
$ELEVATION
 40
0.0
  9
$PELEVATION
 40
0.0
  9
$THICKNESS
 40
0.0
  9
$LIMCHECK
 70
     0
  9
$BLIPMODE
 70
     0
  9
$CHAMFERA
 40
0.5
  9
$CHAMFERB
 40
0.5
  9
$SKPOLY
 70
     0
  9
$TDCREATE
 40
2450736.384648148
  9
$TDUPDATE
 40
2454953.7672849651
  9
$TDINDWG
 40
0.016589537
  9
$TDUSRTIMER
 40
0.016589537
  9
$USRTIMER
 70
     1
  9
$ANGBASE
 50
0.0
  9
$ANGDIR
 70
     0
  9
$PDMODE
 70
     0
  9
$PDSIZE
 40
0.0
  9
$PLINEWID
 40
0.0
  9
$COORDS
 70
     1
  9
$SPLFRAME
 70
     0
  9
$SPLINETYPE
 70
     6
  9
$SPLINESEGS
 70
     8
  9
$ATTDIA
 70
     0
  9
$ATTREQ
 70
     1
  9
$HANDLING
 70
 10241
  9
$HANDSEED
  5
7F0C
  9
$SURFTAB1
 70
     6
  9
$SURFTAB2
 70
     6
  9
$SURFTYPE
 70
     6
  9
$SURFU
 70
     6
  9
$SURFV
 70
     6
  9
$UCSNAME
  2

  9
$UCSORG
 10
0.0
 20
0.0
 30
0.0
  9
$UCSXDIR
 10
1.0
 20
0.0
 30
0.0
  9
$UCSYDIR
 10
0.0
 20
1.0
 30
0.0
  9
$PUCSNAME
  2

  9
$PUCSORG
 10
0.0
 20
0.0
 30
0.0
  9
$PUCSXDIR
 10
1.0
 20
0.0
 30
0.0
  9
$PUCSYDIR
 10
0.0
 20
1.0
 30
0.0
  9
$USERI1
 70
     0
  9
$USERI2
 70
     0
  9
$USERI3
 70
     0
  9
$USERI4
 70
     0
  9
$USERI5
 70
     0
  9
$USERR1
 40
0.0
  9
$USERR2
 40
0.0
  9
$USERR3
 40
0.0
  9
$USERR4
 40
0.0
  9
$USERR5
 40
0.0
  9
$WORLDVIEW
 70
     1
  9
$SHADEDGE
 70
     3
  9
$SHADEDIF
 70
    70
  9
$TILEMODE
 70
     1
  9
$MAXACTVP
 70
    16
  9
$PLIMCHECK
 70
     0
  9
$PEXTMIN
 10
1.0000000000000000E+020
 20
1.0000000000000000E+020
 30
1.0000000000000000E+020
  9
$PEXTMAX
 10
-1.0000000000000000E+020
 20
-1.0000000000000000E+020
 30
-1.0000000000000000E+020
  9
$PLIMMIN
 10
0.0
 20
0.0
  9
$PLIMMAX
 10
12.0
 20
9.0
  9
$UNITMODE
 70
     0
  9
$VISRETAIN
 70
     0
  9
$PLINEGEN
 70
     0
  9
$PSLTSCALE
 70
     1
  0
ENDSEC
  0
SECTION
  2
TABLES
  0
TABLE
  2
VPORT
 70
     2
  0
VPORT
  2
*ACTIVE
 70
     0
 10
0.0
 20
0.0
 11
1.0
 21
1.0
 12
6292.1124769529506
 22
3086.6374998146398
 13
0.0
 23
0.0
 14
10.0
 24
10.0
 15
10.0
 25
10.0
 16
0.0
 26
0.0
 36
1.0
 17
0.0
 27
0.0
 37
0.0
 40
5011.4968576296578
 41
3.1666666666666661
 42
50.0
 43
0.0
 44
0.0
 50
0.0
 51
0.0
 71
     0
 72
   100
 73
     1
 74
     0
 75
     0
 76
     0
 77
     0
 78
     0
  0
ENDTAB
  0
TABLE
  2
LTYPE
 70
     2
  0
LTYPE
  2
CONTINUOUS
 70
     0
  3
Solid line
 72
    65
 73
     0
 40
0.0
  0
LTYPE
  2
CENTER
 70
     0
  3
____ _ ____ _ ____ _ ____ _ ____ _ ____ _ ____ 
 72
    65
 73
     4
 40
2.0
 49
1.25
 49
-0.25
 49
0.25
 49
-0.25
  0
ENDTAB
  0
TABLE
  2
LAYER
 70
     6
  0
LAYER
  2
0
 70
     0
 62
     7
  6
CONTINUOUS
  0
LAYER
  2
3
 70
     0
 62
     2
  6
CONTINUOUS
  0
LAYER
  2
2
 70
     0
 62
     3
  6
CENTER
  0
LAYER
  2
1
 70
     0
 62
     4
  6
CONTINUOUS
  0
LAYER
  2
4
 70
     0
 62
     7
  6
CONTINUOUS
  0
LAYER
  2
DEFPOINTS
 70
     0
 62
     7
  6
CONTINUOUS
  0
ENDTAB
  0
TABLE
  2
STYLE
 70
     1
  0
STYLE
  2
STANDARD
 70
     0
 40
0.0
 41
1.0
 50
0.0
 71
     0
 42
180.0
  3
simplex.shx
  4
extfont.shx
  0
ENDTAB
  0
TABLE
  2
VIEW
 70
     0
  0
ENDTAB
  0
TABLE
  2
UCS
 70
     0
  0
ENDTAB
  0
TABLE
  2
APPID
 70
     1
  0
APPID
  2
ACAD
 70
     0
  0
ENDTAB
  0
TABLE
  2
DIMSTYLE
 70
     1
  0
DIMSTYLE
  2
IGA
 70
     0
  3

  4

  5

  6
OPEN
  7
OPEN
 40
2.0
 41
2.0
 42
0.5
 43
10.0
 44
1.0
 45
0.0
 46
0.0
 47
1.0
 48
1.0
140
3.0
141
0.0
142
0.0
143
0.03937
144
1.0
145
0.0
146
10.0
147
1.0
 71
     0
 72
     0
 73
     0
 74
     0
 75
     0
 76
     0
 77
     1
 78
     8
170
     0
171
     2
172
     0
173
     1
174
     0
175
     0
176
     0
177
     0
178
     0
  0
ENDTAB
  0
ENDSEC
  0
SECTION
  2
BLOCKS
  0
BLOCK
  8
0
  2
$MODEL_SPACE
 70
     0
 10
0.0
 20
0.0
 30
0.0
  3
$MODEL_SPACE
  1

  0
ENDBLK
  5
1B
  8
0
  0
BLOCK
 67
     1
  8
0
  2
$PAPER_SPACE
 70
     0
 10
0.0
 20
0.0
 30
0.0
  3
$PAPER_SPACE
  1

  0
ENDBLK
  5
18
 67
     1
  8
0
  0
BLOCK
  8
0
  2
_OPEN
 70
     0
 10
0.0
 20
0.0
 30
0.0
  3
_OPEN
  1

  0
LINE
  5
7BEA
  8
0
  6
BYBLOCK
 62
     0
 10
-1.0
 20
0.166667
 30
0.0
 11
0.0
 21
0.0
 31
0.0
  0
LINE
  5
7BEB
  8
0
  6
BYBLOCK
 62
     0
 10
0.0
 20
0.0
 30
0.0
 11
-1.0
 21
-0.166667
 31
0.0
  0
LINE
  5
7BEC
  8
0
  6
BYBLOCK
 62
     0
 10
0.0
 20
0.0
 30
0.0
 11
-1.0
 21
0.0
 31
0.0
  0
ENDBLK
  5
7BED
  8
0
  0
BLOCK
  8
0
  2
*D1
 70
     1
 10
0.0
 20
0.0
 30
0.0
  3
*D1
  1

  0
LINE
  5
7E78
  8
3
  6
CONTINUOUS
 62
     0
 10
886.44612062487158
 20
2635.689441
 30
0.0
 11
782.586041624872
 21
2635.689441
 31
0.0
  0
LINE
  5
7E79
  8
3
  6
CONTINUOUS
 62
     0
 10
886.44612062487158
 20
2155.689441
 30
0.0
 11
782.58604162487177
 21
2155.689441
 31
0.0
  0
LINE
  5
7E7A
  8
3
  6
CONTINUOUS
 62
     0
 10
802.586041624872
 20
2595.689441
 30
0.0
 11
802.58604162487177
 21
2195.689441
 31
0.0
  0
INSERT
  5
7E7B
  8
3
  6
CONTINUOUS
 62
     0
  2
_OPEN
 10
802.586041624872
 20
2635.689441
 30
0.0
 41
40.0
 42
40.0
 43
40.0
 50
90.0
  0
INSERT
  5
7E7C
  8
3
  6
CONTINUOUS
 62
     0
  2
_OPEN
 10
802.58604162487177
 20
2155.689441
 30
0.0
 41
40.0
 42
40.0
 43
40.0
 50
270.0
  0
TEXT
  8
3
  40
60
  5
7EFD
  62
0
  72
0
  71
0
 10
632.586
 20
2272.28
 30
0.000000
  1
480
  0
POINT
  5
7E7E
  8
DEFPOINTS
  6
CONTINUOUS
 62
     0
 10
896.44612062487147
 20
2635.689441
 30
0.0
  0
POINT
  5
7E7F
  8
DEFPOINTS
  6
CONTINUOUS
 62
     0
 10
896.44612062487147
 20
2155.689441
 30
0.0
  0
POINT
  5
7E80
  8
DEFPOINTS
  6
CONTINUOUS
 62
     0
 10
802.58604162487177
 20
2155.689441
 30
0.0
  0
ENDBLK
  5
7C82
  8
0
  0
BLOCK
  8
0
  2
*D2
 70
     1
 10
0.0
 20
0.0
 30
0.0
  3
*D2
  1

  0
LINE
  5
7E81
  8
3
  6
CONTINUOUS
 62
     0
 10
841.44612062487147
 20
2635.689441
 30
0.0
 11
659.90526362487185
 21
2635.689441
 31
0.0
  0
LINE
  5
7E82
  8
3
  6
CONTINUOUS
 62
     0
 10
712.25839562487135
 20
2173.689441
 30
0.0
 11
659.90526362487174
 21
2173.689441
 31
0.0
  0
LINE
  5
7E83
  8
3
  6
CONTINUOUS
 62
     0
 10
679.90526362487185
 20
2595.689441
 30
0.0
 11
679.90526362487174
 21
2213.689441
 31
0.0
  0
INSERT
  5
7E84
  8
3
  6
CONTINUOUS
 62
     0
  2
_OPEN
 10
679.90526362487185
 20
2635.689441
 30
0.0
 41
40.0
 42
40.0
 43
40.0
 50
90.0
  0
INSERT
  5
7E85
  8
3
  6
CONTINUOUS
 62
     0
  2
_OPEN
 10
679.90526362487174
 20
2173.689441
 30
0.0
 41
40.0
 42
40.0
 43
40.0
 50
270.0
  0
TEXT
  8
3
  40
60
  5
7EFE
  62
0
  72
0
  71
0
 10
509.905
 20
2272.28
 30
0.000000
  1
462
  0
POINT
  5
7E87
  8
DEFPOINTS
  6
CONTINUOUS
 62
     0
 10
851.44612062487158
 20
2635.689441
 30
0.0
  0
POINT
  5
7E88
  8
DEFPOINTS
  6
CONTINUOUS
 62
     0
 10
722.25839562487135
 20
2173.689441
 30
0.0
  0
POINT
  5
7E89
  8
DEFPOINTS
  6
CONTINUOUS
 62
     0
 10
679.90526362487174
 20
2173.689441
 30
0.0
  0
ENDBLK
  5
7C77
  8
0
  0
BLOCK
  8
0
  2
*D3
 70
     1
 10
0.0
 20
0.0
 30
0.0
  3
*D3
  1

  0
LINE
  5
7E8A
  8
3
  6
CONTINUOUS
 62
     0
 10
941.44612062487136
 20
1738.689441
 30
0.0
 11
659.9052636248714
 21
1738.689441
 31
0.0
  0
LINE
  5
7E8B
  8
3
  6
CONTINUOUS
 62
     0
 10
679.90526362487151
 20
2133.689441
 30
0.0
 11
679.90526362487128
 21
1778.689441
 31
0.0
  0
INSERT
  5
7E8C
  8
3
  6
CONTINUOUS
 62
     0
  2
_OPEN
 10
679.90526362487151
 20
2173.689441
 30
0.0
 41
40.0
 42
40.0
 43
40.0
 50
90.0
  0
INSERT
  5
7E8D
  8
3
  6
CONTINUOUS
 62
     0
  2
_OPEN
 10
679.90526362487128
 20
1738.689441
 30
0.0
 41
40.0
 42
40.0
 43
40.0
 50
270.0
  0
TEXT
  8
3
  40
60
  5
7EFF
  62
0
  72
0
  71
0
 10
509.905
 20
1849.99
 30
0.000000
  1
435
  0
POINT
  5
7E8F
  8
DEFPOINTS
  6
CONTINUOUS
 62
     0
 10
722.25839562487135
 20
2173.689441
 30
0.0
  0
POINT
  5
7E90
  8
DEFPOINTS
  6
CONTINUOUS
 62
     0
 10
951.44612062487136
 20
1738.689441
 30
0.0
  0
POINT
  5
7E91
  8
DEFPOINTS
  6
CONTINUOUS
 62
     0
 10
679.90526362487128
 20
1738.689441
 30
0.0
  0
ENDBLK
  5
7C13
  8
0
  0
BLOCK
  8
0
  2
*D4
 70
     1
 10
0.0
 20
0.0
 30
0.0
  3
*D4
  1

  0
LINE
  5
7E92
  8
3
  6
CONTINUOUS
 62
     0
 10
941.44612062487136
 20
1738.689441
 30
0.0
 11
661.75158362487139
 21
1738.689441
 31
0.0
  0
LINE
  5
7E93
  8
3
  6
CONTINUOUS
 62
     0
 10
841.44612062487147
 20
1676.6894409999991
 30
0.0
 11
661.75158362487139
 21
1676.6894409999991
 31
0.0
  0
LINE
  5
7E94
  8
3
  6
CONTINUOUS
 62
     0
 10
681.75158362487139
 20
1778.689441
 30
0.0
 11
681.75158362487161
 21
1818.689441
 31
0.0
  0
LINE
  5
7E95
  8
3
  6
CONTINUOUS
 62
     0
 10
681.75158362487139
 20
1636.689441
 30
0.0
 11
681.75158362487139
 21
1459.546583857142
 31
0.0
  0
LINE
  5
7E96
  8
3
  6
CONTINUOUS
 62
     0
 10
681.75158362487139
 20
1738.689441
 30
0.0
 11
681.75158362487139
 21
1676.6894409999991
 31
0.0
  0
INSERT
  5
7E97
  8
3
  6
CONTINUOUS
 62
     0
  2
_OPEN
 10
681.75158362487139
 20
1738.689441
 30
0.0
 41
40.0
 42
40.0
 43
40.0
 50
270.0
  0
INSERT
  5
7E98
  8
3
  6
CONTINUOUS
 62
     0
  2
_OPEN
 10
681.75158362487139
 20
1676.6894409999991
 30
0.0
 41
40.0
 42
40.0
 43
40.0
 50
90.0
  0
TEXT
  8
3
  40
60
  5
7F00
  62
0
  72
0
  71
0
 10
511.752
 20
1421.92
 30
0.000000
  1
62
  0
POINT
  5
7E9A
  8
DEFPOINTS
  6
CONTINUOUS
 62
     0
 10
951.44612062487136
 20
1738.689441
 30
0.0
  0
POINT
  5
7E9B
  8
DEFPOINTS
  6
CONTINUOUS
 62
     0
 10
851.44612062487158
 20
1676.6894409999991
 30
0.0
  0
POINT
  5
7E9C
  8
DEFPOINTS
  6
CONTINUOUS
 62
     0
 10
681.75158362487139
 20
1676.6894409999991
 30
0.0
  0
ENDBLK
  5
7DE8
  8
0
  0
BLOCK
  8
0
  2
*D5
 70
     1
 10
0.0
 20
0.0
 30
0.0
  3
*D5
  1

  0
LINE
  5
7E9D
  8
3
  6
CONTINUOUS
 62
     0
 10
896.44612062487147
 20
2662.689441
 30
0.0
 11
896.44612062487147
 21
3044.057423089439
 31
0.0
  0
LINE
  5
7E9E
  8
3
  6
CONTINUOUS
 62
     0
 10
1251.4461206248709
 20
2990.969098
 30
0.0
 11
1251.4461206248709
 21
3044.057423089439
 31
0.0
  0
LINE
  5
7E9F
  8
3
  6
CONTINUOUS
 62
     0
 10
936.44612062487158
 20
3024.057423089439
 30
0.0
 11
1211.4461206248709
 21
3024.057423089439
 31
0.0
  0
INSERT
  5
7EA0
  8
3
  6
CONTINUOUS
 62
     0
  2
_OPEN
 10
896.44612062487147
 20
3024.057423089439
 30
0.0
 41
40.0
 42
40.0
 43
40.0
 50
180.0
  0
INSERT
  5
7EA1
  8
3
  6
CONTINUOUS
 62
     0
  2
_OPEN
 10
1251.4461206248709
 20
3024.057423089439
 30
0.0
 41
40.0
 42
40.0
 43
40.0
  0
TEXT
  8
3
  40
60
  5
7F01
  62
0
  72
0
  71
0
 10
946.822
 20
2967.86
 30
0.000000
  1
355
  0
POINT
  5
7EA3
  8
DEFPOINTS
  6
CONTINUOUS
 62
     0
 10
896.44612062487147
 20
2652.689441
 30
0.0
  0
POINT
  5
7EA4
  8
DEFPOINTS
  6
CONTINUOUS
 62
     0
 10
1251.4461206248709
 20
2980.969098
 30
0.0
  0
POINT
  5
7EA5
  8
DEFPOINTS
  6
CONTINUOUS
 62
     0
 10
1251.4461206248709
 20
3024.057423089439
 30
0.0
  0
ENDBLK
  5
7E49
  8
0
  0
BLOCK
  8
0
  2
*D6
 70
     1
 10
0.0
 20
0.0
 30
0.0
  3
*D6
  1

  0
LINE
  5
7EA6
  8
3
  6
CONTINUOUS
 62
     0
 10
851.44612062487158
 20
1666.689441
 30
0.0
 11
851.44612062487158
 21
1467.3816019999999
 31
0.0
  0
LINE
  5
7EA7
  8
3
  6
CONTINUOUS
 62
     0
 10
1251.4461206248709
 20
1565.6966619999989
 30
0.0
 11
1251.4461206248709
 21
1467.3816019999999
 31
0.0
  0
LINE
  5
7EA8
  8
3
  6
CONTINUOUS
 62
     0
 10
891.44612062487147
 20
1487.3816019999999
 30
0.0
 11
1211.4461206248709
 21
1487.3816019999999
 31
0.0
  0
INSERT
  5
7EA9
  8
3
  6
CONTINUOUS
 62
     0
  2
_OPEN
 10
851.44612062487158
 20
1487.3816019999999
 30
0.0
 41
40.0
 42
40.0
 43
40.0
 50
180.0
  0
INSERT
  5
7EAA
  8
3
  6
CONTINUOUS
 62
     0
  2
_OPEN
 10
1251.4461206248709
 20
1487.3816019999999
 30
0.0
 41
40.0
 42
40.0
 43
40.0
  0
TEXT
  8
3
  40
60
  5
7F02
  62
0
  72
0
  71
0
 10
932.666
 20
1431.18
 30
0.000000
  1
400
  0
POINT
  5
7EAC
  8
DEFPOINTS
  6
CONTINUOUS
 62
     0
 10
851.44612062487158
 20
1676.6894409999991
 30
0.0
  0
POINT
  5
7EAD
  8
DEFPOINTS
  6
CONTINUOUS
 62
     0
 10
1251.4461206248709
 20
1575.6966619999989
 30
0.0
  0
POINT
  5
7EAE
  8
DEFPOINTS
  6
CONTINUOUS
 62
     0
 10
1251.4461206248709
 20
1487.3816019999999
 30
0.0
  0
ENDBLK
  5
7D1E
  8
0
  0
BLOCK
  8
0
  2
*D7
 70
     1
 10
0.0
 20
0.0
 30
0.0
  3
*D7
  1

  0
LINE
  5
7EAF
  8
3
  6
CONTINUOUS
 62
     0
 10
2171.4461206248711
 20
1666.689441
 30
0.0
 11
2171.4461206248711
 21
1467.3816019999999
 31
0.0
  0
LINE
  5
7EB0
  8
3
  6
CONTINUOUS
 62
     0
 10
1291.4461206248709
 20
1487.3816019999999
 30
0.0
 11
2131.4461206248711
 21
1487.3816019999999
 31
0.0
  0
INSERT
  5
7EB1
  8
3
  6
CONTINUOUS
 62
     0
  2
_OPEN
 10
1251.4461206248709
 20
1487.3816019999999
 30
0.0
 41
40.0
 42
40.0
 43
40.0
 50
180.0
  0
INSERT
  5
7EB2
  8
3
  6
CONTINUOUS
 62
     0
  2
_OPEN
 10
2171.4461206248711
 20
1487.3816019999999
 30
0.0
 41
40.0
 42
40.0
 43
40.0
  0
TEXT
  8
3
  40
60
  5
7F03
  62
0
  72
0
  71
0
 10
1591.45
 20
1431.18
 30
0.000000
  1
920
  0
POINT
  5
7EB4
  8
DEFPOINTS
  6
CONTINUOUS
 62
     0
 10
1251.4461206248709
 20
1575.6966619999989
 30
0.0
  0
POINT
  5
7EB5
  8
DEFPOINTS
  6
CONTINUOUS
 62
     0
 10
2171.4461206248711
 20
1676.6894409999991
 30
0.0
  0
POINT
  5
7EB6
  8
DEFPOINTS
  6
CONTINUOUS
 62
     0
 10
2171.4461206248711
 20
1487.3816019999999
 30
0.0
  0
ENDBLK
  5
7D13
  8
0
  0
BLOCK
  8
0
  2
*D8
 70
     1
 10
0.0
 20
0.0
 30
0.0
  3
*D8
  1

  0
LINE
  5
7EB7
  8
3
  6
CONTINUOUS
 62
     0
 10
3348.4002696248708
 20
2423.689441
 30
0.0
 11
3667.8361236248711
 21
2423.689441
 31
0.0
  0
LINE
  5
7EB8
  8
3
  6
CONTINUOUS
 62
     0
 10
3348.4002696248708
 20
1923.689441
 30
0.0
 11
3667.8361236248711
 21
1923.6894409999991
 31
0.0
  0
LINE
  5
7EB9
  8
3
  6
CONTINUOUS
 62
     0
 10
3647.836123624872
 20
2383.689441
 30
0.0
 11
3647.836123624872
 21
1963.6894409999991
 31
0.0
  0
INSERT
  5
7EBA
  8
3
  6
CONTINUOUS
 62
     0
  2
_OPEN
 10
3647.836123624872
 20
2423.689441
 30
0.0
 41
40.0
 42
40.0
 43
40.0
 50
90.0
  0
INSERT
  5
7EBB
  8
3
  6
CONTINUOUS
 62
     0
  2
_OPEN
 10
3647.836123624872
 20
1923.6894409999991
 30
0.0
 41
40.0
 42
40.0
 43
40.0
 50
270.0
  0
TEXT
  8
3
  40
60
  5
7F04
  62
0
  72
0
  71
0
 10
3477.84
 20
2050.71
 30
0.000000
  1
φ500
  0
POINT
  5
7EBD
  8
DEFPOINTS
  6
CONTINUOUS
 62
     0
 10
3338.4002696248708
 20
2423.689441
 30
0.0
  0
POINT
  5
7EBE
  8
DEFPOINTS
  6
CONTINUOUS
 62
     0
 10
3338.4002696248708
 20
1923.689441
 30
0.0
  0
POINT
  5
7EBF
  8
DEFPOINTS
  6
CONTINUOUS
 62
     0
 10
3647.836123624872
 20
1923.6894409999991
 30
0.0
  0
ENDBLK
  5
7E14
  8
0
  0
BLOCK
  8
0
  2
*D9
 70
     1
 10
0.0
 20
0.0
 30
0.0
  3
*D9
  1

  0
LINE
  5
7E00
  8
0
  6
BYBLOCK
 62
     0
 10
3338.4002696248708
 20
2433.689441
 30
0.0
 11
3338.4002696248708
 21
3086.6471780000002
 31
0.0
  0
LINE
  5
7E01
  8
0
  6
BYBLOCK
 62
     0
 10
3157.4002696248708
 20
3037.1569486871649
 30
0.0
 11
3157.4002696248708
 21
3086.6471780000002
 31
0.0
  0
LINE
  5
7E02
  8
0
  6
BYBLOCK
 62
     0
 10
3298.4002696248708
 20
3066.6471780000002
 30
0.0
 11
3197.4002696248708
 21
3066.6471780000002
 31
0.0
  0
TEXT
  5
7E03
  8
3
 62
     0
 10
3189.3288410534428
 20
3100.7325215103751
 30
0.0
 40
60.0
  1
181
  0
INSERT
  5
7E04
  8
0
  6
BYBLOCK
 62
     0
  2
_OPEN
 10
3338.4002696248708
 20
3066.6471780000002
 30
0.0
 41
40.0
 42
40.0
 43
40.0
  0
INSERT
  5
7E05
  8
0
  6
BYBLOCK
 62
     0
  2
_OPEN
 10
3157.4002696248708
 20
3066.6471780000002
 30
0.0
 41
40.0
 42
40.0
 43
40.0
 50
180.0
  0
POINT
  5
7E06
  8
DEFPOINTS
  6
BYBLOCK
 62
     0
 10
3338.4002696248708
 20
2423.689441
 30
0.0
  0
POINT
  5
7E07
  8
DEFPOINTS
  6
BYBLOCK
 62
     0
 10
3157.4002696248708
 20
3027.1569486871649
 30
0.0
  0
POINT
  5
7E08
  8
DEFPOINTS
  6
BYBLOCK
 62
     0
 10
3157.4002696248708
 20
3066.6471780000002
 30
0.0
  0
ENDBLK
  5
7E09
  8
0
  0
BLOCK
  8
0
  2
*D10
 70
     1
 10
0.0
 20
0.0
 30
0.0
  3
*D10
  1

  0
LINE
  5
7EC0
  8
3
  6
CONTINUOUS
 62
     0
 10
2787.4002696248708
 20
1666.689441
 30
0.0
 11
2787.4002696248708
 21
1468.945698
 31
0.0
  0
LINE
  5
7EC1
  8
3
  6
CONTINUOUS
 62
     0
 10
3157.4002696248708
 20
1550.8299128352351
 30
0.0
 11
3157.4002696248708
 21
1468.945698
 31
0.0
  0
LINE
  5
7EC2
  8
3
  6
CONTINUOUS
 62
     0
 10
2827.4002696248708
 20
1488.945698
 30
0.0
 11
3117.4002696248708
 21
1488.945698
 31
0.0
  0
INSERT
  5
7EC3
  8
3
  6
CONTINUOUS
 62
     0
  2
_OPEN
 10
2787.4002696248708
 20
1488.945698
 30
0.0
 41
40.0
 42
40.0
 43
40.0
 50
180.0
  0
INSERT
  5
7EC4
  8
3
  6
CONTINUOUS
 62
     0
  2
_OPEN
 10
3157.4002696248708
 20
1488.945698
 30
0.0
 41
40.0
 42
40.0
 43
40.0
  0
TEXT
  8
3
  40
60
  5
7F05
  62
0
  72
0
  71
0
 10
2862.53
 20
1432.75
 30
0.000000
  1
370
  0
POINT
  5
7EC6
  8
DEFPOINTS
  6
CONTINUOUS
 62
     0
 10
2787.4002696248708
 20
1676.6894409999991
 30
0.0
  0
POINT
  5
7EC7
  8
DEFPOINTS
  6
CONTINUOUS
 62
     0
 10
3157.4002696248708
 20
1560.8299128352351
 30
0.0
  0
POINT
  5
7EC8
  8
DEFPOINTS
  6
CONTINUOUS
 62
     0
 10
3157.4002696248708
 20
1488.945698
 30
0.0
  0
ENDBLK
  5
7E34
  8
0
  0
BLOCK
  8
0
  2
*D11
 70
     1
 10
0.0
 20
0.0
 30
0.0
  3
*D11
  1

  0
LINE
  5
7EC9
  8
3
  6
CONTINUOUS
 62
     0
 10
3457.4002696248708
 20
1666.689441
 30
0.0
 11
3457.4002696248708
 21
1468.945698
 31
0.0
  0
LINE
  5
7ECA
  8
3
  6
CONTINUOUS
 62
     0
 10
3197.4002696248708
 20
1488.945698
 30
0.0
 11
3417.4002696248708
 21
1488.945698
 31
0.0
  0
INSERT
  5
7ECB
  8
3
  6
CONTINUOUS
 62
     0
  2
_OPEN
 10
3157.4002696248708
 20
1488.945698
 30
0.0
 41
40.0
 42
40.0
 43
40.0
 50
180.0
  0
INSERT
  5
7ECC
  8
3
  6
CONTINUOUS
 62
     0
  2
_OPEN
 10
3457.4002696248708
 20
1488.945698
 30
0.0
 41
40.0
 42
40.0
 43
40.0
  0
TEXT
  8
3
  40
60
  5
7F06
  62
0
  72
0
  71
0
 10
3187.40
 20
1432.75
 30
0.000000
  1
300
  0
POINT
  5
7ECE
  8
DEFPOINTS
  6
CONTINUOUS
 62
     0
 10
3157.4002696248708
 20
1573.0023032547369
 30
0.0
  0
POINT
  5
7ECF
  8
DEFPOINTS
  6
CONTINUOUS
 62
     0
 10
3457.4002696248708
 20
1676.6894409999991
 30
0.0
  0
POINT
  5
7ED0
  8
DEFPOINTS
  6
CONTINUOUS
 62
     0
 10
3457.4002696248708
 20
1488.945698
 30
0.0
  0
ENDBLK
  5
7E3E
  8
0
  0
BLOCK
  8
0
  2
*D12
 70
     1
 10
0.0
 20
0.0
 30
0.0
  3
*D12
  1

  0
LINE
  5
7ED1
  8
3
  6
CONTINUOUS
 62
     0
 10
851.44612062487158
 20
4108.7994409999992
 30
0.0
 11
851.44612062487158
 21
4291.2813999999989
 31
0.0
  0
LINE
  5
7ED2
  8
3
  6
CONTINUOUS
 62
     0
 10
2171.4461206248711
 20
4108.7994409999992
 30
0.0
 11
2171.4461206248711
 21
4291.2813999999989
 31
0.0
  0
LINE
  5
7ED3
  8
3
  6
CONTINUOUS
 62
     0
 10
891.44612062487147
 20
4271.2813999999998
 30
0.0
 11
2131.4461206248711
 21
4271.2813999999998
 31
0.0
  0
INSERT
  5
7ED4
  8
3
  6
CONTINUOUS
 62
     0
  2
_OPEN
 10
851.44612062487158
 20
4271.2813999999998
 30
0.0
 41
40.0
 42
40.0
 43
40.0
 50
180.0
  0
INSERT
  5
7ED5
  8
3
  6
CONTINUOUS
 62
     0
  2
_OPEN
 10
2171.4461206248711
 20
4271.2813999999998
 30
0.0
 41
40.0
 42
40.0
 43
40.0
  0
TEXT
  8
3
  40
60
  5
7F07
  62
0
  72
0
  71
0
 10
1366.77
 20
4215.08
 30
0.000000
  1
1320
  0
POINT
  5
7ED7
  8
DEFPOINTS
  6
CONTINUOUS
 62
     0
 10
851.44612062487158
 20
4098.7994409999992
 30
0.0
  0
POINT
  5
7ED8
  8
DEFPOINTS
  6
CONTINUOUS
 62
     0
 10
2171.4461206248711
 20
4098.7994409999992
 30
0.0
  0
POINT
  5
7ED9
  8
DEFPOINTS
  6
CONTINUOUS
 62
     0
 10
2171.4461206248711
 20
4271.2813999999998
 30
0.0
  0
ENDBLK
  5
7D43
  8
0
  0
BLOCK
  8
0
  2
*D13
 70
     1
 10
0.0
 20
0.0
 30
0.0
  3
*D13
  1

  0
LINE
  5
7EDA
  8
3
  6
CONTINUOUS
 62
     0
 10
2181.4461206248711
 20
4098.7994409999992
 30
0.0
 11
2370.2511036248711
 21
4098.7994409999992
 31
0.0
  0
LINE
  5
7EDB
  8
3
  6
CONTINUOUS
 62
     0
 10
2181.4461206248711
 20
3428.7994409999992
 30
0.0
 11
2370.2511036248711
 21
3428.7994409999992
 31
0.0
  0
LINE
  5
7EDC
  8
3
  6
CONTINUOUS
 62
     0
 10
2350.2511036248711
 20
4058.7994410000001
 30
0.0
 11
2350.2511036248711
 21
3468.7994409999992
 31
0.0
  0
INSERT
  5
7EDD
  8
3
  6
CONTINUOUS
 62
     0
  2
_OPEN
 10
2350.2511036248711
 20
4098.7994409999992
 30
0.0
 41
40.0
 42
40.0
 43
40.0
 50
90.0
  0
INSERT
  5
7EDE
  8
3
  6
CONTINUOUS
 62
     0
  2
_OPEN
 10
2350.2511036248711
 20
3428.7994409999992
 30
0.0
 41
40.0
 42
40.0
 43
40.0
 50
270.0
  0
TEXT
  8
3
  40
60
  5
7F08
  62
0
  72
0
  71
0
 10
2180.25
 20
3688.83
 30
0.000000
  1
670
  0
POINT
  5
7EE0
  8
DEFPOINTS
  6
CONTINUOUS
 62
     0
 10
2171.4461206248711
 20
4098.7994409999992
 30
0.0
  0
POINT
  5
7EE1
  8
DEFPOINTS
  6
CONTINUOUS
 62
     0
 10
2171.4461206248711
 20
3428.7994409999992
 30
0.0
  0
POINT
  5
7EE2
  8
DEFPOINTS
  6
CONTINUOUS
 62
     0
 10
2350.2511036248711
 20
3428.7994409999992
 30
0.0
  0
ENDBLK
  5
7D03
  8
0
  0
BLOCK
  8
0
  2
*D14
 70
     1
 10
0.0
 20
0.0
 30
0.0
  3
*D14
  1

  0
LINE
  5
7EE3
  8
3
  6
CONTINUOUS
 62
     0
 10
2977.4002696248708
 20
2672.689441
 30
0.0
 11
2977.4002696248708
 21
2956.947349
 31
0.0
  0
LINE
  5
7EE4
  8
3
  6
CONTINUOUS
 62
     0
 10
3337.4002696248708
 20
2672.689441
 30
0.0
 11
3337.4002696248708
 21
2956.947349
 31
0.0
  0
LINE
  5
7EE5
  8
3
  6
CONTINUOUS
 62
     0
 10
3017.4002696248708
 20
2936.947349
 30
0.0
 11
3297.4002696248708
 21
2936.947349
 31
0.0
  0
INSERT
  5
7EE6
  8
3
  6
CONTINUOUS
 62
     0
  2
_OPEN
 10
2977.4002696248708
 20
2936.947349
 30
0.0
 41
40.0
 42
40.0
 43
40.0
 50
180.0
  0
INSERT
  5
7EE7
  8
3
  6
CONTINUOUS
 62
     0
  2
_OPEN
 10
3337.4002696248708
 20
2936.947349
 30
0.0
 41
40.0
 42
40.0
 43
40.0
  0
TEXT
  8
3
  40
60
  5
7F09
  62
0
  72
0
  71
0
 10
3041.88
 20
2880.75
 30
0.000000
  1
360
  0
POINT
  5
7EE9
  8
DEFPOINTS
  6
CONTINUOUS
 62
     0
 10
2977.4002696248708
 20
2662.689441
 30
0.0
  0
POINT
  5
7EEA
  8
DEFPOINTS
  6
CONTINUOUS
 62
     0
 10
3337.4002696248708
 20
2662.689441
 30
0.0
  0
POINT
  5
7EEB
  8
DEFPOINTS
  6
CONTINUOUS
 62
     0
 10
3337.4002696248708
 20
2936.947349
 30
0.0
  0
ENDBLK
  5
7D92
  8
0
  0
BLOCK
  8
0
  2
*D15
 70
     1
 10
0.0
 20
0.0
 30
0.0
  3
*D15
  1

  0
LINE
  5
7EEC
  8
3
  6
CONTINUOUS
 62
     0
 10
2777.4002696248708
 20
2876.6894409999991
 30
0.0
 11
2643.2131556248719
 21
2876.6894409999991
 31
0.0
  0
LINE
  5
7EED
  8
3
  6
CONTINUOUS
 62
     0
 10
2777.4002696248708
 20
1676.6894409999991
 30
0.0
 11
2643.2131556248719
 21
1676.6894409999991
 31
0.0
  0
LINE
  5
7EEE
  8
3
  6
CONTINUOUS
 62
     0
 10
2663.213155624871
 20
2836.689441
 30
0.0
 11
2663.213155624871
 21
1716.689441
 31
0.0
  0
INSERT
  5
7EEF
  8
3
  6
CONTINUOUS
 62
     0
  2
_OPEN
 10
2663.213155624871
 20
2876.6894409999991
 30
0.0
 41
40.0
 42
40.0
 43
40.0
 50
90.0
  0
INSERT
  5
7EF0
  8
3
  6
CONTINUOUS
 62
     0
  2
_OPEN
 10
2663.213155624871
 20
1676.6894409999991
 30
0.0
 41
40.0
 42
40.0
 43
40.0
 50
270.0
  0
TEXT
  8
3
  40
60
  5
7F0A
  62
0
  72
0
  71
0
 10
2493.21
 20
2156.33
 30
0.000000
  1
1200
  0
POINT
  5
7EF2
  8
DEFPOINTS
  6
CONTINUOUS
 62
     0
 10
2787.4002696248708
 20
2876.6894409999991
 30
0.0
  0
POINT
  5
7EF3
  8
DEFPOINTS
  6
CONTINUOUS
 62
     0
 10
2787.4002696248708
 20
1676.6894409999991
 30
0.0
  0
POINT
  5
7EF4
  8
DEFPOINTS
  6
CONTINUOUS
 62
     0
 10
2663.213155624871
 20
1676.6894409999991
 30
0.0
  0
ENDBLK
  5
7DCE
  8
0
  0
BLOCK
  8
0
  2
*D16
 70
     1
 10
0.0
 20
0.0
 30
0.0
  3
*D16
  1

  0
LINE
  5
7EF5
  8
3
 62
     0
 10
1661.4461206248709
 20
2538.689441
 30
0.0
 11
1661.4461206248709
 21
3044.057423089439
 31
0.0
  0
LINE
  5
7EF6
  8
3
 62
     0
 10
1291.4461206248709
 20
3024.057423089439
 30
0.0
 11
1621.4461206248709
 21
3024.057423089439
 31
0.0
  0
INSERT
  5
7EF7
  8
3
 62
     0
  2
_OPEN
 10
1251.4461206248709
 20
3024.057423089439
 30
0.0
 41
40.0
 42
40.0
 43
40.0
 50
180.0
  0
INSERT
  5
7EF8
  8
3
 62
     0
  2
_OPEN
 10
1661.4461206248709
 20
3024.057423089439
 30
0.0
 41
40.0
 42
40.0
 43
40.0
  0
TEXT
  8
3
  40
60
  5
7F0B
  62
0
  72
0
  71
0
 10
1336.45
 20
2967.86
 30
0.000000
  1
410
  0
POINT
  5
7EFA
  8
DEFPOINTS
 62
     0
 10
1251.4461206248709
 20
2980.969098
 30
0.0
  0
POINT
  5
7EFB
  8
DEFPOINTS
 62
     0
 10
1661.4461206248709
 20
2528.689441
 30
0.0
  0
POINT
  5
7EFC
  8
DEFPOINTS
 62
     0
 10
1661.4461206248709
 20
3024.057423089439
 30
0.0
  0
ENDBLK
  5
7E54
  8
0
  0
ENDSEC
  0
SECTION
  2
ENTITIES
  0
CIRCLE
  5
7ADB
  8
1
  6
CONTINUOUS
 10
1251.4461206248709
 20
2173.689441
 30
0.0
 40
275.0
  0
LINE
  5
7ADC
  8
1
  6
CONTINUOUS
 10
1661.4461206248709
 20
2528.689441
 30
0.0
 11
941.44612062487136
 21
2528.689441
 31
0.0
  0
ARC
  5
7ADD
  8
1
  6
CONTINUOUS
 10
1278.4461206248709
 20
2200.689441
 30
0.0
 40
380.98000000000002
 50
261.52999999999992
 51
355.16000000000003
  0
ARC
  5
7ADE
  8
1
  6
CONTINUOUS
 10
1228.3664916248711
 20
2204.1528589999998
 30
0.0
 40
431.17249299999992
 50
355.26344499999999
 51
86.879466000000008
  0
LINE
  5
7ADF
  8
1
  6
CONTINUOUS
 10
1659.636120624871
 20
3616.7994409999992
 30
0.0
 11
896.44612062487147
 21
3616.7994409999992
 31
0.0
  0
LINE
  5
7AE0
  8
1
  6
CONTINUOUS
 10
1659.636120624871
 20
3980.7994410000001
 30
0.0
 11
896.44612062487147
 21
3980.7994410000001
 31
0.0
  0
LINE
  5
7AE1
  8
1
  6
CONTINUOUS
 10
2071.4461206248711
 20
1738.689441
 30
0.0
 11
951.44612062487136
 21
1738.689441
 31
0.0
  0
LINE
  5
7AE2
  8
1
  6
CONTINUOUS
 10
2071.4461206248711
 20
1818.689441
 30
0.0
 11
941.44612062487136
 21
1818.689441
 31
0.0
  0
LINE
  5
7AE3
  8
1
  6
CONTINUOUS
 10
2071.4461206248711
 20
4022.7994410000001
 30
0.0
 11
951.44612062487136
 21
4022.7994410000001
 31
0.0
  0
LINE
  5
7AE4
  8
1
  6
CONTINUOUS
 10
1902.4461206248709
 20
3574.7994409999992
 30
0.0
 11
1270.4461206248709
 21
3574.7994409999992
 31
0.0
  0
LINE
  5
7AE5
  8
1
  6
CONTINUOUS
 10
1911.536120624871
 20
1941.5094409999999
 30
0.0
 11
1231.636120624871
 21
2055.3394410000001
 31
0.0
  0
LINE
  5
7AE6
  8
1
  6
CONTINUOUS
 10
1291.4061206248709
 20
2286.8394410000001
 30
0.0
 11
1941.4261206248709
 21
2057.2594410000002
 31
0.0
  0
LINE
  5
7AEE
  8
1
  6
CONTINUOUS
 10
2000.9461206248709
 20
3548.7994409999992
 30
0.0
 11
1000.946120624871
 21
3548.7994409999992
 31
0.0
  0
LINE
  5
7AFB
  8
1
  6
CONTINUOUS
 10
891.44612062487147
 20
1716.689441
 30
0.0
 11
2131.4461206248711
 21
1716.689441
 31
0.0
  0
LINE
  5
7AFC
  8
1
  6
CONTINUOUS
 10
2131.4461206248711
 20
2836.689441
 30
0.0
 11
891.44612062487147
 21
2836.689441
 31
0.0
  0
LINE
  5
7AFD
  8
1
  6
CONTINUOUS
 10
891.44612062487147
 20
4058.7994410000001
 30
0.0
 11
2131.4461206248711
 21
4058.7994410000001
 31
0.0
  0
LINE
  5
7AFE
  8
1
  6
CONTINUOUS
 10
2131.4461206248711
 20
3468.7994409999992
 30
0.0
 11
891.44612062487147
 21
3468.7994409999992
 31
0.0
  0
LINE
  5
7AFF
  8
1
  6
CONTINUOUS
 10
891.44612062487147
 20
2836.689441
 30
0.0
 11
891.44612062487147
 21
1716.689441
 31
0.0
  0
ARC
  5
7B00
  8
1
  6
CONTINUOUS
 10
1281.907264624871
 20
2162.5604320000002
 30
0.0
 40
343.89392400000003
 50
181.14027899999991
 51
260.02361200000001
  0
LINE
  5
7B01
  8
1
  6
CONTINUOUS
 10
896.44612062487147
 20
2635.689441
 30
0.0
 11
1251.826120624871
 21
2634.689441
 31
0.0
  0
LINE
  5
7B02
  8
1
  6
CONTINUOUS
 10
938.07612062487146
 20
2155.689441
 30
0.0
 11
896.44612062487147
 21
2155.689441
 31
0.0
  0
LINE
  5
7B03
  8
1
  6
CONTINUOUS
 10
896.44612062487147
 20
2652.689441
 30
0.0
 11
896.44612062487147
 21
2138.6894409999991
 31
0.0
  0
LINE
  5
7B04
  8
1
  6
CONTINUOUS
 10
941.44612062487136
 20
2528.689441
 30
0.0
 11
941.44612062487136
 21
1818.689441
 31
0.0
  0
LINE
  5
7B05
  8
1
  6
CONTINUOUS
 10
951.44612062487136
 20
1818.689441
 30
0.0
 11
951.44612062487136
 21
1738.689441
 31
0.0
  0
LINE
  5
7B06
  8
2
  6
CENTER
 10
3525.1553696248711
 20
2173.689441
 30
0.0
 11
2684.431024624871
 21
2173.689441
 31
0.0
  0
CIRCLE
  5
7B07
  8
1
  6
CONTINUOUS
 10
1251.4461206248709
 20
2173.689441
 30
0.0
 40
120.0
  0
CIRCLE
  5
7B08
  8
1
  6
CONTINUOUS
 10
1251.4461206248709
 20
2173.689441
 30
0.0
 40
250.0
  0
LINE
  5
7B09
  8
1
  6
CONTINUOUS
 10
921.44612062487136
 20
2155.689441
 30
0.0
 11
921.44612062487136
 21
2635.6194409999998
 31
0.0
  0
LINE
  5
7B0A
  8
2
  6
CENTER
 10
1251.4461206248709
 20
4162.7669833613936
 30
0.0
 11
1251.4461206248709
 21
3325.8996050000001
 31
0.0
  0
LINE
  5
7B0B
  8
1
  6
CONTINUOUS
 10
896.44612062487147
 20
3591.7994410000001
 30
0.0
 11
896.44612062487147
 21
4005.7994409999992
 31
0.0
  0
LINE
  5
7B0C
  8
1
  6
CONTINUOUS
 10
891.44612062487147
 20
3468.7994409999992
 30
0.0
 11
891.44612062487147
 21
4058.7994410000001
 31
0.0
  0
LINE
  5
7B0D
  8
1
  6
CONTINUOUS
 10
921.44612062487136
 20
3616.7994409999992
 30
0.0
 11
921.44612062487136
 21
3980.7994410000001
 31
0.0
  0
LINE
  5
7B0E
  8
1
  6
CONTINUOUS
 10
1371.4461206248709
 20
3458.7994410000001
 30
0.0
 11
1131.4461206248709
 21
3458.7994410000001
 31
0.0
  0
LINE
  5
7B0F
  8
1
  6
CONTINUOUS
 10
1232.4461206248709
 20
3574.7994409999992
 30
0.0
 11
951.44612062487136
 21
3574.7994409999992
 31
0.0
  0
LINE
  5
7B10
  8
1
  6
CONTINUOUS
 10
1131.4461206248709
 20
3518.7994409999992
 30
0.0
 11
1371.4461206248709
 21
3518.7994409999992
 31
0.0
  0
LINE
  5
7B11
  8
1
  6
CONTINUOUS
 10
951.44612062487136
 20
3616.7994409999992
 30
0.0
 11
951.44612062487136
 21
3574.7994409999992
 31
0.0
  0
LINE
  5
7B12
  8
1
  6
CONTINUOUS
 10
1000.946120624871
 20
3548.7994409999992
 30
0.0
 11
1000.946120624871
 21
3428.7994409999992
 31
0.0
  0
LINE
  5
7B13
  8
1
  6
CONTINUOUS
 10
1131.4461206248709
 20
3458.7994410000001
 30
0.0
 11
1131.4461206248709
 21
3518.7994409999992
 31
0.0
  0
LINE
  5
7B14
  8
1
  6
CONTINUOUS
 10
1232.4461206248709
 20
3518.7994409999992
 30
0.0
 11
1232.4461206248709
 21
3616.7994409999992
 31
0.0
  0
LINE
  5
7B15
  8
1
  6
CONTINUOUS
 10
1270.4461206248709
 20
3518.7994409999992
 30
0.0
 11
1270.4461206248709
 21
3616.7994409999992
 31
0.0
  0
LINE
  5
7B16
  8
1
  6
CONTINUOUS
 10
1371.4461206248709
 20
3458.7994410000001
 30
0.0
 11
1371.4461206248709
 21
3518.7994409999992
 31
0.0
  0
LINE
  5
7B17
  8
1
  6
CONTINUOUS
 10
951.44612062487136
 20
4022.7994410000001
 30
0.0
 11
951.44612062487136
 21
3980.7994410000001
 31
0.0
  0
LINE
  5
7B22
  8
1
  6
CONTINUOUS
 10
2131.4461206248711
 20
1716.689441
 30
0.0
 11
2131.4461206248711
 21
2836.689441
 31
0.0
  0
LINE
  5
7B23
  8
1
  6
CONTINUOUS
 10
2827.4002696248708
 20
1716.689441
 30
0.0
 11
2827.4002696248708
 21
2836.689441
 31
0.0
  0
LINE
  5
7B24
  8
1
  6
CONTINUOUS
 10
3417.4002696248708
 20
2836.689441
 30
0.0
 11
3417.4002696248708
 21
1716.689441
 31
0.0
  0
LINE
  5
7B35
  8
1
  6
CONTINUOUS
 10
1661.4461206248709
 20
2528.689441
 30
0.0
 11
1661.4461206248709
 21
1818.689441
 31
0.0
  0
LINE
  5
7B36
  8
1
  6
CONTINUOUS
 10
1791.4461206248709
 20
1868.689441
 30
0.0
 11
1822.0061206248711
 21
1930.0094409999999
 31
0.0
  0
LINE
  5
7B37
  8
1
  6
CONTINUOUS
 10
2051.4461206248711
 20
1868.689441
 30
0.0
 11
2020.886120624871
 21
1930.0094409999999
 31
0.0
  0
ARC
  5
7B38
  8
1
  6
CONTINUOUS
 10
1921.4461206248709
 20
2000.689441
 30
0.0
 40
122.0
 50
324.60000000000002
 51
215.39999999999989
  0
LINE
  5
7B39
  8
1
  6
CONTINUOUS
 10
1791.4461206248709
 20
1868.689441
 30
0.0
 11
1841.4461206248709
 21
1868.689441
 31
0.0
  0
LINE
  5
7B3A
  8
1
  6
CONTINUOUS
 10
2051.4461206248711
 20
1868.689441
 30
0.0
 11
1791.4461206248709
 21
1868.689441
 31
0.0
  0
LINE
  5
7B3B
  8
1
  6
CONTINUOUS
 10
1791.4461206248709
 20
1818.689441
 30
0.0
 11
1791.4461206248709
 21
1868.689441
 31
0.0
  0
LINE
  5
7B3C
  8
1
  6
CONTINUOUS
 10
2071.4461206248711
 20
1818.689441
 30
0.0
 11
2071.4461206248711
 21
1738.689441
 31
0.0
  0
LINE
  5
7B3D
  8
1
  6
CONTINUOUS
 10
2051.4461206248711
 20
1818.689441
 30
0.0
 11
2051.4461206248711
 21
1868.689441
 31
0.0
  0
LINE
  5
7B3E
  8
1
  6
CONTINUOUS
 10
2051.4461206248711
 20
1868.689441
 30
0.0
 11
2001.4461206248709
 21
1868.689441
 31
0.0
  0
LINE
  5
7B3F
  8
2
  6
CENTER
 10
1981.4461206248709
 20
2000.689441
 30
0.0
 11
1861.4461206248709
 21
2000.689441
 31
0.0
  0
CIRCLE
  5
7B40
  8
1
  6
CONTINUOUS
 10
1921.4461206248709
 20
2000.689441
 30
0.0
 40
60.0
  0
LINE
  5
7B41
  8
2
  6
CENTER
 10
1921.4461206248709
 20
1940.6894409999991
 30
0.0
 11
1921.4461206248709
 21
2060.689441
 31
0.0
  0
LINE
  5
7B5B
  8
1
  6
CONTINUOUS
 10
2933.4002696248708
 20
1818.689441
 30
0.0
 11
3381.4002696248708
 21
1818.689441
 31
0.0
  0
LINE
  5
7B5C
  8
1
  6
CONTINUOUS
 10
2933.4002696248708
 20
1738.689441
 30
0.0
 11
3381.4002696248708
 21
1738.689441
 31
0.0
  0
LINE
  5
7B5D
  8
1
  6
CONTINUOUS
 10
2977.4002696248708
 20
2128.689441
 30
0.0
 11
3337.4002696248708
 21
2128.689441
 31
0.0
  0
LINE
  5
7B5E
  8
1
  6
CONTINUOUS
 10
3337.4002696248708
 20
2662.689441
 30
0.0
 11
2977.4002696248708
 21
2662.689441
 31
0.0
  0
LINE
  5
7B5F
  8
1
  6
CONTINUOUS
 10
3337.4002696248708
 20
2128.689441
 30
0.0
 11
2977.4002696248708
 21
2662.689441
 31
0.0
  0
LINE
  5
7B60
  8
1
  6
CONTINUOUS
 10
2977.4002696248708
 20
2128.689441
 30
0.0
 11
3337.4002696248708
 21
2662.689441
 31
0.0
  0
LINE
  5
7B61
  8
1
  6
CONTINUOUS
 10
3417.4002696248708
 20
1716.689441
 30
0.0
 11
2827.4002696248708
 21
1716.689441
 31
0.0
  0
LINE
  5
7B62
  8
1
  6
CONTINUOUS
 10
2977.4002696248708
 20
2662.689441
 30
0.0
 11
2977.4002696248708
 21
1818.689441
 31
0.0
  0
LINE
  5
7B63
  8
1
  6
CONTINUOUS
 10
2907.4002696248708
 20
2563.689441
 30
0.0
 11
2907.4002696248708
 21
1818.689441
 31
0.0
  0
LINE
  5
7B65
  8
1
  6
CONTINUOUS
 10
2907.4002696248708
 20
1818.689441
 30
0.0
 11
2787.4002696248708
 21
1818.689441
 31
0.0
  0
LINE
  5
7B68
  8
1
  6
CONTINUOUS
 10
2933.4002696248708
 20
1818.689441
 30
0.0
 11
2933.4002696248708
 21
1738.689441
 31
0.0
  0
LINE
  5
7B69
  8
1
  6
CONTINUOUS
 10
2787.4002696248708
 20
2563.689441
 30
0.0
 11
2907.4002696248708
 21
2563.689441
 31
0.0
  0
LINE
  5
7B6A
  8
1
  6
CONTINUOUS
 10
2877.4002696248708
 20
2192.689441
 30
0.0
 11
2977.4002696248708
 21
2192.689441
 31
0.0
  0
LINE
  5
7B6B
  8
1
  6
CONTINUOUS
 10
2877.4002696248708
 20
2154.6894409999991
 30
0.0
 11
2977.4002696248708
 21
2154.6894409999991
 31
0.0
  0
LINE
  5
7B6C
  8
1
  6
CONTINUOUS
 10
2877.4002696248708
 20
1981.689441
 30
0.0
 11
2977.4002696248708
 21
1981.689441
 31
0.0
  0
LINE
  5
7B6D
  8
1
  6
CONTINUOUS
 10
2877.4002696248708
 20
2019.689441
 30
0.0
 11
2977.4002696248708
 21
2019.689441
 31
0.0
  0
LINE
  5
7B6E
  8
1
  6
CONTINUOUS
 10
2817.4002696248708
 20
2293.689441
 30
0.0
 11
2817.4002696248708
 21
2053.6894409999991
 31
0.0
  0
LINE
  5
7B6F
  8
1
  6
CONTINUOUS
 10
2877.4002696248708
 20
2293.689441
 30
0.0
 11
2817.4002696248708
 21
2293.689441
 31
0.0
  0
LINE
  5
7B70
  8
1
  6
CONTINUOUS
 10
2877.4002696248708
 20
2053.6894409999991
 30
0.0
 11
2817.4002696248708
 21
2053.6894409999991
 31
0.0
  0
LINE
  5
7B71
  8
1
  6
CONTINUOUS
 10
2877.4002696248708
 20
2053.6894409999991
 30
0.0
 11
2877.4002696248708
 21
2293.689441
 31
0.0
  0
LINE
  5
7B72
  8
1
  6
CONTINUOUS
 10
2817.4002696248708
 20
1950.689441
 30
0.0
 11
2877.4002696248708
 21
1950.689441
 31
0.0
  0
LINE
  5
7B73
  8
1
  6
CONTINUOUS
 10
2877.4002696248708
 20
2050.689441
 30
0.0
 11
2817.4002696248708
 21
2050.689441
 31
0.0
  0
LINE
  5
7B74
  8
1
  6
CONTINUOUS
 10
2817.4002696248708
 20
2050.689441
 30
0.0
 11
2817.4002696248708
 21
1950.689441
 31
0.0
  0
LINE
  5
7B75
  8
1
  6
CONTINUOUS
 10
2877.4002696248708
 20
1950.689441
 30
0.0
 11
2877.4002696248708
 21
2050.689441
 31
0.0
  0
LINE
  5
7B76
  8
1
  6
CONTINUOUS
 10
3337.4002696248708
 20
2662.689441
 30
0.0
 11
3337.4002696248708
 21
1818.689441
 31
0.0
  0
LINE
  5
7B77
  8
1
  6
CONTINUOUS
 10
3381.4002696248708
 20
1818.689441
 30
0.0
 11
3381.4002696248708
 21
1738.689441
 31
0.0
  0
LINE
  5
7B85
  8
1
  6
CONTINUOUS
 10
1659.636120624871
 20
3616.7994409999992
 30
0.0
 11
1659.636120624871
 21
3980.7994410000001
 31
0.0
  0
LINE
  5
7B86
  8
1
  6
CONTINUOUS
 10
2071.4461206248711
 20
4022.7994410000001
 30
0.0
 11
2071.4461206248711
 21
3574.7994409999992
 31
0.0
  0
LINE
  5
7B87
  8
1
  6
CONTINUOUS
 10
1799.4461206248709
 20
3599.039440999999
 30
0.0
 11
1799.4461206248709
 21
3949.039440999999
 31
0.0
  0
LINE
  5
7B88
  8
1
  6
CONTINUOUS
 10
2043.4461206248709
 20
3599.039440999999
 30
0.0
 11
2043.4461206248709
 21
3949.039440999999
 31
0.0
  0
LINE
  5
7B89
  8
1
  6
CONTINUOUS
 10
2043.4461206248709
 20
3599.039440999999
 30
0.0
 11
1799.4461206248709
 21
3599.039440999999
 31
0.0
  0
LINE
  5
7B8A
  8
1
  6
CONTINUOUS
 10
1881.4461206248709
 20
3518.7994409999992
 30
0.0
 11
1961.4461206248709
 21
3518.7994409999992
 31
0.0
  0
LINE
  5
7B8B
  8
1
  6
CONTINUOUS
 10
2071.4461206248711
 20
3574.7994409999992
 30
0.0
 11
1940.4461206248709
 21
3574.7994409999992
 31
0.0
  0
LINE
  5
7B8C
  8
1
  6
CONTINUOUS
 10
1961.4461206248709
 20
3458.7994410000001
 30
0.0
 11
1881.4461206248709
 21
3458.7994410000001
 31
0.0
  0
LINE
  5
7B8D
  8
1
  6
CONTINUOUS
 10
1881.4461206248709
 20
3518.7994409999992
 30
0.0
 11
1881.4461206248709
 21
3458.7994410000001
 31
0.0
  0
LINE
  5
7B8E
  8
1
  6
CONTINUOUS
 10
1940.4461206248709
 20
3518.7994409999992
 30
0.0
 11
1940.4461206248709
 21
3599.039440999999
 31
0.0
  0
LINE
  5
7B8F
  8
1
  6
CONTINUOUS
 10
1902.4461206248709
 20
3518.7994409999992
 30
0.0
 11
1902.4461206248709
 21
3599.039440999999
 31
0.0
  0
LINE
  5
7B90
  8
1
  6
CONTINUOUS
 10
1961.4461206248709
 20
3518.7994409999992
 30
0.0
 11
1961.4461206248709
 21
3458.7994410000001
 31
0.0
  0
LINE
  5
7B91
  8
1
  6
CONTINUOUS
 10
2000.9461206248709
 20
3428.7994409999992
 30
0.0
 11
2000.9461206248709
 21
3548.7994409999992
 31
0.0
  0
LINE
  5
7B92
  8
1
  6
CONTINUOUS
 10
2043.4461206248709
 20
3949.039440999999
 30
0.0
 11
1799.4461206248709
 21
3949.039440999999
 31
0.0
  0
LINE
  5
7B96
  8
1
  6
CONTINUOUS
 10
2131.4461206248711
 20
4058.7994410000001
 30
0.0
 11
2131.4461206248711
 21
3468.7994409999992
 31
0.0
  0
LINE
  5
7BB0
  8
1
  6
CONTINUOUS
 10
2827.4002696248708
 20
2836.689441
 30
0.0
 11
3417.4002696248708
 21
2836.689441
 31
0.0
  0
LINE
  5
7BB5
  8
1
  6
CONTINUOUS
 10
851.44612062487158
 20
1676.6894409999991
 30
0.0
 11
2171.4461206248711
 21
1676.6894409999991
 31
0.0
  0
LINE
  5
7BB6
  8
1
  6
CONTINUOUS
 10
2171.4461206248711
 20
1676.6894409999991
 30
0.0
 11
2171.4461206248711
 21
2876.6894409999991
 31
0.0
  0
LINE
  5
7BB7
  8
1
  6
CONTINUOUS
 10
2171.4461206248711
 20
2876.6894409999991
 30
0.0
 11
851.44612062487158
 21
2876.6894409999991
 31
0.0
  0
LINE
  5
7BB8
  8
1
  6
CONTINUOUS
 10
851.44612062487158
 20
2876.6894409999991
 30
0.0
 11
851.44612062487158
 21
1676.6894409999991
 31
0.0
  0
LINE
  5
7BB9
  8
1
  6
CONTINUOUS
 10
1025.9461206248709
 20
1818.689441
 30
0.0
 11
1025.9461206248709
 21
2488.689441
 31
0.0
  0
LINE
  5
7BBA
  8
1
  6
CONTINUOUS
 10
1025.9461206248709
 20
2488.689441
 30
0.0
 11
1265.9461206248709
 21
2563.689441
 31
0.0
  0
LINE
  5
7BBB
  8
1
  6
CONTINUOUS
 10
1265.9461206248709
 20
2563.689441
 30
0.0
 11
2025.9461206248709
 21
2053.6894409999991
 31
0.0
  0
LINE
  5
7BBC
  8
1
  6
CONTINUOUS
 10
2025.9461206248709
 20
2053.6894409999991
 30
0.0
 11
2025.9461206248709
 21
1818.689441
 31
0.0
  0
LINE
  5
7BBD
  8
1
  6
CONTINUOUS
 10
851.44612062487158
 20
4098.7994409999992
 30
0.0
 11
2171.4461206248711
 21
4098.7994409999992
 31
0.0
  0
LINE
  5
7BBE
  8
1
  6
CONTINUOUS
 10
2171.4461206248711
 20
4098.7994409999992
 30
0.0
 11
2171.4461206248711
 21
3428.7994409999992
 31
0.0
  0
LINE
  5
7BBF
  8
1
  6
CONTINUOUS
 10
2171.4461206248711
 20
3428.7994409999992
 30
0.0
 11
851.44612062487158
 21
3428.7994409999992
 31
0.0
  0
LINE
  5
7BC0
  8
1
  6
CONTINUOUS
 10
851.44612062487158
 20
3428.7994409999992
 30
0.0
 11
851.44612062487158
 21
4098.7994409999992
 31
0.0
  0
LINE
  5
7BC1
  8
1
  6
CONTINUOUS
 10
2787.4002696248708
 20
1676.6894409999991
 30
0.0
 11
2787.4002696248708
 21
2876.6894409999991
 31
0.0
  0
LINE
  5
7BC2
  8
1
  6
CONTINUOUS
 10
2787.4002696248708
 20
2876.6894409999991
 30
0.0
 11
3457.4002696248708
 21
2876.6894409999991
 31
0.0
  0
LINE
  5
7BC3
  8
1
  6
CONTINUOUS
 10
3457.4002696248708
 20
2876.6894409999991
 30
0.0
 11
3457.4002696248708
 21
1676.6894409999991
 31
0.0
  0
LINE
  5
7BC4
  8
1
  6
CONTINUOUS
 10
3457.4002696248708
 20
1676.6894409999991
 30
0.0
 11
2787.4002696248708
 21
1676.6894409999991
 31
0.0
  0
LINE
  5
7BC5
  8
2
  6
CENTER
 10
3157.4002696248708
 20
2924.3473260000001
 30
0.0
 11
3157.4002696248708
 21
1562.895480306235
 31
0.0
  0
LINE
  5
7BC6
  8
2
  6
CENTER
 10
2219.6039665250391
 20
3798.7994409999992
 30
0.0
 11
734.89098762487117
 21
3798.7994409999992
 31
0.0
  0
LINE
  5
7BC7
  8
2
  6
CENTER
 10
2282.132095624871
 20
2173.689441
 30
0.0
 11
722.25839562487135
 21
2173.689441
 31
0.0
  0
LINE
  5
7BC8
  8
2
  6
CENTER
 10
1251.4461206248709
 20
2980.969098
 30
0.0
 11
1251.4461206248709
 21
1575.6966619999989
 31
0.0
  0
LINE
  5
7BC9
  8
4
  6
CONTINUOUS
 10
3700.0
 20
1000.0
 30
0.0
 11
3700.0
 21
600.0
 31
0.0
  0
LINE
  5
7BCA
  8
4
  6
CONTINUOUS
 10
2300.0
 20
1000.0
 30
0.0
 11
2300.0
 21
600.0
 31
0.0
  0
LINE
  5
7BCB
  8
4
  6
CONTINUOUS
 10
1300.0
 20
1000.0
 30
0.0
 11
1300.0
 21
600.0
 31
0.0
  0
LINE
  5
7BCE
  8
4
  6
CONTINUOUS
 10
1300.0
 20
600.0
 30
0.0
 11
3700.0
 21
600.0
 31
0.0
  0
LINE
  5
7BCF
  8
4
  6
CONTINUOUS
 10
1300.0
 20
800.0
 30
0.0
 11
3700.0
 21
800.0
 31
0.0
  0
TEXT
  5
7BD0
  8
4
  6
CONTINUOUS
 10
1377.004162
 20
863.086052
 30
0.0
 40
100.0
  1
機器名称
  0
TEXT
  5
7BD1
  8
4
  6
CONTINUOUS
 10
1372.516212
 20
643.29031299999986
 30
0.0
 40
100.0
  1
機器型番
  0
TEXT
  5
7BD2
  8
4
  6
CONTINUOUS
 10
2355.3574910000002
 20
845.14353800000015
 30
0.0
 40
100.0
  1
ミツヤ多翼送風機
  0
TEXT
  5
7BD3
  8
4
  6
CONTINUOUS
 10
2373.3089909999999
 20
634.31916899999999
 30
0.0
 40
100.0
  1
MF#3-4
  0
TEXT
  5
7BD5
  8
4
  6
CONTINUOUS
 10
1475.5095670000001
 20
4766.8576830000002
 30
0.0
 40
108.0
  1
天井吊枠防振ベット
  0
TEXT
  5
7BD6
  8
4
  6
CONTINUOUS
 10
632.33518700000002
 20
5067.7619520000007
 30
0.0
 40
144.0
  1
ベルト駆動式片吸込両持多翼ファン
  0
LINE
  5
7BD7
  8
4
  6
CONTINUOUS
 10
500.0
 20
4938.8175090000004
 30
0.0
 11
3700.0
 21
4938.8175090000004
 31
0.0
  0
LINE
  5
7BD8
  8
4
  6
CONTINUOUS
 10
500.0
 20
5338.8175090000004
 30
0.0
 11
3700.0
 21
5338.8175090000004
 31
0.0
  0
LINE
  5
7BD9
  8
4
  6
CONTINUOUS
 10
1300.0
 20
1000.0
 30
0.0
 11
3700.0
 21
1000.0
 31
0.0
  0
LINE
  5
7BDA
  8
4
  6
CONTINUOUS
 10
500.0
 20
5338.8175090000004
 30
0.0
 11
500.0
 21
4938.8175090000004
 31
0.0
  0
TEXT
  5
7BDB
  8
4
  6
CONTINUOUS
 10
603.79190199999994
 20
4764.6389549999994
 30
0.0
 40
108.0
  1
左回転左横向
  0
TEXT
  5
7BDC
  8
4
  6
CONTINUOUS
 10
2937.9391179999998
 20
5412.122163
 30
0.0
 40
112.0
  1
No.
  0
TEXT
  5
7BDD
  8
4
  6
CONTINUOUS
 10
2723.7647019999999
 20
4766.8576830000002
 30
0.0
 40
108.0
  1
縮尺：1/20
  0
LINE
  5
7BDE
  8
4
  6
CONTINUOUS
 10
3700.0
 20
5338.8175090000004
 30
0.0
 11
3700.0
 21
4938.8175090000004
 31
0.0
  0
LINE
  5
7BE0
  8
4
  6
CONTINUOUS
 10
2881.234845
 20
5362.5271659999999
 30
0.0
 11
2881.234845
 21
5573.3045229999998
 31
0.0
  0
LINE
  5
7BE1
  8
4
  6
CONTINUOUS
 10
2881.234845
 20
5573.3045229999998
 30
0.0
 11
3700.0
 21
5573.3045229999998
 31
0.0
  0
LINE
  5
7BE2
  8
4
  6
CONTINUOUS
 10
3700.0
 20
5573.3045229999998
 30
0.0
 11
3700.0
 21
5362.5271659999999
 31
0.0
  0
LINE
  5
7BE3
  8
4
  6
CONTINUOUS
 10
3700.0
 20
5362.5271659999999
 30
0.0
 11
2881.234845
 21
5362.5271659999999
 31
0.0
  0
DIMENSION
  5
7BFB
  8
3
  6
CONTINUOUS
  2
*D1
 10
802.58604162487177
 20
2155.689441
 30
0.0
 11
802.58604162487154
 21
2378.4765560000001
 31
0.0
 70
   128
 13
896.44612062487147
 23
2635.689441
 33
0.0
 14
896.44612062487147
 24
2155.689441
 34
0.0
 50
90.0
1001
ACAD
1000
DSTYLE
1002
{
1070
   287
1070
     3
1070
    40
1040
20.0
1070
   143
1040
0.039
1070
   172
1070
     1
1070
   271
1070
     0
1070
   279
1070
     0
1070
   288
1070
     1
1002
}
  0
DIMENSION
  5
7C08
  8
3
  6
CONTINUOUS
  2
*D2
 10
679.90526362487174
 20
2173.689441
 30
0.0
 11
679.90526362487128
 21
2378.4765560000001
 31
0.0
 70
   128
 13
851.44612062487158
 23
2635.689441
 33
0.0
 14
722.25839562487135
 24
2173.689441
 34
0.0
 50
90.0
1001
ACAD
1000
DSTYLE
1002
{
1070
   287
1070
     3
1070
    40
1040
20.0
1070
   143
1040
0.039
1070
   172
1070
     1
1070
   271
1070
     0
1070
   279
1070
     0
1070
   288
1070
     1
1002
}
  0
DIMENSION
  5
7C14
  8
3
  6
CONTINUOUS
  2
*D3
 10
679.90526362487128
 20
1738.689441
 30
0.0
 11
629.90526362487117
 21
1956.189441
 31
0.0
 70
     0
 13
722.25839562487135
 23
2173.689441
 33
0.0
 14
951.44612062487136
 24
1738.689441
 34
0.0
 50
90.0
1001
ACAD
1000
DSTYLE
1002
{
1070
   287
1070
     4
1070
    40
1040
20.0
1070
    75
1070
     1
1070
   143
1040
0.039
1070
   172
1070
     1
1070
   271
1070
     0
1070
   279
1070
     1
1070
   288
1070
     1
1002
}
  0
DIMENSION
  5
7C24
  8
3
  6
CONTINUOUS
  2
*D4
 10
681.75158362487139
 20
1676.6894409999991
 30
0.0
 11
681.75158362487127
 21
1528.1180124285711
 31
0.0
 70
   128
 13
951.44612062487136
 23
1738.689441
 33
0.0
 14
851.44612062487158
 24
1676.6894409999991
 34
0.0
 50
90.0
1001
ACAD
1000
DSTYLE
1002
{
1070
   287
1070
     3
1070
    40
1040
20.0
1070
   143
1040
0.039
1070
   172
1070
     1
1070
   271
1070
     0
1070
   279
1070
     0
1070
   288
1070
     1
1002
}
  0
DIMENSION
  5
7C31
  8
3
  6
CONTINUOUS
  2
*D5
 10
1251.4461206248709
 20
3024.057423089439
 30
0.0
 11
1066.821534624871
 21
3024.057423089439
 31
0.0
 70
   128
 13
896.44612062487147
 23
2652.689441
 33
0.0
 14
1251.4461206248709
 24
2980.969098
 34
0.0
1001
ACAD
1000
DSTYLE
1002
{
1070
   287
1070
     3
1070
    40
1040
20.0
1070
   143
1040
0.039
1070
   172
1070
     1
1070
   271
1070
     0
1070
   279
1070
     0
1070
   288
1070
     1
1002
}
  0
DIMENSION
  5
7C4A
  8
3
  6
CONTINUOUS
  2
*D6
 10
1251.4461206248709
 20
1487.3816019999999
 30
0.0
 11
1052.6660586248711
 21
1487.3816019999999
 31
0.0
 70
   128
 13
851.44612062487158
 23
1676.6894409999991
 33
0.0
 14
1251.4461206248709
 24
1575.6966619999989
 34
0.0
1001
ACAD
1000
DSTYLE
1002
{
1070
   287
1070
     3
1070
    40
1040
20.0
1070
   143
1040
0.039
1070
   172
1070
     1
1070
   271
1070
     0
1070
   279
1070
     0
1070
   288
1070
     1
1002
}
  0
DIMENSION
  5
7C56
  8
3
  6
CONTINUOUS
  2
*D7
 10
2171.4461206248711
 20
1487.3816019999999
 30
0.0
 11
1711.4461206248709
 21
1537.381601999999
 31
0.0
 70
     0
 13
1251.4461206248709
 23
1575.6966619999989
 33
0.0
 14
2171.4461206248711
 24
1676.6894409999991
 34
0.0
1001
ACAD
1000
DSTYLE
1002
{
1070
   287
1070
     4
1070
    40
1040
20.0
1070
    75
1070
     1
1070
   143
1040
0.039
1070
   172
1070
     1
1070
   271
1070
     0
1070
   279
1070
     1
1070
   288
1070
     1
1002
}
  0
LINE
  5
7CA7
  8
1
  6
CONTINUOUS
 10
3338.4002696248708
 20
2423.689441
 30
0.0
 11
3338.4002696248708
 21
1923.689441
 31
0.0
  0
DIMENSION
  5
7CB6
  8
3
  6
CONTINUOUS
  2
*D8
 10
3647.836123624872
 20
1923.6894409999991
 30
0.0
 11
3647.8361236248711
 21
2156.9140849999999
 31
0.0
 70
   128
 13
3338.4002696248708
 23
2423.689441
 33
0.0
 14
3338.4002696248708
 24
1923.689441
 34
0.0
 50
90.0
1001
ACAD
1000
DSTYLE
1002
{
1070
   287
1070
     3
1070
     3
1000
φ<>
1070
    40
1040
20.0
1070
   143
1040
0.039
1070
   172
1070
     1
1070
   271
1070
     0
1070
   279
1070
     0
1070
   288
1070
     1
1002
}
  0
DIMENSION
  5
7CC5
  8
3
  6
CONTINUOUS
  2
*D9
 10
3157.4002696248708
 20
3066.6471780000002
 30
0.0
 11
3247.9002696248708
 21
3130.7325215103751
 31
0.0
 70
   128
 13
3338.4002696248708
 23
2423.689441
 33
0.0
 14
3157.4002696248708
 24
3027.1569486871649
 34
0.0
1001
ACAD
1000
DSTYLE
1002
{
1070
   288
1070
     1
1070
   172
1070
     1
1070
    40
1040
20.0
1070
   271
1070
     0
1070
   143
1040
0.039
1002
}
  0
DIMENSION
  5
7CDE
  8
3
  6
CONTINUOUS
  2
*D10
 10
3157.4002696248708
 20
1488.945698
 30
0.0
 11
2982.5288826248711
 21
1488.945698
 31
0.0
 70
   128
 13
2787.4002696248708
 23
1676.6894409999991
 33
0.0
 14
3157.4002696248708
 24
1560.8299128352351
 34
0.0
1001
ACAD
1000
DSTYLE
1002
{
1070
   287
1070
     3
1070
    40
1040
20.0
1070
   143
1040
0.039
1070
   172
1070
     1
1070
   271
1070
     0
1070
   279
1070
     0
1070
   288
1070
     1
1002
}
  0
DIMENSION
  5
7CEA
  8
3
  6
CONTINUOUS
  2
*D11
 10
3457.4002696248708
 20
1488.945698
 30
0.0
 11
3307.4002696248708
 21
1538.945698
 31
0.0
 70
     0
 13
3157.4002696248708
 23
1573.0023032547369
 33
0.0
 14
3457.4002696248708
 24
1676.6894409999991
 34
0.0
1001
ACAD
1000
DSTYLE
1002
{
1070
   287
1070
     4
1070
    40
1040
20.0
1070
    75
1070
     1
1070
   143
1040
0.039
1070
   172
1070
     1
1070
   271
1070
     0
1070
   279
1070
     1
1070
   288
1070
     1
1002
}
  0
DIMENSION
  5
7CF7
  8
3
  6
CONTINUOUS
  2
*D12
 10
2171.4461206248711
 20
4271.2813999999998
 30
0.0
 11
1486.767242624871
 21
4271.2813999999998
 31
0.0
 70
   128
 13
851.44612062487158
 23
4098.7994409999992
 33
0.0
 14
2171.4461206248711
 24
4098.7994409999992
 34
0.0
1001
ACAD
1000
DSTYLE
1002
{
1070
   287
1070
     3
1070
    40
1040
20.0
1070
   143
1040
0.039
1070
   172
1070
     1
1070
   271
1070
     0
1070
   279
1070
     0
1070
   288
1070
     1
1002
}
  0
DIMENSION
  5
7D04
  8
3
  6
CONTINUOUS
  2
*D13
 10
2350.2511036248711
 20
3428.7994409999992
 30
0.0
 11
2350.2511036248711
 21
3795.0268329999999
 31
0.0
 70
   128
 13
2171.4461206248711
 23
4098.7994409999992
 33
0.0
 14
2171.4461206248711
 24
3428.7994409999992
 34
0.0
 50
90.0
1001
ACAD
1000
DSTYLE
1002
{
1070
   287
1070
     3
1070
    40
1040
20.0
1070
   143
1040
0.039
1070
   172
1070
     1
1070
   271
1070
     0
1070
   279
1070
     0
1070
   288
1070
     1
1002
}
  0
DIMENSION
  5
7D93
  8
3
  6
CONTINUOUS
  2
*D14
 10
3337.4002696248708
 20
2936.947349
 30
0.0
 11
3161.8814086248708
 21
2936.947349
 31
0.0
 70
   128
 13
2977.4002696248708
 23
2662.689441
 33
0.0
 14
3337.4002696248708
 24
2662.689441
 34
0.0
1001
ACAD
1000
DSTYLE
1002
{
1070
   287
1070
     3
1070
    40
1040
20.0
1070
   143
1040
0.039
1070
   172
1070
     1
1070
   271
1070
     0
1070
   279
1070
     0
1070
   288
1070
     1
1002
}
  0
DIMENSION
  5
7DCF
  8
3
  6
CONTINUOUS
  2
*D15
 10
2663.213155624871
 20
1676.6894409999991
 30
0.0
 11
2663.213155624871
 21
2262.5329390000002
 31
0.0
 70
   128
 13
2787.4002696248708
 23
2876.6894409999991
 33
0.0
 14
2787.4002696248708
 24
1676.6894409999991
 34
0.0
 50
90.0
1001
ACAD
1000
DSTYLE
1002
{
1070
   287
1070
     3
1070
    40
1040
20.0
1070
   143
1040
0.039
1070
   172
1070
     1
1070
   271
1070
     0
1070
   279
1070
     0
1070
   288
1070
     1
1002
}
  0
DIMENSION
  5
7E55
  8
3
  2
*D16
 10
1661.4461206248709
 20
3024.057423089439
 30
0.0
 11
1456.4461206248709
 21
3074.0574230894399
 31
0.0
 70
     0
 13
1251.4461206248709
 23
2980.969098
 33
0.0
 14
1661.4461206248709
 24
2528.689441
 34
0.0
1001
ACAD
1000
DSTYLE
1002
{
1070
   287
1070
     4
1070
    40
1040
20.0
1070
    75
1070
     1
1070
   143
1040
0.039
1070
   172
1070
     1
1070
   271
1070
     0
1070
   279
1070
     1
1070
   288
1070
     1
1002
}
  0
ENDSEC
  0
EOF
