  0
SECTION
  2
HEADER
  9
$ACADVER
  1
AC1009
  9
$INSBASE
 10
0.0
 20
0.0
 30
0.0
  9
$EXTMIN
 10
500.0
 20
600.0
 30
0.0
  9
$EXTMAX
 10
3700.0
 20
5573.3045229999998
 30
0.0
  9
$LIMMIN
 10
0.0
 20
0.0
  9
$LIMMAX
 10
297.0
 20
210.0
  9
$ORTHOMODE
 70
     0
  9
$REGENMODE
 70
     1
  9
$FILLMODE
 70
     0
  9
$QTEXTMODE
 70
     0
  9
$MIRRTEXT
 70
     1
  9
$DRAGMODE
 70
     2
  9
$LTSCALE
 40
100.0
  9
$OSMODE
 70
    37
  9
$ATTMODE
 70
     1
  9
$TEXTSIZE
 40
180.0
  9
$TRACEWID
 40
0.05
  9
$TEXTSTYLE
  7
STANDARD
  9
$CLAYER
  8
3
  9
$CELTYPE
  6
BYLAYER
  9
$CECOLOR
 62
   256
  9
$DIMSCALE
 40
20.0
  9
$DIMASZ
 40
2.0
  9
$DIMEXO
 40
0.5
  9
$DIMDLI
 40
10.0
  9
$DIMRND
 40
0.0
  9
$DIMDLE
 40
0.0
  9
$DIMEXE
 40
1.0
  9
$DIMTP
 40
1.0
  9
$DIMTM
 40
1.0
  9
$DIMTXT
 40
3.0
  9
$DIMCEN
 40
0.0
  9
$DIMTSZ
 40
0.0
  9
$DIMTOL
 70
     0
  9
$DIMLIM
 70
     0
  9
$DIMTIH
 70
     0
  9
$DIMTOH
 70
     0
  9
$DIMSE1
 70
     0
  9
$DIMSE2
 70
     0
  9
$DIMTAD
 70
     1
  9
$DIMZIN
 70
     8
  9
$DIMBLK
  1

  9
$DIMASO
 70
     1
  9
$DIMSHO
 70
     1
  9
$DIMPOST
  1

  9
$DIMAPOST
  1

  9
$DIMALT
 70
     0
  9
$DIMALTD
 70
     2
  9
$DIMALTF
 40
0.039
  9
$DIMLFAC
 40
1.0
  9
$DIMTOFL
 70
     1
  9
$DIMTVP
 40
0.0
  9
$DIMTIX
 70
     0
  9
$DIMSOXD
 70
     0
  9
$DIMSAH
 70
     1
  9
$DIMBLK1
  1
OPEN
  9
$DIMBLK2
  1
OPEN
  9
$DIMSTYLE
  2
IGA
  9
$DIMCLRD
 70
     0
  9
$DIMCLRE
 70
     0
  9
$DIMCLRT
 70
     0
  9
$DIMTFAC
 40
10.0
  9
$DIMGAP
 40
1.0
  9
$LUNITS
 70
     2
  9
$LUPREC
 70
     3
  9
$SKETCHINC
 40
0.1
  9
$FILLETRAD
 40
50.0
  9
$AUNITS
 70
     0
  9
$AUPREC
 70
     0
  9
$MENU
  1
acad
  9
$ELEVATION
 40
0.0
  9
$PELEVATION
 40
0.0
  9
$THICKNESS
 40
0.0
  9
$LIMCHECK
 70
     0
  9
$BLIPMODE
 70
     0
  9
$CHAMFERA
 40
0.5
  9
$CHAMFERB
 40
0.5
  9
$SKPOLY
 70
     0
  9
$TDCREATE
 40
2450735.4739281251
  9
$TDUPDATE
 40
2454953.7672350579
  9
$TDINDWG
 40
0.00616875
  9
$TDUSRTIMER
 40
0.00616875
  9
$USRTIMER
 70
     1
  9
$ANGBASE
 50
0.0
  9
$ANGDIR
 70
     0
  9
$PDMODE
 70
     0
  9
$PDSIZE
 40
0.0
  9
$PLINEWID
 40
0.0
  9
$COORDS
 70
     1
  9
$SPLFRAME
 70
     0
  9
$SPLINETYPE
 70
     6
  9
$SPLINESEGS
 70
     8
  9
$ATTDIA
 70
     0
  9
$ATTREQ
 70
     1
  9
$HANDLING
 70
 10241
  9
$HANDSEED
  5
7F0B
  9
$SURFTAB1
 70
     6
  9
$SURFTAB2
 70
     6
  9
$SURFTYPE
 70
     6
  9
$SURFU
 70
     6
  9
$SURFV
 70
     6
  9
$UCSNAME
  2

  9
$UCSORG
 10
0.0
 20
0.0
 30
0.0
  9
$UCSXDIR
 10
1.0
 20
0.0
 30
0.0
  9
$UCSYDIR
 10
0.0
 20
1.0
 30
0.0
  9
$PUCSNAME
  2

  9
$PUCSORG
 10
0.0
 20
0.0
 30
0.0
  9
$PUCSXDIR
 10
1.0
 20
0.0
 30
0.0
  9
$PUCSYDIR
 10
0.0
 20
1.0
 30
0.0
  9
$USERI1
 70
     0
  9
$USERI2
 70
     0
  9
$USERI3
 70
     0
  9
$USERI4
 70
     0
  9
$USERI5
 70
     0
  9
$USERR1
 40
0.0
  9
$USERR2
 40
0.0
  9
$USERR3
 40
0.0
  9
$USERR4
 40
0.0
  9
$USERR5
 40
0.0
  9
$WORLDVIEW
 70
     1
  9
$SHADEDGE
 70
     3
  9
$SHADEDIF
 70
    70
  9
$TILEMODE
 70
     1
  9
$MAXACTVP
 70
    16
  9
$PLIMCHECK
 70
     0
  9
$PEXTMIN
 10
1.0000000000000000E+020
 20
1.0000000000000000E+020
 30
1.0000000000000000E+020
  9
$PEXTMAX
 10
-1.0000000000000000E+020
 20
-1.0000000000000000E+020
 30
-1.0000000000000000E+020
  9
$PLIMMIN
 10
0.0
 20
0.0
  9
$PLIMMAX
 10
12.0
 20
9.0
  9
$UNITMODE
 70
     0
  9
$VISRETAIN
 70
     0
  9
$PLINEGEN
 70
     0
  9
$PSLTSCALE
 70
     1
  0
ENDSEC
  0
SECTION
  2
TABLES
  0
TABLE
  2
VPORT
 70
     2
  0
VPORT
  2
*ACTIVE
 70
     0
 10
0.0
 20
0.0
 11
1.0
 21
1.0
 12
6292.1124769529506
 22
3086.6374998146398
 13
0.0
 23
0.0
 14
10.0
 24
10.0
 15
10.0
 25
10.0
 16
0.0
 26
0.0
 36
1.0
 17
0.0
 27
0.0
 37
0.0
 40
5011.4968576296578
 41
3.1666666666666661
 42
50.0
 43
0.0
 44
0.0
 50
0.0
 51
0.0
 71
     0
 72
   100
 73
     1
 74
     0
 75
     0
 76
     0
 77
     0
 78
     0
  0
ENDTAB
  0
TABLE
  2
LTYPE
 70
     2
  0
LTYPE
  2
CONTINUOUS
 70
     0
  3
Solid line
 72
    65
 73
     0
 40
0.0
  0
LTYPE
  2
CENTER
 70
     0
  3
____ _ ____ _ ____ _ ____ _ ____ _ ____ _ ____ 
 72
    65
 73
     4
 40
2.0
 49
1.25
 49
-0.25
 49
0.25
 49
-0.25
  0
ENDTAB
  0
TABLE
  2
LAYER
 70
     6
  0
LAYER
  2
0
 70
     0
 62
     7
  6
CONTINUOUS
  0
LAYER
  2
3
 70
     0
 62
     2
  6
CONTINUOUS
  0
LAYER
  2
2
 70
     0
 62
     3
  6
CENTER
  0
LAYER
  2
1
 70
     0
 62
     4
  6
CONTINUOUS
  0
LAYER
  2
4
 70
     0
 62
     7
  6
CONTINUOUS
  0
LAYER
  2
DEFPOINTS
 70
     0
 62
     7
  6
CONTINUOUS
  0
ENDTAB
  0
TABLE
  2
STYLE
 70
     1
  0
STYLE
  2
STANDARD
 70
     0
 40
0.0
 41
1.0
 50
0.0
 71
     0
 42
180.0
  3
simplex.shx
  4
extfont.shx
  0
ENDTAB
  0
TABLE
  2
VIEW
 70
     0
  0
ENDTAB
  0
TABLE
  2
UCS
 70
     0
  0
ENDTAB
  0
TABLE
  2
APPID
 70
     1
  0
APPID
  2
ACAD
 70
     0
  0
ENDTAB
  0
TABLE
  2
DIMSTYLE
 70
     1
  0
DIMSTYLE
  2
IGA
 70
     0
  3

  4

  5

  6
OPEN
  7
OPEN
 40
2.0
 41
2.0
 42
0.5
 43
10.0
 44
1.0
 45
0.0
 46
0.0
 47
1.0
 48
1.0
140
3.0
141
0.0
142
0.0
143
0.03937
144
1.0
145
0.0
146
10.0
147
1.0
 71
     0
 72
     0
 73
     0
 74
     0
 75
     0
 76
     0
 77
     1
 78
     8
170
     0
171
     2
172
     0
173
     1
174
     0
175
     0
176
     0
177
     0
178
     0
  0
ENDTAB
  0
ENDSEC
  0
SECTION
  2
BLOCKS
  0
BLOCK
  8
0
  2
$MODEL_SPACE
 70
     0
 10
0.0
 20
0.0
 30
0.0
  3
$MODEL_SPACE
  1

  0
ENDBLK
  5
1B
  8
0
  0
BLOCK
 67
     1
  8
0
  2
$PAPER_SPACE
 70
     0
 10
0.0
 20
0.0
 30
0.0
  3
$PAPER_SPACE
  1

  0
ENDBLK
  5
18
 67
     1
  8
0
  0
BLOCK
  8
0
  2
_OPEN
 70
     0
 10
0.0
 20
0.0
 30
0.0
  3
_OPEN
  1

  0
LINE
  5
7BA7
  8
0
  6
BYBLOCK
 62
     0
 10
-1.0
 20
0.166667
 30
0.0
 11
0.0
 21
0.0
 31
0.0
  0
LINE
  5
7BA8
  8
0
  6
BYBLOCK
 62
     0
 10
0.0
 20
0.0
 30
0.0
 11
-1.0
 21
-0.166667
 31
0.0
  0
LINE
  5
7BA9
  8
0
  6
BYBLOCK
 62
     0
 10
0.0
 20
0.0
 30
0.0
 11
-1.0
 21
0.0
 31
0.0
  0
ENDBLK
  5
7BAA
  8
0
  0
BLOCK
  8
0
  2
*D1
 70
     1
 10
0.0
 20
0.0
 30
0.0
  3
*D1
  1

  0
LINE
  5
7E4B
  8
3
  6
CONTINUOUS
 62
     0
 10
1181.0873260000001
 20
2007.0135309999989
 30
0.0
 11
1081.510724
 21
2007.0135309999989
 31
0.0
  0
LINE
  5
7E4C
  8
3
  6
CONTINUOUS
 62
     0
 10
1181.0873260000001
 20
2487.0135310000001
 30
0.0
 11
1081.510724
 21
2487.0135310000001
 31
0.0
  0
LINE
  5
7E4D
  8
3
  6
CONTINUOUS
 62
     0
 10
1101.510724
 20
2047.0135310000001
 30
0.0
 11
1101.510724
 21
2447.0135310000001
 31
0.0
  0
INSERT
  5
7E4E
  8
3
  6
CONTINUOUS
 62
     0
  2
_OPEN
 10
1101.510724
 20
2007.0135309999989
 30
0.0
 41
40.0
 42
40.0
 43
40.0
 50
270.0
  0
INSERT
  5
7E4F
  8
3
  6
CONTINUOUS
 62
     0
  2
_OPEN
 10
1101.510724
 20
2487.0135310000001
 30
0.0
 41
40.0
 42
40.0
 43
40.0
 50
90.0
  0
TEXT
  8
3
  40
60
  5
7EF7
  62
0
  72
0
  71
0
 10
931.511
 20
2113.08
 30
0.000000
  1
480
  0
POINT
  5
7E51
  8
DEFPOINTS
  6
CONTINUOUS
 62
     0
 10
1191.0873260000001
 20
2007.0135309999989
 30
0.0
  0
POINT
  5
7E52
  8
DEFPOINTS
  6
CONTINUOUS
 62
     0
 10
1191.0873260000001
 20
2487.0135310000001
 30
0.0
  0
POINT
  5
7E53
  8
DEFPOINTS
  6
CONTINUOUS
 62
     0
 10
1101.510724
 20
2487.0135310000001
 30
0.0
  0
ENDBLK
  5
7C6B
  8
0
  0
BLOCK
  8
0
  2
*D2
 70
     1
 10
0.0
 20
0.0
 30
0.0
  3
*D2
  1

  0
LINE
  5
7E54
  8
3
  6
CONTINUOUS
 62
     0
 10
1043.534885999999
 20
2469.0135310000001
 30
0.0
 11
964.47714900000051
 21
2469.0135310000001
 31
0.0
  0
LINE
  5
7E55
  8
3
  6
CONTINUOUS
 62
     0
 10
1181.0873260000001
 20
2007.0135309999989
 30
0.0
 11
964.47714900000028
 21
2007.0135309999989
 31
0.0
  0
LINE
  5
7E56
  8
3
  6
CONTINUOUS
 62
     0
 10
984.4771490000004
 20
2429.0135310000001
 30
0.0
 11
984.4771490000004
 21
2047.0135310000001
 31
0.0
  0
INSERT
  5
7E57
  8
3
  6
CONTINUOUS
 62
     0
  2
_OPEN
 10
984.4771490000004
 20
2469.0135310000001
 30
0.0
 41
40.0
 42
40.0
 43
40.0
 50
90.0
  0
INSERT
  5
7E58
  8
3
  6
CONTINUOUS
 62
     0
  2
_OPEN
 10
984.4771490000004
 20
2007.0135309999989
 30
0.0
 41
40.0
 42
40.0
 43
40.0
 50
270.0
  0
TEXT
  8
3
  40
60
  5
7EF8
  62
0
  72
0
  71
0
 10
814.477
 20
2104.73
 30
0.000000
  1
462
  0
POINT
  5
7E5A
  8
DEFPOINTS
  6
CONTINUOUS
 62
     0
 10
1053.5348859999999
 20
2469.0135310000001
 30
0.0
  0
POINT
  5
7E5B
  8
DEFPOINTS
  6
CONTINUOUS
 62
     0
 10
1191.0873260000001
 20
2007.0135309999989
 30
0.0
  0
POINT
  5
7E5C
  8
DEFPOINTS
  6
CONTINUOUS
 62
     0
 10
984.4771490000004
 20
2007.0135309999989
 30
0.0
  0
ENDBLK
  5
7C76
  8
0
  0
BLOCK
  8
0
  2
*D3
 70
     1
 10
0.0
 20
0.0
 30
0.0
  3
*D3
  1

  0
LINE
  5
7E5D
  8
3
  6
CONTINUOUS
 62
     0
 10
1226.0873260000001
 20
2824.0135310000001
 30
0.0
 11
834.90422700000045
 21
2824.0135310000001
 31
0.0
  0
LINE
  5
7E5E
  8
3
  6
CONTINUOUS
 62
     0
 10
1043.534885999999
 20
2469.0135310000001
 30
0.0
 11
834.90422700000045
 21
2469.0135310000001
 31
0.0
  0
LINE
  5
7E5F
  8
3
  6
CONTINUOUS
 62
     0
 10
854.90422700000045
 20
2784.0135310000001
 30
0.0
 11
854.90422700000045
 21
2509.0135310000001
 31
0.0
  0
INSERT
  5
7E60
  8
3
  6
CONTINUOUS
 62
     0
  2
_OPEN
 10
854.90422700000056
 20
2824.0135310000001
 30
0.0
 41
40.0
 42
40.0
 43
40.0
 50
90.0
  0
INSERT
  5
7E61
  8
3
  6
CONTINUOUS
 62
     0
  2
_OPEN
 10
854.90422700000045
 20
2469.0135310000001
 30
0.0
 41
40.0
 42
40.0
 43
40.0
 50
270.0
  0
TEXT
  8
3
  40
60
  5
7EF9
  62
0
  72
0
  71
0
 10
684.904
 20
2534.84
 30
0.000000
  1
355
  0
POINT
  5
7E63
  8
DEFPOINTS
  6
CONTINUOUS
 62
     0
 10
1236.0873260000001
 20
2824.0135310000001
 30
0.0
  0
POINT
  5
7E64
  8
DEFPOINTS
  6
CONTINUOUS
 62
     0
 10
1053.5348859999999
 20
2469.0135310000001
 30
0.0
  0
POINT
  5
7E65
  8
DEFPOINTS
  6
CONTINUOUS
 62
     0
 10
854.90422700000045
 20
2469.0135310000001
 30
0.0
  0
ENDBLK
  5
7BD1
  8
0
  0
BLOCK
  8
0
  2
*D4
 70
     1
 10
0.0
 20
0.0
 30
0.0
  3
*D4
  1

  0
LINE
  5
7E66
  8
3
  6
CONTINUOUS
 62
     0
 10
1236.0873260000001
 20
1869.0135310000001
 30
0.0
 11
834.90422699999988
 21
1869.0135310000001
 31
0.0
  0
LINE
  5
7E67
  8
3
  6
CONTINUOUS
 62
     0
 10
854.90422700000011
 20
2429.0135310000001
 30
0.0
 11
854.90422699999988
 21
1909.0135309999989
 31
0.0
  0
INSERT
  5
7E68
  8
3
  6
CONTINUOUS
 62
     0
  2
_OPEN
 10
854.90422700000011
 20
2469.0135310000001
 30
0.0
 41
40.0
 42
40.0
 43
40.0
 50
90.0
  0
INSERT
  5
7E69
  8
3
  6
CONTINUOUS
 62
     0
  2
_OPEN
 10
854.90422699999988
 20
1869.0135310000001
 30
0.0
 41
40.0
 42
40.0
 43
40.0
 50
270.0
  0
TEXT
  8
3
  40
60
  5
7EFA
  62
0
  72
0
  71
0
 10
684.904
 20
2062.81
 30
0.000000
  1
600
  0
POINT
  5
7E6B
  8
DEFPOINTS
  6
CONTINUOUS
 62
     0
 10
1053.5348859999999
 20
2469.0135310000001
 30
0.0
  0
POINT
  5
7E6C
  8
DEFPOINTS
  6
CONTINUOUS
 62
     0
 10
1246.0873260000001
 20
1869.0135310000001
 30
0.0
  0
POINT
  5
7E6D
  8
DEFPOINTS
  6
CONTINUOUS
 62
     0
 10
854.90422699999988
 20
1869.0135310000001
 30
0.0
  0
ENDBLK
  5
7BDD
  8
0
  0
BLOCK
  8
0
  2
*D5
 70
     1
 10
0.0
 20
0.0
 30
0.0
  3
*D5
  1

  0
LINE
  5
7E6E
  8
3
  6
CONTINUOUS
 62
     0
 10
1226.0873260000001
 20
2824.0135310000001
 30
0.0
 11
700.4708980000006
 21
2824.0135310000001
 31
0.0
  0
LINE
  5
7E6F
  8
3
  6
CONTINUOUS
 62
     0
 10
1236.0873260000001
 20
1742.0135310000001
 30
0.0
 11
700.47089800000015
 21
1742.0135310000001
 31
0.0
  0
LINE
  5
7E70
  8
3
  6
CONTINUOUS
 62
     0
 10
720.47089800000037
 20
2784.0135310000001
 30
0.0
 11
720.47089800000026
 21
1782.0135309999989
 31
0.0
  0
INSERT
  5
7E71
  8
3
  6
CONTINUOUS
 62
     0
  2
_OPEN
 10
720.4708980000006
 20
2824.0135310000001
 30
0.0
 41
40.0
 42
40.0
 43
40.0
 50
90.0
  0
INSERT
  5
7E72
  8
3
  6
CONTINUOUS
 62
     0
  2
_OPEN
 10
720.47089800000026
 20
1742.0135310000001
 30
0.0
 41
40.0
 42
40.0
 43
40.0
 50
270.0
  0
TEXT
  8
3
  40
60
  5
7EFB
  62
0
  72
0
  71
0
 10
550.471
 20
2163.19
 30
0.000000
  1
1082
  0
POINT
  5
7E74
  8
DEFPOINTS
  6
CONTINUOUS
 62
     0
 10
1236.0873260000001
 20
2824.0135310000001
 30
0.0
  0
POINT
  5
7E75
  8
DEFPOINTS
  6
CONTINUOUS
 62
     0
 10
1246.0873260000001
 20
1742.0135310000001
 30
0.0
  0
POINT
  5
7E76
  8
DEFPOINTS
  6
CONTINUOUS
 62
     0
 10
720.47089800000026
 20
1742.0135310000001
 30
0.0
  0
ENDBLK
  5
7D59
  8
0
  0
BLOCK
  8
0
  2
*D6
 70
     1
 10
0.0
 20
0.0
 30
0.0
  3
*D6
  1

  0
LINE
  5
7E77
  8
3
  6
CONTINUOUS
 62
     0
 10
1191.0873260000001
 20
2514.0135310000001
 30
0.0
 11
1191.0873260000001
 21
2953.3561219999988
 31
0.0
  0
LINE
  5
7E78
  8
3
  6
CONTINUOUS
 62
     0
 10
1546.0873260000001
 20
2909.9492500000001
 30
0.0
 11
1546.0873260000001
 21
2953.3561219999988
 31
0.0
  0
LINE
  5
7E79
  8
3
  6
CONTINUOUS
 62
     0
 10
1231.0873260000001
 20
2933.3561219999988
 30
0.0
 11
1506.0873260000001
 21
2933.3561219999988
 31
0.0
  0
INSERT
  5
7E7A
  8
3
  6
CONTINUOUS
 62
     0
  2
_OPEN
 10
1191.0873260000001
 20
2933.3561219999988
 30
0.0
 41
40.0
 42
40.0
 43
40.0
 50
180.0
  0
INSERT
  5
7E7B
  8
3
  6
CONTINUOUS
 62
     0
  2
_OPEN
 10
1546.0873260000001
 20
2933.3561219999988
 30
0.0
 41
40.0
 42
40.0
 43
40.0
  0
TEXT
  8
3
  40
60
  5
7EFC
  62
0
  72
0
  71
0
 10
1236.48
 20
2877.16
 30
0.000000
  1
355
  0
POINT
  5
7E7D
  8
DEFPOINTS
  6
CONTINUOUS
 62
     0
 10
1191.0873260000001
 20
2504.0135310000001
 30
0.0
  0
POINT
  5
7E7E
  8
DEFPOINTS
  6
CONTINUOUS
 62
     0
 10
1546.0873260000001
 20
2899.9492500000001
 30
0.0
  0
POINT
  5
7E7F
  8
DEFPOINTS
  6
CONTINUOUS
 62
     0
 10
1546.0873260000001
 20
2933.3561219999988
 30
0.0
  0
ENDBLK
  5
7C55
  8
0
  0
BLOCK
  8
0
  2
*D7
 70
     1
 10
0.0
 20
0.0
 30
0.0
  3
*D7
  1

  0
LINE
  5
7E80
  8
3
  6
CONTINUOUS
 62
     0
 10
1943.0873260000001
 20
2484.1539020605228
 30
0.0
 11
1943.0873260000001
 21
2953.3561219999988
 31
0.0
  0
LINE
  5
7E81
  8
3
  6
CONTINUOUS
 62
     0
 10
1586.0873260000001
 20
2933.3561219999988
 30
0.0
 11
1903.0873259999989
 21
2933.3561219999988
 31
0.0
  0
INSERT
  5
7E82
  8
3
  6
CONTINUOUS
 62
     0
  2
_OPEN
 10
1546.0873260000001
 20
2933.3561219999988
 30
0.0
 41
40.0
 42
40.0
 43
40.0
 50
180.0
  0
INSERT
  5
7E83
  8
3
  6
CONTINUOUS
 62
     0
  2
_OPEN
 10
1943.0873260000001
 20
2933.3561219999988
 30
0.0
 41
40.0
 42
40.0
 43
40.0
  0
TEXT
  8
3
  40
60
  5
7EFD
  62
0
  72
0
  71
0
 10
1624.59
 20
2877.16
 30
0.000000
  1
397
  0
POINT
  5
7E85
  8
DEFPOINTS
  6
CONTINUOUS
 62
     0
 10
1546.0873260000001
 20
2899.9492500000001
 30
0.0
  0
POINT
  5
7E86
  8
DEFPOINTS
  6
CONTINUOUS
 62
     0
 10
1943.0873260000001
 20
2474.1539020605219
 30
0.0
  0
POINT
  5
7E87
  8
DEFPOINTS
  6
CONTINUOUS
 62
     0
 10
1943.0873260000001
 20
2933.3561219999988
 30
0.0
  0
ENDBLK
  5
7E28
  8
0
  0
BLOCK
  8
0
  2
*D8
 70
     1
 10
0.0
 20
0.0
 30
0.0
  3
*D8
  1

  0
LINE
  5
7E88
  8
3
  6
CONTINUOUS
 62
     0
 10
1246.0873260000001
 20
1732.0135309999989
 30
0.0
 11
1246.0873260000001
 21
1614.6564069999999
 31
0.0
  0
LINE
  5
7E89
  8
3
  6
CONTINUOUS
 62
     0
 10
1546.0873260000001
 20
1671.232348
 30
0.0
 11
1546.0873260000001
 21
1614.6564069999999
 31
0.0
  0
LINE
  5
7E8A
  8
3
  6
CONTINUOUS
 62
     0
 10
1286.0873260000001
 20
1634.6564069999999
 30
0.0
 11
1506.0873260000001
 21
1634.6564069999999
 31
0.0
  0
INSERT
  5
7E8B
  8
3
  6
CONTINUOUS
 62
     0
  2
_OPEN
 10
1246.0873260000001
 20
1634.6564069999999
 30
0.0
 41
40.0
 42
40.0
 43
40.0
 50
180.0
  0
INSERT
  5
7E8C
  8
3
  6
CONTINUOUS
 62
     0
  2
_OPEN
 10
1546.0873260000001
 20
1634.6564069999999
 30
0.0
 41
40.0
 42
40.0
 43
40.0
  0
TEXT
  8
3
  40
60
  5
7EFE
  62
0
  72
0
  71
0
 10
1263.23
 20
1578.46
 30
0.000000
  1
300
  0
POINT
  5
7E8E
  8
DEFPOINTS
  6
CONTINUOUS
 62
     0
 10
1246.0873260000001
 20
1742.0135310000001
 30
0.0
  0
POINT
  5
7E8F
  8
DEFPOINTS
  6
CONTINUOUS
 62
     0
 10
1546.0873260000001
 20
1681.2323479999991
 30
0.0
  0
POINT
  5
7E90
  8
DEFPOINTS
  6
CONTINUOUS
 62
     0
 10
1546.0873260000001
 20
1634.6564069999999
 30
0.0
  0
ENDBLK
  5
7C1E
  8
0
  0
BLOCK
  8
0
  2
*D9
 70
     1
 10
0.0
 20
0.0
 30
0.0
  3
*D9
  1

  0
LINE
  5
7E91
  8
3
  6
CONTINUOUS
 62
     0
 10
2366.0873259999998
 20
1732.0135309999989
 30
0.0
 11
2366.0873259999998
 21
1614.6564069999999
 31
0.0
  0
LINE
  5
7E92
  8
3
  6
CONTINUOUS
 62
     0
 10
1586.0873260000001
 20
1634.6564069999999
 30
0.0
 11
2326.0873259999998
 21
1634.6564069999999
 31
0.0
  0
INSERT
  5
7E93
  8
3
  6
CONTINUOUS
 62
     0
  2
_OPEN
 10
1546.0873260000001
 20
1634.6564069999999
 30
0.0
 41
40.0
 42
40.0
 43
40.0
 50
180.0
  0
INSERT
  5
7E94
  8
3
  6
CONTINUOUS
 62
     0
  2
_OPEN
 10
2366.0873259999998
 20
1634.6564069999999
 30
0.0
 41
40.0
 42
40.0
 43
40.0
  0
TEXT
  8
3
  40
60
  5
7EFF
  62
0
  72
0
  71
0
 10
1836.09
 20
1578.46
 30
0.000000
  1
820
  0
POINT
  5
7E96
  8
DEFPOINTS
  6
CONTINUOUS
 62
     0
 10
1546.0873260000001
 20
1681.2323479999991
 30
0.0
  0
POINT
  5
7E97
  8
DEFPOINTS
  6
CONTINUOUS
 62
     0
 10
2366.0873259999998
 20
1742.0135310000001
 30
0.0
  0
POINT
  5
7E98
  8
DEFPOINTS
  6
CONTINUOUS
 62
     0
 10
2366.0873259999998
 20
1634.6564069999999
 30
0.0
  0
ENDBLK
  5
7C2A
  8
0
  0
BLOCK
  8
0
  2
*D10
 70
     1
 10
0.0
 20
0.0
 30
0.0
  3
*D10
  1

  0
LINE
  5
7E99
  8
3
  6
CONTINUOUS
 62
     0
 10
3434.1597390000002
 20
2832.9935309999992
 30
0.0
 11
3434.1597390000002
 21
2918.3393919999999
 31
0.0
  0
LINE
  5
7E9A
  8
3
  6
CONTINUOUS
 62
     0
 10
3074.1597390000002
 20
2832.9935309999992
 30
0.0
 11
3074.1597390000002
 21
2918.3393919999999
 31
0.0
  0
LINE
  5
7E9B
  8
3
  6
CONTINUOUS
 62
     0
 10
3394.1597390000002
 20
2898.3393919999999
 30
0.0
 11
3114.1597390000002
 21
2898.3393919999999
 31
0.0
  0
INSERT
  5
7E9C
  8
3
  6
CONTINUOUS
 62
     0
  2
_OPEN
 10
3434.1597390000002
 20
2898.3393919999999
 30
0.0
 41
40.0
 42
40.0
 43
40.0
  0
INSERT
  5
7E9D
  8
3
  6
CONTINUOUS
 62
     0
  2
_OPEN
 10
3074.1597390000002
 20
2898.3393919999999
 30
0.0
 41
40.0
 42
40.0
 43
40.0
 50
180.0
  0
TEXT
  8
3
  40
60
  5
7F00
  62
0
  72
0
  71
0
 10
3133.94
 20
2842.14
 30
0.000000
  1
360
  0
POINT
  5
7E9F
  8
DEFPOINTS
  6
CONTINUOUS
 62
     0
 10
3434.1597390000002
 20
2822.9935310000001
 30
0.0
  0
POINT
  5
7EA0
  8
DEFPOINTS
  6
CONTINUOUS
 62
     0
 10
3074.1597390000002
 20
2822.9935310000001
 30
0.0
  0
POINT
  5
7EA1
  8
DEFPOINTS
  6
CONTINUOUS
 62
     0
 10
3074.1597390000002
 20
2898.3393919999999
 30
0.0
  0
ENDBLK
  5
7CB5
  8
0
  0
BLOCK
  8
0
  2
*D11
 70
     1
 10
0.0
 20
0.0
 30
0.0
  3
*D11
  1

  0
LINE
  5
7EA2
  8
3
  6
CONTINUOUS
 62
     0
 10
3445.1597390000002
 20
2719.0135310000001
 30
0.0
 11
3638.7772260000002
 21
2719.0135310000001
 31
0.0
  0
LINE
  5
7EA3
  8
3
  6
CONTINUOUS
 62
     0
 10
3445.1597390000002
 20
2219.0135310000001
 30
0.0
 11
3638.7772260000002
 21
2219.0135310000001
 31
0.0
  0
LINE
  5
7EA4
  8
3
  6
CONTINUOUS
 62
     0
 10
3618.7772260000002
 20
2679.0135310000001
 30
0.0
 11
3618.7772260000002
 21
2259.0135310000001
 31
0.0
  0
INSERT
  5
7EA5
  8
3
  6
CONTINUOUS
 62
     0
  2
_OPEN
 10
3618.7772260000002
 20
2719.0135310000001
 30
0.0
 41
40.0
 42
40.0
 43
40.0
 50
90.0
  0
INSERT
  5
7EA6
  8
3
  6
CONTINUOUS
 62
     0
  2
_OPEN
 10
3618.7772260000002
 20
2219.0135310000001
 30
0.0
 41
40.0
 42
40.0
 43
40.0
 50
270.0
  0
TEXT
  8
3
  40
60
  5
7F01
  62
0
  72
0
  71
0
 10
3448.78
 20
2365.15
 30
0.000000
  1
φ500
  0
POINT
  5
7EA8
  8
DEFPOINTS
  6
CONTINUOUS
 62
     0
 10
3435.1597390000002
 20
2719.0135310000001
 30
0.0
  0
POINT
  5
7EA9
  8
DEFPOINTS
  6
CONTINUOUS
 62
     0
 10
3435.1597390000002
 20
2219.0135310000001
 30
0.0
  0
POINT
  5
7EAA
  8
DEFPOINTS
  6
CONTINUOUS
 62
     0
 10
3618.7772260000002
 20
2219.0135310000001
 30
0.0
  0
ENDBLK
  5
7D91
  8
0
  0
BLOCK
  8
0
  2
*D12
 70
     1
 10
0.0
 20
0.0
 30
0.0
  3
*D12
  1

  0
LINE
  5
7D93
  8
0
  6
BYBLOCK
 62
     0
 10
3435.1597390000002
 20
2729.0135310000001
 30
0.0
 11
3435.1597390000002
 21
3048.5186840000001
 31
0.0
  0
LINE
  5
7D94
  8
0
  6
BYBLOCK
 62
     0
 10
3254.1597390000002
 20
3000.9333898118589
 30
0.0
 11
3254.1597390000002
 21
3048.5186840000001
 31
0.0
  0
LINE
  5
7D95
  8
0
  6
BYBLOCK
 62
     0
 10
3395.1597390000002
 20
3028.5186840000001
 30
0.0
 11
3294.1597390000002
 21
3028.5186840000001
 31
0.0
  0
TEXT
  5
7D96
  8
3
 62
     0
 10
3286.0883104285722
 20
3057.1803974933132
 30
0.0
 40
60.0
  1
181
  0
INSERT
  5
7D97
  8
0
  6
BYBLOCK
 62
     0
  2
_OPEN
 10
3435.1597390000002
 20
3028.5186840000001
 30
0.0
 41
40.0
 42
40.0
 43
40.0
  0
INSERT
  5
7D98
  8
0
  6
BYBLOCK
 62
     0
  2
_OPEN
 10
3254.1597390000002
 20
3028.5186840000001
 30
0.0
 41
40.0
 42
40.0
 43
40.0
 50
180.0
  0
POINT
  5
7D99
  8
DEFPOINTS
  6
BYBLOCK
 62
     0
 10
3435.1597390000002
 20
2719.0135310000001
 30
0.0
  0
POINT
  5
7D9A
  8
DEFPOINTS
  6
BYBLOCK
 62
     0
 10
3254.1597390000002
 20
2990.9333898118598
 30
0.0
  0
POINT
  5
7D9B
  8
DEFPOINTS
  6
BYBLOCK
 62
     0
 10
3254.1597390000002
 20
3028.5186840000001
 30
0.0
  0
ENDBLK
  5
7D9C
  8
0
  0
BLOCK
  8
0
  2
*D13
 70
     1
 10
0.0
 20
0.0
 30
0.0
  3
*D13
  1

  0
LINE
  5
7EAB
  8
3
  6
CONTINUOUS
 62
     0
 10
2884.1597390000002
 20
2704.0135310000001
 30
0.0
 11
2884.1597390000002
 21
3048.5186840000001
 31
0.0
  0
LINE
  5
7EAC
  8
3
  6
CONTINUOUS
 62
     0
 10
3214.1597390000002
 20
3028.5186840000001
 30
0.0
 11
2924.1597390000002
 21
3028.5186840000001
 31
0.0
  0
INSERT
  5
7EAD
  8
3
  6
CONTINUOUS
 62
     0
  2
_OPEN
 10
3254.1597390000002
 20
3028.5186840000001
 30
0.0
 41
40.0
 42
40.0
 43
40.0
  0
INSERT
  5
7EAE
  8
3
  6
CONTINUOUS
 62
     0
  2
_OPEN
 10
2884.1597390000002
 20
3028.5186840000001
 30
0.0
 41
40.0
 42
40.0
 43
40.0
 50
180.0
  0
TEXT
  8
3
  40
60
  5
7F02
  62
0
  72
0
  71
0
 10
2949.16
 20
3022.32
 30
0.000000
  1
MAX
  0
TEXT
  8
3
  40
60
  5
7F03
  62
0
  72
0
  71
0
 10
2949.16
 20
2944.32
 30
0.000000
  1
430
  0
POINT
  5
7EB0
  8
DEFPOINTS
  6
CONTINUOUS
 62
     0
 10
3254.1597390000002
 20
2990.9333898118598
 30
0.0
  0
POINT
  5
7EB1
  8
DEFPOINTS
  6
CONTINUOUS
 62
     0
 10
2884.1597390000002
 20
2694.0135310000001
 30
0.0
  0
POINT
  5
7EB2
  8
DEFPOINTS
  6
CONTINUOUS
 62
     0
 10
2884.1597390000002
 20
3028.5186840000001
 30
0.0
  0
ENDBLK
  5
7DB0
  8
0
  0
BLOCK
  8
0
  2
*D14
 70
     1
 10
0.0
 20
0.0
 30
0.0
  3
*D14
  1

  0
LINE
  5
7EB3
  8
3
  6
CONTINUOUS
 62
     0
 10
2868.1597390000002
 20
1732.0135309999989
 30
0.0
 11
2868.1597390000002
 21
1581.7535270000001
 31
0.0
  0
LINE
  5
7EB4
  8
3
  6
CONTINUOUS
 62
     0
 10
3254.1597390000002
 20
1661.14037670516
 30
0.0
 11
3254.1597390000002
 21
1581.7535270000001
 31
0.0
  0
LINE
  5
7EB5
  8
3
  6
CONTINUOUS
 62
     0
 10
2908.1597390000002
 20
1601.7535270000001
 30
0.0
 11
3214.1597390000002
 21
1601.7535270000001
 31
0.0
  0
INSERT
  5
7EB6
  8
3
  6
CONTINUOUS
 62
     0
  2
_OPEN
 10
2868.1597390000002
 20
1601.7535270000001
 30
0.0
 41
40.0
 42
40.0
 43
40.0
 50
180.0
  0
INSERT
  5
7EB7
  8
3
  6
CONTINUOUS
 62
     0
  2
_OPEN
 10
3254.1597390000002
 20
1601.7535270000001
 30
0.0
 41
40.0
 42
40.0
 43
40.0
  0
TEXT
  8
3
  40
60
  5
7F04
  62
0
  72
0
  71
0
 10
2951.52
 20
1545.55
 30
0.000000
  1
386
  0
POINT
  5
7EB9
  8
DEFPOINTS
  6
CONTINUOUS
 62
     0
 10
2868.1597390000002
 20
1742.0135310000001
 30
0.0
  0
POINT
  5
7EBA
  8
DEFPOINTS
  6
CONTINUOUS
 62
     0
 10
3254.1597390000002
 20
1671.14037670516
 30
0.0
  0
POINT
  5
7EBB
  8
DEFPOINTS
  6
CONTINUOUS
 62
     0
 10
3254.1597390000002
 20
1601.7535270000001
 30
0.0
  0
ENDBLK
  5
7DBB
  8
0
  0
BLOCK
  8
0
  2
*D15
 70
     1
 10
0.0
 20
0.0
 30
0.0
  3
*D15
  1

  0
LINE
  5
7EBC
  8
3
  6
CONTINUOUS
 62
     0
 10
3558.1597390000002
 20
1732.0135309999989
 30
0.0
 11
3558.1597390000002
 21
1581.7535270000001
 31
0.0
  0
LINE
  5
7EBD
  8
3
  6
CONTINUOUS
 62
     0
 10
3294.1597390000002
 20
1601.7535270000001
 30
0.0
 11
3518.1597390000002
 21
1601.7535270000001
 31
0.0
  0
INSERT
  5
7EBE
  8
3
  6
CONTINUOUS
 62
     0
  2
_OPEN
 10
3254.1597390000002
 20
1601.7535270000001
 30
0.0
 41
40.0
 42
40.0
 43
40.0
 50
180.0
  0
INSERT
  5
7EBF
  8
3
  6
CONTINUOUS
 62
     0
  2
_OPEN
 10
3558.1597390000002
 20
1601.7535270000001
 30
0.0
 41
40.0
 42
40.0
 43
40.0
  0
TEXT
  8
3
  40
60
  5
7F05
  62
0
  72
0
  71
0
 10
3286.16
 20
1545.55
 30
0.000000
  1
304
  0
POINT
  5
7EC1
  8
DEFPOINTS
  6
CONTINUOUS
 62
     0
 10
3254.1597390000002
 20
1671.14037670516
 30
0.0
  0
POINT
  5
7EC2
  8
DEFPOINTS
  6
CONTINUOUS
 62
     0
 10
3558.1597390000002
 20
1742.0135310000001
 30
0.0
  0
POINT
  5
7EC3
  8
DEFPOINTS
  6
CONTINUOUS
 62
     0
 10
3558.1597390000002
 20
1601.7535270000001
 30
0.0
  0
ENDBLK
  5
7DC5
  8
0
  0
BLOCK
  8
0
  2
*D16
 70
     1
 10
0.0
 20
0.0
 30
0.0
  3
*D16
  1

  0
LINE
  5
7EC4
  8
3
  6
CONTINUOUS
 62
     0
 10
1246.0873260000001
 20
4218.1435309999997
 30
0.0
 11
1246.0873260000001
 21
4338.5974389999992
 31
0.0
  0
LINE
  5
7EC5
  8
3
  6
CONTINUOUS
 62
     0
 10
2366.0873259999998
 20
4218.1435309999997
 30
0.0
 11
2366.0873259999998
 21
4338.5974389999992
 31
0.0
  0
LINE
  5
7EC6
  8
3
  6
CONTINUOUS
 62
     0
 10
1286.0873260000001
 20
4318.5974390000001
 30
0.0
 11
2326.0873259999998
 21
4318.5974390000001
 31
0.0
  0
INSERT
  5
7EC7
  8
3
  6
CONTINUOUS
 62
     0
  2
_OPEN
 10
1246.0873260000001
 20
4318.5974390000001
 30
0.0
 41
40.0
 42
40.0
 43
40.0
 50
180.0
  0
INSERT
  5
7EC8
  8
3
  6
CONTINUOUS
 62
     0
  2
_OPEN
 10
2366.0873259999998
 20
4318.5974390000001
 30
0.0
 41
40.0
 42
40.0
 43
40.0
  0
TEXT
  8
3
  40
60
  5
7F06
  62
0
  72
0
  71
0
 10
1621.22
 20
4262.40
 30
0.000000
  1
1120
  0
POINT
  5
7ECA
  8
DEFPOINTS
  6
CONTINUOUS
 62
     0
 10
1246.0873260000001
 20
4208.1435310000006
 30
0.0
  0
POINT
  5
7ECB
  8
DEFPOINTS
  6
CONTINUOUS
 62
     0
 10
2366.0873259999998
 20
4208.1435310000006
 30
0.0
  0
POINT
  5
7ECC
  8
DEFPOINTS
  6
CONTINUOUS
 62
     0
 10
2366.0873259999998
 20
4318.5974390000001
 30
0.0
  0
ENDBLK
  5
7CF5
  8
0
  0
BLOCK
  8
0
  2
*D17
 70
     1
 10
0.0
 20
0.0
 30
0.0
  3
*D17
  1

  0
LINE
  5
7ECD
  8
3
  6
CONTINUOUS
 62
     0
 10
2376.0873259999998
 20
4208.1435310000006
 30
0.0
 11
2543.0225989999999
 21
4208.1435310000006
 31
0.0
  0
LINE
  5
7ECE
  8
3
  6
CONTINUOUS
 62
     0
 10
2376.0873259999998
 20
3518.1435310000002
 30
0.0
 11
2543.0225989999999
 21
3518.1435310000002
 31
0.0
  0
LINE
  5
7ECF
  8
3
  6
CONTINUOUS
 62
     0
 10
2523.0225989999999
 20
4168.1435310000006
 30
0.0
 11
2523.0225989999999
 21
3558.1435310000002
 31
0.0
  0
INSERT
  5
7ED0
  8
3
  6
CONTINUOUS
 62
     0
  2
_OPEN
 10
2523.0225989999999
 20
4208.1435310000006
 30
0.0
 41
40.0
 42
40.0
 43
40.0
 50
90.0
  0
INSERT
  5
7ED1
  8
3
  6
CONTINUOUS
 62
     0
  2
_OPEN
 10
2523.0225989999999
 20
3518.1435310000002
 30
0.0
 41
40.0
 42
40.0
 43
40.0
 50
270.0
  0
TEXT
  8
3
  40
60
  5
7F07
  62
0
  72
0
  71
0
 10
2353.02
 20
3785.41
 30
0.000000
  1
690
  0
POINT
  5
7ED3
  8
DEFPOINTS
  6
CONTINUOUS
 62
     0
 10
2366.0873259999998
 20
4208.1435310000006
 30
0.0
  0
POINT
  5
7ED4
  8
DEFPOINTS
  6
CONTINUOUS
 62
     0
 10
2366.0873259999998
 20
3518.1435310000002
 30
0.0
  0
POINT
  5
7ED5
  8
DEFPOINTS
  6
CONTINUOUS
 62
     0
 10
2523.0225989999999
 20
3518.1435310000002
 30
0.0
  0
ENDBLK
  5
7D02
  8
0
  0
BLOCK
  8
0
  2
*D18
 70
     1
 10
0.0
 20
0.0
 30
0.0
  3
*D18
  1

  0
LINE
  5
7ED6
  8
3
  6
CONTINUOUS
 62
     0
 10
1236.0873260000001
 20
1782.0135309999989
 30
0.0
 11
834.90422699999988
 21
1782.0135309999989
 31
0.0
  0
LINE
  5
7ED7
  8
3
  6
CONTINUOUS
 62
     0
 10
854.90422700000011
 20
1909.0135309999989
 30
0.0
 11
854.90422700000011
 21
1949.0135310000001
 31
0.0
  0
LINE
  5
7ED8
  8
3
  6
CONTINUOUS
 62
     0
 10
854.90422699999988
 20
1742.0135310000001
 30
0.0
 11
854.90422699999988
 21
1702.0135309999989
 31
0.0
  0
TEXT
  8
3
  40
60
  5
7F08
  62
0
  72
0
  71
0
 10
684.260
 20
1725.81
 30
0.000000
  1
87
  0
LINE
  5
7EDA
  8
3
  6
CONTINUOUS
 62
     0
 10
854.90422700000011
 20
1869.0135310000001
 30
0.0
 11
854.90422699999988
 21
1782.0135309999989
 31
0.0
  0
INSERT
  5
7EDB
  8
3
  6
CONTINUOUS
 62
     0
  2
_OPEN
 10
854.90422700000011
 20
1869.0135310000001
 30
0.0
 41
40.0
 42
40.0
 43
40.0
 50
270.0
  0
INSERT
  5
7EDC
  8
3
  6
CONTINUOUS
 62
     0
  2
_DOT
 10
854.90422699999988
 20
1782.0135309999989
 30
0.0
 41
40.0
 42
40.0
 43
40.0
 50
90.0
  0
POINT
  5
7EDD
  8
DEFPOINTS
  6
CONTINUOUS
 62
     0
 10
1246.0873260000001
 20
1869.0135310000001
 30
0.0
  0
POINT
  5
7EDE
  8
DEFPOINTS
  6
CONTINUOUS
 62
     0
 10
1246.0873260000001
 20
1782.0135309999989
 30
0.0
  0
POINT
  5
7EDF
  8
DEFPOINTS
  6
CONTINUOUS
 62
     0
 10
854.90422699999988
 20
1782.0135309999989
 30
0.0
  0
ENDBLK
  5
7E07
  8
0
  0
BLOCK
  8
0
  2
*D19
 70
     1
 10
0.0
 20
0.0
 30
0.0
  3
*D19
  1

  0
LINE
  5
7EE0
  8
3
  6
CONTINUOUS
 62
     0
 10
1236.0873260000001
 20
1782.0135309999989
 30
0.0
 11
834.90422700000011
 21
1782.0135309999989
 31
0.0
  0
LINE
  5
7EE1
  8
3
  6
CONTINUOUS
 62
     0
 10
1236.0873260000001
 20
1742.0135310000001
 30
0.0
 11
834.90422700000011
 21
1742.0135310000001
 31
0.0
  0
LINE
  5
7EE2
  8
3
  6
CONTINUOUS
 62
     0
 10
854.90422700000022
 20
1822.0135309999989
 30
0.0
 11
854.90422700000022
 21
1862.0135309999989
 31
0.0
  0
LINE
  5
7EE3
  8
3
  6
CONTINUOUS
 62
     0
 10
854.90422700000022
 20
1702.0135309999989
 30
0.0
 11
854.90422700000022
 21
1524.8706738571429
 31
0.0
  0
LINE
  5
7EE4
  8
3
  6
CONTINUOUS
 62
     0
 10
854.90422700000022
 20
1782.0135309999989
 30
0.0
 11
854.90422700000022
 21
1742.0135310000001
 31
0.0
  0
INSERT
  5
7EE5
  8
3
  6
CONTINUOUS
 62
     0
  2
_DOT
 10
854.90422700000022
 20
1782.0135309999989
 30
0.0
 41
40.0
 42
40.0
 43
40.0
 50
270.0
  0
INSERT
  5
7EE6
  8
3
  6
CONTINUOUS
 62
     0
  2
_OPEN
 10
854.90422700000022
 20
1742.0135310000001
 30
0.0
 41
40.0
 42
40.0
 43
40.0
 50
90.0
  0
TEXT
  8
3
  40
60
  5
7F09
  62
0
  72
0
  71
0
 10
684.904
 20
1487.24
 30
0.000000
  1
40
  0
POINT
  5
7EE8
  8
DEFPOINTS
  6
CONTINUOUS
 62
     0
 10
1246.0873260000001
 20
1782.0135309999989
 30
0.0
  0
POINT
  5
7EE9
  8
DEFPOINTS
  6
CONTINUOUS
 62
     0
 10
1246.0873260000001
 20
1742.0135310000001
 30
0.0
  0
POINT
  5
7EEA
  8
DEFPOINTS
  6
CONTINUOUS
 62
     0
 10
854.90422700000022
 20
1742.0135310000001
 30
0.0
  0
ENDBLK
  5
7E14
  8
0
  0
BLOCK
  8
0
  2
*D20
 70
     1
 10
0.0
 20
0.0
 30
0.0
  3
*D20
  1

  0
LINE
  5
7EEB
  8
3
 62
     0
 10
1191.0873260000001
 20
2514.0135310000001
 30
0.0
 11
1191.0873260000001
 21
3092.689855151124
 31
0.0
  0
LINE
  5
7EEC
  8
3
 62
     0
 10
2366.0873259999998
 20
1959.0135309999989
 30
0.0
 11
2366.0873259999998
 21
3092.689855151124
 31
0.0
  0
LINE
  5
7EED
  8
3
 62
     0
 10
1231.0873260000001
 20
3072.689855151124
 30
0.0
 11
2326.0873259999998
 21
3072.689855151124
 31
0.0
  0
INSERT
  5
7EEE
  8
3
 62
     0
  2
_OPEN
 10
1191.0873260000001
 20
3072.689855151124
 30
0.0
 41
40.0
 42
40.0
 43
40.0
 50
180.0
  0
INSERT
  5
7EEF
  8
3
 62
     0
  2
_OPEN
 10
2366.0873259999998
 20
3072.689855151124
 30
0.0
 41
40.0
 42
40.0
 43
40.0
  0
TEXT
  8
3
  40
60
  5
7F0A
  62
0
  72
0
  71
0
 10
1680.97
 20
3016.49
 30
0.000000
  1
1175
  0
POINT
  5
7EF1
  8
DEFPOINTS
 62
     0
 10
1191.0873260000001
 20
2504.0135310000001
 30
0.0
  0
POINT
  5
7EF2
  8
DEFPOINTS
 62
     0
 10
2366.0873259999998
 20
1949.0135310000001
 30
0.0
  0
POINT
  5
7EF3
  8
DEFPOINTS
 62
     0
 10
2366.0873259999998
 20
3072.689855151124
 30
0.0
  0
ENDBLK
  5
7DD1
  8
0
  0
BLOCK
  8
0
  2
_DOT
 70
     0
 10
0.0
 20
0.0
 30
0.0
  3
_DOT
  1

  0
LINE
  5
7E15
  8
0
  6
BYBLOCK
 62
     0
 10
0.0
 20
0.0
 30
0.0
 11
-1.0
 21
-0.0000000000000284
 31
0.0
  0
POLYLINE
  5
7E16
  8
0
  6
BYBLOCK
 62
     0
 66
     1
 10
0.0
 20
0.0
 30
0.0
 70
     1
 40
0.1666666666666666
 41
0.1666666666666666
  0
VERTEX
  5
7EF4
  8
0
  6
BYBLOCK
 62
     0
 10
-0.0833333333333286
 20
-0.0000000000000284
 30
0.0
 42
1.0
  0
VERTEX
  5
7EF5
  8
0
  6
BYBLOCK
 62
     0
 10
0.0833333333333286
 20
-0.0000000000000284
 30
0.0
 42
1.0
  0
SEQEND
  5
7EF6
  8
0
  6
BYBLOCK
 62
     0
  0
ENDBLK
  5
7DFB
  8
0
  0
ENDSEC
  0
SECTION
  2
ENTITIES
  0
CIRCLE
  5
7AD3
  8
1
  6
CONTINUOUS
 10
1546.0873260000001
 20
2469.0135310000001
 30
0.0
 40
275.0
  0
LINE
  5
7AD4
  8
1
  6
CONTINUOUS
 10
1856.0873260000001
 20
2824.0135310000001
 30
0.0
 11
1236.0873260000001
 21
2824.0135310000001
 31
0.0
  0
LINE
  5
7AD5
  8
1
  6
CONTINUOUS
 10
2366.0873259999998
 20
1949.0135310000001
 30
0.0
 11
1236.0873260000001
 21
1949.0135310000001
 31
0.0
  0
LINE
  5
7AD6
  8
1
  6
CONTINUOUS
 10
2366.0873259999998
 20
1869.0135310000001
 30
0.0
 11
1246.0873260000001
 21
1869.0135310000001
 31
0.0
  0
LINE
  5
7AD7
  8
1
  6
CONTINUOUS
 10
1246.0873260000001
 20
1742.0135310000001
 30
0.0
 11
1286.0873260000001
 21
1742.0135310000001
 31
0.0
  0
LINE
  5
7AD8
  8
1
  6
CONTINUOUS
 10
2366.0873259999998
 20
1782.0135309999989
 30
0.0
 11
1246.0873260000001
 21
1782.0135309999989
 31
0.0
  0
LINE
  5
7AD9
  8
1
  6
CONTINUOUS
 10
2366.0873259999998
 20
1847.0135309999989
 30
0.0
 11
1246.0873260000001
 21
1847.0135309999989
 31
0.0
  0
LINE
  5
7ADA
  8
1
  6
CONTINUOUS
 10
1191.0873260000001
 20
2007.0135309999989
 30
0.0
 11
1546.467326
 21
2008.0135310000001
 31
0.0
  0
ARC
  5
7ADB
  8
1
  6
CONTINUOUS
 10
1576.54847
 20
2480.1425399999998
 30
0.0
 40
343.89392400000003
 50
99.976388000000014
 51
178.85972100000001
  0
LINE
  5
7ADC
  8
1
  6
CONTINUOUS
 10
1236.0873260000001
 20
1949.0135310000001
 30
0.0
 11
1236.0873260000001
 21
2824.0135310000001
 31
0.0
  0
LINE
  5
7ADD
  8
1
  6
CONTINUOUS
 10
1216.0873260000001
 20
2487.0135310000001
 30
0.0
 11
1216.0873260000001
 21
2007.083531
 31
0.0
  0
LINE
  5
7ADE
  8
1
  6
CONTINUOUS
 10
1191.0873260000001
 20
1990.0135309999989
 30
0.0
 11
1191.0873260000001
 21
2504.0135310000001
 31
0.0
  0
LINE
  5
7ADF
  8
1
  6
CONTINUOUS
 10
1246.0873260000001
 20
1949.0135310000001
 30
0.0
 11
1246.0873260000001
 21
1869.0135310000001
 31
0.0
  0
LINE
  5
7AE0
  8
1
  6
CONTINUOUS
 10
1246.0873260000001
 20
1847.0135309999989
 30
0.0
 11
1246.0873260000001
 21
1742.0135310000001
 31
0.0
  0
LINE
  5
7AE1
  8
1
  6
CONTINUOUS
 10
1232.717326
 20
2487.0135310000001
 30
0.0
 11
1191.0873260000001
 21
2487.0135310000001
 31
0.0
  0
LINE
  5
7AE2
  8
1
  6
CONTINUOUS
 10
1496.5273259999999
 20
2359.7235309999992
 30
0.0
 11
2121.3073260000001
 21
2076.363531
 31
0.0
  0
LINE
  5
7AE3
  8
1
  6
CONTINUOUS
 10
1613.867326
 20
2568.033531
 30
0.0
 11
2179.9773260000002
 21
2180.5235309999989
 31
0.0
  0
ARC
  5
7AE4
  8
1
  6
CONTINUOUS
 10
1530.3321373939841
 20
2423.5490944992039
 30
0.0
 40
415.84575538233622
 50
272.22533583350162
 51
6.989721950777783
  0
ARC
  5
7AE5
  8
1
  6
CONTINUOUS
 10
1577.252134593462
 20
2457.624905870618
 30
0.0
 40
366.2085954917298
 50
2.5876158645988991
 51
99.474316639468626
  0
LINE
  5
7AE6
  8
1
  6
CONTINUOUS
 10
1560.5873260000001
 20
2694.0135310000001
 30
0.0
 11
2320.5873259999998
 21
2184.0135310000001
 31
0.0
  0
LINE
  5
7AE7
  8
1
  6
CONTINUOUS
 10
1856.0873260000001
 20
1949.0135310000001
 30
0.0
 11
1856.0873260000001
 21
2824.0135310000001
 31
0.0
  0
LINE
  5
7AE8
  8
1
  6
CONTINUOUS
 10
1320.5873260000001
 20
1949.0135310000001
 30
0.0
 11
1320.5873260000001
 21
2619.0135310000001
 31
0.0
  0
LINE
  5
7AE9
  8
1
  6
CONTINUOUS
 10
1286.0873260000001
 20
1782.0135309999989
 30
0.0
 11
1286.0873260000001
 21
1742.0135310000001
 31
0.0
  0
CIRCLE
  5
7AEA
  8
1
  6
CONTINUOUS
 10
1546.0873260000001
 20
2469.0135310000001
 30
0.0
 40
120.0
  0
LINE
  5
7AEB
  8
2
  6
CENTER
 10
3504.1127719999999
 20
2469.0135310000001
 30
0.0
 11
2755.4309549999998
 21
2469.0135310000001
 31
0.0
  0
CIRCLE
  5
7AEC
  8
1
  6
CONTINUOUS
 10
1546.0873260000001
 20
2469.0135310000001
 30
0.0
 40
250.0
  0
LINE
  5
7AED
  8
2
  6
CENTER
 10
1546.0873260000001
 20
1681.2323479999991
 30
0.0
 11
1546.0873260000001
 21
2899.9492500000001
 31
0.0
  0
LINE
  5
7AEE
  8
1
  6
CONTINUOUS
 10
1320.5873260000001
 20
2619.0135310000001
 30
0.0
 11
1560.5873260000001
 21
2694.0135310000001
 31
0.0
  0
LINE
  5
7AEF
  8
2
  6
CENTER
 10
2146.0873259999998
 20
2071.0135310000001
 30
0.0
 11
2146.0873259999998
 21
2191.0135310000001
 31
0.0
  0
CIRCLE
  5
7AF0
  8
1
  6
CONTINUOUS
 10
2146.0873259999998
 20
2131.0135310000001
 30
0.0
 40
60.0
  0
ARC
  5
7AF1
  8
1
  6
CONTINUOUS
 10
2146.0873259999998
 20
2131.0135310000001
 30
0.0
 40
122.0
 50
324.60000000000002
 51
215.39999999999989
  0
LINE
  5
7AF2
  8
1
  6
CONTINUOUS
 10
2320.5873259999998
 20
2184.0135310000001
 30
0.0
 11
2320.5873259999998
 21
1949.0135310000001
 31
0.0
  0
LINE
  5
7AF3
  8
2
  6
CENTER
 10
2206.0873259999998
 20
2131.0135310000001
 30
0.0
 11
2086.0873259999998
 21
2131.0135310000001
 31
0.0
  0
LINE
  5
7AF4
  8
1
  6
CONTINUOUS
 10
2276.0873259999998
 20
1999.0135310000001
 30
0.0
 11
2016.0873260000001
 21
1999.0135310000001
 31
0.0
  0
LINE
  5
7AF5
  8
1
  6
CONTINUOUS
 10
2016.0873260000001
 20
1999.0135310000001
 30
0.0
 11
2046.647326
 21
2060.3335309999989
 31
0.0
  0
LINE
  5
7AF6
  8
1
  6
CONTINUOUS
 10
2016.0873260000001
 20
1999.0135310000001
 30
0.0
 11
2066.0873259999998
 21
1999.0135310000001
 31
0.0
  0
LINE
  5
7AF7
  8
1
  6
CONTINUOUS
 10
2016.0873260000001
 20
1949.0135310000001
 30
0.0
 11
2016.0873260000001
 21
1999.0135310000001
 31
0.0
  0
LINE
  5
7AF8
  8
1
  6
CONTINUOUS
 10
2366.0873259999998
 20
1742.0135310000001
 30
0.0
 11
2326.0873259999998
 21
1742.0135310000001
 31
0.0
  0
LINE
  5
7AF9
  8
1
  6
CONTINUOUS
 10
2326.0873259999998
 20
1782.0135309999989
 30
0.0
 11
2326.0873259999998
 21
1742.0135310000001
 31
0.0
  0
LINE
  5
7AFA
  8
1
  6
CONTINUOUS
 10
2276.0873259999998
 20
1999.0135310000001
 30
0.0
 11
2226.0873259999998
 21
1999.0135310000001
 31
0.0
  0
LINE
  5
7AFB
  8
1
  6
CONTINUOUS
 10
2276.0873259999998
 20
1949.0135310000001
 30
0.0
 11
2276.0873259999998
 21
1999.0135310000001
 31
0.0
  0
LINE
  5
7AFC
  8
1
  6
CONTINUOUS
 10
2276.0873259999998
 20
1999.0135310000001
 30
0.0
 11
2245.5273259999999
 21
2060.3335309999989
 31
0.0
  0
LINE
  5
7AFD
  8
1
  6
CONTINUOUS
 10
2366.0873259999998
 20
1949.0135310000001
 30
0.0
 11
2366.0873259999998
 21
1869.0135310000001
 31
0.0
  0
LINE
  5
7AFE
  8
1
  6
CONTINUOUS
 10
2366.0873259999998
 20
1847.0135309999989
 30
0.0
 11
2366.0873259999998
 21
1742.0135310000001
 31
0.0
  0
LINE
  5
7AFF
  8
1
  6
CONTINUOUS
 10
1954.2773259999999
 20
3722.1435310000002
 30
0.0
 11
1191.0873260000001
 21
3722.1435310000002
 31
0.0
  0
LINE
  5
7B00
  8
1
  6
CONTINUOUS
 10
1954.2773259999999
 20
4086.1435310000002
 30
0.0
 11
1191.0873260000001
 21
4086.1435310000002
 31
0.0
  0
LINE
  5
7B01
  8
1
  6
CONTINUOUS
 10
1527.0873260000001
 20
3680.1435310000002
 30
0.0
 11
1246.0873260000001
 21
3680.1435310000002
 31
0.0
  0
LINE
  5
7B02
  8
1
  6
CONTINUOUS
 10
2366.0873259999998
 20
4128.1435309999997
 30
0.0
 11
1246.0873260000001
 21
4128.1435309999997
 31
0.0
  0
LINE
  5
7B03
  8
1
  6
CONTINUOUS
 10
1286.0873260000001
 20
4208.1435310000006
 30
0.0
 11
1246.0873260000001
 21
4208.1435310000006
 31
0.0
  0
LINE
  5
7B04
  8
1
  6
CONTINUOUS
 10
1286.0873260000001
 20
3518.1435310000002
 30
0.0
 11
1246.0873260000001
 21
3518.1435310000002
 31
0.0
  0
LINE
  5
7B05
  8
1
  6
CONTINUOUS
 10
1191.0873260000001
 20
3697.1435310000002
 30
0.0
 11
1191.0873260000001
 21
4111.1435309999997
 31
0.0
  0
LINE
  5
7B06
  8
1
  6
CONTINUOUS
 10
1216.0873260000001
 20
3723.1435310000002
 30
0.0
 11
1216.0873260000001
 21
4085.1435309999988
 31
0.0
  0
LINE
  5
7B07
  8
1
  6
CONTINUOUS
 10
1246.0873260000001
 20
3518.1435310000002
 30
0.0
 11
1246.0873260000001
 21
3722.1435310000002
 31
0.0
  0
LINE
  5
7B08
  8
1
  6
CONTINUOUS
 10
1246.0873260000001
 20
4208.1435310000006
 30
0.0
 11
1246.0873260000001
 21
4086.1435310000002
 31
0.0
  0
LINE
  5
7B09
  8
1
  6
CONTINUOUS
 10
2127.0873259999998
 20
3680.1435310000002
 30
0.0
 11
1565.0873260000001
 21
3680.1435310000002
 31
0.0
  0
LINE
  5
7B0A
  8
1
  6
CONTINUOUS
 10
1320.5873260000001
 20
3534.1435310000002
 30
0.0
 11
2320.5873259999998
 21
3534.1435310000002
 31
0.0
  0
LINE
  5
7B0B
  8
1
  6
CONTINUOUS
 10
2320.5873259999998
 20
3654.1435310000002
 30
0.0
 11
1320.5873260000001
 21
3654.1435310000002
 31
0.0
  0
LINE
  5
7B0C
  8
1
  6
CONTINUOUS
 10
1426.0873260000001
 20
3624.1435310000002
 30
0.0
 11
1666.0873260000001
 21
3624.1435310000002
 31
0.0
  0
LINE
  5
7B0D
  8
1
  6
CONTINUOUS
 10
1666.0873260000001
 20
3564.1435310000002
 30
0.0
 11
1426.0873260000001
 21
3564.1435310000002
 31
0.0
  0
LINE
  5
7B0E
  8
1
  6
CONTINUOUS
 10
1286.0873260000001
 20
3518.1435310000002
 30
0.0
 11
1286.0873260000001
 21
3680.1435310000002
 31
0.0
  0
LINE
  5
7B0F
  8
1
  6
CONTINUOUS
 10
1320.5873260000001
 20
3654.1435310000002
 30
0.0
 11
1320.5873260000001
 21
3534.1435310000002
 31
0.0
  0
LINE
  5
7B10
  8
1
  6
CONTINUOUS
 10
1426.0873260000001
 20
3564.1435310000002
 30
0.0
 11
1426.0873260000001
 21
3624.1435310000002
 31
0.0
  0
LINE
  5
7B11
  8
1
  6
CONTINUOUS
 10
1565.0873260000001
 20
3624.1435310000002
 30
0.0
 11
1565.0873260000001
 21
3723.1435310000002
 31
0.0
  0
LINE
  5
7B12
  8
1
  6
CONTINUOUS
 10
1527.0873260000001
 20
3624.1435310000002
 30
0.0
 11
1527.0873260000001
 21
3723.1435310000002
 31
0.0
  0
LINE
  5
7B13
  8
1
  6
CONTINUOUS
 10
1666.0873260000001
 20
3564.1435310000002
 30
0.0
 11
1666.0873260000001
 21
3624.1435310000002
 31
0.0
  0
LINE
  5
7B14
  8
1
  6
CONTINUOUS
 10
1286.0873260000001
 20
4208.1435310000006
 30
0.0
 11
1286.0873260000001
 21
4128.1435309999997
 31
0.0
  0
LINE
  5
7B15
  8
1
  6
CONTINUOUS
 10
2268.0873259999998
 20
3704.3835309999999
 30
0.0
 11
2268.0873259999998
 21
4054.3835309999999
 31
0.0
  0
LINE
  5
7B16
  8
1
  6
CONTINUOUS
 10
2024.0873260000001
 20
3704.3835309999999
 30
0.0
 11
2024.0873260000001
 21
4054.3835309999999
 31
0.0
  0
LINE
  5
7B17
  8
1
  6
CONTINUOUS
 10
2366.0873259999998
 20
4208.1435310000006
 30
0.0
 11
2366.0873259999998
 21
3518.1435310000002
 31
0.0
  0
LINE
  5
7B18
  8
1
  6
CONTINUOUS
 10
1954.2773259999999
 20
3722.1435310000002
 30
0.0
 11
1954.2773259999999
 21
4086.1435310000002
 31
0.0
  0
LINE
  5
7B19
  8
1
  6
CONTINUOUS
 10
2268.0873259999998
 20
3704.3835309999999
 30
0.0
 11
2024.0873260000001
 21
3704.3835309999999
 31
0.0
  0
LINE
  5
7B1A
  8
1
  6
CONTINUOUS
 10
2366.0873259999998
 20
3680.1435310000002
 30
0.0
 11
2165.0873259999998
 21
3680.1435310000002
 31
0.0
  0
LINE
  5
7B1B
  8
1
  6
CONTINUOUS
 10
2196.0873259999998
 20
3564.1435310000002
 30
0.0
 11
2096.0873259999998
 21
3564.1435310000002
 31
0.0
  0
LINE
  5
7B1C
  8
1
  6
CONTINUOUS
 10
2096.0873259999998
 20
3624.1435310000002
 30
0.0
 11
2196.0873259999998
 21
3624.1435310000002
 31
0.0
  0
LINE
  5
7B1D
  8
1
  6
CONTINUOUS
 10
2127.0873259999998
 20
3624.1435310000002
 30
0.0
 11
2127.0873259999998
 21
3704.3835309999999
 31
0.0
  0
LINE
  5
7B1E
  8
1
  6
CONTINUOUS
 10
2165.0873259999998
 20
3624.1435310000002
 30
0.0
 11
2165.0873259999998
 21
3704.3835309999999
 31
0.0
  0
LINE
  5
7B1F
  8
1
  6
CONTINUOUS
 10
2096.0873259999998
 20
3564.1435310000002
 30
0.0
 11
2096.0873259999998
 21
3624.1435310000002
 31
0.0
  0
LINE
  5
7B20
  8
1
  6
CONTINUOUS
 10
2326.0873259999998
 20
3518.1435310000002
 30
0.0
 11
2366.0873259999998
 21
3518.1435310000002
 31
0.0
  0
LINE
  5
7B21
  8
1
  6
CONTINUOUS
 10
2326.0873259999998
 20
3518.1435310000002
 30
0.0
 11
2326.0873259999998
 21
3680.1435310000002
 31
0.0
  0
LINE
  5
7B22
  8
1
  6
CONTINUOUS
 10
2196.0873259999998
 20
3624.1435310000002
 30
0.0
 11
2196.0873259999998
 21
3564.1435310000002
 31
0.0
  0
LINE
  5
7B23
  8
1
  6
CONTINUOUS
 10
2320.5873259999998
 20
3534.1435310000002
 30
0.0
 11
2320.5873259999998
 21
3654.1435310000002
 31
0.0
  0
LINE
  5
7B24
  8
1
  6
CONTINUOUS
 10
2268.0873259999998
 20
4054.3835309999999
 30
0.0
 11
2024.0873260000001
 21
4054.3835309999999
 31
0.0
  0
LINE
  5
7B25
  8
1
  6
CONTINUOUS
 10
2326.0873259999998
 20
4208.1435310000006
 30
0.0
 11
2366.0873259999998
 21
4208.1435310000006
 31
0.0
  0
LINE
  5
7B26
  8
1
  6
CONTINUOUS
 10
2326.0873259999998
 20
4208.1435310000006
 30
0.0
 11
2326.0873259999998
 21
4128.1435309999997
 31
0.0
  0
LINE
  5
7B27
  8
1
  6
CONTINUOUS
 10
2868.1597390000002
 20
1742.0135310000001
 30
0.0
 11
3558.1597390000002
 21
1742.0135310000001
 31
0.0
  0
LINE
  5
7B28
  8
1
  6
CONTINUOUS
 10
3434.1597390000002
 20
2514.0135310000001
 30
0.0
 11
3074.1597390000002
 21
2514.0135310000001
 31
0.0
  0
LINE
  5
7B29
  8
1
  6
CONTINUOUS
 10
3074.1597390000002
 20
1980.0135309999989
 30
0.0
 11
3434.1597390000002
 21
1980.0135309999989
 31
0.0
  0
LINE
  5
7B2A
  8
1
  6
CONTINUOUS
 10
3030.1597390000002
 20
1869.0135310000001
 30
0.0
 11
3478.1597390000002
 21
1869.0135310000001
 31
0.0
  0
LINE
  5
7B2B
  8
1
  6
CONTINUOUS
 10
3030.1597390000002
 20
1949.0135310000001
 30
0.0
 11
3478.1597390000002
 21
1949.0135310000001
 31
0.0
  0
LINE
  5
7B2C
  8
1
  6
CONTINUOUS
 10
3434.1597390000002
 20
2822.9935310000001
 30
0.0
 11
3074.1597390000002
 21
2822.9935310000001
 31
0.0
  0
LINE
  5
7B2D
  8
1
  6
CONTINUOUS
 10
3074.1597390000002
 20
2514.0135310000001
 30
0.0
 11
3434.1597390000002
 21
1980.0135309999989
 31
0.0
  0
LINE
  5
7B2E
  8
1
  6
CONTINUOUS
 10
3434.1597390000002
 20
2514.0135310000001
 30
0.0
 11
3074.1597390000002
 21
1980.0135309999989
 31
0.0
  0
LINE
  5
7B2F
  8
1
  6
CONTINUOUS
 10
2868.1597390000002
 20
1782.0135309999989
 30
0.0
 11
3558.1597390000002
 21
1782.0135309999989
 31
0.0
  0
LINE
  5
7B30
  8
1
  6
CONTINUOUS
 10
3030.1597390000002
 20
1847.0135309999989
 30
0.0
 11
3478.1597390000002
 21
1847.0135309999989
 31
0.0
  0
LINE
  5
7B5D
  8
1
  6
CONTINUOUS
 10
3074.1597390000002
 20
2822.9935310000001
 30
0.0
 11
3074.1597390000002
 21
1980.0135309999989
 31
0.0
  0
LINE
  5
7B5E
  8
1
  6
CONTINUOUS
 10
2974.1597390000002
 20
2081.0135309999991
 30
0.0
 11
2974.1597390000002
 21
2181.0135310000001
 31
0.0
  0
LINE
  5
7B5F
  8
1
  6
CONTINUOUS
 10
2914.1597390000002
 20
2181.0135310000001
 30
0.0
 11
2914.1597390000002
 21
2081.0135309999991
 31
0.0
  0
LINE
  5
7B60
  8
1
  6
CONTINUOUS
 10
2884.1597390000002
 20
1949.0135310000001
 30
0.0
 11
2884.1597390000002
 21
2694.0135310000001
 31
0.0
  0
LINE
  5
7B61
  8
1
  6
CONTINUOUS
 10
3004.1597390000002
 20
2694.0135310000001
 30
0.0
 11
3004.1597390000002
 21
1949.0135310000001
 31
0.0
  0
LINE
  5
7B62
  8
1
  6
CONTINUOUS
 10
2914.1597390000002
 20
2081.0135309999991
 30
0.0
 11
2974.1597390000002
 21
2081.0135309999991
 31
0.0
  0
LINE
  5
7B63
  8
1
  6
CONTINUOUS
 10
3004.1597390000002
 20
1949.0135310000001
 30
0.0
 11
2884.1597390000002
 21
1949.0135310000001
 31
0.0
  0
LINE
  5
7B66
  8
1
  6
CONTINUOUS
 10
2868.1597390000002
 20
1782.0135309999989
 30
0.0
 11
2868.1597390000002
 21
1742.0135310000001
 31
0.0
  0
LINE
  5
7B67
  8
1
  6
CONTINUOUS
 10
3030.1597390000002
 20
1949.0135310000001
 30
0.0
 11
3030.1597390000002
 21
1869.0135310000001
 31
0.0
  0
LINE
  5
7B68
  8
1
  6
CONTINUOUS
 10
3074.1597390000002
 20
1980.0135309999989
 30
0.0
 11
3074.1597390000002
 21
1949.0135310000001
 31
0.0
  0
LINE
  5
7B69
  8
1
  6
CONTINUOUS
 10
3030.1597390000002
 20
1847.0135309999989
 30
0.0
 11
3030.1597390000002
 21
1782.0135309999989
 31
0.0
  0
LINE
  5
7B6A
  8
1
  6
CONTINUOUS
 10
2974.1597390000002
 20
2112.0135310000001
 30
0.0
 11
3074.1597390000002
 21
2112.0135310000001
 31
0.0
  0
LINE
  5
7B6B
  8
1
  6
CONTINUOUS
 10
2974.1597390000002
 20
2349.0135310000001
 30
0.0
 11
2914.1597390000002
 21
2349.0135310000001
 31
0.0
  0
LINE
  5
7B6C
  8
1
  6
CONTINUOUS
 10
2974.1597390000002
 20
2589.0135310000001
 30
0.0
 11
2914.1597390000002
 21
2589.0135310000001
 31
0.0
  0
LINE
  5
7B6D
  8
1
  6
CONTINUOUS
 10
2974.1597390000002
 20
2181.0135310000001
 30
0.0
 11
2914.1597390000002
 21
2181.0135310000001
 31
0.0
  0
LINE
  5
7B6E
  8
1
  6
CONTINUOUS
 10
2884.1597390000002
 20
2694.0135310000001
 30
0.0
 11
3004.1597390000002
 21
2694.0135310000001
 31
0.0
  0
LINE
  5
7B6F
  8
1
  6
CONTINUOUS
 10
2914.1597390000002
 20
2589.0135310000001
 30
0.0
 11
2914.1597390000002
 21
2349.0135310000001
 31
0.0
  0
LINE
  5
7B70
  8
1
  6
CONTINUOUS
 10
2974.1597390000002
 20
2349.0135310000001
 30
0.0
 11
2974.1597390000002
 21
2589.0135310000001
 31
0.0
  0
LINE
  5
7B71
  8
1
  6
CONTINUOUS
 10
2974.1597390000002
 20
2450.0135310000001
 30
0.0
 11
3074.1597390000002
 21
2450.0135310000001
 31
0.0
  0
LINE
  5
7B72
  8
1
  6
CONTINUOUS
 10
2974.1597390000002
 20
2488.0135310000001
 30
0.0
 11
3074.1597390000002
 21
2488.0135310000001
 31
0.0
  0
LINE
  5
7B73
  8
1
  6
CONTINUOUS
 10
2974.1597390000002
 20
2150.0135310000001
 30
0.0
 11
3074.1597390000002
 21
2150.0135310000001
 31
0.0
  0
LINE
  5
7B9C
  8
1
  6
CONTINUOUS
 10
3434.1597390000002
 20
2822.9935310000001
 30
0.0
 11
3434.1597390000002
 21
1980.0135309999989
 31
0.0
  0
LINE
  5
7B9D
  8
1
  6
CONTINUOUS
 10
3558.1597390000002
 20
1782.0135309999989
 30
0.0
 11
3558.1597390000002
 21
1742.0135310000001
 31
0.0
  0
LINE
  5
7B9E
  8
1
  6
CONTINUOUS
 10
3478.1597390000002
 20
1949.0135310000001
 30
0.0
 11
3478.1597390000002
 21
1869.0135310000001
 31
0.0
  0
LINE
  5
7B9F
  8
1
  6
CONTINUOUS
 10
3434.1597390000002
 20
1980.0135309999989
 30
0.0
 11
3434.1597390000002
 21
1949.0135310000001
 31
0.0
  0
LINE
  5
7BA0
  8
1
  6
CONTINUOUS
 10
3478.1597390000002
 20
1847.0135309999989
 30
0.0
 11
3478.1597390000002
 21
1782.0135309999989
 31
0.0
  0
LINE
  5
7BA1
  8
2
  6
CENTER
 10
3254.1597390000002
 20
2907.6539327311179
 30
0.0
 11
3254.1597390000002
 21
1671.14037670516
 31
0.0
  0
LINE
  5
7BA2
  8
2
  6
CENTER
 10
2413.5701610000001
 20
3904.1435310000002
 30
0.0
 11
1144.5458812754759
 21
3904.1435310000002
 31
0.0
  0
LINE
  5
7BA3
  8
2
  6
CENTER
 10
1546.0873260000001
 20
3468.5835338410379
 30
0.0
 11
1546.0873260000001
 21
4181.2766779251533
 31
0.0
  0
LINE
  5
7BA4
  8
2
  6
CENTER
 10
2189.9162149999988
 20
2469.0135310000001
 30
0.0
 11
1053.5348859999999
 21
2469.0135310000001
 31
0.0
  0
DIMENSION
  5
7BB8
  8
3
  6
CONTINUOUS
  2
*D1
 10
1101.510724
 20
2487.0135310000001
 30
0.0
 11
1101.510724
 21
2219.2800710000001
 31
0.0
 70
   128
 13
1191.0873260000001
 23
2007.0135309999989
 33
0.0
 14
1191.0873260000001
 24
2487.0135310000001
 34
0.0
 50
90.0
1001
ACAD
1000
DSTYLE
1002
{
1070
   287
1070
     3
1070
    40
1040
20.0
1070
   143
1040
0.039
1070
   172
1070
     1
1070
   271
1070
     0
1070
   279
1070
     0
1070
   288
1070
     1
1002
}
  0
DIMENSION
  5
7BC5
  8
3
  6
CONTINUOUS
  2
*D2
 10
984.4771490000004
 20
2007.0135309999989
 30
0.0
 11
984.47714900000005
 21
2210.928312
 31
0.0
 70
   128
 13
1053.5348859999999
 23
2469.0135310000001
 33
0.0
 14
1191.0873260000001
 24
2007.0135309999989
 34
0.0
 50
90.0
1001
ACAD
1000
DSTYLE
1002
{
1070
   287
1070
     3
1070
    40
1040
20.0
1070
   143
1040
0.039
1070
   172
1070
     1
1070
   271
1070
     0
1070
   279
1070
     0
1070
   288
1070
     1
1002
}
  0
DIMENSION
  5
7BD2
  8
3
  6
CONTINUOUS
  2
*D3
 10
854.90422700000045
 20
2469.0135310000001
 30
0.0
 11
854.90422699999988
 21
2641.0442969999999
 31
0.0
 70
   128
 13
1236.0873260000001
 23
2824.0135310000001
 33
0.0
 14
1053.5348859999999
 24
2469.0135310000001
 34
0.0
 50
90.0
1001
ACAD
1000
DSTYLE
1002
{
1070
   287
1070
     3
1070
    40
1040
20.0
1070
   143
1040
0.039
1070
   172
1070
     1
1070
   271
1070
     0
1070
   279
1070
     0
1070
   288
1070
     1
1002
}
  0
DIMENSION
  5
7BDE
  8
3
  6
CONTINUOUS
  2
*D4
 10
854.90422699999988
 20
1869.0135310000001
 30
0.0
 11
804.90422699999965
 21
2169.0135310000001
 31
0.0
 70
     0
 13
1053.5348859999999
 23
2469.0135310000001
 33
0.0
 14
1246.0873260000001
 24
1869.0135310000001
 34
0.0
 50
90.0
1001
ACAD
1000
DSTYLE
1002
{
1070
   287
1070
     4
1070
    40
1040
20.0
1070
    75
1070
     1
1070
   143
1040
0.039
1070
   172
1070
     1
1070
   271
1070
     0
1070
   279
1070
     1
1070
   288
1070
     1
1002
}
  0
DIMENSION
  5
7BF9
  8
3
  6
CONTINUOUS
  2
*D5
 10
720.47089800000026
 20
1742.0135310000001
 30
0.0
 11
720.47089800000003
 21
2269.3906710000001
 31
0.0
 70
   128
 13
1236.0873260000001
 23
2824.0135310000001
 33
0.0
 14
1246.0873260000001
 24
1742.0135310000001
 34
0.0
 50
90.0
1001
ACAD
1000
DSTYLE
1002
{
1070
   287
1070
     3
1070
    40
1040
20.0
1070
   143
1040
0.039
1070
   172
1070
     1
1070
   271
1070
     0
1070
   279
1070
     0
1070
   288
1070
     1
1002
}
  0
DIMENSION
  5
7C06
  8
3
  6
CONTINUOUS
  2
*D6
 10
1546.0873260000001
 20
2933.3561219999988
 30
0.0
 11
1356.47677
 21
2933.3561219999988
 31
0.0
 70
   128
 13
1191.0873260000001
 23
2504.0135310000001
 33
0.0
 14
1546.0873260000001
 24
2899.9492500000001
 34
0.0
1001
ACAD
1000
DSTYLE
1002
{
1070
   287
1070
     3
1070
    40
1040
20.0
1070
   143
1040
0.039
1070
   172
1070
     1
1070
   271
1070
     0
1070
   279
1070
     0
1070
   288
1070
     1
1002
}
  0
DIMENSION
  5
7C12
  8
3
  6
CONTINUOUS
  2
*D7
 10
1943.0873260000001
 20
2933.3561219999988
 30
0.0
 11
1744.5873260000001
 21
2983.3561219999988
 31
0.0
 70
     0
 13
1546.0873260000001
 23
2899.9492500000001
 33
0.0
 14
1943.0873260000001
 24
2474.1539020605219
 34
0.0
1001
ACAD
1000
DSTYLE
1002
{
1070
   287
1070
     4
1070
    40
1040
20.0
1070
    75
1070
     1
1070
   143
1040
0.039
1070
   172
1070
     1
1070
   271
1070
     0
1070
   279
1070
     1
1070
   288
1070
     1
1002
}
  0
DIMENSION
  5
7C1F
  8
3
  6
CONTINUOUS
  2
*D8
 10
1546.0873260000001
 20
1634.6564069999999
 30
0.0
 11
1383.230184
 21
1634.6564069999999
 31
0.0
 70
   128
 13
1246.0873260000001
 23
1742.0135310000001
 33
0.0
 14
1546.0873260000001
 24
1681.2323479999991
 34
0.0
1001
ACAD
1000
DSTYLE
1002
{
1070
   287
1070
     3
1070
    40
1040
20.0
1070
   143
1040
0.039
1070
   172
1070
     1
1070
   271
1070
     0
1070
   279
1070
     0
1070
   288
1070
     1
1002
}
  0
DIMENSION
  5
7C2B
  8
3
  6
CONTINUOUS
  2
*D9
 10
2366.0873259999998
 20
1634.6564069999999
 30
0.0
 11
1956.0873260000001
 21
1684.6564069999999
 31
0.0
 70
     0
 13
1546.0873260000001
 23
1681.2323479999991
 33
0.0
 14
2366.0873259999998
 24
1742.0135310000001
 34
0.0
1001
ACAD
1000
DSTYLE
1002
{
1070
   287
1070
     4
1070
    40
1040
20.0
1070
    75
1070
     1
1070
   143
1040
0.039
1070
   172
1070
     1
1070
   271
1070
     0
1070
   279
1070
     1
1070
   288
1070
     1
1002
}
  0
LINE
  5
7C2C
  8
4
  6
CONTINUOUS
 10
3700.0
 20
1000.0
 30
0.0
 11
3700.0
 21
600.0
 31
0.0
  0
LINE
  5
7C2D
  8
4
  6
CONTINUOUS
 10
2300.0
 20
1000.0
 30
0.0
 11
2300.0
 21
600.0
 31
0.0
  0
LINE
  5
7C2E
  8
4
  6
CONTINUOUS
 10
1300.0
 20
1000.0
 30
0.0
 11
1300.0
 21
600.0
 31
0.0
  0
LINE
  5
7C31
  8
4
  6
CONTINUOUS
 10
1300.0
 20
600.0
 30
0.0
 11
3700.0
 21
600.0
 31
0.0
  0
LINE
  5
7C32
  8
4
  6
CONTINUOUS
 10
1300.0
 20
800.0
 30
0.0
 11
3700.0
 21
800.0
 31
0.0
  0
TEXT
  5
7C33
  8
4
  6
CONTINUOUS
 10
1377.004162
 20
863.086052
 30
0.0
 40
100.0
  1
機器名称
  0
TEXT
  5
7C34
  8
4
  6
CONTINUOUS
 10
1372.516212
 20
643.29031299999986
 30
0.0
 40
100.0
  1
機器型番
  0
TEXT
  5
7C35
  8
4
  6
CONTINUOUS
 10
2355.3574910000002
 20
845.14353800000015
 30
0.0
 40
100.0
  1
ミツヤ多翼送風機
  0
TEXT
  5
7C36
  8
4
  6
CONTINUOUS
 10
2373.3089909999999
 20
634.31916899999999
 30
0.0
 40
100.0
  1
MF#3-4
  0
TEXT
  5
7C38
  8
4
  6
CONTINUOUS
 10
1405.7771499999999
 20
4766.8576830000002
 30
0.0
 40
108.0
  1
天井吊防振ベット
  0
TEXT
  5
7C39
  8
4
  6
CONTINUOUS
 10
632.33518700000002
 20
5067.7619520000007
 30
0.0
 40
144.0
  1
ベルト駆動式片吸込両持多翼ファン
  0
LINE
  5
7C3A
  8
4
  6
CONTINUOUS
 10
500.0
 20
4938.8175090000004
 30
0.0
 11
3700.0
 21
4938.8175090000004
 31
0.0
  0
LINE
  5
7C3B
  8
4
  6
CONTINUOUS
 10
500.0
 20
5338.8175090000004
 30
0.0
 11
3700.0
 21
5338.8175090000004
 31
0.0
  0
LINE
  5
7C3C
  8
4
  6
CONTINUOUS
 10
1300.0
 20
1000.0
 30
0.0
 11
3700.0
 21
1000.0
 31
0.0
  0
LINE
  5
7C3D
  8
4
  6
CONTINUOUS
 10
500.0
 20
5338.8175090000004
 30
0.0
 11
500.0
 21
4938.8175090000004
 31
0.0
  0
TEXT
  5
7C3E
  8
4
  6
CONTINUOUS
 10
534.059485
 20
4764.6389549999994
 30
0.0
 40
108.0
  1
右回転左横向
  0
TEXT
  5
7C3F
  8
4
  6
CONTINUOUS
 10
2937.9391179999998
 20
5412.122163
 30
0.0
 40
112.0
  1
No.
  0
TEXT
  5
7C40
  8
4
  6
CONTINUOUS
 10
2622.5921250000001
 20
4766.8576830000002
 30
0.0
 40
108.0
  1
縮尺：1/20
  0
LINE
  5
7C41
  8
4
  6
CONTINUOUS
 10
3700.0
 20
5338.8175090000004
 30
0.0
 11
3700.0
 21
4938.8175090000004
 31
0.0
  0
LINE
  5
7C43
  8
4
  6
CONTINUOUS
 10
2881.234845
 20
5362.5271659999999
 30
0.0
 11
2881.234845
 21
5573.3045229999998
 31
0.0
  0
LINE
  5
7C44
  8
4
  6
CONTINUOUS
 10
2881.234845
 20
5573.3045229999998
 30
0.0
 11
3700.0
 21
5573.3045229999998
 31
0.0
  0
LINE
  5
7C45
  8
4
  6
CONTINUOUS
 10
3700.0
 20
5573.3045229999998
 30
0.0
 11
3700.0
 21
5362.5271659999999
 31
0.0
  0
LINE
  5
7C46
  8
4
  6
CONTINUOUS
 10
3700.0
 20
5362.5271659999999
 30
0.0
 11
2881.234845
 21
5362.5271659999999
 31
0.0
  0
DIMENSION
  5
7C83
  8
3
  6
CONTINUOUS
  2
*D10
 10
3074.1597390000002
 20
2898.3393919999999
 30
0.0
 11
3253.935829
 21
2898.3393919999999
 31
0.0
 70
   128
 13
3434.1597390000002
 23
2822.9935310000001
 33
0.0
 14
3074.1597390000002
 24
2822.9935310000001
 34
0.0
1001
ACAD
1000
DSTYLE
1002
{
1070
   287
1070
     3
1070
    40
1040
20.0
1070
   143
1040
0.039
1070
   172
1070
     1
1070
   271
1070
     0
1070
   279
1070
     0
1070
   288
1070
     1
1002
}
  0
LINE
  5
7C84
  8
1
  6
CONTINUOUS
 10
3435.1597390000002
 20
2719.0135310000001
 30
0.0
 11
3435.1597390000002
 21
2219.0135310000001
 31
0.0
  0
DIMENSION
  5
7C93
  8
3
  6
CONTINUOUS
  2
*D11
 10
3618.7772260000002
 20
2219.0135310000001
 30
0.0
 11
3618.7772259999988
 21
2471.3512719999999
 31
0.0
 70
   128
 13
3435.1597390000002
 23
2719.0135310000001
 33
0.0
 14
3435.1597390000002
 24
2219.0135310000001
 34
0.0
 50
90.0
1001
ACAD
1000
DSTYLE
1002
{
1070
   287
1070
     3
1070
     3
1000
φ<>
1070
    40
1040
20.0
1070
   143
1040
0.039
1070
   172
1070
     1
1070
   271
1070
     0
1070
   279
1070
     0
1070
   288
1070
     1
1002
}
  0
DIMENSION
  5
7CC4
  8
3
  6
CONTINUOUS
  2
*D12
 10
3254.1597390000002
 20
3028.5186840000001
 30
0.0
 11
3344.6597390000002
 21
3087.1803974933132
 31
0.0
 70
   128
 13
3435.1597390000002
 23
2719.0135310000001
 33
0.0
 14
3254.1597390000002
 24
2990.9333898118598
 34
0.0
1001
ACAD
1000
DSTYLE
1002
{
1070
   288
1070
     1
1070
   172
1070
     1
1070
    40
1040
20.0
1070
   271
1070
     0
1070
   143
1040
0.039
1002
}
  0
DIMENSION
  5
7CD0
  8
3
  6
CONTINUOUS
  2
*D13
 10
2884.1597390000002
 20
3028.5186840000001
 30
0.0
 11
3069.1597390000002
 21
3128.5186840000001
 31
0.0
 70
     0
  1
MAX\P430
 13
3254.1597390000002
 23
2990.9333898118598
 33
0.0
 14
2884.1597390000002
 24
2694.0135310000001
 34
0.0
1001
ACAD
1000
DSTYLE
1002
{
1070
   287
1070
     4
1070
    40
1040
20.0
1070
    75
1070
     1
1070
   143
1040
0.039
1070
   172
1070
     1
1070
   271
1070
     0
1070
   279
1070
     1
1070
   288
1070
     1
1002
}
  0
DIMENSION
  5
7CDD
  8
3
  6
CONTINUOUS
  2
*D14
 10
3254.1597390000002
 20
1601.7535270000001
 30
0.0
 11
3071.5151059999998
 21
1601.7535270000001
 31
0.0
 70
   128
 13
2868.1597390000002
 23
1742.0135310000001
 33
0.0
 14
3254.1597390000002
 24
1671.14037670516
 34
0.0
1001
ACAD
1000
DSTYLE
1002
{
1070
   287
1070
     3
1070
    40
1040
20.0
1070
   143
1040
0.039
1070
   172
1070
     1
1070
   271
1070
     0
1070
   279
1070
     0
1070
   288
1070
     1
1002
}
  0
DIMENSION
  5
7CE9
  8
3
  6
CONTINUOUS
  2
*D15
 10
3558.1597390000002
 20
1601.7535270000001
 30
0.0
 11
3406.1597390000002
 21
1651.7535270000001
 31
0.0
 70
     0
 13
3254.1597390000002
 23
1671.14037670516
 33
0.0
 14
3558.1597390000002
 24
1742.0135310000001
 34
0.0
1001
ACAD
1000
DSTYLE
1002
{
1070
   287
1070
     4
1070
    40
1040
20.0
1070
    75
1070
     1
1070
   143
1040
0.039
1070
   172
1070
     1
1070
   271
1070
     0
1070
   279
1070
     1
1070
   288
1070
     1
1002
}
  0
DIMENSION
  5
7CF6
  8
3
  6
CONTINUOUS
  2
*D16
 10
2366.0873259999998
 20
4318.5974390000001
 30
0.0
 11
1741.2195819999999
 21
4318.5974390000001
 31
0.0
 70
   128
 13
1246.0873260000001
 23
4208.1435310000006
 33
0.0
 14
2366.0873259999998
 24
4208.1435310000006
 34
0.0
1001
ACAD
1000
DSTYLE
1002
{
1070
   287
1070
     3
1070
    40
1040
20.0
1070
   143
1040
0.039
1070
   172
1070
     1
1070
   271
1070
     0
1070
   279
1070
     0
1070
   288
1070
     1
1002
}
  0
DIMENSION
  5
7D03
  8
3
  6
CONTINUOUS
  2
*D17
 10
2523.0225989999999
 20
3518.1435310000002
 30
0.0
 11
2523.0225989999999
 21
3891.609332
 31
0.0
 70
   128
 13
2366.0873259999998
 23
4208.1435310000006
 33
0.0
 14
2366.0873259999998
 24
3518.1435310000002
 34
0.0
 50
90.0
1001
ACAD
1000
DSTYLE
1002
{
1070
   287
1070
     3
1070
    40
1040
20.0
1070
   143
1040
0.039
1070
   172
1070
     1
1070
   271
1070
     0
1070
   279
1070
     0
1070
   288
1070
     1
1002
}
  0
DIMENSION
  5
7D18
  8
3
  6
CONTINUOUS
  2
*D18
 10
854.90422699999988
 20
1782.0135309999989
 30
0.0
 11
854.26004899999987
 21
1832.0072520000001
 31
0.0
 70
   128
 13
1246.0873260000001
 23
1869.0135310000001
 33
0.0
 14
1246.0873260000001
 24
1782.0135309999989
 34
0.0
 50
90.0
1001
ACAD
1000
DSTYLE
1002
{
1070
   287
1070
     4
1070
    40
1040
20.0
1070
    75
1070
     1
1070
   143
1040
0.039
1070
   172
1070
     1
1070
   271
1070
     0
1070
   279
1070
     1
1070
   288
1070
     1
1070
     7
1000
DOT
1002
}
  0
DIMENSION
  5
7D28
  8
3
  6
CONTINUOUS
  2
*D19
 10
854.90422700000022
 20
1742.0135310000001
 30
0.0
 11
854.90422699999988
 21
1593.4421024285709
 31
0.0
 70
   128
 13
1246.0873260000001
 23
1782.0135309999989
 33
0.0
 14
1246.0873260000001
 24
1742.0135310000001
 34
0.0
 50
90.0
1001
ACAD
1000
DSTYLE
1002
{
1070
   287
1070
     3
1070
    40
1040
20.0
1070
   143
1040
0.039
1070
   172
1070
     1
1070
   271
1070
     0
1070
   279
1070
     0
1070
   288
1070
     1
1070
     6
1000
DOT
1002
}
  0
DIMENSION
  5
7DD2
  8
3
  2
*D20
 10
2366.0873259999998
 20
3072.689855151124
 30
0.0
 11
1800.965731316227
 21
3072.689855151124
 31
0.0
 70
   128
 13
1191.0873260000001
 23
2504.0135310000001
 33
0.0
 14
2366.0873259999998
 24
1949.0135310000001
 34
0.0
1001
ACAD
1000
DSTYLE
1002
{
1070
   287
1070
     3
1070
    40
1040
20.0
1070
   143
1040
0.039
1070
   172
1070
     1
1070
   271
1070
     0
1070
   279
1070
     0
1070
   288
1070
     1
1002
}
  0
ENDSEC
  0
EOF
