  0
SECTION
  2
HEADER
  9
$ACADVER
  1
AC1009
  9
$INSBASE
 10
0.0
 20
0.0
 30
0.0
  9
$EXTMIN
 10
500.0
 20
600.0
 30
0.0
  9
$EXTMAX
 10
3700.0
 20
5573.3045229999998
 30
0.0
  9
$LIMMIN
 10
0.0
 20
0.0
  9
$LIMMAX
 10
297.0
 20
210.0
  9
$ORTHOMODE
 70
     0
  9
$REGENMODE
 70
     1
  9
$FILLMODE
 70
     0
  9
$QTEXTMODE
 70
     0
  9
$MIRRTEXT
 70
     1
  9
$DRAGMODE
 70
     2
  9
$LTSCALE
 40
100.0
  9
$OSMODE
 70
    37
  9
$ATTMODE
 70
     1
  9
$TEXTSIZE
 40
180.0
  9
$TRACEWID
 40
0.05
  9
$TEXTSTYLE
  7
STANDARD
  9
$CLAYER
  8
3
  9
$CELTYPE
  6
BYLAYER
  9
$CECOLOR
 62
   256
  9
$DIMSCALE
 40
20.0
  9
$DIMASZ
 40
2.0
  9
$DIMEXO
 40
0.5
  9
$DIMDLI
 40
10.0
  9
$DIMRND
 40
0.0
  9
$DIMDLE
 40
0.0
  9
$DIMEXE
 40
1.0
  9
$DIMTP
 40
1.0
  9
$DIMTM
 40
1.0
  9
$DIMTXT
 40
3.0
  9
$DIMCEN
 40
0.0
  9
$DIMTSZ
 40
0.0
  9
$DIMTOL
 70
     0
  9
$DIMLIM
 70
     0
  9
$DIMTIH
 70
     0
  9
$DIMTOH
 70
     0
  9
$DIMSE1
 70
     0
  9
$DIMSE2
 70
     0
  9
$DIMTAD
 70
     1
  9
$DIMZIN
 70
     8
  9
$DIMBLK
  1

  9
$DIMASO
 70
     1
  9
$DIMSHO
 70
     1
  9
$DIMPOST
  1

  9
$DIMAPOST
  1

  9
$DIMALT
 70
     0
  9
$DIMALTD
 70
     2
  9
$DIMALTF
 40
0.039
  9
$DIMLFAC
 40
1.0
  9
$DIMTOFL
 70
     1
  9
$DIMTVP
 40
0.0
  9
$DIMTIX
 70
     0
  9
$DIMSOXD
 70
     0
  9
$DIMSAH
 70
     1
  9
$DIMBLK1
  1
OPEN
  9
$DIMBLK2
  1
OPEN
  9
$DIMSTYLE
  2
IGA
  9
$DIMCLRD
 70
     0
  9
$DIMCLRE
 70
     0
  9
$DIMCLRT
 70
     0
  9
$DIMTFAC
 40
10.0
  9
$DIMGAP
 40
1.0
  9
$LUNITS
 70
     2
  9
$LUPREC
 70
     3
  9
$SKETCHINC
 40
0.1
  9
$FILLETRAD
 40
50.0
  9
$AUNITS
 70
     0
  9
$AUPREC
 70
     0
  9
$MENU
  1
acad
  9
$ELEVATION
 40
0.0
  9
$PELEVATION
 40
0.0
  9
$THICKNESS
 40
0.0
  9
$LIMCHECK
 70
     0
  9
$BLIPMODE
 70
     0
  9
$CHAMFERA
 40
0.5
  9
$CHAMFERB
 40
0.5
  9
$SKPOLY
 70
     0
  9
$TDCREATE
 40
2450735.4335604161
  9
$TDUPDATE
 40
2454953.767130347
  9
$TDINDWG
 40
0.0044685069
  9
$TDUSRTIMER
 40
0.0044685069
  9
$USRTIMER
 70
     1
  9
$ANGBASE
 50
0.0
  9
$ANGDIR
 70
     0
  9
$PDMODE
 70
     0
  9
$PDSIZE
 40
0.0
  9
$PLINEWID
 40
0.0
  9
$COORDS
 70
     1
  9
$SPLFRAME
 70
     0
  9
$SPLINETYPE
 70
     6
  9
$SPLINESEGS
 70
     8
  9
$ATTDIA
 70
     0
  9
$ATTREQ
 70
     1
  9
$HANDLING
 70
 10241
  9
$HANDSEED
  5
7E80
  9
$SURFTAB1
 70
     6
  9
$SURFTAB2
 70
     6
  9
$SURFTYPE
 70
     6
  9
$SURFU
 70
     6
  9
$SURFV
 70
     6
  9
$UCSNAME
  2

  9
$UCSORG
 10
0.0
 20
0.0
 30
0.0
  9
$UCSXDIR
 10
1.0
 20
0.0
 30
0.0
  9
$UCSYDIR
 10
0.0
 20
1.0
 30
0.0
  9
$PUCSNAME
  2

  9
$PUCSORG
 10
0.0
 20
0.0
 30
0.0
  9
$PUCSXDIR
 10
1.0
 20
0.0
 30
0.0
  9
$PUCSYDIR
 10
0.0
 20
1.0
 30
0.0
  9
$USERI1
 70
     0
  9
$USERI2
 70
     0
  9
$USERI3
 70
     0
  9
$USERI4
 70
     0
  9
$USERI5
 70
     0
  9
$USERR1
 40
0.0
  9
$USERR2
 40
0.0
  9
$USERR3
 40
0.0
  9
$USERR4
 40
0.0
  9
$USERR5
 40
0.0
  9
$WORLDVIEW
 70
     1
  9
$SHADEDGE
 70
     3
  9
$SHADEDIF
 70
    70
  9
$TILEMODE
 70
     1
  9
$MAXACTVP
 70
    16
  9
$PLIMCHECK
 70
     0
  9
$PEXTMIN
 10
1.0000000000000000E+020
 20
1.0000000000000000E+020
 30
1.0000000000000000E+020
  9
$PEXTMAX
 10
-1.0000000000000000E+020
 20
-1.0000000000000000E+020
 30
-1.0000000000000000E+020
  9
$PLIMMIN
 10
0.0
 20
0.0
  9
$PLIMMAX
 10
12.0
 20
9.0
  9
$UNITMODE
 70
     0
  9
$VISRETAIN
 70
     0
  9
$PLINEGEN
 70
     0
  9
$PSLTSCALE
 70
     1
  0
ENDSEC
  0
SECTION
  2
TABLES
  0
TABLE
  2
VPORT
 70
     2
  0
VPORT
  2
*ACTIVE
 70
     0
 10
0.0
 20
0.0
 11
1.0
 21
1.0
 12
6292.1124769529506
 22
3086.6374998146398
 13
0.0
 23
0.0
 14
10.0
 24
10.0
 15
10.0
 25
10.0
 16
0.0
 26
0.0
 36
1.0
 17
0.0
 27
0.0
 37
0.0
 40
5011.4968576296578
 41
3.1666666666666661
 42
50.0
 43
0.0
 44
0.0
 50
0.0
 51
0.0
 71
     0
 72
   100
 73
     1
 74
     0
 75
     0
 76
     0
 77
     0
 78
     0
  0
ENDTAB
  0
TABLE
  2
LTYPE
 70
     2
  0
LTYPE
  2
CONTINUOUS
 70
     0
  3
Solid line
 72
    65
 73
     0
 40
0.0
  0
LTYPE
  2
CENTER
 70
     0
  3
____ _ ____ _ ____ _ ____ _ ____ _ ____ _ ____ 
 72
    65
 73
     4
 40
2.0
 49
1.25
 49
-0.25
 49
0.25
 49
-0.25
  0
ENDTAB
  0
TABLE
  2
LAYER
 70
     6
  0
LAYER
  2
0
 70
     0
 62
     7
  6
CONTINUOUS
  0
LAYER
  2
3
 70
     0
 62
     2
  6
CONTINUOUS
  0
LAYER
  2
2
 70
     0
 62
     3
  6
CENTER
  0
LAYER
  2
1
 70
     0
 62
     4
  6
CONTINUOUS
  0
LAYER
  2
4
 70
     0
 62
     7
  6
CONTINUOUS
  0
LAYER
  2
DEFPOINTS
 70
     0
 62
     7
  6
CONTINUOUS
  0
ENDTAB
  0
TABLE
  2
STYLE
 70
     1
  0
STYLE
  2
STANDARD
 70
     0
 40
0.0
 41
1.0
 50
0.0
 71
     0
 42
180.0
  3
simplex.shx
  4
extfont.shx
  0
ENDTAB
  0
TABLE
  2
VIEW
 70
     0
  0
ENDTAB
  0
TABLE
  2
UCS
 70
     0
  0
ENDTAB
  0
TABLE
  2
APPID
 70
     1
  0
APPID
  2
ACAD
 70
     0
  0
ENDTAB
  0
TABLE
  2
DIMSTYLE
 70
     1
  0
DIMSTYLE
  2
IGA
 70
     0
  3

  4

  5

  6
OPEN
  7
OPEN
 40
2.0
 41
2.0
 42
0.5
 43
10.0
 44
1.0
 45
0.0
 46
0.0
 47
1.0
 48
1.0
140
3.0
141
0.0
142
0.0
143
0.03937
144
1.0
145
0.0
146
10.0
147
1.0
 71
     0
 72
     0
 73
     0
 74
     0
 75
     0
 76
     0
 77
     1
 78
     8
170
     0
171
     2
172
     0
173
     1
174
     0
175
     0
176
     0
177
     0
178
     0
  0
ENDTAB
  0
ENDSEC
  0
SECTION
  2
BLOCKS
  0
BLOCK
  8
0
  2
$MODEL_SPACE
 70
     0
 10
0.0
 20
0.0
 30
0.0
  3
$MODEL_SPACE
  1

  0
ENDBLK
  5
1B
  8
0
  0
BLOCK
 67
     1
  8
0
  2
$PAPER_SPACE
 70
     0
 10
0.0
 20
0.0
 30
0.0
  3
$PAPER_SPACE
  1

  0
ENDBLK
  5
18
 67
     1
  8
0
  0
BLOCK
  8
0
  2
_OPEN
 70
     0
 10
0.0
 20
0.0
 30
0.0
  3
_OPEN
  1

  0
LINE
  5
7B2A
  8
0
  6
BYBLOCK
 62
     0
 10
-1.0
 20
0.166667
 30
0.0
 11
0.0
 21
0.0
 31
0.0
  0
LINE
  5
7B2B
  8
0
  6
BYBLOCK
 62
     0
 10
0.0
 20
0.0
 30
0.0
 11
-1.0
 21
-0.166667
 31
0.0
  0
LINE
  5
7B2C
  8
0
  6
BYBLOCK
 62
     0
 10
0.0
 20
0.0
 30
0.0
 11
-1.0
 21
0.0
 31
0.0
  0
ENDBLK
  5
7B2D
  8
0
  0
BLOCK
  8
0
  2
*D1
 70
     1
 10
0.0
 20
0.0
 30
0.0
  3
*D1
  1

  0
LINE
  5
7DD5
  8
3
  6
CONTINUOUS
 62
     0
 10
1809.7795869999991
 20
2892.899476
 30
0.0
 11
1954.4137920000001
 21
2892.899476
 31
0.0
  0
LINE
  5
7DD6
  8
3
  6
CONTINUOUS
 62
     0
 10
1809.7795869999991
 20
2412.899476
 30
0.0
 11
1954.4137920000001
 21
2412.899476
 31
0.0
  0
LINE
  5
7DD7
  8
3
  6
CONTINUOUS
 62
     0
 10
1934.4137920000001
 20
2852.899476
 30
0.0
 11
1934.4137920000001
 21
2452.899476
 31
0.0
  0
INSERT
  5
7DD8
  8
3
  6
CONTINUOUS
 62
     0
  2
_OPEN
 10
1934.4137920000001
 20
2892.899476
 30
0.0
 41
40.0
 42
40.0
 43
40.0
 50
90.0
  0
INSERT
  5
7DD9
  8
3
  6
CONTINUOUS
 62
     0
  2
_OPEN
 10
1934.4137920000001
 20
2412.899476
 30
0.0
 41
40.0
 42
40.0
 43
40.0
 50
270.0
  0
TEXT
  8
3
  40
60
  5
7E6E
  62
0
  72
0
  71
0
 10
1764.41
 20
2532.90
 30
0.000000
  1
480
  0
POINT
  5
7DDB
  8
DEFPOINTS
  6
CONTINUOUS
 62
     0
 10
1799.779587
 20
2892.899476
 30
0.0
  0
POINT
  5
7DDC
  8
DEFPOINTS
  6
CONTINUOUS
 62
     0
 10
1799.779587
 20
2412.899476
 30
0.0
  0
POINT
  5
7DDD
  8
DEFPOINTS
  6
CONTINUOUS
 62
     0
 10
1934.4137920000001
 20
2412.899476
 30
0.0
  0
ENDBLK
  5
7B90
  8
0
  0
BLOCK
  8
0
  2
*D2
 70
     1
 10
0.0
 20
0.0
 30
0.0
  3
*D2
  1

  0
LINE
  5
7DDE
  8
3
  6
CONTINUOUS
 62
     0
 10
1809.7795869999991
 20
2892.899476
 30
0.0
 11
2083.7084610000002
 21
2892.899476
 31
0.0
  0
LINE
  5
7DDF
  8
3
  6
CONTINUOUS
 62
     0
 10
1919.02574
 20
2430.899476
 30
0.0
 11
2083.7084610000002
 21
2430.899476
 31
0.0
  0
LINE
  5
7DE0
  8
3
  6
CONTINUOUS
 62
     0
 10
2063.7084610000002
 20
2852.899476
 30
0.0
 11
2063.7084610000002
 21
2470.899476
 31
0.0
  0
INSERT
  5
7DE1
  8
3
  6
CONTINUOUS
 62
     0
  2
_OPEN
 10
2063.7084610000002
 20
2892.899476
 30
0.0
 41
40.0
 42
40.0
 43
40.0
 50
90.0
  0
INSERT
  5
7DE2
  8
3
  6
CONTINUOUS
 62
     0
  2
_OPEN
 10
2063.7084610000002
 20
2430.899476
 30
0.0
 41
40.0
 42
40.0
 43
40.0
 50
270.0
  0
TEXT
  8
3
  40
60
  5
7E6F
  62
0
  72
0
  71
0
 10
1893.71
 20
2528.29
 30
0.000000
  1
462
  0
POINT
  5
7DE4
  8
DEFPOINTS
  6
CONTINUOUS
 62
     0
 10
1799.779587
 20
2892.899476
 30
0.0
  0
POINT
  5
7DE5
  8
DEFPOINTS
  6
CONTINUOUS
 62
     0
 10
1909.0257399999989
 20
2430.899476
 30
0.0
  0
POINT
  5
7DE6
  8
DEFPOINTS
  6
CONTINUOUS
 62
     0
 10
2063.7084610000002
 20
2430.899476
 30
0.0
  0
ENDBLK
  5
7B9B
  8
0
  0
BLOCK
  8
0
  2
*D3
 70
     1
 10
0.0
 20
0.0
 30
0.0
  3
*D3
  1

  0
LINE
  5
7DE7
  8
3
  6
CONTINUOUS
 62
     0
 10
1754.779587
 20
1995.899476
 30
0.0
 11
2083.7084610000002
 21
1995.899476
 31
0.0
  0
LINE
  5
7DE8
  8
3
  6
CONTINUOUS
 62
     0
 10
2063.7084610000002
 20
2390.899476
 30
0.0
 11
2063.7084610000002
 21
2035.899476
 31
0.0
  0
INSERT
  5
7DE9
  8
3
  6
CONTINUOUS
 62
     0
  2
_OPEN
 10
2063.7084610000002
 20
2430.899476
 30
0.0
 41
40.0
 42
40.0
 43
40.0
 50
90.0
  0
INSERT
  5
7DEA
  8
3
  6
CONTINUOUS
 62
     0
  2
_OPEN
 10
2063.7084610000002
 20
1995.899476
 30
0.0
 41
40.0
 42
40.0
 43
40.0
 50
270.0
  0
TEXT
  8
3
  40
60
  5
7E70
  62
0
  72
0
  71
0
 10
1893.71
 20
2107.20
 30
0.000000
  1
435
  0
POINT
  5
7DEC
  8
DEFPOINTS
  6
CONTINUOUS
 62
     0
 10
1909.0257399999989
 20
2430.899476
 30
0.0
  0
POINT
  5
7DED
  8
DEFPOINTS
  6
CONTINUOUS
 62
     0
 10
1744.779587
 20
1995.899476
 30
0.0
  0
POINT
  5
7DEE
  8
DEFPOINTS
  6
CONTINUOUS
 62
     0
 10
2063.7084610000002
 20
1995.899476
 30
0.0
  0
ENDBLK
  5
7B53
  8
0
  0
BLOCK
  8
0
  2
*D4
 70
     1
 10
0.0
 20
0.0
 30
0.0
  3
*D4
  1

  0
LINE
  5
7DEF
  8
3
  6
CONTINUOUS
 62
     0
 10
1809.7795869999991
 20
2892.899476
 30
0.0
 11
2291.5034690000002
 21
2892.899476
 31
0.0
  0
LINE
  5
7DF0
  8
3
  6
CONTINUOUS
 62
     0
 10
1754.779587
 20
1868.899476
 30
0.0
 11
2291.5034690000002
 21
1868.899476
 31
0.0
  0
LINE
  5
7DF1
  8
3
  6
CONTINUOUS
 62
     0
 10
2271.5034690000002
 20
2852.899476
 30
0.0
 11
2271.5034690000002
 21
1908.899476
 31
0.0
  0
INSERT
  5
7DF2
  8
3
  6
CONTINUOUS
 62
     0
  2
_OPEN
 10
2271.5034690000002
 20
2892.899476
 30
0.0
 41
40.0
 42
40.0
 43
40.0
 50
90.0
  0
INSERT
  5
7DF3
  8
3
  6
CONTINUOUS
 62
     0
  2
_OPEN
 10
2271.5034690000002
 20
1868.899476
 30
0.0
 41
40.0
 42
40.0
 43
40.0
 50
270.0
  0
TEXT
  8
3
  40
60
  5
7E71
  62
0
  72
0
  71
0
 10
2101.50
 20
2283.78
 30
0.000000
  1
1024
  0
POINT
  5
7DF5
  8
DEFPOINTS
  6
CONTINUOUS
 62
     0
 10
1799.779587
 20
2892.899476
 30
0.0
  0
POINT
  5
7DF6
  8
DEFPOINTS
  6
CONTINUOUS
 62
     0
 10
1744.779587
 20
1868.899476
 30
0.0
  0
POINT
  5
7DF7
  8
DEFPOINTS
  6
CONTINUOUS
 62
     0
 10
2271.5034690000002
 20
1868.899476
 30
0.0
  0
ENDBLK
  5
7B85
  8
0
  0
BLOCK
  8
0
  2
*D5
 70
     1
 10
0.0
 20
0.0
 30
0.0
  3
*D5
  1

  0
LINE
  5
7DF8
  8
3
  6
CONTINUOUS
 62
     0
 10
1799.779587
 20
2919.899476
 30
0.0
 11
1799.779587
 21
3062.9516359999989
 31
0.0
  0
LINE
  5
7DF9
  8
3
  6
CONTINUOUS
 62
     0
 10
1444.779587
 20
3016.2953750000001
 30
0.0
 11
1444.779587
 21
3062.9516359999989
 31
0.0
  0
LINE
  5
7DFA
  8
3
  6
CONTINUOUS
 62
     0
 10
1759.7795869999991
 20
3042.9516359999989
 30
0.0
 11
1484.779587
 21
3042.9516359999989
 31
0.0
  0
INSERT
  5
7DFB
  8
3
  6
CONTINUOUS
 62
     0
  2
_OPEN
 10
1799.779587
 20
3042.9516359999989
 30
0.0
 41
40.0
 42
40.0
 43
40.0
  0
INSERT
  5
7DFC
  8
3
  6
CONTINUOUS
 62
     0
  2
_OPEN
 10
1444.779587
 20
3042.9516359999989
 30
0.0
 41
40.0
 42
40.0
 43
40.0
 50
180.0
  0
TEXT
  8
3
  40
60
  5
7E72
  62
0
  72
0
  71
0
 10
1486.56
 20
2986.75
 30
0.000000
  1
355
  0
POINT
  5
7DFE
  8
DEFPOINTS
  6
CONTINUOUS
 62
     0
 10
1799.779587
 20
2909.899476
 30
0.0
  0
POINT
  5
7DFF
  8
DEFPOINTS
  6
CONTINUOUS
 62
     0
 10
1444.779587
 20
3006.2953750000001
 30
0.0
  0
POINT
  5
7E00
  8
DEFPOINTS
  6
CONTINUOUS
 62
     0
 10
1444.779587
 20
3042.9516359999989
 30
0.0
  0
ENDBLK
  5
7CF5
  8
0
  0
BLOCK
  8
0
  2
*D6
 70
     1
 10
0.0
 20
0.0
 30
0.0
  3
*D6
  1

  0
LINE
  5
7E01
  8
3
  6
CONTINUOUS
 62
     0
 10
1034.779587
 20
2795.899476
 30
0.0
 11
1034.779587
 21
3062.9516359999989
 31
0.0
  0
LINE
  5
7E02
  8
3
  6
CONTINUOUS
 62
     0
 10
1404.779587
 20
3042.9516359999989
 30
0.0
 11
1074.779587
 21
3042.9516359999989
 31
0.0
  0
INSERT
  5
7E03
  8
3
  6
CONTINUOUS
 62
     0
  2
_OPEN
 10
1444.779587
 20
3042.9516359999989
 30
0.0
 41
40.0
 42
40.0
 43
40.0
  0
INSERT
  5
7E04
  8
3
  6
CONTINUOUS
 62
     0
  2
_OPEN
 10
1034.779587
 20
3042.9516359999989
 30
0.0
 41
40.0
 42
40.0
 43
40.0
 50
180.0
  0
TEXT
  8
3
  40
60
  5
7E73
  62
0
  72
0
  71
0
 10
1119.78
 20
2986.75
 30
0.000000
  1
410
  0
POINT
  5
7E06
  8
DEFPOINTS
  6
CONTINUOUS
 62
     0
 10
1444.779587
 20
3006.2953750000001
 30
0.0
  0
POINT
  5
7E07
  8
DEFPOINTS
  6
CONTINUOUS
 62
     0
 10
1034.779587
 20
2785.899476
 30
0.0
  0
POINT
  5
7E08
  8
DEFPOINTS
  6
CONTINUOUS
 62
     0
 10
1034.779587
 20
3042.9516359999989
 30
0.0
  0
ENDBLK
  5
7CEA
  8
0
  0
BLOCK
  8
0
  2
*D7
 70
     1
 10
0.0
 20
0.0
 30
0.0
  3
*D7
  1

  0
LINE
  5
7E09
  8
3
  6
CONTINUOUS
 62
     0
 10
624.77958699999999
 20
1858.899476
 30
0.0
 11
624.77958699999999
 21
1707.2932269999999
 31
0.0
  0
LINE
  5
7E0A
  8
3
  6
CONTINUOUS
 62
     0
 10
1444.779587
 20
1758.05640019579
 30
0.0
 11
1444.779587
 21
1707.2932269999999
 31
0.0
  0
LINE
  5
7E0B
  8
3
  6
CONTINUOUS
 62
     0
 10
664.77958699999999
 20
1727.293226999999
 30
0.0
 11
1404.779587
 21
1727.293226999999
 31
0.0
  0
INSERT
  5
7E0C
  8
3
  6
CONTINUOUS
 62
     0
  2
_OPEN
 10
624.77958699999999
 20
1727.293226999999
 30
0.0
 41
40.0
 42
40.0
 43
40.0
 50
180.0
  0
INSERT
  5
7E0D
  8
3
  6
CONTINUOUS
 62
     0
  2
_OPEN
 10
1444.779587
 20
1727.293226999999
 30
0.0
 41
40.0
 42
40.0
 43
40.0
  0
TEXT
  8
3
  40
60
  5
7E74
  62
0
  72
0
  71
0
 10
927.822
 20
1671.09
 30
0.000000
  1
820
  0
POINT
  5
7E0F
  8
DEFPOINTS
  6
CONTINUOUS
 62
     0
 10
624.77958699999999
 20
1868.899476
 30
0.0
  0
POINT
  5
7E10
  8
DEFPOINTS
  6
CONTINUOUS
 62
     0
 10
1444.779587
 20
1768.05640019579
 30
0.0
  0
POINT
  5
7E11
  8
DEFPOINTS
  6
CONTINUOUS
 62
     0
 10
1444.779587
 20
1727.293226999999
 30
0.0
  0
ENDBLK
  5
7D75
  8
0
  0
BLOCK
  8
0
  2
*D8
 70
     1
 10
0.0
 20
0.0
 30
0.0
  3
*D8
  1

  0
LINE
  5
7E12
  8
3
  6
CONTINUOUS
 62
     0
 10
1744.779587
 20
1858.899476
 30
0.0
 11
1744.779587
 21
1707.2932269999999
 31
0.0
  0
LINE
  5
7E13
  8
3
  6
CONTINUOUS
 62
     0
 10
1484.779587
 20
1727.293226999999
 30
0.0
 11
1704.779587
 21
1727.293226999999
 31
0.0
  0
INSERT
  5
7E14
  8
3
  6
CONTINUOUS
 62
     0
  2
_OPEN
 10
1444.779587
 20
1727.293226999999
 30
0.0
 41
40.0
 42
40.0
 43
40.0
 50
180.0
  0
INSERT
  5
7E15
  8
3
  6
CONTINUOUS
 62
     0
  2
_OPEN
 10
1744.779587
 20
1727.293226999999
 30
0.0
 41
40.0
 42
40.0
 43
40.0
  0
TEXT
  8
3
  40
60
  5
7E75
  62
0
  72
0
  71
0
 10
1474.78
 20
1671.09
 30
0.000000
  1
300
  0
POINT
  5
7E17
  8
DEFPOINTS
  6
CONTINUOUS
 62
     0
 10
1444.779587
 20
1768.05640019579
 30
0.0
  0
POINT
  5
7E18
  8
DEFPOINTS
  6
CONTINUOUS
 62
     0
 10
1744.779587
 20
1868.899476
 30
0.0
  0
POINT
  5
7E19
  8
DEFPOINTS
  6
CONTINUOUS
 62
     0
 10
1744.779587
 20
1727.293226999999
 30
0.0
  0
ENDBLK
  5
7D6A
  8
0
  0
BLOCK
  8
0
  2
*D9
 70
     1
 10
0.0
 20
0.0
 30
0.0
  3
*D9
  1

  0
LINE
  5
7E1A
  8
3
  6
CONTINUOUS
 62
     0
 10
3259.0482910000001
 20
2929.899476
 30
0.0
 11
3259.0482910000001
 21
2991.2626150000001
 31
0.0
  0
LINE
  5
7E1B
  8
3
  6
CONTINUOUS
 62
     0
 10
2899.0482910000001
 20
2929.899476
 30
0.0
 11
2899.0482910000001
 21
2991.2626150000001
 31
0.0
  0
LINE
  5
7E1C
  8
3
  6
CONTINUOUS
 62
     0
 10
3219.0482910000001
 20
2971.2626150000001
 30
0.0
 11
2939.0482910000001
 21
2971.2626150000001
 31
0.0
  0
INSERT
  5
7E1D
  8
3
  6
CONTINUOUS
 62
     0
  2
_OPEN
 10
3259.0482910000001
 20
2971.2626150000001
 30
0.0
 41
40.0
 42
40.0
 43
40.0
  0
INSERT
  5
7E1E
  8
3
  6
CONTINUOUS
 62
     0
  2
_OPEN
 10
2899.0482910000001
 20
2971.2626150000001
 30
0.0
 41
40.0
 42
40.0
 43
40.0
 50
180.0
  0
TEXT
  8
3
  40
60
  5
7E76
  62
0
  72
0
  71
0
 10
2959.60
 20
2915.06
 30
0.000000
  1
360
  0
POINT
  5
7E20
  8
DEFPOINTS
  6
CONTINUOUS
 62
     0
 10
3259.0482910000001
 20
2919.899476
 30
0.0
  0
POINT
  5
7E21
  8
DEFPOINTS
  6
CONTINUOUS
 62
     0
 10
2899.0482910000001
 20
2919.899476
 30
0.0
  0
POINT
  5
7E22
  8
DEFPOINTS
  6
CONTINUOUS
 62
     0
 10
2899.0482910000001
 20
2971.2626150000001
 30
0.0
  0
ENDBLK
  5
7BFB
  8
0
  0
BLOCK
  8
0
  2
*D10
 70
     1
 10
0.0
 20
0.0
 30
0.0
  3
*D10
  1

  0
LINE
  5
7E23
  8
3
  6
CONTINUOUS
 62
     0
 10
3270.0482910000001
 20
2680.899476
 30
0.0
 11
3427.4495219999999
 21
2680.899476
 31
0.0
  0
LINE
  5
7E24
  8
3
  6
CONTINUOUS
 62
     0
 10
3270.0482910000001
 20
2180.899476
 30
0.0
 11
3427.4495219999999
 21
2180.899476
 31
0.0
  0
LINE
  5
7E25
  8
3
  6
CONTINUOUS
 62
     0
 10
3407.4495219999999
 20
2640.899476
 30
0.0
 11
3407.4495219999999
 21
2220.899476
 31
0.0
  0
INSERT
  5
7E26
  8
3
  6
CONTINUOUS
 62
     0
  2
_OPEN
 10
3407.4495219999999
 20
2680.899476
 30
0.0
 41
40.0
 42
40.0
 43
40.0
 50
90.0
  0
INSERT
  5
7E27
  8
3
  6
CONTINUOUS
 62
     0
  2
_OPEN
 10
3407.4495219999999
 20
2180.899476
 30
0.0
 41
40.0
 42
40.0
 43
40.0
 50
270.0
  0
TEXT
  8
3
  40
60
  5
7E77
  62
0
  72
0
  71
0
 10
3237.45
 20
2325.30
 30
0.000000
  1
φ500
  0
POINT
  5
7E29
  8
DEFPOINTS
  6
CONTINUOUS
 62
     0
 10
3260.0482910000001
 20
2680.899476
 30
0.0
  0
POINT
  5
7E2A
  8
DEFPOINTS
  6
CONTINUOUS
 62
     0
 10
3260.0482910000001
 20
2180.899476
 30
0.0
  0
POINT
  5
7E2B
  8
DEFPOINTS
  6
CONTINUOUS
 62
     0
 10
3407.4495219999999
 20
2180.899476
 30
0.0
  0
ENDBLK
  5
7D80
  8
0
  0
BLOCK
  8
0
  2
*D11
 70
     1
 10
0.0
 20
0.0
 30
0.0
  3
*D11
  1

  0
LINE
  5
7D8D
  8
0
  6
BYBLOCK
 62
     0
 10
3260.0482910000001
 20
2690.899476
 30
0.0
 11
3260.0482910000001
 21
3125.0503990000002
 31
0.0
  0
LINE
  5
7D8E
  8
0
  6
BYBLOCK
 62
     0
 10
3079.0482910000001
 20
3067.4494789999999
 30
0.0
 11
3079.0482910000001
 21
3125.0503990000002
 31
0.0
  0
LINE
  5
7D8F
  8
0
  6
BYBLOCK
 62
     0
 10
3220.0482909999992
 20
3105.0503990000002
 30
0.0
 11
3119.0482910000001
 21
3105.0503990000002
 31
0.0
  0
TEXT
  5
7D90
  8
3
 62
     0
 10
3110.9768624285721
 20
3131.0519785726769
 30
0.0
 40
60.0
  1
181
  0
INSERT
  5
7D91
  8
0
  6
BYBLOCK
 62
     0
  2
_OPEN
 10
3260.0482910000001
 20
3105.0503990000002
 30
0.0
 41
40.0
 42
40.0
 43
40.0
  0
INSERT
  5
7D92
  8
0
  6
BYBLOCK
 62
     0
  2
_OPEN
 10
3079.0482910000001
 20
3105.0503990000002
 30
0.0
 41
40.0
 42
40.0
 43
40.0
 50
180.0
  0
POINT
  5
7D93
  8
DEFPOINTS
  6
BYBLOCK
 62
     0
 10
3260.0482910000001
 20
2680.899476
 30
0.0
  0
POINT
  5
7D94
  8
DEFPOINTS
  6
BYBLOCK
 62
     0
 10
3079.0482910000001
 20
3057.4494789999999
 30
0.0
  0
POINT
  5
7D95
  8
DEFPOINTS
  6
BYBLOCK
 62
     0
 10
3079.0482910000001
 20
3105.0503990000002
 30
0.0
  0
ENDBLK
  5
7D96
  8
0
  0
BLOCK
  8
0
  2
*D12
 70
     1
 10
0.0
 20
0.0
 30
0.0
  3
*D12
  1

  0
LINE
  5
7E2C
  8
3
  6
CONTINUOUS
 62
     0
 10
2709.0482910000001
 20
2830.899476
 30
0.0
 11
2709.0482910000001
 21
3125.0503990000002
 31
0.0
  0
LINE
  5
7E2D
  8
3
  6
CONTINUOUS
 62
     0
 10
3039.0482910000001
 20
3105.0503990000002
 30
0.0
 11
2749.0482910000001
 21
3105.0503990000002
 31
0.0
  0
INSERT
  5
7E2E
  8
3
  6
CONTINUOUS
 62
     0
  2
_OPEN
 10
3079.0482910000001
 20
3105.0503990000002
 30
0.0
 41
40.0
 42
40.0
 43
40.0
  0
INSERT
  5
7E2F
  8
3
  6
CONTINUOUS
 62
     0
  2
_OPEN
 10
2709.0482910000001
 20
3105.0503990000002
 30
0.0
 41
40.0
 42
40.0
 43
40.0
 50
180.0
  0
TEXT
  8
3
  40
60
  5
7E78
  62
0
  72
0
  71
0
 10
2774.05
 20
3098.85
 30
0.000000
  1
MAX
  0
TEXT
  8
3
  40
60
  5
7E79
  62
0
  72
0
  71
0
 10
2774.05
 20
3020.85
 30
0.000000
  1
430
  0
POINT
  5
7E31
  8
DEFPOINTS
  6
CONTINUOUS
 62
     0
 10
3079.0482910000001
 20
3057.4494789999999
 30
0.0
  0
POINT
  5
7E32
  8
DEFPOINTS
  6
CONTINUOUS
 62
     0
 10
2709.0482910000001
 20
2820.899476
 30
0.0
  0
POINT
  5
7E33
  8
DEFPOINTS
  6
CONTINUOUS
 62
     0
 10
2709.0482910000001
 20
3105.0503990000002
 30
0.0
  0
ENDBLK
  5
7DA0
  8
0
  0
BLOCK
  8
0
  2
*D13
 70
     1
 10
0.0
 20
0.0
 30
0.0
  3
*D13
  1

  0
LINE
  5
7E34
  8
3
  6
CONTINUOUS
 62
     0
 10
624.77958699999999
 20
4348.0294759999988
 30
0.0
 11
624.77958699999999
 21
4437.0656989999998
 31
0.0
  0
LINE
  5
7E35
  8
3
  6
CONTINUOUS
 62
     0
 10
1744.779587
 20
4348.0294759999988
 30
0.0
 11
1744.779587
 21
4437.0656989999998
 31
0.0
  0
LINE
  5
7E36
  8
3
  6
CONTINUOUS
 62
     0
 10
664.77958699999999
 20
4417.0656989999998
 30
0.0
 11
1704.779587
 21
4417.0656989999998
 31
0.0
  0
INSERT
  5
7E37
  8
3
  6
CONTINUOUS
 62
     0
  2
_OPEN
 10
624.77958699999999
 20
4417.0656989999998
 30
0.0
 41
40.0
 42
40.0
 43
40.0
 50
180.0
  0
INSERT
  5
7E38
  8
3
  6
CONTINUOUS
 62
     0
  2
_OPEN
 10
1744.779587
 20
4417.0656989999998
 30
0.0
 41
40.0
 42
40.0
 43
40.0
  0
TEXT
  8
3
  40
60
  5
7E7A
  62
0
  72
0
  71
0
 10
1075.59
 20
4360.87
 30
0.000000
  1
1120
  0
POINT
  5
7E3A
  8
DEFPOINTS
  6
CONTINUOUS
 62
     0
 10
624.77958699999999
 20
4338.0294759999988
 30
0.0
  0
POINT
  5
7E3B
  8
DEFPOINTS
  6
CONTINUOUS
 62
     0
 10
1744.779587
 20
4338.0294759999988
 30
0.0
  0
POINT
  5
7E3C
  8
DEFPOINTS
  6
CONTINUOUS
 62
     0
 10
1744.779587
 20
4417.0656989999998
 30
0.0
  0
ENDBLK
  5
7C32
  8
0
  0
BLOCK
  8
0
  2
*D14
 70
     1
 10
0.0
 20
0.0
 30
0.0
  3
*D14
  1

  0
LINE
  5
7E3D
  8
3
  6
CONTINUOUS
 62
     0
 10
1754.779587
 20
4338.0294759999988
 30
0.0
 11
1982.1197790000001
 21
4338.0294759999988
 31
0.0
  0
LINE
  5
7E3E
  8
3
  6
CONTINUOUS
 62
     0
 10
1754.779587
 20
3648.0294760000002
 30
0.0
 11
1982.1197790000001
 21
3648.0294760000002
 31
0.0
  0
LINE
  5
7E3F
  8
3
  6
CONTINUOUS
 62
     0
 10
1962.1197790000001
 20
4298.0294759999988
 30
0.0
 11
1962.1197790000001
 21
3688.0294760000002
 31
0.0
  0
INSERT
  5
7E40
  8
3
  6
CONTINUOUS
 62
     0
  2
_OPEN
 10
1962.1197790000001
 20
4338.0294759999988
 30
0.0
 41
40.0
 42
40.0
 43
40.0
 50
90.0
  0
INSERT
  5
7E41
  8
3
  6
CONTINUOUS
 62
     0
  2
_OPEN
 10
1962.1197790000001
 20
3648.0294760000002
 30
0.0
 41
40.0
 42
40.0
 43
40.0
 50
270.0
  0
TEXT
  8
3
  40
60
  5
7E7B
  62
0
  72
0
  71
0
 10
1792.12
 20
3909.50
 30
0.000000
  1
690
  0
POINT
  5
7E43
  8
DEFPOINTS
  6
CONTINUOUS
 62
     0
 10
1744.779587
 20
4338.0294759999988
 30
0.0
  0
POINT
  5
7E44
  8
DEFPOINTS
  6
CONTINUOUS
 62
     0
 10
1744.779587
 20
3648.0294760000002
 30
0.0
  0
POINT
  5
7E45
  8
DEFPOINTS
  6
CONTINUOUS
 62
     0
 10
1962.1197790000001
 20
3648.0294760000002
 30
0.0
  0
ENDBLK
  5
7C3F
  8
0
  0
BLOCK
  8
0
  2
*D15
 70
     1
 10
0.0
 20
0.0
 30
0.0
  3
*D15
  1

  0
LINE
  5
7E46
  8
3
  6
CONTINUOUS
 62
     0
 10
2693.0482910000001
 20
1858.899476
 30
0.0
 11
2693.0482910000001
 21
1699.288931999999
 31
0.0
  0
LINE
  5
7E47
  8
3
  6
CONTINUOUS
 62
     0
 10
3079.0482910000001
 20
1758.3453539999989
 30
0.0
 11
3079.0482910000001
 21
1699.288931999999
 31
0.0
  0
LINE
  5
7E48
  8
3
  6
CONTINUOUS
 62
     0
 10
2733.0482910000001
 20
1719.288931999999
 30
0.0
 11
3039.0482910000001
 21
1719.288931999999
 31
0.0
  0
INSERT
  5
7E49
  8
3
  6
CONTINUOUS
 62
     0
  2
_OPEN
 10
2693.0482910000001
 20
1719.288931999999
 30
0.0
 41
40.0
 42
40.0
 43
40.0
 50
180.0
  0
INSERT
  5
7E4A
  8
3
  6
CONTINUOUS
 62
     0
  2
_OPEN
 10
3079.0482910000001
 20
1719.288931999999
 30
0.0
 41
40.0
 42
40.0
 43
40.0
  0
TEXT
  8
3
  40
60
  5
7E7C
  62
0
  72
0
  71
0
 10
2779.51
 20
1663.09
 30
0.000000
  1
386
  0
POINT
  5
7E4C
  8
DEFPOINTS
  6
CONTINUOUS
 62
     0
 10
2693.0482910000001
 20
1868.899476
 30
0.0
  0
POINT
  5
7E4D
  8
DEFPOINTS
  6
CONTINUOUS
 62
     0
 10
3079.0482910000001
 20
1768.345354
 30
0.0
  0
POINT
  5
7E4E
  8
DEFPOINTS
  6
CONTINUOUS
 62
     0
 10
3079.0482910000001
 20
1719.288931999999
 30
0.0
  0
ENDBLK
  5
7CD6
  8
0
  0
BLOCK
  8
0
  2
*D16
 70
     1
 10
0.0
 20
0.0
 30
0.0
  3
*D16
  1

  0
LINE
  5
7E4F
  8
3
  6
CONTINUOUS
 62
     0
 10
3383.0482909999992
 20
1858.899476
 30
0.0
 11
3383.0482909999992
 21
1699.288931999999
 31
0.0
  0
LINE
  5
7E50
  8
3
  6
CONTINUOUS
 62
     0
 10
3119.0482910000001
 20
1719.288931999999
 30
0.0
 11
3343.0482909999992
 21
1719.288931999999
 31
0.0
  0
INSERT
  5
7E51
  8
3
  6
CONTINUOUS
 62
     0
  2
_OPEN
 10
3079.0482910000001
 20
1719.288931999999
 30
0.0
 41
40.0
 42
40.0
 43
40.0
 50
180.0
  0
INSERT
  5
7E52
  8
3
  6
CONTINUOUS
 62
     0
  2
_OPEN
 10
3383.0482909999992
 20
1719.288931999999
 30
0.0
 41
40.0
 42
40.0
 43
40.0
  0
TEXT
  8
3
  40
60
  5
7E7D
  62
0
  72
0
  71
0
 10
3111.05
 20
1663.09
 30
0.000000
  1
304
  0
POINT
  5
7E54
  8
DEFPOINTS
  6
CONTINUOUS
 62
     0
 10
3079.0482910000001
 20
1768.345354
 30
0.0
  0
POINT
  5
7E55
  8
DEFPOINTS
  6
CONTINUOUS
 62
     0
 10
3383.0482909999992
 20
1868.899476
 30
0.0
  0
POINT
  5
7E56
  8
DEFPOINTS
  6
CONTINUOUS
 62
     0
 10
3383.0482909999992
 20
1719.288931999999
 30
0.0
  0
ENDBLK
  5
7CE0
  8
0
  0
BLOCK
  8
0
  2
*D17
 70
     1
 10
0.0
 20
0.0
 30
0.0
  3
*D17
  1

  0
LINE
  5
7D49
  8
0
  6
BYBLOCK
 62
     0
 10
1754.779587
 20
1908.899476
 30
0.0
 11
2083.7084610000002
 21
1908.899476
 31
0.0
  0
LINE
  5
7D4A
  8
0
  6
BYBLOCK
 62
     0
 10
2063.7084610000002
 20
2035.899476
 30
0.0
 11
2063.7084610000002
 21
2075.899476
 31
0.0
  0
LINE
  5
7D4B
  8
0
  6
BYBLOCK
 62
     0
 10
2063.7084610000002
 20
1868.899476
 30
0.0
 11
2063.7084610000002
 21
1828.899476
 31
0.0
  0
TEXT
  5
7D4C
  8
3
 62
     0
 10
2173.7084609999988
 20
1903.8280474285709
 30
0.0
 40
60.0
  1
87
 50
90.0
  0
LINE
  5
7D4D
  8
0
  6
BYBLOCK
 62
     0
 10
2063.7084610000002
 20
1995.899476
 30
0.0
 11
2063.7084610000002
 21
1908.899476
 31
0.0
  0
INSERT
  5
7D4E
  8
0
  6
BYBLOCK
 62
     0
  2
_OPEN
 10
2063.7084610000002
 20
1995.899476
 30
0.0
 41
40.0
 42
40.0
 43
40.0
 50
270.0
  0
INSERT
  5
7D4F
  8
0
  6
BYBLOCK
 62
     0
  2
_DOT
 10
2063.7084610000002
 20
1908.899476
 30
0.0
 41
40.0
 42
40.0
 43
40.0
 50
90.0
  0
POINT
  5
7D50
  8
DEFPOINTS
  6
BYBLOCK
 62
     0
 10
1744.779587
 20
1995.899476
 30
0.0
  0
POINT
  5
7D51
  8
DEFPOINTS
  6
BYBLOCK
 62
     0
 10
1744.779587
 20
1908.899476
 30
0.0
  0
POINT
  5
7D52
  8
DEFPOINTS
  6
BYBLOCK
 62
     0
 10
2063.7084610000002
 20
1908.899476
 30
0.0
  0
ENDBLK
  5
7D53
  8
0
  0
BLOCK
  8
0
  2
*D18
 70
     1
 10
0.0
 20
0.0
 30
0.0
  3
*D18
  1

  0
LINE
  5
7E57
  8
3
  6
CONTINUOUS
 62
     0
 10
1754.779587
 20
1908.899476
 30
0.0
 11
2083.7084610000002
 21
1908.899476
 31
0.0
  0
LINE
  5
7E58
  8
3
  6
CONTINUOUS
 62
     0
 10
1754.779587
 20
1868.899476
 30
0.0
 11
2083.7084610000002
 21
1868.899476
 31
0.0
  0
LINE
  5
7E59
  8
3
  6
CONTINUOUS
 62
     0
 10
2063.7084610000002
 20
1948.899476
 30
0.0
 11
2063.7084610000002
 21
1988.899476
 31
0.0
  0
LINE
  5
7E5A
  8
3
  6
CONTINUOUS
 62
     0
 10
2063.7084610000002
 20
1828.899476
 30
0.0
 11
2063.7084610000002
 21
1651.7566188571429
 31
0.0
  0
LINE
  5
7E5B
  8
3
  6
CONTINUOUS
 62
     0
 10
2063.7084610000002
 20
1908.899476
 30
0.0
 11
2063.7084610000002
 21
1868.899476
 31
0.0
  0
INSERT
  5
7E5C
  8
3
  6
CONTINUOUS
 62
     0
  2
_DOT
 10
2063.7084610000002
 20
1908.899476
 30
0.0
 41
40.0
 42
40.0
 43
40.0
 50
270.0
  0
INSERT
  5
7E5D
  8
3
  6
CONTINUOUS
 62
     0
  2
_OPEN
 10
2063.7084610000002
 20
1868.899476
 30
0.0
 41
40.0
 42
40.0
 43
40.0
 50
90.0
  0
TEXT
  8
3
  40
60
  5
7E7E
  62
0
  72
0
  71
0
 10
1893.71
 20
1614.13
 30
0.000000
  1
40
  0
POINT
  5
7E5F
  8
DEFPOINTS
  6
CONTINUOUS
 62
     0
 10
1744.779587
 20
1908.899476
 30
0.0
  0
POINT
  5
7E60
  8
DEFPOINTS
  6
CONTINUOUS
 62
     0
 10
1744.779587
 20
1868.899476
 30
0.0
  0
POINT
  5
7E61
  8
DEFPOINTS
  6
CONTINUOUS
 62
     0
 10
2063.7084610000002
 20
1868.899476
 30
0.0
  0
ENDBLK
  5
7D60
  8
0
  0
BLOCK
  8
0
  2
_DOT
 70
     0
 10
0.0
 20
0.0
 30
0.0
  3
_DOT
  1

  0
LINE
  5
7DAE
  8
0
  6
BYBLOCK
 62
     0
 10
0.0
 20
0.0
 30
0.0
 11
-1.0
 21
-0.0000000000000284
 31
0.0
  0
POLYLINE
  5
7DAF
  8
0
  6
BYBLOCK
 62
     0
 66
     1
 10
0.0
 20
0.0
 30
0.0
 70
     1
 40
0.1666666666666666
 41
0.1666666666666666
  0
VERTEX
  5
7E6B
  8
0
  6
BYBLOCK
 62
     0
 10
-0.0833333333333286
 20
-0.0000000000000284
 30
0.0
 42
1.0
  0
VERTEX
  5
7E6C
  8
0
  6
BYBLOCK
 62
     0
 10
0.0833333333333286
 20
-0.0000000000000284
 30
0.0
 42
1.0
  0
SEQEND
  5
7E6D
  8
0
  6
BYBLOCK
 62
     0
  0
ENDBLK
  5
7D47
  8
0
  0
BLOCK
  8
0
  2
*D20
 70
     1
 10
0.0
 20
0.0
 30
0.0
  3
*D20
  1

  0
LINE
  5
7E62
  8
3
 62
     0
 10
1799.779587
 20
2919.899476
 30
0.0
 11
1799.779587
 21
3189.8670554862488
 31
0.0
  0
LINE
  5
7E63
  8
3
 62
     0
 10
624.77958699999999
 20
2085.899476
 30
0.0
 11
624.77958699999999
 21
3189.8670554862488
 31
0.0
  0
LINE
  5
7E64
  8
3
 62
     0
 10
1759.7795869999991
 20
3169.8670554862488
 30
0.0
 11
664.77958700000011
 21
3169.8670554862488
 31
0.0
  0
INSERT
  5
7E65
  8
3
 62
     0
  2
_OPEN
 10
1799.779587
 20
3169.8670554862488
 30
0.0
 41
40.0
 42
40.0
 43
40.0
  0
INSERT
  5
7E66
  8
3
 62
     0
  2
_OPEN
 10
624.77958699999999
 20
3169.8670554862488
 30
0.0
 41
40.0
 42
40.0
 43
40.0
 50
180.0
  0
TEXT
  8
3
  40
60
  5
7E7F
  62
0
  72
0
  71
0
 10
1117.01
 20
3113.67
 30
0.000000
  1
1175
  0
POINT
  5
7E68
  8
DEFPOINTS
 62
     0
 10
1799.779587
 20
2909.899476
 30
0.0
  0
POINT
  5
7E69
  8
DEFPOINTS
 62
     0
 10
624.77958699999999
 20
2075.899476
 30
0.0
  0
POINT
  5
7E6A
  8
DEFPOINTS
 62
     0
 10
624.77958699999999
 20
3169.8670554862488
 30
0.0
  0
ENDBLK
  5
7DAC
  8
0
  0
ENDSEC
  0
SECTION
  2
ENTITIES
  0
LINE
  5
7A84
  8
1
  6
CONTINUOUS
 10
624.77958699999999
 20
2075.899476
 30
0.0
 11
1754.779587
 21
2075.899476
 31
0.0
  0
LINE
  5
7A85
  8
1
  6
CONTINUOUS
 10
624.77958699999999
 20
1995.899476
 30
0.0
 11
1744.779587
 21
1995.899476
 31
0.0
  0
LINE
  5
7A86
  8
1
  6
CONTINUOUS
 10
624.77958699999999
 20
1908.899476
 30
0.0
 11
1744.779587
 21
1908.899476
 31
0.0
  0
LINE
  5
7A87
  8
1
  6
CONTINUOUS
 10
624.77958699999999
 20
1973.899476
 30
0.0
 11
1744.779587
 21
1973.899476
 31
0.0
  0
ARC
  5
7A88
  8
1
  6
CONTINUOUS
 10
841.49958699999979
 20
2257.8994759999991
 30
0.0
 40
122.0
 50
324.60000000000002
 51
215.39999999999989
  0
LINE
  5
7A89
  8
1
  6
CONTINUOUS
 10
711.49958700000002
 20
2125.899476
 30
0.0
 11
971.49958699999991
 21
2125.899476
 31
0.0
  0
LINE
  5
7A8A
  8
1
  6
CONTINUOUS
 10
711.49958700000002
 20
2125.899476
 30
0.0
 11
761.49958700000002
 21
2125.899476
 31
0.0
  0
LINE
  5
7A8B
  8
1
  6
CONTINUOUS
 10
711.49958700000002
 20
2125.899476
 30
0.0
 11
742.04958699999986
 21
2187.2194760000002
 31
0.0
  0
LINE
  5
7A93
  8
1
  6
CONTINUOUS
 10
664.77958699999999
 20
1908.899476
 30
0.0
 11
664.77958699999999
 21
1868.899476
 31
0.0
  0
LINE
  5
7A94
  8
1
  6
CONTINUOUS
 10
624.77958699999999
 20
1868.899476
 30
0.0
 11
664.77958699999999
 21
1868.899476
 31
0.0
  0
LINE
  5
7A95
  8
1
  6
CONTINUOUS
 10
624.77958699999999
 20
2075.899476
 30
0.0
 11
624.77958699999999
 21
1995.899476
 31
0.0
  0
LINE
  5
7A96
  8
1
  6
CONTINUOUS
 10
624.77958699999999
 20
1973.899476
 30
0.0
 11
624.77958699999999
 21
1868.899476
 31
0.0
  0
LINE
  5
7A97
  8
1
  6
CONTINUOUS
 10
711.49958700000002
 20
2075.899476
 30
0.0
 11
711.49958700000002
 21
2125.899476
 31
0.0
  0
ARC
  5
7A98
  8
1
  6
CONTINUOUS
 10
1467.8592160000001
 20
2461.3628939999999
 30
0.0
 40
431.17249299999992
 50
93.120533999999992
 51
184.73655500000001
  0
ARC
  5
7A99
  8
1
  6
CONTINUOUS
 10
1417.779587
 20
2457.899476
 30
0.0
 40
380.98000000000002
 50
184.83999999999989
 51
278.47000000000003
  0
LINE
  5
7A9A
  8
1
  6
CONTINUOUS
 10
1034.779587
 20
2785.899476
 30
0.0
 11
1754.779587
 21
2785.899476
 31
0.0
  0
CIRCLE
  5
7A9B
  8
1
  6
CONTINUOUS
 10
1444.779587
 20
2430.899476
 30
0.0
 40
275.0
  0
CIRCLE
  5
7A9C
  8
1
  6
CONTINUOUS
 10
1444.779587
 20
2430.899476
 30
0.0
 40
120.0
  0
LINE
  5
7A9D
  8
2
  6
CENTER
 10
703.69981297587208
 20
2430.899476
 30
0.0
 11
1909.0257399999989
 21
2430.899476
 31
0.0
  0
LINE
  5
7A9E
  8
1
  6
CONTINUOUS
 10
822.68958699999985
 20
2313.6894759999991
 30
0.0
 11
1400.609586999999
 21
2542.4694760000002
 31
0.0
  0
LINE
  5
7A9F
  8
1
  6
CONTINUOUS
 10
1466.789587
 20
2312.9394759999991
 30
0.0
 11
855.78958699999987
 21
2198.9194759999991
 31
0.0
  0
CIRCLE
  5
7AA0
  8
1
  6
CONTINUOUS
 10
1444.779587
 20
2430.899476
 30
0.0
 40
250.0
  0
LINE
  5
7AA1
  8
1
  6
CONTINUOUS
 10
1034.779587
 20
2785.899476
 30
0.0
 11
1034.779587
 21
2075.899476
 31
0.0
  0
LINE
  5
7AA2
  8
2
  6
CENTER
 10
844.77958699999976
 20
2197.899476
 30
0.0
 11
844.77958699999976
 21
2317.899476
 31
0.0
  0
CIRCLE
  5
7AA3
  8
1
  6
CONTINUOUS
 10
844.77958699999976
 20
2257.8994759999991
 30
0.0
 40
60.0
  0
LINE
  5
7AA4
  8
2
  6
CENTER
 10
784.77958699999988
 20
2257.8994759999991
 30
0.0
 11
904.77958699999988
 21
2257.8994759999991
 31
0.0
  0
LINE
  5
7AA5
  8
1
  6
CONTINUOUS
 10
971.49958699999991
 20
2125.899476
 30
0.0
 11
940.93958699999985
 21
2187.2194760000002
 31
0.0
  0
LINE
  5
7AA6
  8
1
  6
CONTINUOUS
 10
971.49958699999991
 20
2075.899476
 30
0.0
 11
971.49958699999991
 21
2125.899476
 31
0.0
  0
LINE
  5
7AA7
  8
1
  6
CONTINUOUS
 10
971.49958699999991
 20
2125.899476
 30
0.0
 11
921.49958699999991
 21
2125.899476
 31
0.0
  0
ARC
  5
7AA8
  8
1
  6
CONTINUOUS
 10
1414.318444
 20
2419.7704669999998
 30
0.0
 40
343.89392400000003
 50
279.97638799999987
 51
358.85972099999998
  0
LINE
  5
7AA9
  8
1
  6
CONTINUOUS
 10
1754.779587
 20
2785.899476
 30
0.0
 11
1754.779587
 21
2075.899476
 31
0.0
  0
LINE
  5
7AAA
  8
1
  6
CONTINUOUS
 10
1744.779587
 20
1868.899476
 30
0.0
 11
1704.779587
 21
1868.899476
 31
0.0
  0
LINE
  5
7AAB
  8
1
  6
CONTINUOUS
 10
1704.779587
 20
1908.899476
 30
0.0
 11
1704.779587
 21
1868.899476
 31
0.0
  0
LINE
  5
7AAC
  8
1
  6
CONTINUOUS
 10
1744.779587
 20
2075.899476
 30
0.0
 11
1744.779587
 21
1995.899476
 31
0.0
  0
LINE
  5
7AAD
  8
1
  6
CONTINUOUS
 10
1744.779587
 20
1973.899476
 30
0.0
 11
1744.779587
 21
1868.899476
 31
0.0
  0
LINE
  5
7AAE
  8
1
  6
CONTINUOUS
 10
1799.779587
 20
2892.899476
 30
0.0
 11
1444.399586999999
 21
2891.899476
 31
0.0
  0
LINE
  5
7AAF
  8
2
  6
CENTER
 10
1444.779587
 20
4356.7863020000004
 30
0.0
 11
1444.779587
 21
3556.4953839999998
 31
0.0
  0
LINE
  5
7AB0
  8
1
  6
CONTINUOUS
 10
1774.779587
 20
2412.899476
 30
0.0
 11
1774.779587
 21
2892.8294759999999
 31
0.0
  0
LINE
  5
7AB1
  8
1
  6
CONTINUOUS
 10
1799.779587
 20
2909.899476
 30
0.0
 11
1799.779587
 21
2395.8994759999991
 31
0.0
  0
LINE
  5
7AB2
  8
1
  6
CONTINUOUS
 10
1758.1495870000001
 20
2412.899476
 30
0.0
 11
1799.779587
 21
2412.899476
 31
0.0
  0
LINE
  5
7AB3
  8
1
  6
CONTINUOUS
 10
722.77958699999999
 20
4184.2694759999986
 30
0.0
 11
966.77958699999988
 21
4184.2694759999986
 31
0.0
  0
LINE
  5
7AB4
  8
1
  6
CONTINUOUS
 10
722.77958699999999
 20
3834.2694759999999
 30
0.0
 11
966.77958699999988
 21
3834.2694759999999
 31
0.0
  0
LINE
  5
7AB5
  8
1
  6
CONTINUOUS
 10
624.77958699999999
 20
3810.0294760000002
 30
0.0
 11
825.77958699999999
 21
3810.0294760000002
 31
0.0
  0
LINE
  5
7AB6
  8
1
  6
CONTINUOUS
 10
624.77958699999999
 20
4258.0294759999988
 30
0.0
 11
1744.779587
 21
4258.0294759999988
 31
0.0
  0
LINE
  5
7AB7
  8
1
  6
CONTINUOUS
 10
670.27958699999999
 20
3664.0294759999988
 30
0.0
 11
1670.279587
 21
3664.0294759999988
 31
0.0
  0
LINE
  5
7AB8
  8
1
  6
CONTINUOUS
 10
1670.279587
 20
3784.0294760000002
 30
0.0
 11
670.27958699999999
 21
3784.0294760000002
 31
0.0
  0
LINE
  5
7AB9
  8
1
  6
CONTINUOUS
 10
722.77958699999999
 20
3834.2694759999999
 30
0.0
 11
722.77958699999999
 21
4184.2694759999986
 31
0.0
  0
LINE
  5
7ABA
  8
1
  6
CONTINUOUS
 10
624.77958699999999
 20
4338.0294759999988
 30
0.0
 11
624.77958699999999
 21
3648.0294760000002
 31
0.0
  0
LINE
  5
7ABB
  8
1
  6
CONTINUOUS
 10
664.77958699999999
 20
3648.0294760000002
 30
0.0
 11
664.77958699999999
 21
3810.0294760000002
 31
0.0
  0
LINE
  5
7ABC
  8
1
  6
CONTINUOUS
 10
664.77958699999999
 20
3648.0294760000002
 30
0.0
 11
624.77958699999999
 21
3648.0294760000002
 31
0.0
  0
LINE
  5
7ABD
  8
1
  6
CONTINUOUS
 10
670.27958699999999
 20
3784.0294760000002
 30
0.0
 11
670.27958699999999
 21
3664.0294759999988
 31
0.0
  0
LINE
  5
7ABE
  8
1
  6
CONTINUOUS
 10
664.77958699999999
 20
4338.0294759999988
 30
0.0
 11
664.77958699999999
 21
4258.0294759999988
 31
0.0
  0
LINE
  5
7ABF
  8
1
  6
CONTINUOUS
 10
664.77958699999999
 20
4338.0294759999988
 30
0.0
 11
624.77958699999999
 21
4338.0294759999988
 31
0.0
  0
LINE
  5
7AC0
  8
1
  6
CONTINUOUS
 10
1564.779587
 20
3754.0294759999988
 30
0.0
 11
1324.779587
 21
3754.0294759999988
 31
0.0
  0
LINE
  5
7AC1
  8
1
  6
CONTINUOUS
 10
863.77958699999988
 20
3810.0294760000002
 30
0.0
 11
1425.779587
 21
3810.0294760000002
 31
0.0
  0
LINE
  5
7AC2
  8
1
  6
CONTINUOUS
 10
1036.589586999999
 20
4216.0294759999997
 30
0.0
 11
1799.779587
 21
4216.0294759999997
 31
0.0
  0
LINE
  5
7AC3
  8
1
  6
CONTINUOUS
 10
1036.589586999999
 20
3852.0294760000002
 30
0.0
 11
1799.779587
 21
3852.0294760000002
 31
0.0
  0
LINE
  5
7AC4
  8
1
  6
CONTINUOUS
 10
1324.779587
 20
3694.0294760000002
 30
0.0
 11
1564.779587
 21
3694.0294760000002
 31
0.0
  0
LINE
  5
7AC5
  8
1
  6
CONTINUOUS
 10
966.77958699999988
 20
3834.2694759999999
 30
0.0
 11
966.77958699999988
 21
4184.2694759999986
 31
0.0
  0
LINE
  5
7AC6
  8
1
  6
CONTINUOUS
 10
1036.589586999999
 20
3852.0294760000002
 30
0.0
 11
1036.589586999999
 21
4216.0294759999997
 31
0.0
  0
LINE
  5
7AC7
  8
1
  6
CONTINUOUS
 10
894.77958699999976
 20
3754.0294759999988
 30
0.0
 11
794.77958699999999
 21
3754.0294759999988
 31
0.0
  0
LINE
  5
7AC8
  8
1
  6
CONTINUOUS
 10
794.77958699999999
 20
3694.0294760000002
 30
0.0
 11
894.77958699999976
 21
3694.0294760000002
 31
0.0
  0
LINE
  5
7AC9
  8
1
  6
CONTINUOUS
 10
863.77958699999988
 20
3754.0294759999988
 30
0.0
 11
863.77958699999988
 21
3834.2694759999999
 31
0.0
  0
LINE
  5
7ACA
  8
1
  6
CONTINUOUS
 10
825.77958699999999
 20
3754.0294759999988
 30
0.0
 11
825.77958699999999
 21
3834.2694759999999
 31
0.0
  0
LINE
  5
7ACB
  8
1
  6
CONTINUOUS
 10
794.77958699999999
 20
3754.0294759999988
 30
0.0
 11
794.77958699999999
 21
3694.0294760000002
 31
0.0
  0
LINE
  5
7ACC
  8
1
  6
CONTINUOUS
 10
894.77958699999976
 20
3694.0294760000002
 30
0.0
 11
894.77958699999976
 21
3754.0294759999988
 31
0.0
  0
LINE
  5
7ACD
  8
1
  6
CONTINUOUS
 10
1324.779587
 20
3694.0294760000002
 30
0.0
 11
1324.779587
 21
3754.0294759999988
 31
0.0
  0
LINE
  5
7ACE
  8
1
  6
CONTINUOUS
 10
1799.779587
 20
3827.0294759999988
 30
0.0
 11
1799.779587
 21
4241.0294759999997
 31
0.0
  0
LINE
  5
7ACF
  8
1
  6
CONTINUOUS
 10
1774.779587
 20
3852.0294760000002
 30
0.0
 11
1774.779587
 21
4216.0294759999997
 31
0.0
  0
LINE
  5
7AD0
  8
1
  6
CONTINUOUS
 10
1463.779587
 20
3810.0294760000002
 30
0.0
 11
1744.779587
 21
3810.0294760000002
 31
0.0
  0
LINE
  5
7AD1
  8
1
  6
CONTINUOUS
 10
1425.779587
 20
3754.0294759999988
 30
0.0
 11
1425.779587
 21
3852.0294760000002
 31
0.0
  0
LINE
  5
7AD2
  8
1
  6
CONTINUOUS
 10
1463.779587
 20
3754.0294759999988
 30
0.0
 11
1463.779587
 21
3852.0294760000002
 31
0.0
  0
LINE
  5
7AD3
  8
1
  6
CONTINUOUS
 10
1564.779587
 20
3694.0294760000002
 30
0.0
 11
1564.779587
 21
3754.0294759999988
 31
0.0
  0
LINE
  5
7AD4
  8
1
  6
CONTINUOUS
 10
1704.779587
 20
3648.0294760000002
 30
0.0
 11
1744.779587
 21
3648.0294760000002
 31
0.0
  0
LINE
  5
7AD5
  8
1
  6
CONTINUOUS
 10
1704.779587
 20
3648.0294760000002
 30
0.0
 11
1704.779587
 21
3810.0294760000002
 31
0.0
  0
LINE
  5
7AD6
  8
1
  6
CONTINUOUS
 10
1744.779587
 20
3852.0294760000002
 30
0.0
 11
1744.779587
 21
3648.0294760000002
 31
0.0
  0
LINE
  5
7AD7
  8
1
  6
CONTINUOUS
 10
1670.279587
 20
3664.0294759999988
 30
0.0
 11
1670.279587
 21
3784.0294760000002
 31
0.0
  0
LINE
  5
7AD8
  8
1
  6
CONTINUOUS
 10
1704.779587
 20
4338.0294759999988
 30
0.0
 11
1704.779587
 21
4258.0294759999988
 31
0.0
  0
LINE
  5
7AD9
  8
1
  6
CONTINUOUS
 10
1704.779587
 20
4338.0294759999988
 30
0.0
 11
1744.779587
 21
4338.0294759999988
 31
0.0
  0
LINE
  5
7ADA
  8
1
  6
CONTINUOUS
 10
1744.779587
 20
4338.0294759999988
 30
0.0
 11
1744.779587
 21
4216.0294759999997
 31
0.0
  0
LINE
  5
7ADB
  8
1
  6
CONTINUOUS
 10
2855.0482910000001
 20
1908.899476
 30
0.0
 11
3303.0482910000001
 21
1908.899476
 31
0.0
  0
LINE
  5
7ADC
  8
1
  6
CONTINUOUS
 10
2693.0482910000001
 20
1868.899476
 30
0.0
 11
3383.0482909999992
 21
1868.899476
 31
0.0
  0
LINE
  5
7ADD
  8
1
  6
CONTINUOUS
 10
2693.0482910000001
 20
1908.899476
 30
0.0
 11
3383.0482909999992
 21
1908.899476
 31
0.0
  0
LINE
  5
7ADE
  8
1
  6
CONTINUOUS
 10
2855.0482910000001
 20
2075.899476
 30
0.0
 11
3303.0482910000001
 21
2075.899476
 31
0.0
  0
LINE
  5
7ADF
  8
1
  6
CONTINUOUS
 10
2855.0482910000001
 20
1908.899476
 30
0.0
 11
3303.0482910000001
 21
1908.899476
 31
0.0
  0
LINE
  5
7AE0
  8
1
  6
CONTINUOUS
 10
2899.0482910000001
 20
2385.899476
 30
0.0
 11
3259.0482910000001
 21
2385.899476
 31
0.0
  0
LINE
  5
7AE1
  8
1
  6
CONTINUOUS
 10
3259.0482910000001
 20
2919.899476
 30
0.0
 11
2899.0482910000001
 21
2919.899476
 31
0.0
  0
LINE
  5
7AE2
  8
1
  6
CONTINUOUS
 10
3259.0482910000001
 20
2385.899476
 30
0.0
 11
2899.0482910000001
 21
2919.899476
 31
0.0
  0
LINE
  5
7AE3
  8
1
  6
CONTINUOUS
 10
2899.0482910000001
 20
2385.899476
 30
0.0
 11
3259.0482910000001
 21
2919.899476
 31
0.0
  0
LINE
  5
7AE4
  8
1
  6
CONTINUOUS
 10
2855.0482910000001
 20
1973.899476
 30
0.0
 11
3303.0482910000001
 21
1973.899476
 31
0.0
  0
LINE
  5
7AE5
  8
1
  6
CONTINUOUS
 10
2855.0482910000001
 20
1995.899476
 30
0.0
 11
3303.0482910000001
 21
1995.899476
 31
0.0
  0
LINE
  5
7AE6
  8
1
  6
CONTINUOUS
 10
2899.0482910000001
 20
2919.899476
 30
0.0
 11
2899.0482910000001
 21
2075.899476
 31
0.0
  0
LINE
  5
7AE7
  8
1
  6
CONTINUOUS
 10
2739.0482910000001
 20
2307.899476
 30
0.0
 11
2739.0482910000001
 21
2207.899476
 31
0.0
  0
LINE
  5
7AE8
  8
1
  6
CONTINUOUS
 10
2799.0482910000001
 20
2207.899476
 30
0.0
 11
2799.0482910000001
 21
2307.899476
 31
0.0
  0
LINE
  5
7AE9
  8
1
  6
CONTINUOUS
 10
2709.0482910000001
 20
2075.899476
 30
0.0
 11
2709.0482910000001
 21
2820.899476
 31
0.0
  0
LINE
  5
7AEA
  8
1
  6
CONTINUOUS
 10
2829.0482910000001
 20
2820.899476
 30
0.0
 11
2829.0482910000001
 21
2075.899476
 31
0.0
  0
LINE
  5
7AEB
  8
1
  6
CONTINUOUS
 10
2829.0482910000001
 20
2075.899476
 30
0.0
 11
2709.0482910000001
 21
2075.899476
 31
0.0
  0
LINE
  5
7AEF
  8
1
  6
CONTINUOUS
 10
2693.0482910000001
 20
1908.899476
 30
0.0
 11
2693.0482910000001
 21
1868.899476
 31
0.0
  0
LINE
  5
7AF0
  8
1
  6
CONTINUOUS
 10
2799.0482910000001
 20
2238.8994759999991
 30
0.0
 11
2899.0482910000001
 21
2238.8994759999991
 31
0.0
  0
LINE
  5
7AF1
  8
1
  6
CONTINUOUS
 10
2855.0482910000001
 20
2075.899476
 30
0.0
 11
2855.0482910000001
 21
1995.899476
 31
0.0
  0
LINE
  5
7AF2
  8
1
  6
CONTINUOUS
 10
2855.0482910000001
 20
1973.899476
 30
0.0
 11
2855.0482910000001
 21
1908.899476
 31
0.0
  0
LINE
  5
7AF3
  8
1
  6
CONTINUOUS
 10
2739.0482910000001
 20
2207.899476
 30
0.0
 11
2799.0482910000001
 21
2207.899476
 31
0.0
  0
LINE
  5
7AF4
  8
1
  6
CONTINUOUS
 10
2709.0482910000001
 20
2820.899476
 30
0.0
 11
2829.0482910000001
 21
2820.899476
 31
0.0
  0
LINE
  5
7AF5
  8
1
  6
CONTINUOUS
 10
2799.0482910000001
 20
2449.899476
 30
0.0
 11
2899.0482910000001
 21
2449.899476
 31
0.0
  0
LINE
  5
7AF6
  8
1
  6
CONTINUOUS
 10
2799.0482910000001
 20
2411.899476
 30
0.0
 11
2899.0482910000001
 21
2411.899476
 31
0.0
  0
LINE
  5
7AF7
  8
1
  6
CONTINUOUS
 10
2799.0482910000001
 20
2276.899476
 30
0.0
 11
2899.0482910000001
 21
2276.899476
 31
0.0
  0
LINE
  5
7AF8
  8
1
  6
CONTINUOUS
 10
2739.0482910000001
 20
2550.899476
 30
0.0
 11
2739.0482910000001
 21
2310.899476
 31
0.0
  0
LINE
  5
7AF9
  8
1
  6
CONTINUOUS
 10
2799.0482910000001
 20
2550.899476
 30
0.0
 11
2739.0482910000001
 21
2550.899476
 31
0.0
  0
LINE
  5
7AFA
  8
1
  6
CONTINUOUS
 10
2799.0482910000001
 20
2310.899476
 30
0.0
 11
2739.0482910000001
 21
2310.899476
 31
0.0
  0
LINE
  5
7AFB
  8
1
  6
CONTINUOUS
 10
2799.0482910000001
 20
2310.899476
 30
0.0
 11
2799.0482910000001
 21
2550.899476
 31
0.0
  0
LINE
  5
7AFC
  8
1
  6
CONTINUOUS
 10
2799.0482910000001
 20
2307.899476
 30
0.0
 11
2739.0482910000001
 21
2307.899476
 31
0.0
  0
LINE
  5
7AFD
  8
1
  6
CONTINUOUS
 10
3259.0482910000001
 20
2919.899476
 30
0.0
 11
3259.0482910000001
 21
2075.899476
 31
0.0
  0
LINE
  5
7AFE
  8
1
  6
CONTINUOUS
 10
3303.0482910000001
 20
2075.899476
 30
0.0
 11
3303.0482910000001
 21
1995.899476
 31
0.0
  0
LINE
  5
7AFF
  8
1
  6
CONTINUOUS
 10
3303.0482910000001
 20
1973.899476
 30
0.0
 11
3303.0482910000001
 21
1908.899476
 31
0.0
  0
LINE
  5
7B00
  8
1
  6
CONTINUOUS
 10
3383.0482909999992
 20
1908.899476
 30
0.0
 11
3383.0482909999992
 21
1868.899476
 31
0.0
  0
LINE
  5
7B01
  8
2
  6
CENTER
 10
3079.0482910000001
 20
2957.3689848739791
 30
0.0
 11
3079.0482910000001
 21
1768.345354
 31
0.0
  0
LINE
  5
7B02
  8
2
  6
CENTER
 10
548.45826799999986
 20
4034.0294759999988
 30
0.0
 11
1851.29576
 21
4034.0294759999988
 31
0.0
  0
LINE
  5
7B03
  8
2
  6
CENTER
 10
1444.779587
 20
3006.2953750000001
 30
0.0
 11
1444.779587
 21
1767.0740550578789
 31
0.0
  0
LINE
  5
7B04
  8
2
  6
CENTER
 10
2676.1991419999999
 20
2430.899476
 30
0.0
 11
3301.2431959999999
 21
2430.899476
 31
0.0
  0
LINE
  5
7B05
  8
4
  6
CONTINUOUS
 10
3700.0
 20
1000.0
 30
0.0
 11
3700.0
 21
600.0
 31
0.0
  0
LINE
  5
7B06
  8
4
  6
CONTINUOUS
 10
2300.0
 20
1000.0
 30
0.0
 11
2300.0
 21
600.0
 31
0.0
  0
LINE
  5
7B07
  8
4
  6
CONTINUOUS
 10
1300.0
 20
1000.0
 30
0.0
 11
1300.0
 21
600.0
 31
0.0
  0
LINE
  5
7B0A
  8
4
  6
CONTINUOUS
 10
1300.0
 20
600.0
 30
0.0
 11
3700.0
 21
600.0
 31
0.0
  0
LINE
  5
7B0B
  8
4
  6
CONTINUOUS
 10
1300.0
 20
800.0
 30
0.0
 11
3700.0
 21
800.0
 31
0.0
  0
TEXT
  5
7B0C
  8
4
  6
CONTINUOUS
 10
1377.004162
 20
863.086052
 30
0.0
 40
100.0
  1
機器名称
  0
TEXT
  5
7B0D
  8
4
  6
CONTINUOUS
 10
1372.516212
 20
643.29031299999986
 30
0.0
 40
100.0
  1
機器型番
  0
TEXT
  5
7B0E
  8
4
  6
CONTINUOUS
 10
2355.3574910000002
 20
845.14353800000015
 30
0.0
 40
100.0
  1
ミツヤ多翼送風機
  0
TEXT
  5
7B0F
  8
4
  6
CONTINUOUS
 10
2373.3089909999999
 20
634.31916899999999
 30
0.0
 40
100.0
  1
MF#3-4
  0
TEXT
  5
7B11
  8
4
  6
CONTINUOUS
 10
1456.2514379999991
 20
4766.8576830000002
 30
0.0
 40
108.0
  1
天井吊防振ベット
  0
TEXT
  5
7B12
  8
4
  6
CONTINUOUS
 10
632.33518700000002
 20
5067.7619520000007
 30
0.0
 40
144.0
  1
ベルト駆動式片吸込両持多翼ファン
  0
LINE
  5
7B13
  8
4
  6
CONTINUOUS
 10
500.0
 20
4938.8175090000004
 30
0.0
 11
3700.0
 21
4938.8175090000004
 31
0.0
  0
LINE
  5
7B14
  8
4
  6
CONTINUOUS
 10
500.0
 20
5338.8175090000004
 30
0.0
 11
3700.0
 21
5338.8175090000004
 31
0.0
  0
LINE
  5
7B15
  8
4
  6
CONTINUOUS
 10
1300.0
 20
1000.0
 30
0.0
 11
3700.0
 21
1000.0
 31
0.0
  0
LINE
  5
7B16
  8
4
  6
CONTINUOUS
 10
500.0
 20
5338.8175090000004
 30
0.0
 11
500.0
 21
4938.8175090000004
 31
0.0
  0
TEXT
  5
7B17
  8
4
  6
CONTINUOUS
 10
584.53377399999988
 20
4764.6389549999994
 30
0.0
 40
108.0
  1
右回転右横向
  0
TEXT
  5
7B18
  8
4
  6
CONTINUOUS
 10
2937.9391179999998
 20
5412.122163
 30
0.0
 40
112.0
  1
No.
  0
TEXT
  5
7B19
  8
4
  6
CONTINUOUS
 10
2622.5921250000001
 20
4766.8576830000002
 30
0.0
 40
108.0
  1
縮尺：1/20
  0
LINE
  5
7B1A
  8
4
  6
CONTINUOUS
 10
3700.0
 20
5338.8175090000004
 30
0.0
 11
3700.0
 21
4938.8175090000004
 31
0.0
  0
LINE
  5
7B1C
  8
4
  6
CONTINUOUS
 10
2881.234845
 20
5362.5271659999999
 30
0.0
 11
2881.234845
 21
5573.3045229999998
 31
0.0
  0
LINE
  5
7B1D
  8
4
  6
CONTINUOUS
 10
2881.234845
 20
5573.3045229999998
 30
0.0
 11
3700.0
 21
5573.3045229999998
 31
0.0
  0
LINE
  5
7B1E
  8
4
  6
CONTINUOUS
 10
3700.0
 20
5573.3045229999998
 30
0.0
 11
3700.0
 21
5362.5271659999999
 31
0.0
  0
LINE
  5
7B1F
  8
4
  6
CONTINUOUS
 10
3700.0
 20
5362.5271659999999
 30
0.0
 11
2881.234845
 21
5362.5271659999999
 31
0.0
  0
LINE
  5
7B24
  8
1
  6
CONTINUOUS
 10
1670.279587
 20
2075.899476
 30
0.0
 11
1670.279587
 21
2745.8994759999991
 31
0.0
  0
LINE
  5
7B25
  8
1
  6
CONTINUOUS
 10
1670.279587
 20
2745.8994759999991
 30
0.0
 11
1430.279587
 21
2820.899476
 31
0.0
  0
LINE
  5
7B26
  8
1
  6
CONTINUOUS
 10
1430.279587
 20
2820.899476
 30
0.0
 11
670.27958699999999
 21
2310.899476
 31
0.0
  0
LINE
  5
7B27
  8
1
  6
CONTINUOUS
 10
670.27958699999999
 20
2310.899476
 30
0.0
 11
670.27958699999999
 21
2075.899476
 31
0.0
  0
DIMENSION
  5
7B3B
  8
3
  6
CONTINUOUS
  2
*D1
 10
1934.4137920000001
 20
2412.899476
 30
0.0
 11
1934.4137920000001
 21
2639.0998519999998
 31
0.0
 70
   128
 13
1799.779587
 23
2892.899476
 33
0.0
 14
1799.779587
 24
2412.899476
 34
0.0
 50
90.0
1001
ACAD
1000
DSTYLE
1002
{
1070
   287
1070
     3
1070
    40
1040
20.0
1070
   143
1040
0.039
1070
   172
1070
     1
1070
   271
1070
     0
1070
   279
1070
     0
1070
   288
1070
     1
1002
}
  0
DIMENSION
  5
7B48
  8
3
  6
CONTINUOUS
  2
*D2
 10
2063.7084610000002
 20
2430.899476
 30
0.0
 11
2063.7084610000002
 21
2634.4864839999991
 31
0.0
 70
   128
 13
1799.779587
 23
2892.899476
 33
0.0
 14
1909.0257399999989
 24
2430.899476
 34
0.0
 50
90.0
1001
ACAD
1000
DSTYLE
1002
{
1070
   287
1070
     3
1070
    40
1040
20.0
1070
   143
1040
0.039
1070
   172
1070
     1
1070
   271
1070
     0
1070
   279
1070
     0
1070
   288
1070
     1
1002
}
  0
DIMENSION
  5
7B54
  8
3
  6
CONTINUOUS
  2
*D3
 10
2063.7084610000002
 20
1995.899476
 30
0.0
 11
2013.708460999999
 21
2213.399476
 31
0.0
 70
     0
 13
1909.0257399999989
 23
2430.899476
 33
0.0
 14
1744.779587
 24
1995.899476
 34
0.0
 50
90.0
1001
ACAD
1000
DSTYLE
1002
{
1070
   287
1070
     4
1070
    40
1040
20.0
1070
    75
1070
     1
1070
   143
1040
0.039
1070
   172
1070
     1
1070
   271
1070
     0
1070
   279
1070
     1
1070
   288
1070
     1
1002
}
  0
DIMENSION
  5
7B6F
  8
3
  6
CONTINUOUS
  2
*D4
 10
2271.5034690000002
 20
1868.899476
 30
0.0
 11
2271.5034690000002
 21
2389.9777840000002
 31
0.0
 70
   128
 13
1799.779587
 23
2892.899476
 33
0.0
 14
1744.779587
 24
1868.899476
 34
0.0
 50
90.0
1001
ACAD
1000
DSTYLE
1002
{
1070
   287
1070
     3
1070
    40
1040
20.0
1070
   143
1040
0.039
1070
   172
1070
     1
1070
   271
1070
     0
1070
   279
1070
     0
1070
   288
1070
     1
1002
}
  0
DIMENSION
  5
7BA8
  8
3
  6
CONTINUOUS
  2
*D5
 10
1444.779587
 20
3042.9516359999989
 30
0.0
 11
1606.5594530000001
 21
3042.9516359999989
 31
0.0
 70
   128
 13
1799.779587
 23
2909.899476
 33
0.0
 14
1444.779587
 24
3006.2953750000001
 34
0.0
1001
ACAD
1000
DSTYLE
1002
{
1070
   287
1070
     3
1070
    40
1040
20.0
1070
   143
1040
0.039
1070
   172
1070
     1
1070
   271
1070
     0
1070
   279
1070
     0
1070
   288
1070
     1
1002
}
  0
DIMENSION
  5
7BB4
  8
3
  6
CONTINUOUS
  2
*D6
 10
1034.779587
 20
3042.9516359999989
 30
0.0
 11
1239.779587
 21
3092.9516359999998
 31
0.0
 70
     0
 13
1444.779587
 23
3006.2953750000001
 33
0.0
 14
1034.779587
 24
2785.899476
 34
0.0
1001
ACAD
1000
DSTYLE
1002
{
1070
   287
1070
     4
1070
    40
1040
20.0
1070
    75
1070
     1
1070
   143
1040
0.039
1070
   172
1070
     1
1070
   271
1070
     0
1070
   279
1070
     1
1070
   288
1070
     1
1002
}
  0
DIMENSION
  5
7BC1
  8
3
  6
CONTINUOUS
  2
*D7
 10
1444.779587
 20
1727.293226999999
 30
0.0
 11
1047.8217380000001
 21
1727.293226999999
 31
0.0
 70
   128
 13
624.77958699999999
 23
1868.899476
 33
0.0
 14
1444.779587
 24
1768.05640019579
 34
0.0
1001
ACAD
1000
DSTYLE
1002
{
1070
   287
1070
     3
1070
    40
1040
20.0
1070
   143
1040
0.039
1070
   172
1070
     1
1070
   271
1070
     0
1070
   279
1070
     0
1070
   288
1070
     1
1002
}
  0
DIMENSION
  5
7BCD
  8
3
  6
CONTINUOUS
  2
*D8
 10
1744.779587
 20
1727.293226999999
 30
0.0
 11
1594.779587
 21
1777.293226999999
 31
0.0
 70
     0
 13
1444.779587
 23
1768.05640019579
 33
0.0
 14
1744.779587
 24
1868.899476
 34
0.0
1001
ACAD
1000
DSTYLE
1002
{
1070
   287
1070
     4
1070
    40
1040
20.0
1070
    75
1070
     1
1070
   143
1040
0.039
1070
   172
1070
     1
1070
   271
1070
     0
1070
   279
1070
     1
1070
   288
1070
     1
1002
}
  0
DIMENSION
  5
7BDA
  8
3
  6
CONTINUOUS
  2
*D9
 10
2899.0482910000001
 20
2971.2626150000001
 30
0.0
 11
3079.5951829999999
 21
2971.2626150000001
 31
0.0
 70
   128
 13
3259.0482910000001
 23
2919.899476
 33
0.0
 14
2899.0482910000001
 24
2919.899476
 34
0.0
1001
ACAD
1000
DSTYLE
1002
{
1070
   287
1070
     3
1070
    40
1040
20.0
1070
   143
1040
0.039
1070
   172
1070
     1
1070
   271
1070
     0
1070
   279
1070
     0
1070
   288
1070
     1
1002
}
  0
LINE
  5
7BFC
  8
1
  6
CONTINUOUS
 10
3260.0482910000001
 20
2680.899476
 30
0.0
 11
3260.0482910000001
 21
2180.899476
 31
0.0
  0
DIMENSION
  5
7C0B
  8
3
  6
CONTINUOUS
  2
*D10
 10
3407.4495219999999
 20
2180.899476
 30
0.0
 11
3407.4495219999999
 21
2431.4981239999988
 31
0.0
 70
   128
 13
3260.0482910000001
 23
2680.899476
 33
0.0
 14
3260.0482910000001
 24
2180.899476
 34
0.0
 50
90.0
1001
ACAD
1000
DSTYLE
1002
{
1070
   287
1070
     3
1070
     3
1000
φ<>
1070
    40
1040
20.0
1070
   143
1040
0.039
1070
   172
1070
     1
1070
   271
1070
     0
1070
   279
1070
     0
1070
   288
1070
     1
1002
}
  0
DIMENSION
  5
7C1A
  8
3
  6
CONTINUOUS
  2
*D11
 10
3079.0482910000001
 20
3105.0503990000002
 30
0.0
 11
3169.5482910000001
 21
3161.0519785726769
 31
0.0
 70
   128
 13
3260.0482910000001
 23
2680.899476
 33
0.0
 14
3079.0482910000001
 24
3057.4494789999999
 34
0.0
1001
ACAD
1000
DSTYLE
1002
{
1070
   288
1070
     1
1070
   172
1070
     1
1070
    40
1040
20.0
1070
   271
1070
     0
1070
   143
1040
0.039
1002
}
  0
DIMENSION
  5
7C26
  8
3
  6
CONTINUOUS
  2
*D12
 10
2709.0482910000001
 20
3105.0503990000002
 30
0.0
 11
2894.0482910000001
 21
3205.0503989999988
 31
0.0
 70
     0
  1
MAX\P430
 13
3079.0482910000001
 23
3057.4494789999999
 33
0.0
 14
2709.0482910000001
 24
2820.899476
 34
0.0
1001
ACAD
1000
DSTYLE
1002
{
1070
   287
1070
     4
1070
    40
1040
20.0
1070
    75
1070
     1
1070
   143
1040
0.039
1070
   172
1070
     1
1070
   271
1070
     0
1070
   279
1070
     1
1070
   288
1070
     1
1002
}
  0
DIMENSION
  5
7C33
  8
3
  6
CONTINUOUS
  2
*D13
 10
1744.779587
 20
4417.0656989999998
 30
0.0
 11
1195.5870809999999
 21
4417.0656989999998
 31
0.0
 70
   128
 13
624.77958699999999
 23
4338.0294759999988
 33
0.0
 14
1744.779587
 24
4338.0294759999988
 34
0.0
1001
ACAD
1000
DSTYLE
1002
{
1070
   287
1070
     3
1070
    40
1040
20.0
1070
   143
1040
0.039
1070
   172
1070
     1
1070
   271
1070
     0
1070
   279
1070
     0
1070
   288
1070
     1
1002
}
  0
DIMENSION
  5
7C40
  8
3
  6
CONTINUOUS
  2
*D14
 10
1962.1197790000001
 20
3648.0294760000002
 30
0.0
 11
1962.1197790000001
 21
4015.7023610000001
 31
0.0
 70
   128
 13
1744.779587
 23
4338.0294759999988
 33
0.0
 14
1744.779587
 24
3648.0294760000002
 34
0.0
 50
90.0
1001
ACAD
1000
DSTYLE
1002
{
1070
   287
1070
     3
1070
    40
1040
20.0
1070
   143
1040
0.039
1070
   172
1070
     1
1070
   271
1070
     0
1070
   279
1070
     0
1070
   288
1070
     1
1002
}
  0
DIMENSION
  5
7C4D
  8
3
  6
CONTINUOUS
  2
*D15
 10
3079.0482910000001
 20
1719.288931999999
 30
0.0
 11
2899.5061609999989
 21
1719.288931999999
 31
0.0
 70
   128
 13
2693.0482910000001
 23
1868.899476
 33
0.0
 14
3079.0482910000001
 24
1768.345354
 34
0.0
1001
ACAD
1000
DSTYLE
1002
{
1070
   287
1070
     3
1070
    40
1040
20.0
1070
   143
1040
0.039
1070
   172
1070
     1
1070
   271
1070
     0
1070
   279
1070
     0
1070
   288
1070
     1
1002
}
  0
DIMENSION
  5
7C5A
  8
3
  6
CONTINUOUS
  2
*D16
 10
3383.0482909999992
 20
1719.288931999999
 30
0.0
 11
3231.0482910000001
 21
1769.2889319999999
 31
0.0
 70
     0
 13
3079.0482910000001
 23
1768.345354
 33
0.0
 14
3383.0482909999992
 24
1868.899476
 34
0.0
1001
ACAD
1000
DSTYLE
1002
{
1070
   287
1070
     4
1070
    40
1040
20.0
1070
    75
1070
     1
1070
   143
1040
0.039
1070
   172
1070
     1
1070
   271
1070
     0
1070
   279
1070
     1
1070
   288
1070
     1
1002
}
  0
DIMENSION
  5
7C8A
  8
3
  6
CONTINUOUS
  2
*D17
 10
2063.7084610000002
 20
1908.899476
 30
0.0
 11
2143.7084609999988
 21
1952.399476
 31
0.0
 70
     0
 13
1744.779587
 23
1995.899476
 33
0.0
 14
1744.779587
 24
1908.899476
 34
0.0
 50
90.0
1001
ACAD
1000
DSTYLE
1002
{
1070
   288
1070
     1
1070
   172
1070
     1
1070
    75
1070
     1
1070
    40
1040
20.0
1070
   271
1070
     0
1070
     7
1000
_DOT
1070
   143
1040
0.039
1002
}
  0
DIMENSION
  5
7C9A
  8
3
  6
CONTINUOUS
  2
*D18
 10
2063.7084610000002
 20
1868.899476
 30
0.0
 11
2063.7084610000002
 21
1720.3280474285721
 31
0.0
 70
   128
 13
1744.779587
 23
1908.899476
 33
0.0
 14
1744.779587
 24
1868.899476
 34
0.0
 50
90.0
1001
ACAD
1000
DSTYLE
1002
{
1070
   287
1070
     3
1070
    40
1040
20.0
1070
   143
1040
0.039
1070
   172
1070
     1
1070
   271
1070
     0
1070
   279
1070
     0
1070
   288
1070
     1
1070
     6
1000
DOT
1002
}
  0
DIMENSION
  5
7DAD
  8
3
  2
*D20
 10
624.77958699999999
 20
3169.8670554862488
 30
0.0
 11
1237.011502084566
 21
3169.8670554862488
 31
0.0
 70
   128
 13
1799.779587
 23
2909.899476
 33
0.0
 14
624.77958699999999
 24
2075.899476
 34
0.0
1001
ACAD
1000
DSTYLE
1002
{
1070
   287
1070
     3
1070
    40
1040
20.0
1070
   143
1040
0.039
1070
   172
1070
     1
1070
   271
1070
     0
1070
   279
1070
     0
1070
   288
1070
     1
1002
}
  0
ENDSEC
  0
EOF
