  0
SECTION
  2
HEADER
  9
$ACADVER
  1
AC1009
  9
$INSBASE
 10
0.0
 20
0.0
 30
0.0
  9
$EXTMIN
 10
500.0
 20
600.0
 30
0.0
  9
$EXTMAX
 10
3700.0
 20
5573.3045229999998
 30
0.0
  9
$LIMMIN
 10
0.0
 20
0.0
  9
$LIMMAX
 10
297.0
 20
210.0
  9
$ORTHOMODE
 70
     0
  9
$REGENMODE
 70
     1
  9
$FILLMODE
 70
     0
  9
$QTEXTMODE
 70
     0
  9
$MIRRTEXT
 70
     1
  9
$DRAGMODE
 70
     2
  9
$LTSCALE
 40
100.0
  9
$OSMODE
 70
    37
  9
$ATTMODE
 70
     1
  9
$TEXTSIZE
 40
180.0
  9
$TRACEWID
 40
0.05
  9
$TEXTSTYLE
  7
STANDARD
  9
$CLAYER
  8
3
  9
$CELTYPE
  6
BYLAYER
  9
$CECOLOR
 62
   256
  9
$DIMSCALE
 40
20.0
  9
$DIMASZ
 40
2.0
  9
$DIMEXO
 40
0.5
  9
$DIMDLI
 40
10.0
  9
$DIMRND
 40
0.0
  9
$DIMDLE
 40
0.0
  9
$DIMEXE
 40
1.0
  9
$DIMTP
 40
1.0
  9
$DIMTM
 40
1.0
  9
$DIMTXT
 40
3.0
  9
$DIMCEN
 40
0.0
  9
$DIMTSZ
 40
0.0
  9
$DIMTOL
 70
     0
  9
$DIMLIM
 70
     0
  9
$DIMTIH
 70
     0
  9
$DIMTOH
 70
     0
  9
$DIMSE1
 70
     0
  9
$DIMSE2
 70
     0
  9
$DIMTAD
 70
     1
  9
$DIMZIN
 70
     8
  9
$DIMBLK
  1

  9
$DIMASO
 70
     1
  9
$DIMSHO
 70
     1
  9
$DIMPOST
  1

  9
$DIMAPOST
  1

  9
$DIMALT
 70
     0
  9
$DIMALTD
 70
     2
  9
$DIMALTF
 40
0.039
  9
$DIMLFAC
 40
1.0
  9
$DIMTOFL
 70
     1
  9
$DIMTVP
 40
0.0
  9
$DIMTIX
 70
     0
  9
$DIMSOXD
 70
     0
  9
$DIMSAH
 70
     1
  9
$DIMBLK1
  1
OPEN
  9
$DIMBLK2
  1
OPEN
  9
$DIMSTYLE
  2
IGA
  9
$DIMCLRD
 70
     0
  9
$DIMCLRE
 70
     0
  9
$DIMCLRT
 70
     0
  9
$DIMTFAC
 40
10.0
  9
$DIMGAP
 40
1.0
  9
$LUNITS
 70
     2
  9
$LUPREC
 70
     3
  9
$SKETCHINC
 40
0.1
  9
$FILLETRAD
 40
50.0
  9
$AUNITS
 70
     0
  9
$AUPREC
 70
     0
  9
$MENU
  1
acad
  9
$ELEVATION
 40
0.0
  9
$PELEVATION
 40
0.0
  9
$THICKNESS
 40
0.0
  9
$LIMCHECK
 70
     0
  9
$BLIPMODE
 70
     0
  9
$CHAMFERA
 40
0.5
  9
$CHAMFERB
 40
0.5
  9
$SKPOLY
 70
     0
  9
$TDCREATE
 40
2450735.489101273
  9
$TDUPDATE
 40
2454953.7670798958
  9
$TDINDWG
 40
0.0067098032
  9
$TDUSRTIMER
 40
0.0067098032
  9
$USRTIMER
 70
     1
  9
$ANGBASE
 50
0.0
  9
$ANGDIR
 70
     0
  9
$PDMODE
 70
     0
  9
$PDSIZE
 40
0.0
  9
$PLINEWID
 40
0.0
  9
$COORDS
 70
     1
  9
$SPLFRAME
 70
     0
  9
$SPLINETYPE
 70
     6
  9
$SPLINESEGS
 70
     8
  9
$ATTDIA
 70
     0
  9
$ATTREQ
 70
     1
  9
$HANDLING
 70
 10241
  9
$HANDSEED
  5
7ECA
  9
$SURFTAB1
 70
     6
  9
$SURFTAB2
 70
     6
  9
$SURFTYPE
 70
     6
  9
$SURFU
 70
     6
  9
$SURFV
 70
     6
  9
$UCSNAME
  2

  9
$UCSORG
 10
0.0
 20
0.0
 30
0.0
  9
$UCSXDIR
 10
1.0
 20
0.0
 30
0.0
  9
$UCSYDIR
 10
0.0
 20
1.0
 30
0.0
  9
$PUCSNAME
  2

  9
$PUCSORG
 10
0.0
 20
0.0
 30
0.0
  9
$PUCSXDIR
 10
1.0
 20
0.0
 30
0.0
  9
$PUCSYDIR
 10
0.0
 20
1.0
 30
0.0
  9
$USERI1
 70
     0
  9
$USERI2
 70
     0
  9
$USERI3
 70
     0
  9
$USERI4
 70
     0
  9
$USERI5
 70
     0
  9
$USERR1
 40
0.0
  9
$USERR2
 40
0.0
  9
$USERR3
 40
0.0
  9
$USERR4
 40
0.0
  9
$USERR5
 40
0.0
  9
$WORLDVIEW
 70
     1
  9
$SHADEDGE
 70
     3
  9
$SHADEDIF
 70
    70
  9
$TILEMODE
 70
     1
  9
$MAXACTVP
 70
    16
  9
$PLIMCHECK
 70
     0
  9
$PEXTMIN
 10
1.0000000000000000E+020
 20
1.0000000000000000E+020
 30
1.0000000000000000E+020
  9
$PEXTMAX
 10
-1.0000000000000000E+020
 20
-1.0000000000000000E+020
 30
-1.0000000000000000E+020
  9
$PLIMMIN
 10
0.0
 20
0.0
  9
$PLIMMAX
 10
12.0
 20
9.0
  9
$UNITMODE
 70
     0
  9
$VISRETAIN
 70
     0
  9
$PLINEGEN
 70
     0
  9
$PSLTSCALE
 70
     1
  0
ENDSEC
  0
SECTION
  2
TABLES
  0
TABLE
  2
VPORT
 70
     2
  0
VPORT
  2
*ACTIVE
 70
     0
 10
0.0
 20
0.0
 11
1.0
 21
1.0
 12
6292.1124769529506
 22
3086.6374998146398
 13
0.0
 23
0.0
 14
10.0
 24
10.0
 15
10.0
 25
10.0
 16
0.0
 26
0.0
 36
1.0
 17
0.0
 27
0.0
 37
0.0
 40
5011.4968576296578
 41
3.1666666666666661
 42
50.0
 43
0.0
 44
0.0
 50
0.0
 51
0.0
 71
     0
 72
   100
 73
     1
 74
     0
 75
     0
 76
     0
 77
     0
 78
     0
  0
ENDTAB
  0
TABLE
  2
LTYPE
 70
     2
  0
LTYPE
  2
CONTINUOUS
 70
     0
  3
Solid line
 72
    65
 73
     0
 40
0.0
  0
LTYPE
  2
CENTER
 70
     0
  3
____ _ ____ _ ____ _ ____ _ ____ _ ____ _ ____ 
 72
    65
 73
     4
 40
2.0
 49
1.25
 49
-0.25
 49
0.25
 49
-0.25
  0
ENDTAB
  0
TABLE
  2
LAYER
 70
     6
  0
LAYER
  2
0
 70
     0
 62
     7
  6
CONTINUOUS
  0
LAYER
  2
3
 70
     0
 62
     2
  6
CONTINUOUS
  0
LAYER
  2
2
 70
     0
 62
     3
  6
CENTER
  0
LAYER
  2
1
 70
     0
 62
     4
  6
CONTINUOUS
  0
LAYER
  2
4
 70
     0
 62
     7
  6
CONTINUOUS
  0
LAYER
  2
DEFPOINTS
 70
     0
 62
     7
  6
CONTINUOUS
  0
ENDTAB
  0
TABLE
  2
STYLE
 70
     1
  0
STYLE
  2
STANDARD
 70
     0
 40
0.0
 41
1.0
 50
0.0
 71
     0
 42
180.0
  3
simplex.shx
  4
extfont.shx
  0
ENDTAB
  0
TABLE
  2
VIEW
 70
     0
  0
ENDTAB
  0
TABLE
  2
UCS
 70
     0
  0
ENDTAB
  0
TABLE
  2
APPID
 70
     1
  0
APPID
  2
ACAD
 70
     0
  0
ENDTAB
  0
TABLE
  2
DIMSTYLE
 70
     1
  0
DIMSTYLE
  2
IGA
 70
     0
  3

  4

  5

  6
OPEN
  7
OPEN
 40
2.0
 41
2.0
 42
0.5
 43
10.0
 44
1.0
 45
0.0
 46
0.0
 47
1.0
 48
1.0
140
3.0
141
0.0
142
0.0
143
0.03937
144
1.0
145
0.0
146
10.0
147
1.0
 71
     0
 72
     0
 73
     0
 74
     0
 75
     0
 76
     0
 77
     1
 78
     8
170
     0
171
     2
172
     0
173
     1
174
     0
175
     0
176
     0
177
     0
178
     0
  0
ENDTAB
  0
ENDSEC
  0
SECTION
  2
BLOCKS
  0
BLOCK
  8
0
  2
$MODEL_SPACE
 70
     0
 10
0.0
 20
0.0
 30
0.0
  3
$MODEL_SPACE
  1

  0
ENDBLK
  5
1B
  8
0
  0
BLOCK
 67
     1
  8
0
  2
$PAPER_SPACE
 70
     0
 10
0.0
 20
0.0
 30
0.0
  3
$PAPER_SPACE
  1

  0
ENDBLK
  5
18
 67
     1
  8
0
  0
BLOCK
  8
0
  2
_OPEN
 70
     0
 10
0.0
 20
0.0
 30
0.0
  3
_OPEN
  1

  0
LINE
  5
7B23
  8
0
  6
BYBLOCK
 62
     0
 10
-1.0
 20
0.166667
 30
0.0
 11
0.0
 21
0.0
 31
0.0
  0
LINE
  5
7B24
  8
0
  6
BYBLOCK
 62
     0
 10
0.0
 20
0.0
 30
0.0
 11
-1.0
 21
-0.166667
 31
0.0
  0
LINE
  5
7B25
  8
0
  6
BYBLOCK
 62
     0
 10
0.0
 20
0.0
 30
0.0
 11
-1.0
 21
0.0
 31
0.0
  0
ENDBLK
  5
7B26
  8
0
  0
BLOCK
  8
0
  2
*D1
 70
     1
 10
0.0
 20
0.0
 30
0.0
  3
*D1
  1

  0
LINE
  5
7E16
  8
3
  6
CONTINUOUS
 62
     0
 10
1904.2836655408589
 20
2288.6842660000002
 30
0.0
 11
2049.719331540859
 21
2288.6842660000002
 31
0.0
  0
LINE
  5
7E17
  8
3
  6
CONTINUOUS
 62
     0
 10
1904.2836655408589
 20
1808.684266
 30
0.0
 11
2049.719331540859
 21
1808.684266
 31
0.0
  0
LINE
  5
7E18
  8
3
  6
CONTINUOUS
 62
     0
 10
2029.7193315408599
 20
2248.6842660000002
 30
0.0
 11
2029.7193315408599
 21
1848.684266
 31
0.0
  0
INSERT
  5
7E19
  8
3
  6
CONTINUOUS
 62
     0
  2
_OPEN
 10
2029.7193315408599
 20
2288.6842660000002
 30
0.0
 41
40.0
 42
40.0
 43
40.0
 50
90.0
  0
INSERT
  5
7E1A
  8
3
  6
CONTINUOUS
 62
     0
  2
_OPEN
 10
2029.7193315408599
 20
1808.684266
 30
0.0
 41
40.0
 42
40.0
 43
40.0
 50
270.0
  0
TEXT
  8
3
  40
60
  5
7EB7
  62
0
  72
0
  71
0
 10
1859.72
 20
1970.17
 30
0.000000
  1
480
  0
POINT
  5
7E1C
  8
DEFPOINTS
  6
CONTINUOUS
 62
     0
 10
1894.2836655408589
 20
2288.6842660000002
 30
0.0
  0
POINT
  5
7E1D
  8
DEFPOINTS
  6
CONTINUOUS
 62
     0
 10
1894.2836655408589
 20
1808.684266
 30
0.0
  0
POINT
  5
7E1E
  8
DEFPOINTS
  6
CONTINUOUS
 62
     0
 10
2029.7193315408599
 20
1808.684266
 30
0.0
  0
ENDBLK
  5
7B98
  8
0
  0
BLOCK
  8
0
  2
*D2
 70
     1
 10
0.0
 20
0.0
 30
0.0
  3
*D2
  1

  0
LINE
  5
7E1F
  8
3
  6
CONTINUOUS
 62
     0
 10
1904.2836655408589
 20
1808.684266
 30
0.0
 11
2166.2254515408599
 21
1808.684266
 31
0.0
  0
LINE
  5
7E20
  8
3
  6
CONTINUOUS
 62
     0
 10
2012.800307540859
 20
2270.6842660000002
 30
0.0
 11
2166.2254515408599
 21
2270.6842660000002
 31
0.0
  0
LINE
  5
7E21
  8
3
  6
CONTINUOUS
 62
     0
 10
2146.2254515408599
 20
1848.684266
 30
0.0
 11
2146.2254515408599
 21
2230.6842660000002
 31
0.0
  0
INSERT
  5
7E22
  8
3
  6
CONTINUOUS
 62
     0
  2
_OPEN
 10
2146.2254515408599
 20
1808.684266
 30
0.0
 41
40.0
 42
40.0
 43
40.0
 50
270.0
  0
INSERT
  5
7E23
  8
3
  6
CONTINUOUS
 62
     0
  2
_OPEN
 10
2146.2254515408599
 20
2270.6842660000002
 30
0.0
 41
40.0
 42
40.0
 43
40.0
 50
90.0
  0
TEXT
  8
3
  40
60
  5
7EB8
  62
0
  72
0
  71
0
 10
1976.23
 20
1958.13
 30
0.000000
  1
462
  0
POINT
  5
7E25
  8
DEFPOINTS
  6
CONTINUOUS
 62
     0
 10
1894.2836655408589
 20
1808.684266
 30
0.0
  0
POINT
  5
7E26
  8
DEFPOINTS
  6
CONTINUOUS
 62
     0
 10
2002.8003075408601
 20
2270.6842660000002
 30
0.0
  0
POINT
  5
7E27
  8
DEFPOINTS
  6
CONTINUOUS
 62
     0
 10
2146.2254515408599
 20
2270.6842660000002
 30
0.0
  0
ENDBLK
  5
7BA3
  8
0
  0
BLOCK
  8
0
  2
*D3
 70
     1
 10
0.0
 20
0.0
 30
0.0
  3
*D3
  1

  0
LINE
  5
7E28
  8
3
  6
CONTINUOUS
 62
     0
 10
1859.2836655408589
 20
2625.6842660000002
 30
0.0
 11
2314.8711965408588
 21
2625.6842660000002
 31
0.0
  0
LINE
  5
7E29
  8
3
  6
CONTINUOUS
 62
     0
 10
2012.800307540859
 20
2270.6842660000002
 30
0.0
 11
2314.8711965408588
 21
2270.6842660000002
 31
0.0
  0
LINE
  5
7E2A
  8
3
  6
CONTINUOUS
 62
     0
 10
2294.8711965408602
 20
2585.6842660000002
 30
0.0
 11
2294.8711965408602
 21
2310.6842660000002
 31
0.0
  0
INSERT
  5
7E2B
  8
3
  6
CONTINUOUS
 62
     0
  2
_OPEN
 10
2294.8711965408602
 20
2625.6842660000002
 30
0.0
 41
40.0
 42
40.0
 43
40.0
 50
90.0
  0
INSERT
  5
7E2C
  8
3
  6
CONTINUOUS
 62
     0
  2
_OPEN
 10
2294.8711965408602
 20
2270.6842660000002
 30
0.0
 41
40.0
 42
40.0
 43
40.0
 50
270.0
  0
TEXT
  8
3
  40
60
  5
7EB9
  62
0
  72
0
  71
0
 10
2124.87
 20
2335.42
 30
0.000000
  1
355
  0
POINT
  5
7E2E
  8
DEFPOINTS
  6
CONTINUOUS
 62
     0
 10
1849.2836655408589
 20
2625.6842660000002
 30
0.0
  0
POINT
  5
7E2F
  8
DEFPOINTS
  6
CONTINUOUS
 62
     0
 10
2002.8003075408601
 20
2270.6842660000002
 30
0.0
  0
POINT
  5
7E30
  8
DEFPOINTS
  6
CONTINUOUS
 62
     0
 10
2294.8711965408602
 20
2270.6842660000002
 30
0.0
  0
ENDBLK
  5
7B5A
  8
0
  0
BLOCK
  8
0
  2
*D4
 70
     1
 10
0.0
 20
0.0
 30
0.0
  3
*D4
  1

  0
LINE
  5
7E31
  8
3
  6
CONTINUOUS
 62
     0
 10
1849.2836655408589
 20
1670.684266
 30
0.0
 11
2314.8711965408588
 21
1670.684266
 31
0.0
  0
LINE
  5
7E32
  8
3
  6
CONTINUOUS
 62
     0
 10
2294.8711965408588
 20
2230.6842660000002
 30
0.0
 11
2294.8711965408588
 21
1710.684266
 31
0.0
  0
INSERT
  5
7E33
  8
3
  6
CONTINUOUS
 62
     0
  2
_OPEN
 10
2294.8711965408588
 20
2270.6842660000002
 30
0.0
 41
40.0
 42
40.0
 43
40.0
 50
90.0
  0
INSERT
  5
7E34
  8
3
  6
CONTINUOUS
 62
     0
  2
_OPEN
 10
2294.8711965408588
 20
1670.684266
 30
0.0
 41
40.0
 42
40.0
 43
40.0
 50
270.0
  0
TEXT
  8
3
  40
60
  5
7EBA
  62
0
  72
0
  71
0
 10
2124.87
 20
1864.48
 30
0.000000
  1
600
  0
POINT
  5
7E36
  8
DEFPOINTS
  6
CONTINUOUS
 62
     0
 10
2002.8003075408601
 20
2270.6842660000002
 30
0.0
  0
POINT
  5
7E37
  8
DEFPOINTS
  6
CONTINUOUS
 62
     0
 10
1839.2836655408589
 20
1670.684266
 30
0.0
  0
POINT
  5
7E38
  8
DEFPOINTS
  6
CONTINUOUS
 62
     0
 10
2294.8711965408588
 20
1670.684266
 30
0.0
  0
ENDBLK
  5
7B66
  8
0
  0
BLOCK
  8
0
  2
*D5
 70
     1
 10
0.0
 20
0.0
 30
0.0
  3
*D5
  1

  0
LINE
  5
7E39
  8
3
  6
CONTINUOUS
 62
     0
 10
1859.2836655408589
 20
2625.6842660000002
 30
0.0
 11
2507.7088955408599
 21
2625.6842660000002
 31
0.0
  0
LINE
  5
7E3A
  8
3
  6
CONTINUOUS
 62
     0
 10
1849.2836655408589
 20
1543.684266
 30
0.0
 11
2507.7088955408599
 21
1543.684266
 31
0.0
  0
LINE
  5
7E3B
  8
3
  6
CONTINUOUS
 62
     0
 10
2487.7088955408599
 20
2585.6842660000002
 30
0.0
 11
2487.7088955408599
 21
1583.684266
 31
0.0
  0
INSERT
  5
7E3C
  8
3
  6
CONTINUOUS
 62
     0
  2
_OPEN
 10
2487.7088955408599
 20
2625.6842660000002
 30
0.0
 41
40.0
 42
40.0
 43
40.0
 50
90.0
  0
INSERT
  5
7E3D
  8
3
  6
CONTINUOUS
 62
     0
  2
_OPEN
 10
2487.7088955408599
 20
1543.684266
 30
0.0
 41
40.0
 42
40.0
 43
40.0
 50
270.0
  0
TEXT
  8
3
  40
60
  5
7EBB
  62
0
  72
0
  71
0
 10
2317.71
 20
2022.35
 30
0.000000
  1
1082
  0
POINT
  5
7E3F
  8
DEFPOINTS
  6
CONTINUOUS
 62
     0
 10
1849.2836655408589
 20
2625.6842660000002
 30
0.0
  0
POINT
  5
7E40
  8
DEFPOINTS
  6
CONTINUOUS
 62
     0
 10
1839.2836655408589
 20
1543.684266
 30
0.0
  0
POINT
  5
7E41
  8
DEFPOINTS
  6
CONTINUOUS
 62
     0
 10
2487.7088955408599
 20
1543.684266
 30
0.0
  0
ENDBLK
  5
7D39
  8
0
  0
BLOCK
  8
0
  2
*D6
 70
     1
 10
0.0
 20
0.0
 30
0.0
  3
*D6
  1

  0
LINE
  5
7E42
  8
3
  6
CONTINUOUS
 62
     0
 10
1142.2836655408589
 20
2285.8246370605252
 30
0.0
 11
1142.2836655408589
 21
2758.6334449999999
 31
0.0
  0
LINE
  5
7E43
  8
3
  6
CONTINUOUS
 62
     0
 10
1499.2836655408589
 20
2738.6334449999999
 30
0.0
 11
1182.2836655408589
 21
2738.6334449999999
 31
0.0
  0
INSERT
  5
7E44
  8
3
  6
CONTINUOUS
 62
     0
  2
_OPEN
 10
1539.2836655408589
 20
2738.6334449999999
 30
0.0
 41
40.0
 42
40.0
 43
40.0
  0
INSERT
  5
7E45
  8
3
  6
CONTINUOUS
 62
     0
  2
_OPEN
 10
1142.2836655408589
 20
2738.6334449999999
 30
0.0
 41
40.0
 42
40.0
 43
40.0
 50
180.0
  0
TEXT
  8
3
  40
60
  5
7EBC
  62
0
  72
0
  71
0
 10
1220.78
 20
2682.43
 30
0.000000
  1
397
  0
POINT
  5
7E47
  8
DEFPOINTS
  6
CONTINUOUS
 62
     0
 10
1539.2836655408589
 20
2720.8084589999999
 30
0.0
  0
POINT
  5
7E48
  8
DEFPOINTS
  6
CONTINUOUS
 62
     0
 10
1142.2836655408589
 20
2275.8246370605252
 30
0.0
  0
POINT
  5
7E49
  8
DEFPOINTS
  6
CONTINUOUS
 62
     0
 10
1142.2836655408589
 20
2738.6334449999999
 30
0.0
  0
ENDBLK
  5
7DF3
  8
0
  0
BLOCK
  8
0
  2
*D7
 70
     1
 10
0.0
 20
0.0
 30
0.0
  3
*D7
  1

  0
LINE
  5
7E4A
  8
3
  6
CONTINUOUS
 62
     0
 10
719.2836655408596
 20
1533.684266
 30
0.0
 11
719.2836655408596
 21
1422.2033579999991
 31
0.0
  0
LINE
  5
7E4B
  8
3
  6
CONTINUOUS
 62
     0
 10
1539.2836655408589
 20
1448.215616
 30
0.0
 11
1539.2836655408589
 21
1462.203358
 31
0.0
  0
LINE
  5
7E4C
  8
3
  6
CONTINUOUS
 62
     0
 10
759.28366554085949
 20
1442.203358
 30
0.0
 11
1499.2836655408589
 21
1442.203358
 31
0.0
  0
INSERT
  5
7E4D
  8
3
  6
CONTINUOUS
 62
     0
  2
_OPEN
 10
719.2836655408596
 20
1442.203358
 30
0.0
 41
40.0
 42
40.0
 43
40.0
 50
180.0
  0
INSERT
  5
7E4E
  8
3
  6
CONTINUOUS
 62
     0
  2
_OPEN
 10
1539.2836655408589
 20
1442.203358
 30
0.0
 41
40.0
 42
40.0
 43
40.0
  0
TEXT
  8
3
  40
60
  5
7EBD
  62
0
  72
0
  71
0
 10
993.740
 20
1386.00
 30
0.000000
  1
820
  0
POINT
  5
7E50
  8
DEFPOINTS
  6
CONTINUOUS
 62
     0
 10
719.2836655408596
 20
1543.684266
 30
0.0
  0
POINT
  5
7E51
  8
DEFPOINTS
  6
CONTINUOUS
 62
     0
 10
1539.2836655408589
 20
1438.215615999999
 30
0.0
  0
POINT
  5
7E52
  8
DEFPOINTS
  6
CONTINUOUS
 62
     0
 10
1539.2836655408589
 20
1442.203358
 30
0.0
  0
ENDBLK
  5
7BC8
  8
0
  0
BLOCK
  8
0
  2
*D8
 70
     1
 10
0.0
 20
0.0
 30
0.0
  3
*D8
  1

  0
LINE
  5
7E53
  8
3
  6
CONTINUOUS
 62
     0
 10
1839.2836655408589
 20
1533.684266
 30
0.0
 11
1839.2836655408589
 21
1422.2033579999991
 31
0.0
  0
LINE
  5
7E54
  8
3
  6
CONTINUOUS
 62
     0
 10
1579.2836655408589
 20
1442.203358
 30
0.0
 11
1799.2836655408589
 21
1442.203358
 31
0.0
  0
INSERT
  5
7E55
  8
3
  6
CONTINUOUS
 62
     0
  2
_OPEN
 10
1539.2836655408589
 20
1442.203358
 30
0.0
 41
40.0
 42
40.0
 43
40.0
 50
180.0
  0
INSERT
  5
7E56
  8
3
  6
CONTINUOUS
 62
     0
  2
_OPEN
 10
1839.2836655408589
 20
1442.203358
 30
0.0
 41
40.0
 42
40.0
 43
40.0
  0
TEXT
  8
3
  40
60
  5
7EBE
  62
0
  72
0
  71
0
 10
1569.28
 20
1386.00
 30
0.000000
  1
300
  0
POINT
  5
7E58
  8
DEFPOINTS
  6
CONTINUOUS
 62
     0
 10
1539.2836655408589
 20
1438.215615999999
 30
0.0
  0
POINT
  5
7E59
  8
DEFPOINTS
  6
CONTINUOUS
 62
     0
 10
1839.2836655408589
 20
1543.684266
 30
0.0
  0
POINT
  5
7E5A
  8
DEFPOINTS
  6
CONTINUOUS
 62
     0
 10
1839.2836655408589
 20
1442.203358
 30
0.0
  0
ENDBLK
  5
7BD4
  8
0
  0
BLOCK
  8
0
  2
*D9
 70
     1
 10
0.0
 20
0.0
 30
0.0
  3
*D9
  1

  0
LINE
  5
7E5B
  8
3
  6
CONTINUOUS
 62
     0
 10
3452.88235854086
 20
2520.6842660000002
 30
0.0
 11
3633.2795705408598
 21
2520.6842660000002
 31
0.0
  0
LINE
  5
7E5C
  8
3
  6
CONTINUOUS
 62
     0
 10
3452.88235854086
 20
2020.6842659999991
 30
0.0
 11
3633.2795705408598
 21
2020.6842659999991
 31
0.0
  0
LINE
  5
7E5D
  8
3
  6
CONTINUOUS
 62
     0
 10
3613.2795705408598
 20
2480.6842660000002
 30
0.0
 11
3613.2795705408598
 21
2060.6842659999988
 31
0.0
  0
INSERT
  5
7E5E
  8
3
  6
CONTINUOUS
 62
     0
  2
_OPEN
 10
3613.2795705408598
 20
2520.6842660000002
 30
0.0
 41
40.0
 42
40.0
 43
40.0
 50
90.0
  0
INSERT
  5
7E5F
  8
3
  6
CONTINUOUS
 62
     0
  2
_OPEN
 10
3613.2795705408598
 20
2020.6842659999991
 30
0.0
 41
40.0
 42
40.0
 43
40.0
 50
270.0
  0
TEXT
  8
3
  40
60
  5
7EBF
  62
0
  72
0
  71
0
 10
3443.28
 20
2162.83
 30
0.000000
  1
φ500
  0
POINT
  5
7E61
  8
DEFPOINTS
  6
CONTINUOUS
 62
     0
 10
3442.88235854086
 20
2520.6842660000002
 30
0.0
  0
POINT
  5
7E62
  8
DEFPOINTS
  6
CONTINUOUS
 62
     0
 10
3442.88235854086
 20
2020.6842659999991
 30
0.0
  0
POINT
  5
7E63
  8
DEFPOINTS
  6
CONTINUOUS
 62
     0
 10
3613.2795705408598
 20
2020.6842659999991
 30
0.0
  0
ENDBLK
  5
7D53
  8
0
  0
BLOCK
  8
0
  2
*D10
 70
     1
 10
0.0
 20
0.0
 30
0.0
  3
*D10
  1

  0
LINE
  5
7D60
  8
0
  6
BYBLOCK
 62
     0
 10
3442.88235854086
 20
2530.6842660000002
 30
0.0
 11
3442.88235854086
 21
2860.4818890000001
 31
0.0
  0
LINE
  5
7D61
  8
0
  6
BYBLOCK
 62
     0
 10
3261.88235854086
 20
2772.998341
 30
0.0
 11
3261.88235854086
 21
2860.4818890000001
 31
0.0
  0
LINE
  5
7D62
  8
0
  6
BYBLOCK
 62
     0
 10
3402.88235854086
 20
2840.4818890000001
 30
0.0
 11
3301.88235854086
 21
2840.4818890000001
 31
0.0
  0
TEXT
  5
7D63
  8
3
 62
     0
 10
3293.8109299694311
 20
2863.2788420803658
 30
0.0
 40
60.0
  1
181
  0
INSERT
  5
7D64
  8
0
  6
BYBLOCK
 62
     0
  2
_OPEN
 10
3442.88235854086
 20
2840.4818890000001
 30
0.0
 41
40.0
 42
40.0
 43
40.0
  0
INSERT
  5
7D65
  8
0
  6
BYBLOCK
 62
     0
  2
_OPEN
 10
3261.88235854086
 20
2840.4818890000001
 30
0.0
 41
40.0
 42
40.0
 43
40.0
 50
180.0
  0
POINT
  5
7D66
  8
DEFPOINTS
  6
BYBLOCK
 62
     0
 10
3442.88235854086
 20
2520.6842660000002
 30
0.0
  0
POINT
  5
7D67
  8
DEFPOINTS
  6
BYBLOCK
 62
     0
 10
3261.88235854086
 20
2762.998341
 30
0.0
  0
POINT
  5
7D68
  8
DEFPOINTS
  6
BYBLOCK
 62
     0
 10
3261.88235854086
 20
2840.4818890000001
 30
0.0
  0
ENDBLK
  5
7D69
  8
0
  0
BLOCK
  8
0
  2
*D11
 70
     1
 10
0.0
 20
0.0
 30
0.0
  3
*D11
  1

  0
LINE
  5
7E64
  8
3
  6
CONTINUOUS
 62
     0
 10
2891.8823585408591
 20
2505.6842660000002
 30
0.0
 11
2891.8823585408591
 21
2860.4818890000001
 31
0.0
  0
LINE
  5
7E65
  8
3
  6
CONTINUOUS
 62
     0
 10
3221.8823585408591
 20
2840.4818890000001
 30
0.0
 11
2931.8823585408591
 21
2840.4818890000001
 31
0.0
  0
INSERT
  5
7E66
  8
3
  6
CONTINUOUS
 62
     0
  2
_OPEN
 10
3261.88235854086
 20
2840.4818890000001
 30
0.0
 41
40.0
 42
40.0
 43
40.0
  0
INSERT
  5
7E67
  8
3
  6
CONTINUOUS
 62
     0
  2
_OPEN
 10
2891.8823585408591
 20
2840.4818890000001
 30
0.0
 41
40.0
 42
40.0
 43
40.0
 50
180.0
  0
TEXT
  8
3
  40
60
  5
7EC0
  62
0
  72
0
  71
0
 10
2956.88
 20
2834.28
 30
0.000000
  1
MAX
  0
TEXT
  8
3
  40
60
  5
7EC1
  62
0
  72
0
  71
0
 10
2956.88
 20
2756.28
 30
0.000000
  1
430
  0
POINT
  5
7E69
  8
DEFPOINTS
  6
CONTINUOUS
 62
     0
 10
3261.88235854086
 20
2762.998341
 30
0.0
  0
POINT
  5
7E6A
  8
DEFPOINTS
  6
CONTINUOUS
 62
     0
 10
2891.8823585408591
 20
2495.6842660000002
 30
0.0
  0
POINT
  5
7E6B
  8
DEFPOINTS
  6
CONTINUOUS
 62
     0
 10
2891.8823585408591
 20
2840.4818890000001
 30
0.0
  0
ENDBLK
  5
7D48
  8
0
  0
BLOCK
  8
0
  2
*D12
 70
     1
 10
0.0
 20
0.0
 30
0.0
  3
*D12
  1

  0
LINE
  5
7E6C
  8
3
  6
CONTINUOUS
 62
     0
 10
2875.8823585408591
 20
1533.684266
 30
0.0
 11
2875.8823585408591
 21
1367.477948
 31
0.0
  0
LINE
  5
7E6D
  8
3
  6
CONTINUOUS
 62
     0
 10
3261.88235854086
 20
1392.422566
 30
0.0
 11
3261.88235854086
 21
1367.477948
 31
0.0
  0
LINE
  5
7E6E
  8
3
  6
CONTINUOUS
 62
     0
 10
2915.8823585408591
 20
1387.477948
 30
0.0
 11
3221.8823585408591
 21
1387.477948
 31
0.0
  0
INSERT
  5
7E6F
  8
3
  6
CONTINUOUS
 62
     0
  2
_OPEN
 10
2875.8823585408591
 20
1387.477948
 30
0.0
 41
40.0
 42
40.0
 43
40.0
 50
180.0
  0
INSERT
  5
7E70
  8
3
  6
CONTINUOUS
 62
     0
  2
_OPEN
 10
3261.88235854086
 20
1387.477948
 30
0.0
 41
40.0
 42
40.0
 43
40.0
  0
TEXT
  8
3
  40
60
  5
7EC2
  62
0
  72
0
  71
0
 10
2947.17
 20
1331.28
 30
0.000000
  1
386
  0
POINT
  5
7E72
  8
DEFPOINTS
  6
CONTINUOUS
 62
     0
 10
2875.8823585408591
 20
1543.684266
 30
0.0
  0
POINT
  5
7E73
  8
DEFPOINTS
  6
CONTINUOUS
 62
     0
 10
3261.88235854086
 20
1402.422566
 30
0.0
  0
POINT
  5
7E74
  8
DEFPOINTS
  6
CONTINUOUS
 62
     0
 10
3261.88235854086
 20
1387.477948
 30
0.0
  0
ENDBLK
  5
7CD7
  8
0
  0
BLOCK
  8
0
  2
*D13
 70
     1
 10
0.0
 20
0.0
 30
0.0
  3
*D13
  1

  0
LINE
  5
7E75
  8
3
  6
CONTINUOUS
 62
     0
 10
3565.8823585408591
 20
1533.684266
 30
0.0
 11
3565.8823585408591
 21
1367.477948
 31
0.0
  0
LINE
  5
7E76
  8
3
  6
CONTINUOUS
 62
     0
 10
3301.88235854086
 20
1387.477948
 30
0.0
 11
3525.88235854086
 21
1387.477948
 31
0.0
  0
INSERT
  5
7E77
  8
3
  6
CONTINUOUS
 62
     0
  2
_OPEN
 10
3261.88235854086
 20
1387.477948
 30
0.0
 41
40.0
 42
40.0
 43
40.0
 50
180.0
  0
INSERT
  5
7E78
  8
3
  6
CONTINUOUS
 62
     0
  2
_OPEN
 10
3565.8823585408591
 20
1387.477948
 30
0.0
 41
40.0
 42
40.0
 43
40.0
  0
TEXT
  8
3
  40
60
  5
7EC3
  62
0
  72
0
  71
0
 10
3293.88
 20
1331.28
 30
0.000000
  1
304
  0
POINT
  5
7E7A
  8
DEFPOINTS
  6
CONTINUOUS
 62
     0
 10
3261.88235854086
 20
1402.422566
 30
0.0
  0
POINT
  5
7E7B
  8
DEFPOINTS
  6
CONTINUOUS
 62
     0
 10
3565.8823585408591
 20
1543.684266
 30
0.0
  0
POINT
  5
7E7C
  8
DEFPOINTS
  6
CONTINUOUS
 62
     0
 10
3565.8823585408591
 20
1387.477948
 30
0.0
  0
ENDBLK
  5
7CCC
  8
0
  0
BLOCK
  8
0
  2
*D14
 70
     1
 10
0.0
 20
0.0
 30
0.0
  3
*D14
  1

  0
LINE
  5
7E7D
  8
3
  6
CONTINUOUS
 62
     0
 10
719.2836655408596
 20
4019.8142659999999
 30
0.0
 11
719.2836655408596
 21
4163.6139880000001
 31
0.0
  0
LINE
  5
7E7E
  8
3
  6
CONTINUOUS
 62
     0
 10
1839.2836655408589
 20
4019.8142659999999
 30
0.0
 11
1839.2836655408589
 21
4163.6139880000001
 31
0.0
  0
LINE
  5
7E7F
  8
3
  6
CONTINUOUS
 62
     0
 10
759.28366554085949
 20
4143.6139880000001
 30
0.0
 11
1799.2836655408589
 21
4143.6139880000001
 31
0.0
  0
INSERT
  5
7E80
  8
3
  6
CONTINUOUS
 62
     0
  2
_OPEN
 10
719.2836655408596
 20
4143.6139880000001
 30
0.0
 41
40.0
 42
40.0
 43
40.0
 50
180.0
  0
INSERT
  5
7E81
  8
3
  6
CONTINUOUS
 62
     0
  2
_OPEN
 10
1839.2836655408589
 20
4143.6139880000001
 30
0.0
 41
40.0
 42
40.0
 43
40.0
  0
TEXT
  8
3
  40
60
  5
7EC4
  62
0
  72
0
  71
0
 10
1173.68
 20
4087.41
 30
0.000000
  1
1120
  0
POINT
  5
7E83
  8
DEFPOINTS
  6
CONTINUOUS
 62
     0
 10
719.2836655408596
 20
4009.8142659999999
 30
0.0
  0
POINT
  5
7E84
  8
DEFPOINTS
  6
CONTINUOUS
 62
     0
 10
1839.2836655408589
 20
4009.8142659999999
 30
0.0
  0
POINT
  5
7E85
  8
DEFPOINTS
  6
CONTINUOUS
 62
     0
 10
1839.2836655408589
 20
4143.6139880000001
 30
0.0
  0
ENDBLK
  5
7CC2
  8
0
  0
BLOCK
  8
0
  2
*D15
 70
     1
 10
0.0
 20
0.0
 30
0.0
  3
*D15
  1

  0
LINE
  5
7E86
  8
3
  6
CONTINUOUS
 62
     0
 10
1849.2836655408589
 20
4009.8142659999999
 30
0.0
 11
2129.88941754086
 21
4009.8142659999999
 31
0.0
  0
LINE
  5
7E87
  8
3
  6
CONTINUOUS
 62
     0
 10
1849.2836655408589
 20
3319.8142659999999
 30
0.0
 11
2129.88941754086
 21
3319.8142659999999
 31
0.0
  0
LINE
  5
7E88
  8
3
  6
CONTINUOUS
 62
     0
 10
2109.88941754086
 20
3969.8142659999999
 30
0.0
 11
2109.88941754086
 21
3359.8142659999999
 31
0.0
  0
INSERT
  5
7E89
  8
3
  6
CONTINUOUS
 62
     0
  2
_OPEN
 10
2109.88941754086
 20
4009.8142659999999
 30
0.0
 41
40.0
 42
40.0
 43
40.0
 50
90.0
  0
INSERT
  5
7E8A
  8
3
  6
CONTINUOUS
 62
     0
  2
_OPEN
 10
2109.88941754086
 20
3319.8142659999999
 30
0.0
 41
40.0
 42
40.0
 43
40.0
 50
270.0
  0
TEXT
  8
3
  40
60
  5
7EC5
  62
0
  72
0
  71
0
 10
1939.89
 20
3585.96
 30
0.000000
  1
690
  0
POINT
  5
7E8C
  8
DEFPOINTS
  6
CONTINUOUS
 62
     0
 10
1839.2836655408589
 20
4009.8142659999999
 30
0.0
  0
POINT
  5
7E8D
  8
DEFPOINTS
  6
CONTINUOUS
 62
     0
 10
1839.2836655408589
 20
3319.8142659999999
 30
0.0
  0
POINT
  5
7E8E
  8
DEFPOINTS
  6
CONTINUOUS
 62
     0
 10
2109.88941754086
 20
3319.8142659999999
 30
0.0
  0
ENDBLK
  5
7D2E
  8
0
  0
BLOCK
  8
0
  2
*D16
 70
     1
 10
0.0
 20
0.0
 30
0.0
  3
*D16
  1

  0
LINE
  5
7DA5
  8
0
  6
BYBLOCK
 62
     0
 10
1849.2836655408589
 20
1583.684266
 30
0.0
 11
2314.8711965408588
 21
1583.684266
 31
0.0
  0
LINE
  5
7DA6
  8
0
  6
BYBLOCK
 62
     0
 10
2294.8711965408588
 20
1710.684266
 30
0.0
 11
2294.8711965408588
 21
1750.684266
 31
0.0
  0
LINE
  5
7DA7
  8
0
  6
BYBLOCK
 62
     0
 10
2294.8711965408588
 20
1543.684266
 30
0.0
 11
2294.8711965408588
 21
1503.684266
 31
0.0
  0
TEXT
  5
7DA8
  8
3
 62
     0
 10
2408.9879741370419
 20
1577.3741416123471
 30
0.0
 40
60.0
  1
87
 50
90.0
  0
LINE
  5
7DA9
  8
0
  6
BYBLOCK
 62
     0
 10
2294.8711965408588
 20
1670.684266
 30
0.0
 11
2294.8711965408588
 21
1583.684266
 31
0.0
  0
INSERT
  5
7DAA
  8
0
  6
BYBLOCK
 62
     0
  2
_OPEN
 10
2294.8711965408588
 20
1670.684266
 30
0.0
 41
40.0
 42
40.0
 43
40.0
 50
270.0
  0
INSERT
  5
7DAB
  8
0
  6
BYBLOCK
 62
     0
  2
_DOT
 10
2294.8711965408588
 20
1583.684266
 30
0.0
 41
40.0
 42
40.0
 43
40.0
 50
90.0
  0
POINT
  5
7DAC
  8
DEFPOINTS
  6
BYBLOCK
 62
     0
 10
1839.2836655408589
 20
1670.684266
 30
0.0
  0
POINT
  5
7DAD
  8
DEFPOINTS
  6
BYBLOCK
 62
     0
 10
1839.2836655408589
 20
1583.684266
 30
0.0
  0
POINT
  5
7DAE
  8
DEFPOINTS
  6
BYBLOCK
 62
     0
 10
2294.8711965408588
 20
1583.684266
 30
0.0
  0
ENDBLK
  5
7DAF
  8
0
  0
BLOCK
  8
0
  2
*D17
 70
     1
 10
0.0
 20
0.0
 30
0.0
  3
*D17
  1

  0
LINE
  5
7E8F
  8
3
  6
CONTINUOUS
 62
     0
 10
1849.2836655408589
 20
1583.684266
 30
0.0
 11
2314.8711965408588
 21
1583.684266
 31
0.0
  0
LINE
  5
7E90
  8
3
  6
CONTINUOUS
 62
     0
 10
1849.2836655408589
 20
1543.684266
 30
0.0
 11
2314.8711965408588
 21
1543.684266
 31
0.0
  0
LINE
  5
7E91
  8
3
  6
CONTINUOUS
 62
     0
 10
2294.8711965408602
 20
1623.684266
 30
0.0
 11
2294.8711965408602
 21
1663.6842659999991
 31
0.0
  0
LINE
  5
7E92
  8
3
  6
CONTINUOUS
 62
     0
 10
2294.8711965408602
 20
1503.684266
 30
0.0
 11
2294.8711965408602
 21
1326.5414088571431
 31
0.0
  0
LINE
  5
7E93
  8
3
  6
CONTINUOUS
 62
     0
 10
2294.8711965408602
 20
1583.684266
 30
0.0
 11
2294.8711965408602
 21
1543.684266
 31
0.0
  0
INSERT
  5
7E94
  8
3
  6
CONTINUOUS
 62
     0
  2
_DOT
 10
2294.8711965408602
 20
1583.684266
 30
0.0
 41
40.0
 42
40.0
 43
40.0
 50
270.0
  0
INSERT
  5
7E95
  8
3
  6
CONTINUOUS
 62
     0
  2
_OPEN
 10
2294.8711965408602
 20
1543.684266
 30
0.0
 41
40.0
 42
40.0
 43
40.0
 50
90.0
  0
TEXT
  8
3
  40
60
  5
7EC6
  62
0
  72
0
  71
0
 10
2124.87
 20
1288.91
 30
0.000000
  1
40
  0
POINT
  5
7E97
  8
DEFPOINTS
  6
CONTINUOUS
 62
     0
 10
1839.2836655408589
 20
1583.684266
 30
0.0
  0
POINT
  5
7E98
  8
DEFPOINTS
  6
CONTINUOUS
 62
     0
 10
1839.2836655408589
 20
1543.684266
 30
0.0
  0
POINT
  5
7E99
  8
DEFPOINTS
  6
CONTINUOUS
 62
     0
 10
2294.8711965408602
 20
1543.684266
 30
0.0
  0
ENDBLK
  5
7DC8
  8
0
  0
BLOCK
  8
0
  2
*D18
 70
     1
 10
0.0
 20
0.0
 30
0.0
  3
*D18
  1

  0
LINE
  5
7E9A
  8
3
  6
CONTINUOUS
 62
     0
 10
1894.2836655408589
 20
2315.6842660000002
 30
0.0
 11
1894.2836655408589
 21
2758.6334449999999
 31
0.0
  0
LINE
  5
7E9B
  8
3
  6
CONTINUOUS
 62
     0
 10
1579.2836655408589
 20
2738.6334449999999
 30
0.0
 11
1854.2836655408589
 21
2738.6334449999999
 31
0.0
  0
INSERT
  5
7E9C
  8
3
  6
CONTINUOUS
 62
     0
  2
_OPEN
 10
1539.2836655408589
 20
2738.6334449999999
 30
0.0
 41
40.0
 42
40.0
 43
40.0
 50
180.0
  0
INSERT
  5
7E9D
  8
3
  6
CONTINUOUS
 62
     0
  2
_OPEN
 10
1894.2836655408589
 20
2738.6334449999999
 30
0.0
 41
40.0
 42
40.0
 43
40.0
  0
TEXT
  8
3
  40
60
  5
7EC7
  62
0
  72
0
  71
0
 10
1596.78
 20
2682.43
 30
0.000000
  1
355
  0
POINT
  5
7E9F
  8
DEFPOINTS
  6
CONTINUOUS
 62
     0
 10
1539.2836655408589
 20
2720.8084589999999
 30
0.0
  0
POINT
  5
7EA0
  8
DEFPOINTS
  6
CONTINUOUS
 62
     0
 10
1894.2836655408589
 20
2305.6842660000002
 30
0.0
  0
POINT
  5
7EA1
  8
DEFPOINTS
  6
CONTINUOUS
 62
     0
 10
1894.2836655408589
 20
2738.6334449999999
 30
0.0
  0
ENDBLK
  5
7CB6
  8
0
  0
BLOCK
  8
0
  2
*D19
 70
     1
 10
0.0
 20
0.0
 30
0.0
  3
*D19
  1

  0
LINE
  5
7EA2
  8
3
  6
CONTINUOUS
 62
     0
 10
3081.8823585408591
 20
2634.6642660000002
 30
0.0
 11
3081.8823585408591
 21
2717.5984840000001
 31
0.0
  0
LINE
  5
7EA3
  8
3
  6
CONTINUOUS
 62
     0
 10
3441.88235854086
 20
2634.6642660000002
 30
0.0
 11
3441.88235854086
 21
2717.5984840000001
 31
0.0
  0
LINE
  5
7EA4
  8
3
  6
CONTINUOUS
 62
     0
 10
3121.8823585408591
 20
2697.5984840000001
 30
0.0
 11
3401.8823585408591
 21
2697.5984840000001
 31
0.0
  0
INSERT
  5
7EA5
  8
3
  6
CONTINUOUS
 62
     0
  2
_OPEN
 10
3081.8823585408591
 20
2697.5984840000001
 30
0.0
 41
40.0
 42
40.0
 43
40.0
 50
180.0
  0
INSERT
  5
7EA6
  8
3
  6
CONTINUOUS
 62
     0
  2
_OPEN
 10
3441.88235854086
 20
2697.5984840000001
 30
0.0
 41
40.0
 42
40.0
 43
40.0
  0
TEXT
  8
3
  40
60
  5
7EC8
  62
0
  72
0
  71
0
 10
3142.91
 20
2641.40
 30
0.000000
  1
360
  0
POINT
  5
7EA8
  8
DEFPOINTS
  6
CONTINUOUS
 62
     0
 10
3081.8823585408591
 20
2624.6642660000002
 30
0.0
  0
POINT
  5
7EA9
  8
DEFPOINTS
  6
CONTINUOUS
 62
     0
 10
3441.88235854086
 20
2624.6642660000002
 30
0.0
  0
POINT
  5
7EAA
  8
DEFPOINTS
  6
CONTINUOUS
 62
     0
 10
3441.88235854086
 20
2697.5984840000001
 30
0.0
  0
ENDBLK
  5
7D12
  8
0
  0
BLOCK
  8
0
  2
_DOT
 70
     0
 10
0.0
 20
0.0
 30
0.0
  3
_DOT
  1

  0
LINE
  5
7DC9
  8
0
  6
BYBLOCK
 62
     0
 10
0.0
 20
0.0
 30
0.0
 11
-1.0
 21
-0.0000000000000284
 31
0.0
  0
POLYLINE
  5
7DCA
  8
0
  6
BYBLOCK
 62
     0
 66
     1
 10
0.0
 20
0.0
 30
0.0
 70
     1
 40
0.1666666666666666
 41
0.1666666666666666
  0
VERTEX
  5
7EAB
  8
0
  6
BYBLOCK
 62
     0
 10
-0.0833333333333286
 20
-0.0000000000000284
 30
0.0
 42
1.0
  0
VERTEX
  5
7EAC
  8
0
  6
BYBLOCK
 62
     0
 10
0.0833333333333286
 20
-0.0000000000000284
 30
0.0
 42
1.0
  0
SEQEND
  5
7EAD
  8
0
  6
BYBLOCK
 62
     0
  0
ENDBLK
  5
7DA3
  8
0
  0
BLOCK
  8
0
  2
*D21
 70
     1
 10
0.0
 20
0.0
 30
0.0
  3
*D21
  1

  0
LINE
  5
7EAE
  8
3
 62
     0
 10
1894.2836655408589
 20
2315.6842660000002
 30
0.0
 11
1894.2836655408589
 21
2890.4632149798122
 31
0.0
  0
LINE
  5
7EAF
  8
3
 62
     0
 10
719.2836655408596
 20
1760.684266
 30
0.0
 11
719.28366554085972
 21
2890.4632149798122
 31
0.0
  0
LINE
  5
7EB0
  8
3
 62
     0
 10
1854.2836655408589
 20
2870.4632149798122
 30
0.0
 11
759.2836655408596
 21
2870.4632149798122
 31
0.0
  0
INSERT
  5
7EB1
  8
3
 62
     0
  2
_OPEN
 10
1894.2836655408589
 20
2870.4632149798122
 30
0.0
 41
40.0
 42
40.0
 43
40.0
  0
INSERT
  5
7EB2
  8
3
 62
     0
  2
_OPEN
 10
719.28366554085972
 20
2870.4632149798122
 30
0.0
 41
40.0
 42
40.0
 43
40.0
 50
180.0
  0
TEXT
  8
3
  40
60
  5
7EC9
  62
0
  72
0
  71
0
 10
1181.27
 20
2814.26
 30
0.000000
  1
1175
  0
POINT
  5
7EB4
  8
DEFPOINTS
 62
     0
 10
1894.2836655408589
 20
2305.6842660000002
 30
0.0
  0
POINT
  5
7EB5
  8
DEFPOINTS
 62
     0
 10
719.2836655408596
 20
1750.684266
 30
0.0
  0
POINT
  5
7EB6
  8
DEFPOINTS
 62
     0
 10
719.28366554085972
 20
2870.4632149798122
 30
0.0
  0
ENDBLK
  5
7DD9
  8
0
  0
ENDSEC
  0
SECTION
  2
ENTITIES
  0
LINE
  5
7A81
  8
1
  6
CONTINUOUS
 10
2875.8823585408591
 20
1543.684266
 30
0.0
 11
3565.8823585408591
 21
1543.684266
 31
0.0
  0
LINE
  5
7A82
  8
1
  6
CONTINUOUS
 10
3441.88235854086
 20
2315.6842660000002
 30
0.0
 11
3081.8823585408591
 21
2315.6842660000002
 31
0.0
  0
LINE
  5
7A83
  8
1
  6
CONTINUOUS
 10
3081.8823585408591
 20
1781.684266
 30
0.0
 11
3441.88235854086
 21
1781.684266
 31
0.0
  0
LINE
  5
7A84
  8
1
  6
CONTINUOUS
 10
3037.8823585408591
 20
1670.684266
 30
0.0
 11
3485.88235854086
 21
1670.684266
 31
0.0
  0
LINE
  5
7A85
  8
1
  6
CONTINUOUS
 10
3037.8823585408591
 20
1750.684266
 30
0.0
 11
3485.88235854086
 21
1750.684266
 31
0.0
  0
LINE
  5
7A86
  8
1
  6
CONTINUOUS
 10
3441.88235854086
 20
2624.6642660000002
 30
0.0
 11
3081.8823585408591
 21
2624.6642660000002
 31
0.0
  0
LINE
  5
7A87
  8
1
  6
CONTINUOUS
 10
3081.8823585408591
 20
2315.6842660000002
 30
0.0
 11
3441.88235854086
 21
1781.684266
 31
0.0
  0
LINE
  5
7A88
  8
1
  6
CONTINUOUS
 10
3441.88235854086
 20
2315.6842660000002
 30
0.0
 11
3081.8823585408591
 21
1781.684266
 31
0.0
  0
LINE
  5
7A89
  8
1
  6
CONTINUOUS
 10
2875.8823585408591
 20
1583.684266
 30
0.0
 11
3565.8823585408591
 21
1583.684266
 31
0.0
  0
LINE
  5
7A8A
  8
1
  6
CONTINUOUS
 10
3037.8823585408591
 20
1648.684266
 30
0.0
 11
3485.88235854086
 21
1648.684266
 31
0.0
  0
LINE
  5
7A8B
  8
1
  6
CONTINUOUS
 10
719.2836655408596
 20
1670.684266
 30
0.0
 11
1839.2836655408589
 21
1670.684266
 31
0.0
  0
LINE
  5
7A8C
  8
1
  6
CONTINUOUS
 10
719.2836655408596
 20
1750.684266
 30
0.0
 11
1849.2836655408589
 21
1750.684266
 31
0.0
  0
LINE
  5
7A8D
  8
1
  6
CONTINUOUS
 10
1229.2836655408589
 20
2625.6842660000002
 30
0.0
 11
1849.2836655408589
 21
2625.6842660000002
 31
0.0
  0
CIRCLE
  5
7A8E
  8
1
  6
CONTINUOUS
 10
1539.2836655408589
 20
2270.6842660000002
 30
0.0
 40
275.0
  0
LINE
  5
7A8F
  8
1
  6
CONTINUOUS
 10
719.2836655408596
 20
1583.684266
 30
0.0
 11
1839.2836655408589
 21
1583.684266
 31
0.0
  0
LINE
  5
7A90
  8
1
  6
CONTINUOUS
 10
719.2836655408596
 20
1648.684266
 30
0.0
 11
1839.2836655408589
 21
1648.684266
 31
0.0
  0
LINE
  5
7A91
  8
2
  6
CENTER
 10
867.25527354085943
 20
2270.6842660000002
 30
0.0
 11
2002.8003075408601
 21
2270.6842660000002
 31
0.0
  0
CIRCLE
  5
7A92
  8
1
  6
CONTINUOUS
 10
1539.2836655408589
 20
2270.6842660000002
 30
0.0
 40
120.0
  0
LINE
  5
7A93
  8
1
  6
CONTINUOUS
 10
1588.8436655408591
 20
2161.3942659999989
 30
0.0
 11
964.06366554085946
 21
1878.0342659999999
 31
0.0
  0
ARC
  5
7A94
  8
1
  6
CONTINUOUS
 10
1555.0388541468751
 20
2225.219829499204
 30
0.0
 40
415.84575538233662
 50
173.01027804922219
 51
267.77466416649833
  0
ARC
  5
7A95
  8
1
  6
CONTINUOUS
 10
1508.1188569473959
 20
2259.2956408706191
 30
0.0
 40
366.20859549172928
 50
80.525683360531218
 51
177.41238413540111
  0
LINE
  5
7A96
  8
1
  6
CONTINUOUS
 10
1524.7836655408589
 20
2495.6842660000002
 30
0.0
 11
764.7836655408596
 21
1985.684266
 31
0.0
  0
CIRCLE
  5
7A97
  8
1
  6
CONTINUOUS
 10
1539.2836655408589
 20
2270.6842660000002
 30
0.0
 40
250.0
  0
LINE
  5
7A98
  8
1
  6
CONTINUOUS
 10
809.2836655408596
 20
1800.684266
 30
0.0
 11
1069.2836655408589
 21
1800.684266
 31
0.0
  0
ARC
  5
7A99
  8
1
  6
CONTINUOUS
 10
939.28366554085949
 20
1932.684266
 30
0.0
 40
122.0
 50
324.60000000000002
 51
215.39999999999989
  0
CIRCLE
  5
7A9A
  8
1
  6
CONTINUOUS
 10
939.28366554085949
 20
1932.684266
 30
0.0
 40
60.0
  0
LINE
  5
7A9B
  8
2
  6
CENTER
 10
879.2836655408596
 20
1932.684266
 30
0.0
 11
999.28366554085949
 21
1932.684266
 31
0.0
  0
LINE
  5
7A9C
  8
1
  6
CONTINUOUS
 10
905.39366554085962
 20
1982.194266
 30
0.0
 11
1471.5036655408589
 21
2369.7042660000002
 31
0.0
  0
LINE
  5
7A9D
  8
1
  6
CONTINUOUS
 10
764.7836655408596
 20
1985.684266
 30
0.0
 11
764.7836655408596
 21
1750.684266
 31
0.0
  0
LINE
  5
7A9E
  8
1
  6
CONTINUOUS
 10
759.28366554085949
 20
1583.684266
 30
0.0
 11
759.28366554085949
 21
1543.684266
 31
0.0
  0
LINE
  5
7A9F
  8
1
  6
CONTINUOUS
 10
719.2836655408596
 20
1543.684266
 30
0.0
 11
759.28366554085949
 21
1543.684266
 31
0.0
  0
LINE
  5
7AA0
  8
1
  6
CONTINUOUS
 10
719.2836655408596
 20
1750.684266
 30
0.0
 11
719.2836655408596
 21
1670.684266
 31
0.0
  0
LINE
  5
7AA1
  8
1
  6
CONTINUOUS
 10
719.2836655408596
 20
1648.684266
 30
0.0
 11
719.2836655408596
 21
1543.684266
 31
0.0
  0
LINE
  5
7AA2
  8
1
  6
CONTINUOUS
 10
809.2836655408596
 20
1800.684266
 30
0.0
 11
839.84366554085955
 21
1862.004265999999
 31
0.0
  0
LINE
  5
7AA3
  8
1
  6
CONTINUOUS
 10
809.2836655408596
 20
1750.684266
 30
0.0
 11
809.2836655408596
 21
1800.684266
 31
0.0
  0
LINE
  5
7AA4
  8
1
  6
CONTINUOUS
 10
809.2836655408596
 20
1800.684266
 30
0.0
 11
859.2836655408596
 21
1800.684266
 31
0.0
  0
LINE
  5
7AA5
  8
1
  6
CONTINUOUS
 10
1229.2836655408589
 20
1750.684266
 30
0.0
 11
1229.2836655408589
 21
2625.6842660000002
 31
0.0
  0
LINE
  5
7AA6
  8
2
  6
CENTER
 10
939.28366554085949
 20
1872.684266
 30
0.0
 11
939.28366554085949
 21
1992.684266
 31
0.0
  0
LINE
  5
7AA7
  8
1
  6
CONTINUOUS
 10
1069.2836655408589
 20
1800.684266
 30
0.0
 11
1019.283665540859
 21
1800.684266
 31
0.0
  0
LINE
  5
7AA8
  8
1
  6
CONTINUOUS
 10
1069.2836655408589
 20
1750.684266
 30
0.0
 11
1069.2836655408589
 21
1800.684266
 31
0.0
  0
LINE
  5
7AA9
  8
1
  6
CONTINUOUS
 10
1069.2836655408589
 20
1800.684266
 30
0.0
 11
1038.723665540859
 21
1862.004265999999
 31
0.0
  0
LINE
  5
7AAB
  8
1
  6
CONTINUOUS
 10
1894.2836655408589
 20
1791.684266
 30
0.0
 11
1894.2836655408589
 21
2305.6842660000002
 31
0.0
  0
LINE
  5
7AAC
  8
1
  6
CONTINUOUS
 10
1869.2836655408589
 20
2288.6842660000002
 30
0.0
 11
1869.2836655408589
 21
1808.7542659999999
 31
0.0
  0
LINE
  5
7AAD
  8
1
  6
CONTINUOUS
 10
1849.2836655408589
 20
1750.684266
 30
0.0
 11
1849.2836655408589
 21
2625.6842660000002
 31
0.0
  0
LINE
  5
7AAE
  8
1
  6
CONTINUOUS
 10
1764.7836655408589
 20
1750.684266
 30
0.0
 11
1764.7836655408589
 21
2420.6842660000002
 31
0.0
  0
LINE
  5
7AAF
  8
1
  6
CONTINUOUS
 10
1839.2836655408589
 20
1543.684266
 30
0.0
 11
1799.2836655408589
 21
1543.684266
 31
0.0
  0
LINE
  5
7AB0
  8
1
  6
CONTINUOUS
 10
1894.2836655408589
 20
1808.684266
 30
0.0
 11
1538.903665540859
 21
1809.684266
 31
0.0
  0
LINE
  5
7AB1
  8
1
  6
CONTINUOUS
 10
1799.2836655408589
 20
1583.684266
 30
0.0
 11
1799.2836655408589
 21
1543.684266
 31
0.0
  0
LINE
  5
7AB2
  8
1
  6
CONTINUOUS
 10
1839.2836655408589
 20
1750.684266
 30
0.0
 11
1839.2836655408589
 21
1670.684266
 31
0.0
  0
LINE
  5
7AB3
  8
1
  6
CONTINUOUS
 10
1839.2836655408589
 20
1648.684266
 30
0.0
 11
1839.2836655408589
 21
1543.684266
 31
0.0
  0
ARC
  5
7AB4
  8
1
  6
CONTINUOUS
 10
1508.8225225408589
 20
2281.813275
 30
0.0
 40
343.89392400000003
 50
1.140279
 51
80.023612000000014
  0
LINE
  5
7AB5
  8
2
  6
CENTER
 10
1539.2836655408589
 20
1438.215615999999
 30
0.0
 11
1539.2836655408589
 21
2720.8084589999999
 31
0.0
  0
LINE
  5
7AB6
  8
1
  6
CONTINUOUS
 10
1764.7836655408589
 20
2420.6842660000002
 30
0.0
 11
1524.7836655408589
 21
2495.6842660000002
 31
0.0
  0
LINE
  5
7AB7
  8
1
  6
CONTINUOUS
 10
1852.653665540859
 20
2288.6842660000002
 30
0.0
 11
1894.2836655408589
 21
2288.6842660000002
 31
0.0
  0
LINE
  5
7AB8
  8
1
  6
CONTINUOUS
 10
3081.8823585408591
 20
2624.6642660000002
 30
0.0
 11
3081.8823585408591
 21
1781.684266
 31
0.0
  0
LINE
  5
7AB9
  8
1
  6
CONTINUOUS
 10
2981.8823585408591
 20
1882.684266
 30
0.0
 11
2981.8823585408591
 21
1982.684266
 31
0.0
  0
LINE
  5
7ABA
  8
1
  6
CONTINUOUS
 10
2921.8823585408591
 20
1982.684266
 30
0.0
 11
2921.8823585408591
 21
1882.684266
 31
0.0
  0
LINE
  5
7ABB
  8
1
  6
CONTINUOUS
 10
2891.8823585408591
 20
1750.684266
 30
0.0
 11
2891.8823585408591
 21
2495.6842660000002
 31
0.0
  0
LINE
  5
7ABC
  8
1
  6
CONTINUOUS
 10
3011.8823585408591
 20
2495.6842660000002
 30
0.0
 11
3011.8823585408591
 21
1750.684266
 31
0.0
  0
LINE
  5
7ABD
  8
1
  6
CONTINUOUS
 10
2921.8823585408591
 20
1882.684266
 30
0.0
 11
2981.8823585408591
 21
1882.684266
 31
0.0
  0
LINE
  5
7ABE
  8
1
  6
CONTINUOUS
 10
3011.8823585408591
 20
1750.684266
 30
0.0
 11
2891.8823585408591
 21
1750.684266
 31
0.0
  0
LINE
  5
7AC2
  8
1
  6
CONTINUOUS
 10
2875.8823585408591
 20
1583.684266
 30
0.0
 11
2875.8823585408591
 21
1543.684266
 31
0.0
  0
LINE
  5
7AC3
  8
1
  6
CONTINUOUS
 10
3037.8823585408591
 20
1750.684266
 30
0.0
 11
3037.8823585408591
 21
1670.684266
 31
0.0
  0
LINE
  5
7AC4
  8
1
  6
CONTINUOUS
 10
3081.8823585408591
 20
1781.684266
 30
0.0
 11
3081.8823585408591
 21
1750.684266
 31
0.0
  0
LINE
  5
7AC5
  8
1
  6
CONTINUOUS
 10
3037.8823585408591
 20
1648.684266
 30
0.0
 11
3037.8823585408591
 21
1583.684266
 31
0.0
  0
LINE
  5
7AC6
  8
1
  6
CONTINUOUS
 10
2981.8823585408591
 20
1913.6842659999991
 30
0.0
 11
3081.8823585408591
 21
1913.6842659999991
 31
0.0
  0
LINE
  5
7AC7
  8
1
  6
CONTINUOUS
 10
2981.8823585408591
 20
2150.6842660000002
 30
0.0
 11
2921.8823585408591
 21
2150.6842660000002
 31
0.0
  0
LINE
  5
7AC8
  8
1
  6
CONTINUOUS
 10
2981.8823585408591
 20
2390.6842660000002
 30
0.0
 11
2921.8823585408591
 21
2390.6842660000002
 31
0.0
  0
LINE
  5
7AC9
  8
1
  6
CONTINUOUS
 10
2981.8823585408591
 20
1982.684266
 30
0.0
 11
2921.8823585408591
 21
1982.684266
 31
0.0
  0
LINE
  5
7ACA
  8
1
  6
CONTINUOUS
 10
2891.8823585408591
 20
2495.6842660000002
 30
0.0
 11
3011.8823585408591
 21
2495.6842660000002
 31
0.0
  0
LINE
  5
7ACB
  8
1
  6
CONTINUOUS
 10
2921.8823585408591
 20
2390.6842660000002
 30
0.0
 11
2921.8823585408591
 21
2150.6842660000002
 31
0.0
  0
LINE
  5
7ACC
  8
1
  6
CONTINUOUS
 10
2981.8823585408591
 20
2150.6842660000002
 30
0.0
 11
2981.8823585408591
 21
2390.6842660000002
 31
0.0
  0
LINE
  5
7ACD
  8
1
  6
CONTINUOUS
 10
2981.8823585408591
 20
2251.6842660000002
 30
0.0
 11
3081.8823585408591
 21
2251.6842660000002
 31
0.0
  0
LINE
  5
7ACE
  8
1
  6
CONTINUOUS
 10
2981.8823585408591
 20
2289.6842660000002
 30
0.0
 11
3081.8823585408591
 21
2289.6842660000002
 31
0.0
  0
LINE
  5
7ACF
  8
1
  6
CONTINUOUS
 10
2981.8823585408591
 20
1951.684266
 30
0.0
 11
3081.8823585408591
 21
1951.684266
 31
0.0
  0
LINE
  5
7AD0
  8
1
  6
CONTINUOUS
 10
1419.2836655408589
 20
3365.814265999999
 30
0.0
 11
1659.2836655408589
 21
3365.814265999999
 31
0.0
  0
LINE
  5
7AD1
  8
1
  6
CONTINUOUS
 10
719.2836655408596
 20
3929.814265999999
 30
0.0
 11
1839.2836655408589
 21
3929.814265999999
 31
0.0
  0
LINE
  5
7AD2
  8
1
  6
CONTINUOUS
 10
1659.2836655408589
 20
3425.814265999999
 30
0.0
 11
1419.2836655408589
 21
3425.814265999999
 31
0.0
  0
LINE
  5
7AD3
  8
1
  6
CONTINUOUS
 10
1131.0936655408591
 20
3887.8142659999999
 30
0.0
 11
1894.2836655408589
 21
3887.8142659999999
 31
0.0
  0
LINE
  5
7AD4
  8
1
  6
CONTINUOUS
 10
1131.0936655408591
 20
3523.8142659999999
 30
0.0
 11
1894.2836655408589
 21
3523.8142659999999
 31
0.0
  0
LINE
  5
7AD5
  8
1
  6
CONTINUOUS
 10
764.7836655408596
 20
3335.814265999999
 30
0.0
 11
1764.7836655408589
 21
3335.814265999999
 31
0.0
  0
LINE
  5
7AD6
  8
1
  6
CONTINUOUS
 10
1764.7836655408589
 20
3455.8142659999999
 30
0.0
 11
764.7836655408596
 21
3455.8142659999999
 31
0.0
  0
LINE
  5
7AD7
  8
1
  6
CONTINUOUS
 10
719.2836655408596
 20
3481.8142659999999
 30
0.0
 11
920.2836655408596
 21
3481.8142659999999
 31
0.0
  0
LINE
  5
7AD8
  8
1
  6
CONTINUOUS
 10
817.2836655408596
 20
3506.0542659999992
 30
0.0
 11
1061.2836655408589
 21
3506.0542659999992
 31
0.0
  0
LINE
  5
7AD9
  8
1
  6
CONTINUOUS
 10
817.2836655408596
 20
3856.0542659999992
 30
0.0
 11
1061.2836655408589
 21
3856.0542659999992
 31
0.0
  0
LINE
  5
7ADA
  8
1
  6
CONTINUOUS
 10
989.28366554085949
 20
3425.814265999999
 30
0.0
 11
889.28366554085949
 21
3425.814265999999
 31
0.0
  0
LINE
  5
7ADB
  8
1
  6
CONTINUOUS
 10
889.28366554085949
 20
3365.814265999999
 30
0.0
 11
989.28366554085949
 21
3365.814265999999
 31
0.0
  0
LINE
  5
7ADC
  8
1
  6
CONTINUOUS
 10
719.2836655408596
 20
4009.8142659999999
 30
0.0
 11
719.2836655408596
 21
3319.8142659999999
 31
0.0
  0
LINE
  5
7ADD
  8
1
  6
CONTINUOUS
 10
817.2836655408596
 20
3506.0542659999992
 30
0.0
 11
817.2836655408596
 21
3856.0542659999992
 31
0.0
  0
LINE
  5
7ADE
  8
1
  6
CONTINUOUS
 10
759.28366554085949
 20
3319.8142659999999
 30
0.0
 11
719.2836655408596
 21
3319.8142659999999
 31
0.0
  0
LINE
  5
7ADF
  8
1
  6
CONTINUOUS
 10
759.28366554085949
 20
3319.8142659999999
 30
0.0
 11
759.28366554085949
 21
3481.8142659999999
 31
0.0
  0
LINE
  5
7AE0
  8
1
  6
CONTINUOUS
 10
764.7836655408596
 20
3455.8142659999999
 30
0.0
 11
764.7836655408596
 21
3335.814265999999
 31
0.0
  0
LINE
  5
7AE1
  8
1
  6
CONTINUOUS
 10
889.28366554085949
 20
3425.814265999999
 30
0.0
 11
889.28366554085949
 21
3365.814265999999
 31
0.0
  0
LINE
  5
7AE2
  8
1
  6
CONTINUOUS
 10
759.28366554085949
 20
4009.8142659999999
 30
0.0
 11
719.2836655408596
 21
4009.8142659999999
 31
0.0
  0
LINE
  5
7AE3
  8
1
  6
CONTINUOUS
 10
759.28366554085949
 20
4009.8142659999999
 30
0.0
 11
759.28366554085949
 21
3929.814265999999
 31
0.0
  0
LINE
  5
7AE4
  8
1
  6
CONTINUOUS
 10
1131.0936655408591
 20
3523.8142659999999
 30
0.0
 11
1131.0936655408591
 21
3887.8142659999999
 31
0.0
  0
LINE
  5
7AE5
  8
1
  6
CONTINUOUS
 10
1061.2836655408589
 20
3506.0542659999992
 30
0.0
 11
1061.2836655408589
 21
3856.0542659999992
 31
0.0
  0
LINE
  5
7AE6
  8
1
  6
CONTINUOUS
 10
958.28366554085972
 20
3481.8142659999999
 30
0.0
 11
1520.2836655408589
 21
3481.8142659999999
 31
0.0
  0
LINE
  5
7AE7
  8
1
  6
CONTINUOUS
 10
920.2836655408596
 20
3425.814265999999
 30
0.0
 11
920.2836655408596
 21
3506.0542659999992
 31
0.0
  0
LINE
  5
7AE8
  8
1
  6
CONTINUOUS
 10
958.28366554085972
 20
3425.814265999999
 30
0.0
 11
958.28366554085972
 21
3506.0542659999992
 31
0.0
  0
LINE
  5
7AE9
  8
1
  6
CONTINUOUS
 10
989.28366554085949
 20
3365.814265999999
 30
0.0
 11
989.28366554085949
 21
3425.814265999999
 31
0.0
  0
LINE
  5
7AEA
  8
1
  6
CONTINUOUS
 10
1419.2836655408589
 20
3365.814265999999
 30
0.0
 11
1419.2836655408589
 21
3425.814265999999
 31
0.0
  0
LINE
  5
7AEB
  8
1
  6
CONTINUOUS
 10
1520.2836655408589
 20
3425.814265999999
 30
0.0
 11
1520.2836655408589
 21
3524.814265999999
 31
0.0
  0
LINE
  5
7AEC
  8
1
  6
CONTINUOUS
 10
1869.2836655408589
 20
3524.814265999999
 30
0.0
 11
1869.2836655408589
 21
3886.8142659999999
 31
0.0
  0
LINE
  5
7AED
  8
1
  6
CONTINUOUS
 10
1894.2836655408589
 20
3498.8142659999999
 30
0.0
 11
1894.2836655408589
 21
3912.8142659999999
 31
0.0
  0
LINE
  5
7AEE
  8
1
  6
CONTINUOUS
 10
1799.2836655408589
 20
3319.8142659999999
 30
0.0
 11
1839.2836655408589
 21
3319.8142659999999
 31
0.0
  0
LINE
  5
7AEF
  8
1
  6
CONTINUOUS
 10
1558.2836655408589
 20
3481.8142659999999
 30
0.0
 11
1839.2836655408589
 21
3481.8142659999999
 31
0.0
  0
LINE
  5
7AF0
  8
1
  6
CONTINUOUS
 10
1558.2836655408589
 20
3425.814265999999
 30
0.0
 11
1558.2836655408589
 21
3524.814265999999
 31
0.0
  0
LINE
  5
7AF1
  8
1
  6
CONTINUOUS
 10
1659.2836655408589
 20
3365.814265999999
 30
0.0
 11
1659.2836655408589
 21
3425.814265999999
 31
0.0
  0
LINE
  5
7AF2
  8
1
  6
CONTINUOUS
 10
1799.2836655408589
 20
3319.8142659999999
 30
0.0
 11
1799.2836655408589
 21
3481.8142659999999
 31
0.0
  0
LINE
  5
7AF3
  8
1
  6
CONTINUOUS
 10
1764.7836655408589
 20
3335.814265999999
 30
0.0
 11
1764.7836655408589
 21
3455.8142659999999
 31
0.0
  0
LINE
  5
7AF4
  8
1
  6
CONTINUOUS
 10
1839.2836655408589
 20
3319.8142659999999
 30
0.0
 11
1839.2836655408589
 21
3523.8142659999999
 31
0.0
  0
LINE
  5
7AF5
  8
1
  6
CONTINUOUS
 10
1799.2836655408589
 20
4009.8142659999999
 30
0.0
 11
1839.2836655408589
 21
4009.8142659999999
 31
0.0
  0
LINE
  5
7AF6
  8
1
  6
CONTINUOUS
 10
1799.2836655408589
 20
4009.8142659999999
 30
0.0
 11
1799.2836655408589
 21
3929.814265999999
 31
0.0
  0
LINE
  5
7AF7
  8
1
  6
CONTINUOUS
 10
1839.2836655408589
 20
4009.8142659999999
 30
0.0
 11
1839.2836655408589
 21
3887.8142659999999
 31
0.0
  0
LINE
  5
7AF8
  8
1
  6
CONTINUOUS
 10
3441.88235854086
 20
2624.6642660000002
 30
0.0
 11
3441.88235854086
 21
1781.684266
 31
0.0
  0
LINE
  5
7AF9
  8
1
  6
CONTINUOUS
 10
3565.8823585408591
 20
1583.684266
 30
0.0
 11
3565.8823585408591
 21
1543.684266
 31
0.0
  0
LINE
  5
7AFA
  8
1
  6
CONTINUOUS
 10
3485.88235854086
 20
1750.684266
 30
0.0
 11
3485.88235854086
 21
1670.684266
 31
0.0
  0
LINE
  5
7AFB
  8
1
  6
CONTINUOUS
 10
3441.88235854086
 20
1781.684266
 30
0.0
 11
3441.88235854086
 21
1750.684266
 31
0.0
  0
LINE
  5
7AFC
  8
1
  6
CONTINUOUS
 10
3485.88235854086
 20
1648.684266
 30
0.0
 11
3485.88235854086
 21
1583.684266
 31
0.0
  0
LINE
  5
7AFE
  8
2
  6
CENTER
 10
3261.88235854086
 20
2659.911955
 30
0.0
 11
3261.88235854086
 21
1402.422566
 31
0.0
  0
LINE
  5
7AFF
  8
2
  6
CENTER
 10
656.09248654085968
 20
3705.8142659999999
 30
0.0
 11
2002.8003075408601
 21
3705.8142659999999
 31
0.0
  0
LINE
  5
7B00
  8
2
  6
CENTER
 10
1539.2836655408589
 20
3233.8456000000001
 30
0.0
 11
1539.2836655408589
 21
4016.2272359999988
 31
0.0
  0
LINE
  5
7B01
  8
2
  6
CENTER
 10
2814.9942605408601
 20
2270.6842660000002
 30
0.0
 11
3471.984682540859
 21
2270.6842660000002
 31
0.0
  0
LINE
  5
7B02
  8
4
  6
CONTINUOUS
 10
3700.0
 20
1000.0
 30
0.0
 11
3700.0
 21
600.0
 31
0.0
  0
LINE
  5
7B03
  8
4
  6
CONTINUOUS
 10
2300.0
 20
1000.0
 30
0.0
 11
2300.0
 21
600.0
 31
0.0
  0
LINE
  5
7B04
  8
4
  6
CONTINUOUS
 10
1300.0
 20
1000.0
 30
0.0
 11
1300.0
 21
600.0
 31
0.0
  0
LINE
  5
7B07
  8
4
  6
CONTINUOUS
 10
1300.0
 20
600.0
 30
0.0
 11
3700.0
 21
600.0
 31
0.0
  0
LINE
  5
7B08
  8
4
  6
CONTINUOUS
 10
1300.0
 20
800.0
 30
0.0
 11
3700.0
 21
800.0
 31
0.0
  0
TEXT
  5
7B09
  8
4
  6
CONTINUOUS
 10
1377.004162
 20
863.086052
 30
0.0
 40
100.0
  1
機器名称
  0
TEXT
  5
7B0A
  8
4
  6
CONTINUOUS
 10
1372.516212
 20
643.29031299999986
 30
0.0
 40
100.0
  1
機器型番
  0
TEXT
  5
7B0B
  8
4
  6
CONTINUOUS
 10
2355.3574910000002
 20
845.14353800000015
 30
0.0
 40
100.0
  1
ミツヤ多翼送風機
  0
TEXT
  5
7B0C
  8
4
  6
CONTINUOUS
 10
2373.3089909999999
 20
634.31916899999999
 30
0.0
 40
100.0
  1
MF#3-4
  0
TEXT
  5
7B0E
  8
4
  6
CONTINUOUS
 10
1418.3951549999999
 20
4766.8576830000002
 30
0.0
 40
108.0
  1
天井吊防振ベット
  0
TEXT
  5
7B0F
  8
4
  6
CONTINUOUS
 10
632.33518700000002
 20
5067.7619520000007
 30
0.0
 40
144.0
  1
ベルト駆動式片吸込両持多翼ファン
  0
LINE
  5
7B10
  8
4
  6
CONTINUOUS
 10
500.0
 20
4938.8175090000004
 30
0.0
 11
3700.0
 21
4938.8175090000004
 31
0.0
  0
LINE
  5
7B11
  8
4
  6
CONTINUOUS
 10
500.0
 20
5338.8175090000004
 30
0.0
 11
3700.0
 21
5338.8175090000004
 31
0.0
  0
LINE
  5
7B12
  8
4
  6
CONTINUOUS
 10
1300.0
 20
1000.0
 30
0.0
 11
3700.0
 21
1000.0
 31
0.0
  0
LINE
  5
7B13
  8
4
  6
CONTINUOUS
 10
500.0
 20
5338.8175090000004
 30
0.0
 11
500.0
 21
4938.8175090000004
 31
0.0
  0
TEXT
  5
7B14
  8
4
  6
CONTINUOUS
 10
546.67749000000003
 20
4764.6389549999994
 30
0.0
 40
108.0
  1
左回転右横向
  0
TEXT
  5
7B15
  8
4
  6
CONTINUOUS
 10
2937.9391179999998
 20
5412.122163
 30
0.0
 40
112.0
  1
No.
  0
TEXT
  5
7B16
  8
4
  6
CONTINUOUS
 10
2622.5921250000001
 20
4766.8576830000002
 30
0.0
 40
108.0
  1
縮尺：1/20
  0
LINE
  5
7B17
  8
4
  6
CONTINUOUS
 10
3700.0
 20
5338.8175090000004
 30
0.0
 11
3700.0
 21
4938.8175090000004
 31
0.0
  0
LINE
  5
7B19
  8
4
  6
CONTINUOUS
 10
2881.234845
 20
5362.5271659999999
 30
0.0
 11
2881.234845
 21
5573.3045229999998
 31
0.0
  0
LINE
  5
7B1A
  8
4
  6
CONTINUOUS
 10
2881.234845
 20
5573.3045229999998
 30
0.0
 11
3700.0
 21
5573.3045229999998
 31
0.0
  0
LINE
  5
7B1B
  8
4
  6
CONTINUOUS
 10
3700.0
 20
5573.3045229999998
 30
0.0
 11
3700.0
 21
5362.5271659999999
 31
0.0
  0
LINE
  5
7B1C
  8
4
  6
CONTINUOUS
 10
3700.0
 20
5362.5271659999999
 30
0.0
 11
2881.234845
 21
5362.5271659999999
 31
0.0
  0
DIMENSION
  5
7B34
  8
3
  6
CONTINUOUS
  2
*D1
 10
2029.7193315408599
 20
1808.684266
 30
0.0
 11
2029.719331540859
 21
2076.3703949999999
 31
0.0
 70
   128
 13
1894.2836655408589
 23
2288.6842660000002
 33
0.0
 14
1894.2836655408589
 24
1808.684266
 34
0.0
 50
90.0
1001
ACAD
1000
DSTYLE
1002
{
1070
   287
1070
     3
1070
    40
1040
20.0
1070
   143
1040
0.039
1070
   172
1070
     1
1070
   271
1070
     0
1070
   279
1070
     0
1070
   288
1070
     1
1002
}
  0
DIMENSION
  5
7B41
  8
3
  6
CONTINUOUS
  2
*D2
 10
2146.2254515408599
 20
2270.6842660000002
 30
0.0
 11
2146.225451540859
 21
2064.3292479999991
 31
0.0
 70
   128
 13
1894.2836655408589
 23
1808.684266
 33
0.0
 14
2002.8003075408601
 24
2270.6842660000002
 34
0.0
 50
90.0
1001
ACAD
1000
DSTYLE
1002
{
1070
   287
1070
     3
1070
    40
1040
20.0
1070
   143
1040
0.039
1070
   172
1070
     1
1070
   271
1070
     0
1070
   279
1070
     0
1070
   288
1070
     1
1002
}
  0
DIMENSION
  5
7B5B
  8
3
  6
CONTINUOUS
  2
*D3
 10
2294.8711965408602
 20
2270.6842660000002
 30
0.0
 11
2294.8711965408588
 21
2441.6185070000001
 31
0.0
 70
   128
 13
1849.2836655408589
 23
2625.6842660000002
 33
0.0
 14
2002.8003075408601
 24
2270.6842660000002
 34
0.0
 50
90.0
1001
ACAD
1000
DSTYLE
1002
{
1070
   287
1070
     3
1070
    40
1040
20.0
1070
   143
1040
0.039
1070
   172
1070
     1
1070
   271
1070
     0
1070
   279
1070
     0
1070
   288
1070
     1
1002
}
  0
DIMENSION
  5
7B67
  8
3
  6
CONTINUOUS
  2
*D4
 10
2294.8711965408588
 20
1670.684266
 30
0.0
 11
2244.8711965408579
 21
1970.684266
 31
0.0
 70
     0
 13
2002.8003075408601
 23
2270.6842660000002
 33
0.0
 14
1839.2836655408589
 24
1670.684266
 34
0.0
 50
90.0
1001
ACAD
1000
DSTYLE
1002
{
1070
   287
1070
     4
1070
    40
1040
20.0
1070
    75
1070
     1
1070
   143
1040
0.039
1070
   172
1070
     1
1070
   271
1070
     0
1070
   279
1070
     1
1070
   288
1070
     1
1002
}
  0
DIMENSION
  5
7B82
  8
3
  6
CONTINUOUS
  2
*D5
 10
2487.7088955408599
 20
1543.684266
 30
0.0
 11
2487.7088955408599
 21
2128.548702
 31
0.0
 70
   128
 13
1849.2836655408589
 23
2625.6842660000002
 33
0.0
 14
1839.2836655408589
 24
1543.684266
 34
0.0
 50
90.0
1001
ACAD
1000
DSTYLE
1002
{
1070
   287
1070
     3
1070
    40
1040
20.0
1070
   143
1040
0.039
1070
   172
1070
     1
1070
   271
1070
     0
1070
   279
1070
     0
1070
   288
1070
     1
1002
}
  0
DIMENSION
  5
7BBC
  8
3
  6
CONTINUOUS
  2
*D6
 10
1142.2836655408589
 20
2738.6334449999999
 30
0.0
 11
1340.7836655408589
 21
2788.6334449999999
 31
0.0
 70
     0
 13
1539.2836655408589
 23
2720.8084589999999
 33
0.0
 14
1142.2836655408589
 24
2275.8246370605252
 34
0.0
1001
ACAD
1000
DSTYLE
1002
{
1070
   287
1070
     4
1070
    40
1040
20.0
1070
    75
1070
     1
1070
   143
1040
0.039
1070
   172
1070
     1
1070
   271
1070
     0
1070
   279
1070
     1
1070
   288
1070
     1
1002
}
  0
DIMENSION
  5
7BC9
  8
3
  6
CONTINUOUS
  2
*D7
 10
1539.2836655408589
 20
1442.203358
 30
0.0
 11
1113.7402285408591
 21
1442.203358
 31
0.0
 70
   128
 13
719.2836655408596
 23
1543.684266
 33
0.0
 14
1539.2836655408589
 24
1438.215615999999
 34
0.0
1001
ACAD
1000
DSTYLE
1002
{
1070
   287
1070
     3
1070
    40
1040
20.0
1070
   143
1040
0.039
1070
   172
1070
     1
1070
   271
1070
     0
1070
   279
1070
     0
1070
   288
1070
     1
1002
}
  0
DIMENSION
  5
7BD5
  8
3
  6
CONTINUOUS
  2
*D8
 10
1839.2836655408589
 20
1442.203358
 30
0.0
 11
1689.2836655408589
 21
1492.203358
 31
0.0
 70
     0
 13
1539.2836655408589
 23
1438.215615999999
 33
0.0
 14
1839.2836655408589
 24
1543.684266
 34
0.0
1001
ACAD
1000
DSTYLE
1002
{
1070
   287
1070
     4
1070
    40
1040
20.0
1070
    75
1070
     1
1070
   143
1040
0.039
1070
   172
1070
     1
1070
   271
1070
     0
1070
   279
1070
     1
1070
   288
1070
     1
1002
}
  0
LINE
  5
7BE3
  8
1
  6
CONTINUOUS
 10
3442.88235854086
 20
2520.6842660000002
 30
0.0
 11
3442.88235854086
 21
2020.6842659999991
 31
0.0
  0
DIMENSION
  5
7C09
  8
3
  6
CONTINUOUS
  2
*D9
 10
3613.2795705408598
 20
2020.6842659999991
 30
0.0
 11
3613.2795705408589
 21
2269.0287309999999
 31
0.0
 70
   128
 13
3442.88235854086
 23
2520.6842660000002
 33
0.0
 14
3442.88235854086
 24
2020.6842659999991
 34
0.0
 50
90.0
1001
ACAD
1000
DSTYLE
1002
{
1070
   287
1070
     3
1070
     3
1000
φ<>
1070
    40
1040
20.0
1070
   143
1040
0.039
1070
   172
1070
     1
1070
   271
1070
     0
1070
   279
1070
     0
1070
   288
1070
     1
1002
}
  0
DIMENSION
  5
7C1D
  8
3
  6
CONTINUOUS
  2
*D10
 10
3261.88235854086
 20
2840.4818890000001
 30
0.0
 11
3352.38235854086
 21
2893.2788420803658
 31
0.0
 70
   128
 13
3442.88235854086
 23
2520.6842660000002
 33
0.0
 14
3261.88235854086
 24
2762.998341
 34
0.0
1001
ACAD
1000
DSTYLE
1002
{
1070
   288
1070
     1
1070
   172
1070
     1
1070
    40
1040
20.0
1070
   271
1070
     0
1070
   143
1040
0.039
1002
}
  0
DIMENSION
  5
7C29
  8
3
  6
CONTINUOUS
  2
*D11
 10
2891.8823585408591
 20
2840.4818890000001
 30
0.0
 11
3076.88235854086
 21
2940.4818890000001
 31
0.0
 70
     0
  1
MAX\P430
 13
3261.88235854086
 23
2762.998341
 33
0.0
 14
2891.8823585408591
 24
2495.6842660000002
 34
0.0
1001
ACAD
1000
DSTYLE
1002
{
1070
   287
1070
     4
1070
    40
1040
20.0
1070
    75
1070
     1
1070
   143
1040
0.039
1070
   172
1070
     1
1070
   271
1070
     0
1070
   279
1070
     1
1070
   288
1070
     1
1002
}
  0
DIMENSION
  5
7C36
  8
3
  6
CONTINUOUS
  2
*D12
 10
3261.88235854086
 20
1387.477948
 30
0.0
 11
3067.1672545408592
 21
1387.477948
 31
0.0
 70
   128
 13
2875.8823585408591
 23
1543.684266
 33
0.0
 14
3261.88235854086
 24
1402.422566
 34
0.0
1001
ACAD
1000
DSTYLE
1002
{
1070
   287
1070
     3
1070
    40
1040
20.0
1070
   143
1040
0.039
1070
   172
1070
     1
1070
   271
1070
     0
1070
   279
1070
     0
1070
   288
1070
     1
1002
}
  0
DIMENSION
  5
7C42
  8
3
  6
CONTINUOUS
  2
*D13
 10
3565.8823585408591
 20
1387.477948
 30
0.0
 11
3413.88235854086
 21
1437.477948
 31
0.0
 70
     0
 13
3261.88235854086
 23
1402.422566
 33
0.0
 14
3565.8823585408591
 24
1543.684266
 34
0.0
1001
ACAD
1000
DSTYLE
1002
{
1070
   287
1070
     4
1070
    40
1040
20.0
1070
    75
1070
     1
1070
   143
1040
0.039
1070
   172
1070
     1
1070
   271
1070
     0
1070
   279
1070
     1
1070
   288
1070
     1
1002
}
  0
DIMENSION
  5
7C4F
  8
3
  6
CONTINUOUS
  2
*D14
 10
1839.2836655408589
 20
4143.6139880000001
 30
0.0
 11
1293.6840935408591
 21
4143.6139880000001
 31
0.0
 70
   128
 13
719.2836655408596
 23
4009.8142659999999
 33
0.0
 14
1839.2836655408589
 24
4009.8142659999999
 34
0.0
1001
ACAD
1000
DSTYLE
1002
{
1070
   287
1070
     3
1070
    40
1040
20.0
1070
   143
1040
0.039
1070
   172
1070
     1
1070
   271
1070
     0
1070
   279
1070
     0
1070
   288
1070
     1
1002
}
  0
DIMENSION
  5
7C5C
  8
3
  6
CONTINUOUS
  2
*D15
 10
2109.88941754086
 20
3319.8142659999999
 30
0.0
 11
2109.8894175408591
 21
3692.158183
 31
0.0
 70
   128
 13
1839.2836655408589
 23
4009.8142659999999
 33
0.0
 14
1839.2836655408589
 24
3319.8142659999999
 34
0.0
 50
90.0
1001
ACAD
1000
DSTYLE
1002
{
1070
   287
1070
     3
1070
    40
1040
20.0
1070
   143
1040
0.039
1070
   172
1070
     1
1070
   271
1070
     0
1070
   279
1070
     0
1070
   288
1070
     1
1002
}
  0
DIMENSION
  5
7C71
  8
3
  6
CONTINUOUS
  2
*D16
 10
2294.8711965408588
 20
1583.684266
 30
0.0
 11
2378.9879741370419
 21
1625.9455701837751
 31
0.0
 70
   128
 13
1839.2836655408589
 23
1670.684266
 33
0.0
 14
1839.2836655408589
 24
1583.684266
 34
0.0
 50
90.0
1001
ACAD
1000
DSTYLE
1002
{
1070
   288
1070
     1
1070
   172
1070
     1
1070
    75
1070
     1
1070
    40
1040
20.0
1070
   271
1070
     0
1070
     7
1000
_DOT
1070
   143
1040
0.039
1002
}
  0
DIMENSION
  5
7C81
  8
3
  6
CONTINUOUS
  2
*D17
 10
2294.8711965408602
 20
1543.684266
 30
0.0
 11
2294.8711965408588
 21
1395.1128374285711
 31
0.0
 70
   128
 13
1839.2836655408589
 23
1583.684266
 33
0.0
 14
1839.2836655408589
 24
1543.684266
 34
0.0
 50
90.0
1001
ACAD
1000
DSTYLE
1002
{
1070
   287
1070
     3
1070
    40
1040
20.0
1070
   143
1040
0.039
1070
   172
1070
     1
1070
   271
1070
     0
1070
   279
1070
     0
1070
   288
1070
     1
1070
     6
1000
DOT
1002
}
  0
DIMENSION
  5
7CB7
  8
3
  6
CONTINUOUS
  2
*D18
 10
1894.2836655408589
 20
2738.6334449999999
 30
0.0
 11
1716.7836655408589
 21
2788.6334449999999
 31
0.0
 70
     0
 13
1539.2836655408589
 23
2720.8084589999999
 33
0.0
 14
1894.2836655408589
 24
2305.6842660000002
 34
0.0
1001
ACAD
1000
DSTYLE
1002
{
1070
   287
1070
     4
1070
    40
1040
20.0
1070
    75
1070
     1
1070
   143
1040
0.039
1070
   172
1070
     1
1070
   271
1070
     0
1070
   279
1070
     1
1070
   288
1070
     1
1002
}
  0
DIMENSION
  5
7D06
  8
3
  6
CONTINUOUS
  2
*D19
 10
3441.88235854086
 20
2697.5984840000001
 30
0.0
 11
3262.907218540859
 21
2697.5984840000001
 31
0.0
 70
   128
 13
3081.8823585408591
 23
2624.6642660000002
 33
0.0
 14
3441.88235854086
 24
2624.6642660000002
 34
0.0
1001
ACAD
1000
DSTYLE
1002
{
1070
   287
1070
     3
1070
    40
1040
20.0
1070
   143
1040
0.039
1070
   172
1070
     1
1070
   271
1070
     0
1070
   279
1070
     0
1070
   288
1070
     1
1002
}
  0
DIMENSION
  5
7DDA
  8
3
  2
*D21
 10
719.28366554085972
 20
2870.4632149798122
 30
0.0
 11
1301.2659697050219
 21
2870.4632149798122
 31
0.0
 70
   128
 13
1894.2836655408589
 23
2305.6842660000002
 33
0.0
 14
719.2836655408596
 24
1750.684266
 34
0.0
1001
ACAD
1000
DSTYLE
1002
{
1070
   287
1070
     3
1070
    40
1040
20.0
1070
   143
1040
0.039
1070
   172
1070
     1
1070
   271
1070
     0
1070
   279
1070
     0
1070
   288
1070
     1
1002
}
  0
ENDSEC
  0
EOF
