  0
SECTION
  2
HEADER
  9
$ACADVER
  1
AC1009
  9
$INSBASE
 10
0.0
 20
0.0
 30
0.0
  9
$EXTMIN
 10
500.0
 20
600.0
 30
0.0
  9
$EXTMAX
 10
3700.0
 20
5573.3045229999998
 30
0.0
  9
$LIMMIN
 10
0.0
 20
0.0
  9
$LIMMAX
 10
297.0
 20
210.0
  9
$ORTHOMODE
 70
     0
  9
$REGENMODE
 70
     1
  9
$FILLMODE
 70
     0
  9
$QTEXTMODE
 70
     0
  9
$MIRRTEXT
 70
     1
  9
$DRAGMODE
 70
     2
  9
$LTSCALE
 40
100.0
  9
$OSMODE
 70
    37
  9
$ATTMODE
 70
     1
  9
$TEXTSIZE
 40
180.0
  9
$TRACEWID
 40
0.05
  9
$TEXTSTYLE
  7
STANDARD
  9
$CLAYER
  8
3
  9
$CELTYPE
  6
BYLAYER
  9
$CECOLOR
 62
   256
  9
$DIMSCALE
 40
20.0
  9
$DIMASZ
 40
2.0
  9
$DIMEXO
 40
0.5
  9
$DIMDLI
 40
10.0
  9
$DIMRND
 40
0.0
  9
$DIMDLE
 40
0.0
  9
$DIMEXE
 40
1.0
  9
$DIMTP
 40
1.0
  9
$DIMTM
 40
1.0
  9
$DIMTXT
 40
3.0
  9
$DIMCEN
 40
0.0
  9
$DIMTSZ
 40
0.0
  9
$DIMTOL
 70
     0
  9
$DIMLIM
 70
     0
  9
$DIMTIH
 70
     0
  9
$DIMTOH
 70
     0
  9
$DIMSE1
 70
     0
  9
$DIMSE2
 70
     0
  9
$DIMTAD
 70
     1
  9
$DIMZIN
 70
     8
  9
$DIMBLK
  1

  9
$DIMASO
 70
     1
  9
$DIMSHO
 70
     1
  9
$DIMPOST
  1

  9
$DIMAPOST
  1

  9
$DIMALT
 70
     0
  9
$DIMALTD
 70
     2
  9
$DIMALTF
 40
0.039
  9
$DIMLFAC
 40
1.0
  9
$DIMTOFL
 70
     1
  9
$DIMTVP
 40
0.0
  9
$DIMTIX
 70
     0
  9
$DIMSOXD
 70
     0
  9
$DIMSAH
 70
     1
  9
$DIMBLK1
  1
OPEN
  9
$DIMBLK2
  1
OPEN
  9
$DIMSTYLE
  2
IGA
  9
$DIMCLRD
 70
     0
  9
$DIMCLRE
 70
     0
  9
$DIMCLRT
 70
     0
  9
$DIMTFAC
 40
10.0
  9
$DIMGAP
 40
1.0
  9
$LUNITS
 70
     2
  9
$LUPREC
 70
     3
  9
$SKETCHINC
 40
0.1
  9
$FILLETRAD
 40
50.0
  9
$AUNITS
 70
     0
  9
$AUPREC
 70
     0
  9
$MENU
  1
acad
  9
$ELEVATION
 40
0.0
  9
$PELEVATION
 40
0.0
  9
$THICKNESS
 40
0.0
  9
$LIMCHECK
 70
     0
  9
$BLIPMODE
 70
     0
  9
$CHAMFERA
 40
0.5
  9
$CHAMFERB
 40
0.5
  9
$SKPOLY
 70
     0
  9
$TDCREATE
 40
2450735.4020590279
  9
$TDUPDATE
 40
2454953.7669735532
  9
$TDINDWG
 40
0.0057551736
  9
$TDUSRTIMER
 40
0.0057551736
  9
$USRTIMER
 70
     1
  9
$ANGBASE
 50
0.0
  9
$ANGDIR
 70
     0
  9
$PDMODE
 70
     0
  9
$PDSIZE
 40
0.0
  9
$PLINEWID
 40
0.0
  9
$COORDS
 70
     1
  9
$SPLFRAME
 70
     0
  9
$SPLINETYPE
 70
     6
  9
$SPLINESEGS
 70
     8
  9
$ATTDIA
 70
     0
  9
$ATTREQ
 70
     1
  9
$HANDLING
 70
 10241
  9
$HANDSEED
  5
806A
  9
$SURFTAB1
 70
     6
  9
$SURFTAB2
 70
     6
  9
$SURFTYPE
 70
     6
  9
$SURFU
 70
     6
  9
$SURFV
 70
     6
  9
$UCSNAME
  2

  9
$UCSORG
 10
0.0
 20
0.0
 30
0.0
  9
$UCSXDIR
 10
1.0
 20
0.0
 30
0.0
  9
$UCSYDIR
 10
0.0
 20
1.0
 30
0.0
  9
$PUCSNAME
  2

  9
$PUCSORG
 10
0.0
 20
0.0
 30
0.0
  9
$PUCSXDIR
 10
1.0
 20
0.0
 30
0.0
  9
$PUCSYDIR
 10
0.0
 20
1.0
 30
0.0
  9
$USERI1
 70
     0
  9
$USERI2
 70
     0
  9
$USERI3
 70
     0
  9
$USERI4
 70
     0
  9
$USERI5
 70
     0
  9
$USERR1
 40
0.0
  9
$USERR2
 40
0.0
  9
$USERR3
 40
0.0
  9
$USERR4
 40
0.0
  9
$USERR5
 40
0.0
  9
$WORLDVIEW
 70
     1
  9
$SHADEDGE
 70
     3
  9
$SHADEDIF
 70
    70
  9
$TILEMODE
 70
     1
  9
$MAXACTVP
 70
    16
  9
$PLIMCHECK
 70
     0
  9
$PEXTMIN
 10
1.0000000000000000E+020
 20
1.0000000000000000E+020
 30
1.0000000000000000E+020
  9
$PEXTMAX
 10
-1.0000000000000000E+020
 20
-1.0000000000000000E+020
 30
-1.0000000000000000E+020
  9
$PLIMMIN
 10
0.0
 20
0.0
  9
$PLIMMAX
 10
12.0
 20
9.0
  9
$UNITMODE
 70
     0
  9
$VISRETAIN
 70
     0
  9
$PLINEGEN
 70
     0
  9
$PSLTSCALE
 70
     1
  0
ENDSEC
  0
SECTION
  2
TABLES
  0
TABLE
  2
VPORT
 70
     2
  0
VPORT
  2
*ACTIVE
 70
     0
 10
0.0
 20
0.0
 11
1.0
 21
1.0
 12
6292.1124769529506
 22
3086.6374998146398
 13
0.0
 23
0.0
 14
10.0
 24
10.0
 15
10.0
 25
10.0
 16
0.0
 26
0.0
 36
1.0
 17
0.0
 27
0.0
 37
0.0
 40
5011.4968576296578
 41
3.1666666666666661
 42
50.0
 43
0.0
 44
0.0
 50
0.0
 51
0.0
 71
     0
 72
   100
 73
     1
 74
     0
 75
     0
 76
     0
 77
     0
 78
     0
  0
ENDTAB
  0
TABLE
  2
LTYPE
 70
     2
  0
LTYPE
  2
CONTINUOUS
 70
     0
  3
Solid line
 72
    65
 73
     0
 40
0.0
  0
LTYPE
  2
CENTER
 70
     0
  3
____ _ ____ _ ____ _ ____ _ ____ _ ____ _ ____ 
 72
    65
 73
     4
 40
2.0
 49
1.25
 49
-0.25
 49
0.25
 49
-0.25
  0
ENDTAB
  0
TABLE
  2
LAYER
 70
     6
  0
LAYER
  2
0
 70
     0
 62
     7
  6
CONTINUOUS
  0
LAYER
  2
3
 70
     0
 62
     2
  6
CONTINUOUS
  0
LAYER
  2
2
 70
     0
 62
     3
  6
CENTER
  0
LAYER
  2
1
 70
     0
 62
     4
  6
CONTINUOUS
  0
LAYER
  2
4
 70
     0
 62
     7
  6
CONTINUOUS
  0
LAYER
  2
DEFPOINTS
 70
     0
 62
     7
  6
CONTINUOUS
  0
ENDTAB
  0
TABLE
  2
STYLE
 70
     1
  0
STYLE
  2
STANDARD
 70
     0
 40
0.0
 41
1.0
 50
0.0
 71
     0
 42
180.0
  3
simplex.shx
  4
extfont.shx
  0
ENDTAB
  0
TABLE
  2
VIEW
 70
     0
  0
ENDTAB
  0
TABLE
  2
UCS
 70
     0
  0
ENDTAB
  0
TABLE
  2
APPID
 70
     1
  0
APPID
  2
ACAD
 70
     0
  0
ENDTAB
  0
TABLE
  2
DIMSTYLE
 70
     1
  0
DIMSTYLE
  2
IGA
 70
     0
  3

  4

  5

  6
OPEN
  7
OPEN
 40
2.0
 41
2.0
 42
0.5
 43
10.0
 44
1.0
 45
0.0
 46
0.0
 47
1.0
 48
1.0
140
3.0
141
0.0
142
0.0
143
0.03937
144
1.0
145
0.0
146
10.0
147
1.0
 71
     0
 72
     0
 73
     0
 74
     0
 75
     0
 76
     0
 77
     1
 78
     8
170
     0
171
     2
172
     0
173
     1
174
     0
175
     0
176
     0
177
     0
178
     0
  0
ENDTAB
  0
ENDSEC
  0
SECTION
  2
BLOCKS
  0
BLOCK
  8
0
  2
$MODEL_SPACE
 70
     0
 10
0.0
 20
0.0
 30
0.0
  3
$MODEL_SPACE
  1

  0
ENDBLK
  5
1B
  8
0
  0
BLOCK
 67
     1
  8
0
  2
$PAPER_SPACE
 70
     0
 10
0.0
 20
0.0
 30
0.0
  3
$PAPER_SPACE
  1

  0
ENDBLK
  5
18
 67
     1
  8
0
  0
BLOCK
  8
0
  2
_OPEN
 70
     0
 10
0.0
 20
0.0
 30
0.0
  3
_OPEN
  1

  0
LINE
  5
7C94
  8
0
  6
BYBLOCK
 62
     0
 10
-1.0
 20
0.166667
 30
0.0
 11
0.0
 21
0.0
 31
0.0
  0
LINE
  5
7C95
  8
0
  6
BYBLOCK
 62
     0
 10
0.0
 20
0.0
 30
0.0
 11
-1.0
 21
-0.166667
 31
0.0
  0
LINE
  5
7C96
  8
0
  6
BYBLOCK
 62
     0
 10
0.0
 20
0.0
 30
0.0
 11
-1.0
 21
0.0
 31
0.0
  0
ENDBLK
  5
7C97
  8
0
  0
BLOCK
  8
0
  2
*D1
 70
     1
 10
0.0
 20
0.0
 30
0.0
  3
*D1
  1

  0
LINE
  5
7FB3
  8
3
  6
CONTINUOUS
 62
     0
 10
982.00897799999996
 20
2533.6779320000001
 30
0.0
 11
901.74334900000031
 21
2533.6779320000001
 31
0.0
  0
LINE
  5
7FB4
  8
3
  6
CONTINUOUS
 62
     0
 10
982.00897799999996
 20
2053.6779320000001
 30
0.0
 11
901.74334900000031
 21
2053.6779320000001
 31
0.0
  0
LINE
  5
7FB5
  8
3
  6
CONTINUOUS
 62
     0
 10
921.74334900000042
 20
2493.6779320000001
 30
0.0
 11
921.74334900000031
 21
2093.6779319999991
 31
0.0
  0
INSERT
  5
7FB6
  8
3
  6
CONTINUOUS
 62
     0
  2
_OPEN
 10
921.74334900000042
 20
2533.6779320000001
 30
0.0
 41
40.0
 42
40.0
 43
40.0
 50
90.0
  0
INSERT
  5
7FB7
  8
3
  6
CONTINUOUS
 62
     0
  2
_OPEN
 10
921.74334900000031
 20
2053.6779320000001
 30
0.0
 41
40.0
 42
40.0
 43
40.0
 50
270.0
  0
TEXT
  8
3
  40
60
  5
8057
  62
0
  72
0
  71
0
 10
751.743
 20
2151.59
 30
0.000000
  1
480
  0
POINT
  5
7FB9
  8
DEFPOINTS
  6
CONTINUOUS
 62
     0
 10
992.00897799999996
 20
2533.6779320000001
 30
0.0
  0
POINT
  5
7FBA
  8
DEFPOINTS
  6
CONTINUOUS
 62
     0
 10
992.00897799999996
 20
2053.6779320000001
 30
0.0
  0
POINT
  5
7FBB
  8
DEFPOINTS
  6
CONTINUOUS
 62
     0
 10
921.74334900000031
 20
2053.6779320000001
 30
0.0
  0
ENDBLK
  5
7CEF
  8
0
  0
BLOCK
  8
0
  2
*D2
 70
     1
 10
0.0
 20
0.0
 30
0.0
  3
*D2
  1

  0
LINE
  5
7FBC
  8
3
  6
CONTINUOUS
 62
     0
 10
911.74334899999985
 20
2533.6779320000001
 30
0.0
 11
785.25013800000045
 21
2533.6779320000001
 31
0.0
  0
LINE
  5
7FBD
  8
3
  6
CONTINUOUS
 62
     0
 10
879.2106132331154
 20
2071.6779320000001
 30
0.0
 11
785.25013800000033
 21
2071.6779320000001
 31
0.0
  0
LINE
  5
7FBE
  8
3
  6
CONTINUOUS
 62
     0
 10
805.25013800000045
 20
2493.6779320000001
 30
0.0
 11
805.25013800000045
 21
2111.6779320000001
 31
0.0
  0
INSERT
  5
7FBF
  8
3
  6
CONTINUOUS
 62
     0
  2
_OPEN
 10
805.25013800000045
 20
2533.6779320000001
 30
0.0
 41
40.0
 42
40.0
 43
40.0
 50
90.0
  0
INSERT
  5
7FC0
  8
3
  6
CONTINUOUS
 62
     0
  2
_OPEN
 10
805.25013800000045
 20
2071.6779320000001
 30
0.0
 41
40.0
 42
40.0
 43
40.0
 50
270.0
  0
TEXT
  8
3
  40
60
  5
8058
  62
0
  72
0
  71
0
 10
635.250
 20
2155.75
 30
0.000000
  1
462
  0
POINT
  5
7FC2
  8
DEFPOINTS
  6
CONTINUOUS
 62
     0
 10
921.74334899999985
 20
2533.6779320000001
 30
0.0
  0
POINT
  5
7FC3
  8
DEFPOINTS
  6
CONTINUOUS
 62
     0
 10
889.21061323311551
 20
2071.6779320000001
 30
0.0
  0
POINT
  5
7FC4
  8
DEFPOINTS
  6
CONTINUOUS
 62
     0
 10
805.25013800000045
 20
2071.6779320000001
 30
0.0
  0
ENDBLK
  5
7F43
  8
0
  0
BLOCK
  8
0
  2
*D3
 70
     1
 10
0.0
 20
0.0
 30
0.0
  3
*D3
  1

  0
LINE
  5
7FC5
  8
3
  6
CONTINUOUS
 62
     0
 10
1037.0089780000001
 20
1636.6779320000001
 30
0.0
 11
785.25013799999999
 21
1636.6779320000001
 31
0.0
  0
LINE
  5
7FC6
  8
3
  6
CONTINUOUS
 62
     0
 10
805.25013799999999
 20
2031.6779320000001
 30
0.0
 11
805.25013799999999
 21
1676.6779320000001
 31
0.0
  0
INSERT
  5
7FC7
  8
3
  6
CONTINUOUS
 62
     0
  2
_OPEN
 10
805.25013799999999
 20
2071.6779320000001
 30
0.0
 41
40.0
 42
40.0
 43
40.0
 50
90.0
  0
INSERT
  5
7FC8
  8
3
  6
CONTINUOUS
 62
     0
  2
_OPEN
 10
805.25013799999999
 20
1636.6779320000001
 30
0.0
 41
40.0
 42
40.0
 43
40.0
 50
270.0
  0
TEXT
  8
3
  40
60
  5
8059
  62
0
  72
0
  71
0
 10
635.250
 20
1747.98
 30
0.000000
  1
435
  0
POINT
  5
7FCA
  8
DEFPOINTS
  6
CONTINUOUS
 62
     0
 10
889.21061323311551
 20
2071.6779320000001
 30
0.0
  0
POINT
  5
7FCB
  8
DEFPOINTS
  6
CONTINUOUS
 62
     0
 10
1047.0089779999989
 20
1636.6779320000001
 30
0.0
  0
POINT
  5
7FCC
  8
DEFPOINTS
  6
CONTINUOUS
 62
     0
 10
805.25013799999999
 20
1636.6779320000001
 30
0.0
  0
ENDBLK
  5
7F38
  8
0
  0
BLOCK
  8
0
  2
*D4
 70
     1
 10
0.0
 20
0.0
 30
0.0
  3
*D4
  1

  0
LINE
  5
7FCD
  8
3
  6
CONTINUOUS
 62
     0
 10
982.00897799999996
 20
2550.6779320000001
 30
0.0
 11
653.03393600000049
 21
2550.6779320000001
 31
0.0
  0
LINE
  5
7FCE
  8
3
  6
CONTINUOUS
 62
     0
 10
1037.0089780000001
 20
1509.6779320000001
 30
0.0
 11
653.03393600000015
 21
1509.6779320000001
 31
0.0
  0
LINE
  5
7FCF
  8
3
  6
CONTINUOUS
 62
     0
 10
673.03393600000038
 20
2510.6779320000001
 30
0.0
 11
673.03393600000015
 21
1549.6779320000001
 31
0.0
  0
INSERT
  5
7FD0
  8
3
  6
CONTINUOUS
 62
     0
  2
_OPEN
 10
673.03393600000038
 20
2550.6779320000001
 30
0.0
 41
40.0
 42
40.0
 43
40.0
 50
90.0
  0
INSERT
  5
7FD1
  8
3
  6
CONTINUOUS
 62
     0
  2
_OPEN
 10
673.03393600000015
 20
1509.6779320000001
 30
0.0
 41
40.0
 42
40.0
 43
40.0
 50
270.0
  0
TEXT
  8
3
  40
60
  5
805A
  62
0
  72
0
  71
0
 10
503.034
 20
1927.13
 30
0.000000
  1
1041
  0
POINT
  5
7FD3
  8
DEFPOINTS
  6
CONTINUOUS
 62
     0
 10
992.00897799999996
 20
2550.6779320000001
 30
0.0
  0
POINT
  5
7FD4
  8
DEFPOINTS
  6
CONTINUOUS
 62
     0
 10
1047.0089779999989
 20
1509.6779320000001
 30
0.0
  0
POINT
  5
7FD5
  8
DEFPOINTS
  6
CONTINUOUS
 62
     0
 10
673.03393600000015
 20
1509.6779320000001
 30
0.0
  0
ENDBLK
  5
7E29
  8
0
  0
BLOCK
  8
0
  2
*D5
 70
     1
 10
0.0
 20
0.0
 30
0.0
  3
*D5
  1

  0
LINE
  5
7FD6
  8
3
  6
CONTINUOUS
 62
     0
 10
992.00897799999996
 20
2560.6779320000001
 30
0.0
 11
992.00897799999996
 21
2682.9842130000002
 31
0.0
  0
LINE
  5
7FD7
  8
3
  6
CONTINUOUS
 62
     0
 10
1347.0089779999989
 20
2655.7228960000002
 30
0.0
 11
1347.0089779999989
 21
2642.9842130000002
 31
0.0
  0
LINE
  5
7FD8
  8
3
  6
CONTINUOUS
 62
     0
 10
1032.0089779999989
 20
2662.9842129999988
 30
0.0
 11
1307.0089779999989
 21
2662.9842129999988
 31
0.0
  0
INSERT
  5
7FD9
  8
3
  6
CONTINUOUS
 62
     0
  2
_OPEN
 10
992.00897799999996
 20
2662.9842129999988
 30
0.0
 41
40.0
 42
40.0
 43
40.0
 50
180.0
  0
INSERT
  5
7FDA
  8
3
  6
CONTINUOUS
 62
     0
  2
_OPEN
 10
1347.0089779999989
 20
2662.9842129999988
 30
0.0
 41
40.0
 42
40.0
 43
40.0
  0
TEXT
  8
3
  40
60
  5
805B
  62
0
  72
0
  71
0
 10
1050.96
 20
2606.78
 30
0.000000
  1
355
  0
POINT
  5
7FDC
  8
DEFPOINTS
  6
CONTINUOUS
 62
     0
 10
992.00897799999996
 20
2550.6779320000001
 30
0.0
  0
POINT
  5
7FDD
  8
DEFPOINTS
  6
CONTINUOUS
 62
     0
 10
1347.0089779999989
 20
2665.7228960000002
 30
0.0
  0
POINT
  5
7FDE
  8
DEFPOINTS
  6
CONTINUOUS
 62
     0
 10
1347.0089779999989
 20
2662.9842129999988
 30
0.0
  0
ENDBLK
  5
7E3E
  8
0
  0
BLOCK
  8
0
  2
*D6
 70
     1
 10
0.0
 20
0.0
 30
0.0
  3
*D6
  1

  0
LINE
  5
7FDF
  8
3
  6
CONTINUOUS
 62
     0
 10
1347.0089779999989
 20
2630.4148460899451
 30
0.0
 11
1347.0089779999989
 21
2682.9842130000002
 31
0.0
  0
LINE
  5
7FE0
  8
3
  6
CONTINUOUS
 62
     0
 10
1757.0089779999989
 20
2436.6779320000001
 30
0.0
 11
1757.0089779999989
 21
2682.9842130000002
 31
0.0
  0
LINE
  5
7FE1
  8
3
  6
CONTINUOUS
 62
     0
 10
1387.0089779999989
 20
2662.9842129999988
 30
0.0
 11
1717.0089780000001
 21
2662.9842129999988
 31
0.0
  0
INSERT
  5
7FE2
  8
3
  6
CONTINUOUS
 62
     0
  2
_OPEN
 10
1347.0089779999989
 20
2662.9842129999988
 30
0.0
 41
40.0
 42
40.0
 43
40.0
 50
180.0
  0
INSERT
  5
7FE3
  8
3
  6
CONTINUOUS
 62
     0
  2
_OPEN
 10
1757.0089779999989
 20
2662.9842129999988
 30
0.0
 41
40.0
 42
40.0
 43
40.0
  0
TEXT
  8
3
  40
60
  5
805C
  62
0
  72
0
  71
0
 10
1432.01
 20
2606.78
 30
0.000000
  1
410
  0
POINT
  5
7FE5
  8
DEFPOINTS
  6
CONTINUOUS
 62
     0
 10
1347.0089779999989
 20
2620.4148460899451
 30
0.0
  0
POINT
  5
7FE6
  8
DEFPOINTS
  6
CONTINUOUS
 62
     0
 10
1757.0089779999989
 20
2426.6779320000001
 30
0.0
  0
POINT
  5
7FE7
  8
DEFPOINTS
  6
CONTINUOUS
 62
     0
 10
1757.0089779999989
 20
2662.9842129999988
 30
0.0
  0
ENDBLK
  5
7F59
  8
0
  0
BLOCK
  8
0
  2
*D7
 70
     1
 10
0.0
 20
0.0
 30
0.0
  3
*D7
  1

  0
LINE
  5
7FE8
  8
3
  6
CONTINUOUS
 62
     0
 10
1047.0089779999989
 20
1499.6779320000001
 30
0.0
 11
1047.0089779999989
 21
1343.2815318023349
 31
0.0
  0
LINE
  5
7FE9
  8
3
  6
CONTINUOUS
 62
     0
 10
1347.0089779999989
 20
1456.0502289510041
 30
0.0
 11
1347.0089779999989
 21
1343.2815318023349
 31
0.0
  0
LINE
  5
7FEA
  8
3
  6
CONTINUOUS
 62
     0
 10
1087.0089779999989
 20
1363.2815318023349
 30
0.0
 11
1307.0089779999989
 21
1363.2815318023349
 31
0.0
  0
INSERT
  5
7FEB
  8
3
  6
CONTINUOUS
 62
     0
  2
_OPEN
 10
1047.0089779999989
 20
1363.2815318023349
 30
0.0
 41
40.0
 42
40.0
 43
40.0
 50
180.0
  0
INSERT
  5
7FEC
  8
3
  6
CONTINUOUS
 62
     0
  2
_OPEN
 10
1347.0089779999989
 20
1363.2815318023349
 30
0.0
 41
40.0
 42
40.0
 43
40.0
  0
TEXT
  8
3
  40
60
  5
805D
  62
0
  72
0
  71
0
 10
1089.87
 20
1307.08
 30
0.000000
  1
300
  0
POINT
  5
7FEE
  8
DEFPOINTS
  6
CONTINUOUS
 62
     0
 10
1047.0089779999989
 20
1509.6779320000001
 30
0.0
  0
POINT
  5
7FEF
  8
DEFPOINTS
  6
CONTINUOUS
 62
     0
 10
1347.0089779999989
 20
1466.0502289510041
 30
0.0
  0
POINT
  5
7FF0
  8
DEFPOINTS
  6
CONTINUOUS
 62
     0
 10
1347.0089779999989
 20
1363.2815318023349
 30
0.0
  0
ENDBLK
  5
7F90
  8
0
  0
BLOCK
  8
0
  2
*D8
 70
     1
 10
0.0
 20
0.0
 30
0.0
  3
*D8
  1

  0
LINE
  5
7FF1
  8
3
  6
CONTINUOUS
 62
     0
 10
2167.0089779999998
 20
1499.6779320000001
 30
0.0
 11
2167.0089779999998
 21
1343.2815318023349
 31
0.0
  0
LINE
  5
7FF2
  8
3
  6
CONTINUOUS
 62
     0
 10
1387.0089779999989
 20
1363.2815318023349
 30
0.0
 11
2127.0089779999998
 21
1363.2815318023349
 31
0.0
  0
INSERT
  5
7FF3
  8
3
  6
CONTINUOUS
 62
     0
  2
_OPEN
 10
1347.0089779999989
 20
1363.2815318023349
 30
0.0
 41
40.0
 42
40.0
 43
40.0
 50
180.0
  0
INSERT
  5
7FF4
  8
3
  6
CONTINUOUS
 62
     0
  2
_OPEN
 10
2167.0089779999998
 20
1363.2815318023349
 30
0.0
 41
40.0
 42
40.0
 43
40.0
  0
TEXT
  8
3
  40
60
  5
805E
  62
0
  72
0
  71
0
 10
1637.01
 20
1307.08
 30
0.000000
  1
820
  0
POINT
  5
7FF6
  8
DEFPOINTS
  6
CONTINUOUS
 62
     0
 10
1347.0089779999989
 20
1466.0502289510041
 30
0.0
  0
POINT
  5
7FF7
  8
DEFPOINTS
  6
CONTINUOUS
 62
     0
 10
2167.0089779999998
 20
1509.6779320000001
 30
0.0
  0
POINT
  5
7FF8
  8
DEFPOINTS
  6
CONTINUOUS
 62
     0
 10
2167.0089779999998
 20
1363.2815318023349
 30
0.0
  0
ENDBLK
  5
7F85
  8
0
  0
BLOCK
  8
0
  2
*D9
 70
     1
 10
0.0
 20
0.0
 30
0.0
  3
*D9
  1

  0
LINE
  5
7FF9
  8
3
  6
CONTINUOUS
 62
     0
 10
3403.767675999999
 20
2321.6779320000001
 30
0.0
 11
3555.7383600000012
 21
2321.6779320000001
 31
0.0
  0
LINE
  5
7FFA
  8
3
  6
CONTINUOUS
 62
     0
 10
3403.767675999999
 20
1821.6779320000001
 30
0.0
 11
3555.7383600000012
 21
1821.6779320000001
 31
0.0
  0
LINE
  5
7FFB
  8
3
  6
CONTINUOUS
 62
     0
 10
3535.7383599999998
 20
2281.6779320000001
 30
0.0
 11
3535.7383599999998
 21
1861.6779320000001
 31
0.0
  0
INSERT
  5
7FFC
  8
3
  6
CONTINUOUS
 62
     0
  2
_OPEN
 10
3535.7383599999998
 20
2321.6779320000001
 30
0.0
 41
40.0
 42
40.0
 43
40.0
 50
90.0
  0
INSERT
  5
7FFD
  8
3
  6
CONTINUOUS
 62
     0
  2
_OPEN
 10
3535.7383599999998
 20
1821.6779320000001
 30
0.0
 41
40.0
 42
40.0
 43
40.0
 50
270.0
  0
TEXT
  8
3
  40
60
  5
805F
  62
0
  72
0
  71
0
 10
3365.74
 20
1965.64
 30
0.000000
  1
φ500
  0
POINT
  5
7FFF
  8
DEFPOINTS
  6
CONTINUOUS
 62
     0
 10
3393.7676759999999
 20
2321.6779320000001
 30
0.0
  0
POINT
  5
8000
  8
DEFPOINTS
  6
CONTINUOUS
 62
     0
 10
3393.7676759999999
 20
1821.6779320000001
 30
0.0
  0
POINT
  5
8001
  8
DEFPOINTS
  6
CONTINUOUS
 62
     0
 10
3535.7383599999998
 20
1821.6779320000001
 30
0.0
  0
ENDBLK
  5
7EC7
  8
0
  0
BLOCK
  8
0
  2
*D10
 70
     1
 10
0.0
 20
0.0
 30
0.0
  3
*D10
  1

  0
LINE
  5
7EB3
  8
0
  6
BYBLOCK
 62
     0
 10
3393.7676759999999
 20
2331.6779320000001
 30
0.0
 11
3393.7676759999999
 21
2800.6346629999998
 31
0.0
  0
LINE
  5
7EB4
  8
0
  6
BYBLOCK
 62
     0
 10
3212.7676759999999
 20
2723.7078470000001
 30
0.0
 11
3212.7676759999999
 21
2800.6346629999998
 31
0.0
  0
LINE
  5
7EB5
  8
0
  6
BYBLOCK
 62
     0
 10
3353.767675999999
 20
2780.6346629999998
 30
0.0
 11
3252.767675999999
 21
2780.6346629999998
 31
0.0
  0
TEXT
  5
7EB6
  8
3
 62
     0
 10
3244.696247428571
 20
2801.130516034973
 30
0.0
 40
60.0
  1
181
  0
INSERT
  5
7EB7
  8
0
  6
BYBLOCK
 62
     0
  2
_OPEN
 10
3393.7676759999999
 20
2780.6346629999998
 30
0.0
 41
40.0
 42
40.0
 43
40.0
  0
INSERT
  5
7EB8
  8
0
  6
BYBLOCK
 62
     0
  2
_OPEN
 10
3212.7676759999999
 20
2780.6346629999998
 30
0.0
 41
40.0
 42
40.0
 43
40.0
 50
180.0
  0
POINT
  5
7EB9
  8
DEFPOINTS
  6
BYBLOCK
 62
     0
 10
3393.7676759999999
 20
2321.6779320000001
 30
0.0
  0
POINT
  5
7EBA
  8
DEFPOINTS
  6
BYBLOCK
 62
     0
 10
3212.7676759999999
 20
2713.7078470000001
 30
0.0
  0
POINT
  5
7EBB
  8
DEFPOINTS
  6
BYBLOCK
 62
     0
 10
3212.7676759999999
 20
2780.6346629999998
 30
0.0
  0
ENDBLK
  5
7EBC
  8
0
  0
BLOCK
  8
0
  2
*D11
 70
     1
 10
0.0
 20
0.0
 30
0.0
  3
*D11
  1

  0
LINE
  5
8002
  8
3
  6
CONTINUOUS
 62
     0
 10
2842.7676759999999
 20
2471.6779320000001
 30
0.0
 11
2842.7676759999999
 21
2800.6346629999998
 31
0.0
  0
LINE
  5
8003
  8
3
  6
CONTINUOUS
 62
     0
 10
3172.7676759999999
 20
2780.6346629999998
 30
0.0
 11
2882.7676759999999
 21
2780.6346629999998
 31
0.0
  0
INSERT
  5
8004
  8
3
  6
CONTINUOUS
 62
     0
  2
_OPEN
 10
3212.7676759999999
 20
2780.6346629999998
 30
0.0
 41
40.0
 42
40.0
 43
40.0
  0
INSERT
  5
8005
  8
3
  6
CONTINUOUS
 62
     0
  2
_OPEN
 10
2842.7676759999999
 20
2780.6346629999998
 30
0.0
 41
40.0
 42
40.0
 43
40.0
 50
180.0
  0
TEXT
  8
3
  40
60
  5
8060
  62
0
  72
0
  71
0
 10
2907.77
 20
2774.43
 30
0.000000
  1
MAX
  0
TEXT
  8
3
  40
60
  5
8061
  62
0
  72
0
  71
0
 10
2907.77
 20
2696.43
 30
0.000000
  1
430
  0
POINT
  5
8007
  8
DEFPOINTS
  6
CONTINUOUS
 62
     0
 10
3212.7676759999999
 20
2713.7078470000001
 30
0.0
  0
POINT
  5
8008
  8
DEFPOINTS
  6
CONTINUOUS
 62
     0
 10
2842.7676759999999
 20
2461.6779320000001
 30
0.0
  0
POINT
  5
8009
  8
DEFPOINTS
  6
CONTINUOUS
 62
     0
 10
2842.7676759999999
 20
2780.6346629999998
 30
0.0
  0
ENDBLK
  5
7ED1
  8
0
  0
BLOCK
  8
0
  2
*D12
 70
     1
 10
0.0
 20
0.0
 30
0.0
  3
*D12
  1

  0
LINE
  5
800A
  8
3
  6
CONTINUOUS
 62
     0
 10
2826.7676759999999
 20
1499.6779320000001
 30
0.0
 11
2826.7676759999999
 21
1333.389809999999
 31
0.0
  0
LINE
  5
800B
  8
3
  6
CONTINUOUS
 62
     0
 10
3212.7676759999999
 20
1368.6415307592649
 30
0.0
 11
3212.7676759999999
 21
1333.389809999999
 31
0.0
  0
LINE
  5
800C
  8
3
  6
CONTINUOUS
 62
     0
 10
2866.7676759999999
 20
1353.3898099999999
 30
0.0
 11
3172.7676759999999
 21
1353.3898099999999
 31
0.0
  0
INSERT
  5
800D
  8
3
  6
CONTINUOUS
 62
     0
  2
_OPEN
 10
2826.7676759999999
 20
1353.3898099999999
 30
0.0
 41
40.0
 42
40.0
 43
40.0
 50
180.0
  0
INSERT
  5
800E
  8
3
  6
CONTINUOUS
 62
     0
  2
_OPEN
 10
3212.7676759999999
 20
1353.3898099999999
 30
0.0
 41
40.0
 42
40.0
 43
40.0
  0
TEXT
  8
3
  40
60
  5
8062
  62
0
  72
0
  71
0
 10
2895.22
 20
1297.19
 30
0.000000
  1
386
  0
POINT
  5
8010
  8
DEFPOINTS
  6
CONTINUOUS
 62
     0
 10
2826.7676759999999
 20
1509.6779320000001
 30
0.0
  0
POINT
  5
8011
  8
DEFPOINTS
  6
CONTINUOUS
 62
     0
 10
3212.7676759999999
 20
1378.6415307592649
 30
0.0
  0
POINT
  5
8012
  8
DEFPOINTS
  6
CONTINUOUS
 62
     0
 10
3212.7676759999999
 20
1353.3898099999999
 30
0.0
  0
ENDBLK
  5
7F7B
  8
0
  0
BLOCK
  8
0
  2
*D13
 70
     1
 10
0.0
 20
0.0
 30
0.0
  3
*D13
  1

  0
LINE
  5
8013
  8
3
  6
CONTINUOUS
 62
     0
 10
3516.7676759999999
 20
1499.6779320000001
 30
0.0
 11
3516.7676759999999
 21
1333.389809999999
 31
0.0
  0
LINE
  5
8014
  8
3
  6
CONTINUOUS
 62
     0
 10
3252.767675999999
 20
1353.3898099999999
 30
0.0
 11
3476.7676759999999
 21
1353.3898099999999
 31
0.0
  0
INSERT
  5
8015
  8
3
  6
CONTINUOUS
 62
     0
  2
_OPEN
 10
3212.7676759999999
 20
1353.3898099999999
 30
0.0
 41
40.0
 42
40.0
 43
40.0
 50
180.0
  0
INSERT
  5
8016
  8
3
  6
CONTINUOUS
 62
     0
  2
_OPEN
 10
3516.7676759999999
 20
1353.3898099999999
 30
0.0
 41
40.0
 42
40.0
 43
40.0
  0
TEXT
  8
3
  40
60
  5
8063
  62
0
  72
0
  71
0
 10
3244.77
 20
1297.19
 30
0.000000
  1
304
  0
POINT
  5
8018
  8
DEFPOINTS
  6
CONTINUOUS
 62
     0
 10
3212.7676759999999
 20
1389.1172450486099
 30
0.0
  0
POINT
  5
8019
  8
DEFPOINTS
  6
CONTINUOUS
 62
     0
 10
3516.7676759999999
 20
1509.6779320000001
 30
0.0
  0
POINT
  5
801A
  8
DEFPOINTS
  6
CONTINUOUS
 62
     0
 10
3516.7676759999999
 20
1353.3898099999999
 30
0.0
  0
ENDBLK
  5
7F70
  8
0
  0
BLOCK
  8
0
  2
*D14
 70
     1
 10
0.0
 20
0.0
 30
0.0
  3
*D14
  1

  0
LINE
  5
801B
  8
3
  6
CONTINUOUS
 62
     0
 10
1047.0089779999989
 20
3988.8079320000002
 30
0.0
 11
1047.0089779999989
 21
4097.0365349999993
 31
0.0
  0
LINE
  5
801C
  8
3
  6
CONTINUOUS
 62
     0
 10
2167.0089779999998
 20
3988.8079320000002
 30
0.0
 11
2167.0089779999998
 21
4097.0365349999993
 31
0.0
  0
LINE
  5
801D
  8
3
  6
CONTINUOUS
 62
     0
 10
1087.0089779999989
 20
4077.0365350000002
 30
0.0
 11
2127.0089779999998
 21
4077.0365350000002
 31
0.0
  0
INSERT
  5
801E
  8
3
  6
CONTINUOUS
 62
     0
  2
_OPEN
 10
1047.0089779999989
 20
4077.0365350000002
 30
0.0
 41
40.0
 42
40.0
 43
40.0
 50
180.0
  0
INSERT
  5
801F
  8
3
  6
CONTINUOUS
 62
     0
  2
_OPEN
 10
2167.0089779999998
 20
4077.0365350000002
 30
0.0
 41
40.0
 42
40.0
 43
40.0
  0
TEXT
  8
3
  40
60
  5
8064
  62
0
  72
0
  71
0
 10
1467.33
 20
4020.84
 30
0.000000
  1
1120
  0
POINT
  5
8021
  8
DEFPOINTS
  6
CONTINUOUS
 62
     0
 10
1047.0089779999989
 20
3978.8079320000002
 30
0.0
  0
POINT
  5
8022
  8
DEFPOINTS
  6
CONTINUOUS
 62
     0
 10
2167.0089779999998
 20
3978.8079320000002
 30
0.0
  0
POINT
  5
8023
  8
DEFPOINTS
  6
CONTINUOUS
 62
     0
 10
2167.0089779999998
 20
4077.0365350000002
 30
0.0
  0
ENDBLK
  5
7E49
  8
0
  0
BLOCK
  8
0
  2
*D15
 70
     1
 10
0.0
 20
0.0
 30
0.0
  3
*D15
  1

  0
LINE
  5
8024
  8
3
  6
CONTINUOUS
 62
     0
 10
2177.0089779999998
 20
3978.8079320000002
 30
0.0
 11
2384.6169050000012
 21
3978.8079320000002
 31
0.0
  0
LINE
  5
8025
  8
3
  6
CONTINUOUS
 62
     0
 10
2177.0089779999998
 20
3288.8079320000002
 30
0.0
 11
2384.6169050000012
 21
3288.8079320000002
 31
0.0
  0
LINE
  5
8026
  8
3
  6
CONTINUOUS
 62
     0
 10
2364.6169049999999
 20
3938.8079320000002
 30
0.0
 11
2364.6169049999999
 21
3328.8079320000002
 31
0.0
  0
INSERT
  5
8027
  8
3
  6
CONTINUOUS
 62
     0
  2
_OPEN
 10
2364.6169049999999
 20
3978.8079320000002
 30
0.0
 41
40.0
 42
40.0
 43
40.0
 50
90.0
  0
INSERT
  5
8028
  8
3
  6
CONTINUOUS
 62
     0
  2
_OPEN
 10
2364.6169049999999
 20
3288.8079320000002
 30
0.0
 41
40.0
 42
40.0
 43
40.0
 50
270.0
  0
TEXT
  8
3
  40
60
  5
8065
  62
0
  72
0
  71
0
 10
2194.62
 20
3536.56
 30
0.000000
  1
690
  0
POINT
  5
802A
  8
DEFPOINTS
  6
CONTINUOUS
 62
     0
 10
2167.0089779999998
 20
3978.8079320000002
 30
0.0
  0
POINT
  5
802B
  8
DEFPOINTS
  6
CONTINUOUS
 62
     0
 10
2167.0089779999998
 20
3288.8079320000002
 30
0.0
  0
POINT
  5
802C
  8
DEFPOINTS
  6
CONTINUOUS
 62
     0
 10
2364.6169049999999
 20
3288.8079320000002
 30
0.0
  0
ENDBLK
  5
7E54
  8
0
  0
BLOCK
  8
0
  2
*D16
 70
     1
 10
0.0
 20
0.0
 30
0.0
  3
*D16
  1

  0
LINE
  5
802D
  8
3
  6
CONTINUOUS
 62
     0
 10
1037.0089780000001
 20
1549.6779320000001
 30
0.0
 11
785.25013799999999
 21
1549.6779320000001
 31
0.0
  0
LINE
  5
802E
  8
3
  6
CONTINUOUS
 62
     0
 10
805.25013799999999
 20
1676.6779320000001
 30
0.0
 11
805.25013799999999
 21
1716.6779320000001
 31
0.0
  0
LINE
  5
802F
  8
3
  6
CONTINUOUS
 62
     0
 10
805.25013799999999
 20
1509.6779320000001
 30
0.0
 11
805.25013799999999
 21
1469.6779320000001
 31
0.0
  0
TEXT
  8
3
  40
60
  5
8066
  62
0
  72
0
  71
0
 10
635.117
 20
1500.04
 30
0.000000
  1
87
  0
LINE
  5
8031
  8
3
  6
CONTINUOUS
 62
     0
 10
805.25013799999999
 20
1636.6779320000001
 30
0.0
 11
805.25013799999999
 21
1549.6779320000001
 31
0.0
  0
INSERT
  5
8032
  8
3
  6
CONTINUOUS
 62
     0
  2
_OPEN
 10
805.25013799999999
 20
1636.6779320000001
 30
0.0
 41
40.0
 42
40.0
 43
40.0
 50
270.0
  0
INSERT
  5
8033
  8
3
  6
CONTINUOUS
 62
     0
  2
_DOT
 10
805.25013799999999
 20
1549.6779320000001
 30
0.0
 41
40.0
 42
40.0
 43
40.0
 50
90.0
  0
POINT
  5
8034
  8
DEFPOINTS
  6
CONTINUOUS
 62
     0
 10
1047.0089779999989
 20
1636.6779320000001
 30
0.0
  0
POINT
  5
8035
  8
DEFPOINTS
  6
CONTINUOUS
 62
     0
 10
1047.0089779999989
 20
1549.6779320000001
 30
0.0
  0
POINT
  5
8036
  8
DEFPOINTS
  6
CONTINUOUS
 62
     0
 10
805.25013799999999
 20
1549.6779320000001
 30
0.0
  0
ENDBLK
  5
7F1C
  8
0
  0
BLOCK
  8
0
  2
*D17
 70
     1
 10
0.0
 20
0.0
 30
0.0
  3
*D17
  1

  0
LINE
  5
8037
  8
3
  6
CONTINUOUS
 62
     0
 10
1037.0089780000001
 20
1549.6779320000001
 30
0.0
 11
785.25013800000022
 21
1549.6779320000001
 31
0.0
  0
LINE
  5
8038
  8
3
  6
CONTINUOUS
 62
     0
 10
1037.0089780000001
 20
1509.6779320000001
 30
0.0
 11
785.25013800000022
 21
1509.6779320000001
 31
0.0
  0
LINE
  5
8039
  8
3
  6
CONTINUOUS
 62
     0
 10
805.25013800000022
 20
1589.6779320000001
 30
0.0
 11
805.25013800000022
 21
1629.6779320000001
 31
0.0
  0
LINE
  5
803A
  8
3
  6
CONTINUOUS
 62
     0
 10
805.25013800000022
 20
1469.6779320000001
 30
0.0
 11
805.25013800000022
 21
1292.5350748571429
 31
0.0
  0
LINE
  5
803B
  8
3
  6
CONTINUOUS
 62
     0
 10
805.25013800000022
 20
1549.6779320000001
 30
0.0
 11
805.25013800000022
 21
1509.6779320000001
 31
0.0
  0
INSERT
  5
803C
  8
3
  6
CONTINUOUS
 62
     0
  2
_DOT
 10
805.25013800000022
 20
1549.6779320000001
 30
0.0
 41
40.0
 42
40.0
 43
40.0
 50
270.0
  0
INSERT
  5
803D
  8
3
  6
CONTINUOUS
 62
     0
  2
_OPEN
 10
805.25013800000022
 20
1509.6779320000001
 30
0.0
 41
40.0
 42
40.0
 43
40.0
 50
90.0
  0
TEXT
  8
3
  40
60
  5
8067
  62
0
  72
0
  71
0
 10
635.250
 20
1254.91
 30
0.000000
  1
40
  0
POINT
  5
803F
  8
DEFPOINTS
  6
CONTINUOUS
 62
     0
 10
1047.0089779999989
 20
1549.6779320000001
 30
0.0
  0
POINT
  5
8040
  8
DEFPOINTS
  6
CONTINUOUS
 62
     0
 10
1047.0089779999989
 20
1509.6779320000001
 30
0.0
  0
POINT
  5
8041
  8
DEFPOINTS
  6
CONTINUOUS
 62
     0
 10
805.25013800000022
 20
1509.6779320000001
 30
0.0
  0
ENDBLK
  5
7F29
  8
0
  0
BLOCK
  8
0
  2
*D18
 70
     1
 10
0.0
 20
0.0
 30
0.0
  3
*D18
  1

  0
LINE
  5
8042
  8
3
  6
CONTINUOUS
 62
     0
 10
3032.7676759999999
 20
2570.6779320000001
 30
0.0
 11
3032.7676759999999
 21
2644.0433219999991
 31
0.0
  0
LINE
  5
8043
  8
3
  6
CONTINUOUS
 62
     0
 10
3392.7676759999999
 20
2570.6779320000001
 30
0.0
 11
3392.7676759999999
 21
2644.0433219999991
 31
0.0
  0
LINE
  5
8044
  8
3
  6
CONTINUOUS
 62
     0
 10
3072.7676759999999
 20
2624.043322
 30
0.0
 11
3352.7676759999999
 21
2624.043322
 31
0.0
  0
INSERT
  5
8045
  8
3
  6
CONTINUOUS
 62
     0
  2
_OPEN
 10
3032.7676759999999
 20
2624.043322
 30
0.0
 41
40.0
 42
40.0
 43
40.0
 50
180.0
  0
INSERT
  5
8046
  8
3
  6
CONTINUOUS
 62
     0
  2
_OPEN
 10
3392.7676759999999
 20
2624.043322
 30
0.0
 41
40.0
 42
40.0
 43
40.0
  0
TEXT
  8
3
  40
60
  5
8068
  62
0
  72
0
  71
0
 10
3084.90
 20
2567.84
 30
0.000000
  1
360
  0
POINT
  5
8048
  8
DEFPOINTS
  6
CONTINUOUS
 62
     0
 10
3032.7676759999999
 20
2560.6779320000001
 30
0.0
  0
POINT
  5
8049
  8
DEFPOINTS
  6
CONTINUOUS
 62
     0
 10
3392.7676759999999
 20
2560.6779320000001
 30
0.0
  0
POINT
  5
804A
  8
DEFPOINTS
  6
CONTINUOUS
 62
     0
 10
3392.7676759999999
 20
2624.043322
 30
0.0
  0
ENDBLK
  5
7E8C
  8
0
  0
BLOCK
  8
0
  2
_DOT
 70
     0
 10
0.0
 20
0.0
 30
0.0
  3
_DOT
  1

  0
LINE
  5
7F2A
  8
0
  6
BYBLOCK
 62
     0
 10
0.0
 20
0.0
 30
0.0
 11
-1.0
 21
-0.0000000000000284
 31
0.0
  0
POLYLINE
  5
7F2B
  8
0
  6
BYBLOCK
 62
     0
 66
     1
 10
0.0
 20
0.0
 30
0.0
 70
     1
 40
0.1666666666666666
 41
0.1666666666666666
  0
VERTEX
  5
804B
  8
0
  6
BYBLOCK
 62
     0
 10
-0.0833333333333286
 20
-0.0000000000000284
 30
0.0
 42
1.0
  0
VERTEX
  5
804C
  8
0
  6
BYBLOCK
 62
     0
 10
0.0833333333333286
 20
-0.0000000000000284
 30
0.0
 42
1.0
  0
SEQEND
  5
804D
  8
0
  6
BYBLOCK
 62
     0
  0
ENDBLK
  5
7F10
  8
0
  0
BLOCK
  8
0
  2
*D20
 70
     1
 10
0.0
 20
0.0
 30
0.0
  3
*D20
  1

  0
LINE
  5
804E
  8
3
 62
     0
 10
992.00897799999996
 20
2560.6779320000001
 30
0.0
 11
992.00897799999996
 21
2801.762047822152
 31
0.0
  0
LINE
  5
804F
  8
3
 62
     0
 10
2167.0089779999998
 20
1726.6779320000001
 30
0.0
 11
2167.0089779999998
 21
2801.762047822152
 31
0.0
  0
LINE
  5
8050
  8
3
 62
     0
 10
1032.0089779999989
 20
2781.762047822152
 30
0.0
 11
2127.0089779999998
 21
2781.762047822152
 31
0.0
  0
INSERT
  5
8051
  8
3
 62
     0
  2
_OPEN
 10
992.00897799999996
 20
2781.762047822152
 30
0.0
 41
40.0
 42
40.0
 43
40.0
 50
180.0
  0
INSERT
  5
8052
  8
3
 62
     0
  2
_OPEN
 10
2167.0089779999998
 20
2781.762047822152
 30
0.0
 41
40.0
 42
40.0
 43
40.0
  0
TEXT
  8
3
  40
60
  5
8069
  62
0
  72
0
  71
0
 10
1449.06
 20
2725.56
 30
0.000000
  1
1175
  0
POINT
  5
8054
  8
DEFPOINTS
 62
     0
 10
992.00897799999996
 20
2550.6779320000001
 30
0.0
  0
POINT
  5
8055
  8
DEFPOINTS
 62
     0
 10
2167.0089779999998
 20
1716.6779320000001
 30
0.0
  0
POINT
  5
8056
  8
DEFPOINTS
 62
     0
 10
2167.0089779999998
 20
2781.762047822152
 30
0.0
  0
ENDBLK
  5
7F65
  8
0
  0
ENDSEC
  0
SECTION
  2
ENTITIES
  0
LINE
  5
7B98
  8
1
  6
CONTINUOUS
 10
1757.0089779999989
 20
2426.6779320000001
 30
0.0
 11
1037.0089780000001
 21
2426.6779320000001
 31
0.0
  0
ARC
  5
7B99
  8
1
  6
CONTINUOUS
 10
1374.0089779999989
 20
2098.6779320000001
 30
0.0
 40
380.98000000000002
 50
261.52999999999992
 51
355.16000000000003
  0
ARC
  5
7B9A
  8
1
  6
CONTINUOUS
 10
1323.929349
 20
2102.141349999999
 30
0.0
 40
431.17249299999992
 50
355.26344499999999
 51
86.879466000000008
  0
LINE
  5
7B9B
  8
1
  6
CONTINUOUS
 10
1755.1989779999999
 20
3492.8079320000002
 30
0.0
 11
992.00897799999996
 21
3492.8079320000002
 31
0.0
  0
LINE
  5
7B9C
  8
1
  6
CONTINUOUS
 10
1755.1989779999999
 20
3856.8079320000002
 30
0.0
 11
992.00897799999996
 21
3856.8079320000002
 31
0.0
  0
LINE
  5
7B9D
  8
1
  6
CONTINUOUS
 10
2167.0089779999998
 20
1636.6779320000001
 30
0.0
 11
1047.0089779999989
 21
1636.6779320000001
 31
0.0
  0
LINE
  5
7B9E
  8
1
  6
CONTINUOUS
 10
2167.0089779999998
 20
1716.6779320000001
 30
0.0
 11
1037.0089780000001
 21
1716.6779320000001
 31
0.0
  0
LINE
  5
7B9F
  8
1
  6
CONTINUOUS
 10
2167.0089779999998
 20
3898.8079320000002
 30
0.0
 11
1047.0089779999989
 21
3898.8079320000002
 31
0.0
  0
LINE
  5
7BA0
  8
1
  6
CONTINUOUS
 10
1928.0089780000001
 20
3450.8079320000002
 30
0.0
 11
1366.0089779999989
 21
3450.8079320000002
 31
0.0
  0
LINE
  5
7BA1
  8
1
  6
CONTINUOUS
 10
2167.0089779999998
 20
1549.6779320000001
 30
0.0
 11
1047.0089779999989
 21
1549.6779320000001
 31
0.0
  0
LINE
  5
7BA2
  8
1
  6
CONTINUOUS
 10
2167.0089779999998
 20
1614.6779320000001
 30
0.0
 11
1047.0089779999989
 21
1614.6779320000001
 31
0.0
  0
LINE
  5
7BAA
  8
1
  6
CONTINUOUS
 10
1391.1789779999999
 20
2183.2479320000002
 30
0.0
 11
1969.098978
 21
1954.467932
 31
0.0
  0
LINE
  5
7BAB
  8
1
  6
CONTINUOUS
 10
1935.9989780000001
 20
1839.6979319999989
 30
0.0
 11
1324.9989779999989
 21
1953.7179319999991
 31
0.0
  0
LINE
  5
7BAC
  8
1
  6
CONTINUOUS
 10
1121.5089779999989
 20
3304.8079320000002
 30
0.0
 11
2121.5089779999998
 21
3304.8079320000002
 31
0.0
  0
LINE
  5
7BAD
  8
1
  6
CONTINUOUS
 10
2121.5089779999998
 20
3424.8079320000002
 30
0.0
 11
1121.5089779999989
 21
3424.8079320000002
 31
0.0
  0
ARC
  5
7BAE
  8
1
  6
CONTINUOUS
 10
1377.4701210000001
 20
2060.5489229999998
 30
0.0
 40
343.89392400000003
 50
181.14027899999991
 51
260.02361200000001
  0
LINE
  5
7BAF
  8
1
  6
CONTINUOUS
 10
992.00897799999996
 20
2533.6779320000001
 30
0.0
 11
1347.388978
 21
2532.6779320000001
 31
0.0
  0
LINE
  5
7BB0
  8
1
  6
CONTINUOUS
 10
1033.638977999999
 20
2053.6779320000001
 30
0.0
 11
992.00897799999996
 21
2053.6779320000001
 31
0.0
  0
LINE
  5
7BB1
  8
1
  6
CONTINUOUS
 10
992.00897799999996
 20
2550.6779320000001
 30
0.0
 11
992.00897799999996
 21
2036.6779320000001
 31
0.0
  0
LINE
  5
7BB2
  8
1
  6
CONTINUOUS
 10
1017.008978
 20
2053.6779320000001
 30
0.0
 11
1017.008978
 21
2533.6079319999999
 31
0.0
  0
CIRCLE
  5
7BB3
  8
1
  6
CONTINUOUS
 10
1347.0089779999989
 20
2071.6779320000001
 30
0.0
 40
275.0
  0
LINE
  5
7BB4
  8
1
  6
CONTINUOUS
 10
1037.0089780000001
 20
2426.6779320000001
 30
0.0
 11
1037.0089780000001
 21
1716.6779320000001
 31
0.0
  0
CIRCLE
  5
7BB5
  8
1
  6
CONTINUOUS
 10
1347.0089779999989
 20
2071.6779320000001
 30
0.0
 40
250.0
  0
LINE
  5
7BB6
  8
1
  6
CONTINUOUS
 10
1047.0089779999989
 20
1716.6779320000001
 30
0.0
 11
1047.0089779999989
 21
1636.6779320000001
 31
0.0
  0
LINE
  5
7BB7
  8
1
  6
CONTINUOUS
 10
1087.0089779999989
 20
1549.6779320000001
 30
0.0
 11
1087.0089779999989
 21
1509.6779320000001
 31
0.0
  0
LINE
  5
7BB8
  8
1
  6
CONTINUOUS
 10
1047.0089779999989
 20
1509.6779320000001
 30
0.0
 11
1087.0089779999989
 21
1509.6779320000001
 31
0.0
  0
LINE
  5
7BB9
  8
1
  6
CONTINUOUS
 10
1047.0089779999989
 20
1614.6779320000001
 30
0.0
 11
1047.0089779999989
 21
1509.6779320000001
 31
0.0
  0
LINE
  5
7BBA
  8
2
  6
CENTER
 10
3427.10889
 20
2071.6779320000001
 30
0.0
 11
2741.3078099999998
 21
2071.6779320000001
 31
0.0
  0
CIRCLE
  5
7BBB
  8
1
  6
CONTINUOUS
 10
1347.0089779999989
 20
2071.6779320000001
 30
0.0
 40
120.0
  0
LINE
  5
7BBC
  8
2
  6
CENTER
 10
1347.0089779999989
 20
3973.359445999999
 30
0.0
 11
1347.0089779999989
 21
3210.5714619999999
 31
0.0
  0
LINE
  5
7BBD
  8
1
  6
CONTINUOUS
 10
1017.008978
 20
3492.8079320000002
 30
0.0
 11
1017.008978
 21
3856.8079320000002
 31
0.0
  0
LINE
  5
7BBE
  8
1
  6
CONTINUOUS
 10
992.00897799999996
 20
3467.8079320000002
 30
0.0
 11
992.00897799999996
 21
3881.8079320000002
 31
0.0
  0
LINE
  5
7BBF
  8
1
  6
CONTINUOUS
 10
1467.0089779999989
 20
3334.8079320000002
 30
0.0
 11
1227.0089779999989
 21
3334.8079320000002
 31
0.0
  0
LINE
  5
7BC0
  8
1
  6
CONTINUOUS
 10
1328.0089779999989
 20
3450.8079320000002
 30
0.0
 11
1047.0089779999989
 21
3450.8079320000002
 31
0.0
  0
LINE
  5
7BC1
  8
1
  6
CONTINUOUS
 10
1227.0089779999989
 20
3394.8079320000002
 30
0.0
 11
1467.0089779999989
 21
3394.8079320000002
 31
0.0
  0
LINE
  5
7BC2
  8
1
  6
CONTINUOUS
 10
1047.0089779999989
 20
3492.8079320000002
 30
0.0
 11
1047.0089779999989
 21
3288.8079320000002
 31
0.0
  0
LINE
  5
7BC3
  8
1
  6
CONTINUOUS
 10
1087.0089779999989
 20
3288.8079320000002
 30
0.0
 11
1087.0089779999989
 21
3450.8079320000002
 31
0.0
  0
LINE
  5
7BC4
  8
1
  6
CONTINUOUS
 10
1087.0089779999989
 20
3288.8079320000002
 30
0.0
 11
1047.0089779999989
 21
3288.8079320000002
 31
0.0
  0
LINE
  5
7BC5
  8
1
  6
CONTINUOUS
 10
1121.5089779999989
 20
3424.8079320000002
 30
0.0
 11
1121.5089779999989
 21
3304.8079320000002
 31
0.0
  0
LINE
  5
7BC6
  8
1
  6
CONTINUOUS
 10
1227.0089779999989
 20
3334.8079320000002
 30
0.0
 11
1227.0089779999989
 21
3394.8079320000002
 31
0.0
  0
LINE
  5
7BC7
  8
1
  6
CONTINUOUS
 10
1467.0089779999989
 20
3334.8079320000002
 30
0.0
 11
1467.0089779999989
 21
3394.8079320000002
 31
0.0
  0
LINE
  5
7BC8
  8
1
  6
CONTINUOUS
 10
1328.0089779999989
 20
3394.8079320000002
 30
0.0
 11
1328.0089779999989
 21
3492.8079320000002
 31
0.0
  0
LINE
  5
7BC9
  8
1
  6
CONTINUOUS
 10
1366.0089779999989
 20
3394.8079320000002
 30
0.0
 11
1366.0089779999989
 21
3492.8079320000002
 31
0.0
  0
LINE
  5
7BCA
  8
1
  6
CONTINUOUS
 10
1047.0089779999989
 20
3978.8079320000002
 30
0.0
 11
1047.0089779999989
 21
3856.8079320000002
 31
0.0
  0
LINE
  5
7BCB
  8
1
  6
CONTINUOUS
 10
1087.0089779999989
 20
3978.8079320000002
 30
0.0
 11
1047.0089779999989
 21
3978.8079320000002
 31
0.0
  0
LINE
  5
7BCC
  8
1
  6
CONTINUOUS
 10
1087.0089779999989
 20
3978.8079320000002
 30
0.0
 11
1087.0089779999989
 21
3898.8079320000002
 31
0.0
  0
LINE
  5
7BDC
  8
1
  6
CONTINUOUS
 10
1757.0089779999989
 20
2426.6779320000001
 30
0.0
 11
1757.0089779999989
 21
1716.6779320000001
 31
0.0
  0
CIRCLE
  5
7BDD
  8
1
  6
CONTINUOUS
 10
1947.0089780000001
 20
1898.6779320000001
 30
0.0
 40
60.0
  0
LINE
  5
7BDE
  8
2
  6
CENTER
 10
1947.0089780000001
 20
1838.6779320000001
 30
0.0
 11
1947.0089780000001
 21
1958.6779320000001
 31
0.0
  0
ARC
  5
7BDF
  8
1
  6
CONTINUOUS
 10
1950.288978
 20
1898.6779320000001
 30
0.0
 40
122.0
 50
324.60000000000002
 51
215.39999999999989
  0
LINE
  5
7BE0
  8
2
  6
CENTER
 10
2007.0089779999989
 20
1898.6779320000001
 30
0.0
 11
1887.0089780000001
 21
1898.6779320000001
 31
0.0
  0
LINE
  5
7BE1
  8
1
  6
CONTINUOUS
 10
2080.288978
 20
1766.6779320000001
 30
0.0
 11
1820.2889779999989
 21
1766.6779320000001
 31
0.0
  0
LINE
  5
7BE2
  8
1
  6
CONTINUOUS
 10
1820.2889779999989
 20
1766.6779320000001
 30
0.0
 11
1870.2889779999989
 21
1766.6779320000001
 31
0.0
  0
LINE
  5
7BE3
  8
1
  6
CONTINUOUS
 10
1820.2889779999989
 20
1716.6779320000001
 30
0.0
 11
1820.2889779999989
 21
1766.6779320000001
 31
0.0
  0
LINE
  5
7BE4
  8
1
  6
CONTINUOUS
 10
1820.2889779999989
 20
1766.6779320000001
 30
0.0
 11
1850.848978
 21
1827.9979319999991
 31
0.0
  0
LINE
  5
7BE5
  8
1
  6
CONTINUOUS
 10
2080.288978
 20
1766.6779320000001
 30
0.0
 11
2049.7389779999999
 21
1827.9979319999991
 31
0.0
  0
LINE
  5
7BE6
  8
1
  6
CONTINUOUS
 10
2080.288978
 20
1766.6779320000001
 30
0.0
 11
2030.288978
 21
1766.6779320000001
 31
0.0
  0
LINE
  5
7BE7
  8
1
  6
CONTINUOUS
 10
2167.0089779999998
 20
1716.6779320000001
 30
0.0
 11
2167.0089779999998
 21
1636.6779320000001
 31
0.0
  0
LINE
  5
7BE8
  8
1
  6
CONTINUOUS
 10
2167.0089779999998
 20
1509.6779320000001
 30
0.0
 11
2127.0089779999998
 21
1509.6779320000001
 31
0.0
  0
LINE
  5
7BE9
  8
1
  6
CONTINUOUS
 10
2127.0089779999998
 20
1549.6779320000001
 30
0.0
 11
2127.0089779999998
 21
1509.6779320000001
 31
0.0
  0
LINE
  5
7BEA
  8
1
  6
CONTINUOUS
 10
2167.0089779999998
 20
1614.6779320000001
 30
0.0
 11
2167.0089779999998
 21
1509.6779320000001
 31
0.0
  0
LINE
  5
7BEB
  8
1
  6
CONTINUOUS
 10
2080.288978
 20
1716.6779320000001
 30
0.0
 11
2080.288978
 21
1766.6779320000001
 31
0.0
  0
LINE
  5
7C12
  8
1
  6
CONTINUOUS
 10
1755.1989779999999
 20
3492.8079320000002
 30
0.0
 11
1755.1989779999999
 21
3856.8079320000002
 31
0.0
  0
LINE
  5
7C13
  8
1
  6
CONTINUOUS
 10
2167.0089779999998
 20
3978.8079320000002
 30
0.0
 11
2167.0089779999998
 21
3288.8079320000002
 31
0.0
  0
LINE
  5
7C14
  8
1
  6
CONTINUOUS
 10
1825.0089779999989
 20
3475.0479319999999
 30
0.0
 11
1825.0089779999989
 21
3825.0479319999999
 31
0.0
  0
LINE
  5
7C15
  8
1
  6
CONTINUOUS
 10
2069.0089779999998
 20
3475.0479319999999
 30
0.0
 11
2069.0089779999998
 21
3825.0479319999999
 31
0.0
  0
LINE
  5
7C16
  8
1
  6
CONTINUOUS
 10
2069.0089779999998
 20
3475.0479319999999
 30
0.0
 11
1825.0089779999989
 21
3475.0479319999999
 31
0.0
  0
LINE
  5
7C17
  8
1
  6
CONTINUOUS
 10
1997.0089780000001
 20
3334.8079320000002
 30
0.0
 11
1897.0089780000001
 21
3334.8079320000002
 31
0.0
  0
LINE
  5
7C18
  8
1
  6
CONTINUOUS
 10
1897.0089780000001
 20
3394.8079320000002
 30
0.0
 11
1997.0089780000001
 21
3394.8079320000002
 31
0.0
  0
LINE
  5
7C19
  8
1
  6
CONTINUOUS
 10
1897.0089780000001
 20
3334.8079320000002
 30
0.0
 11
1897.0089780000001
 21
3394.8079320000002
 31
0.0
  0
LINE
  5
7C1A
  8
1
  6
CONTINUOUS
 10
2167.0089779999998
 20
3450.8079320000002
 30
0.0
 11
1966.0089779999989
 21
3450.8079320000002
 31
0.0
  0
LINE
  5
7C1B
  8
1
  6
CONTINUOUS
 10
1966.0089779999989
 20
3394.8079320000002
 30
0.0
 11
1966.0089779999989
 21
3475.0479319999999
 31
0.0
  0
LINE
  5
7C1C
  8
1
  6
CONTINUOUS
 10
1928.0089780000001
 20
3394.8079320000002
 30
0.0
 11
1928.0089780000001
 21
3475.0479319999999
 31
0.0
  0
LINE
  5
7C1D
  8
1
  6
CONTINUOUS
 10
1997.0089780000001
 20
3394.8079320000002
 30
0.0
 11
1997.0089780000001
 21
3334.8079320000002
 31
0.0
  0
LINE
  5
7C1E
  8
1
  6
CONTINUOUS
 10
2127.0089779999998
 20
3288.8079320000002
 30
0.0
 11
2167.0089779999998
 21
3288.8079320000002
 31
0.0
  0
LINE
  5
7C1F
  8
1
  6
CONTINUOUS
 10
2127.0089779999998
 20
3288.8079320000002
 30
0.0
 11
2127.0089779999998
 21
3450.8079320000002
 31
0.0
  0
LINE
  5
7C20
  8
1
  6
CONTINUOUS
 10
2121.5089779999998
 20
3304.8079320000002
 30
0.0
 11
2121.5089779999998
 21
3424.8079320000002
 31
0.0
  0
LINE
  5
7C21
  8
1
  6
CONTINUOUS
 10
2069.0089779999998
 20
3825.0479319999999
 30
0.0
 11
1825.0089779999989
 21
3825.0479319999999
 31
0.0
  0
LINE
  5
7C22
  8
1
  6
CONTINUOUS
 10
2127.0089779999998
 20
3978.8079320000002
 30
0.0
 11
2167.0089779999998
 21
3978.8079320000002
 31
0.0
  0
LINE
  5
7C23
  8
1
  6
CONTINUOUS
 10
2127.0089779999998
 20
3978.8079320000002
 30
0.0
 11
2127.0089779999998
 21
3898.8079320000002
 31
0.0
  0
LINE
  5
7C46
  8
1
  6
CONTINUOUS
 10
2988.7676759999999
 20
1549.6779320000001
 30
0.0
 11
3436.7676759999999
 21
1549.6779320000001
 31
0.0
  0
LINE
  5
7C47
  8
1
  6
CONTINUOUS
 10
2826.7676759999999
 20
1509.6779320000001
 30
0.0
 11
3516.7676759999999
 21
1509.6779320000001
 31
0.0
  0
LINE
  5
7C48
  8
1
  6
CONTINUOUS
 10
2826.7676759999999
 20
1549.6779320000001
 30
0.0
 11
3516.7676759999999
 21
1549.6779320000001
 31
0.0
  0
LINE
  5
7C49
  8
1
  6
CONTINUOUS
 10
2988.7676759999999
 20
1716.6779320000001
 30
0.0
 11
3436.7676759999999
 21
1716.6779320000001
 31
0.0
  0
LINE
  5
7C4A
  8
1
  6
CONTINUOUS
 10
2988.7676759999999
 20
1549.6779320000001
 30
0.0
 11
3436.7676759999999
 21
1549.6779320000001
 31
0.0
  0
LINE
  5
7C4B
  8
1
  6
CONTINUOUS
 10
3032.7676759999999
 20
2026.6779320000001
 30
0.0
 11
3392.7676759999999
 21
2026.6779320000001
 31
0.0
  0
LINE
  5
7C4C
  8
1
  6
CONTINUOUS
 10
3392.7676759999999
 20
2560.6779320000001
 30
0.0
 11
3032.7676759999999
 21
2560.6779320000001
 31
0.0
  0
LINE
  5
7C4D
  8
1
  6
CONTINUOUS
 10
3392.7676759999999
 20
2026.6779320000001
 30
0.0
 11
3032.7676759999999
 21
2560.6779320000001
 31
0.0
  0
LINE
  5
7C4E
  8
1
  6
CONTINUOUS
 10
3032.7676759999999
 20
2026.6779320000001
 30
0.0
 11
3392.7676759999999
 21
2560.6779320000001
 31
0.0
  0
LINE
  5
7C4F
  8
1
  6
CONTINUOUS
 10
2988.7676759999999
 20
1614.6779320000001
 30
0.0
 11
3436.7676759999999
 21
1614.6779320000001
 31
0.0
  0
LINE
  5
7C50
  8
1
  6
CONTINUOUS
 10
2988.7676759999999
 20
1636.6779320000001
 30
0.0
 11
3436.7676759999999
 21
1636.6779320000001
 31
0.0
  0
LINE
  5
7C51
  8
1
  6
CONTINUOUS
 10
3032.7676759999999
 20
2560.6779320000001
 30
0.0
 11
3032.7676759999999
 21
1716.6779320000001
 31
0.0
  0
LINE
  5
7C52
  8
1
  6
CONTINUOUS
 10
2872.7676759999999
 20
1948.6779320000001
 30
0.0
 11
2872.7676759999999
 21
1848.6779320000001
 31
0.0
  0
LINE
  5
7C53
  8
1
  6
CONTINUOUS
 10
2932.7676759999999
 20
1848.6779320000001
 30
0.0
 11
2932.7676759999999
 21
1948.6779320000001
 31
0.0
  0
LINE
  5
7C54
  8
1
  6
CONTINUOUS
 10
2842.7676759999999
 20
1716.6779320000001
 30
0.0
 11
2842.7676759999999
 21
2461.6779320000001
 31
0.0
  0
LINE
  5
7C55
  8
1
  6
CONTINUOUS
 10
2962.7676759999999
 20
2461.6779320000001
 30
0.0
 11
2962.7676759999999
 21
1716.6779320000001
 31
0.0
  0
LINE
  5
7C56
  8
1
  6
CONTINUOUS
 10
2962.7676759999999
 20
1716.6779320000001
 30
0.0
 11
2842.7676759999999
 21
1716.6779320000001
 31
0.0
  0
LINE
  5
7C59
  8
1
  6
CONTINUOUS
 10
2826.7676759999999
 20
1549.6779320000001
 30
0.0
 11
2826.7676759999999
 21
1509.6779320000001
 31
0.0
  0
LINE
  5
7C5A
  8
1
  6
CONTINUOUS
 10
2932.7676759999999
 20
1879.6779320000001
 30
0.0
 11
3032.7676759999999
 21
1879.6779320000001
 31
0.0
  0
LINE
  5
7C5B
  8
1
  6
CONTINUOUS
 10
2988.7676759999999
 20
1716.6779320000001
 30
0.0
 11
2988.7676759999999
 21
1636.6779320000001
 31
0.0
  0
LINE
  5
7C5C
  8
1
  6
CONTINUOUS
 10
2988.7676759999999
 20
1614.6779320000001
 30
0.0
 11
2988.7676759999999
 21
1549.6779320000001
 31
0.0
  0
LINE
  5
7C5D
  8
1
  6
CONTINUOUS
 10
2872.7676759999999
 20
1848.6779320000001
 30
0.0
 11
2932.7676759999999
 21
1848.6779320000001
 31
0.0
  0
LINE
  5
7C5E
  8
1
  6
CONTINUOUS
 10
2842.7676759999999
 20
2461.6779320000001
 30
0.0
 11
2962.7676759999999
 21
2461.6779320000001
 31
0.0
  0
LINE
  5
7C5F
  8
1
  6
CONTINUOUS
 10
2932.7676759999999
 20
2090.6779320000001
 30
0.0
 11
3032.7676759999999
 21
2090.6779320000001
 31
0.0
  0
LINE
  5
7C60
  8
1
  6
CONTINUOUS
 10
2932.7676759999999
 20
2052.6779319999991
 30
0.0
 11
3032.7676759999999
 21
2052.6779319999991
 31
0.0
  0
LINE
  5
7C61
  8
1
  6
CONTINUOUS
 10
2932.7676759999999
 20
1917.6779320000001
 30
0.0
 11
3032.7676759999999
 21
1917.6779320000001
 31
0.0
  0
LINE
  5
7C62
  8
1
  6
CONTINUOUS
 10
2872.7676759999999
 20
2191.6779320000001
 30
0.0
 11
2872.7676759999999
 21
1951.6779320000001
 31
0.0
  0
LINE
  5
7C63
  8
1
  6
CONTINUOUS
 10
2932.7676759999999
 20
2191.6779320000001
 30
0.0
 11
2872.7676759999999
 21
2191.6779320000001
 31
0.0
  0
LINE
  5
7C64
  8
1
  6
CONTINUOUS
 10
2932.7676759999999
 20
1951.6779320000001
 30
0.0
 11
2872.7676759999999
 21
1951.6779320000001
 31
0.0
  0
LINE
  5
7C65
  8
1
  6
CONTINUOUS
 10
2932.7676759999999
 20
1951.6779320000001
 30
0.0
 11
2932.7676759999999
 21
2191.6779320000001
 31
0.0
  0
LINE
  5
7C66
  8
1
  6
CONTINUOUS
 10
2932.7676759999999
 20
1948.6779320000001
 30
0.0
 11
2872.7676759999999
 21
1948.6779320000001
 31
0.0
  0
LINE
  5
7C67
  8
1
  6
CONTINUOUS
 10
3392.7676759999999
 20
2560.6779320000001
 30
0.0
 11
3392.7676759999999
 21
1716.6779320000001
 31
0.0
  0
LINE
  5
7C68
  8
1
  6
CONTINUOUS
 10
3436.7676759999999
 20
1716.6779320000001
 30
0.0
 11
3436.7676759999999
 21
1636.6779320000001
 31
0.0
  0
LINE
  5
7C69
  8
1
  6
CONTINUOUS
 10
3436.7676759999999
 20
1614.6779320000001
 30
0.0
 11
3436.7676759999999
 21
1549.6779320000001
 31
0.0
  0
LINE
  5
7C6A
  8
1
  6
CONTINUOUS
 10
3516.7676759999999
 20
1549.6779320000001
 30
0.0
 11
3516.7676759999999
 21
1509.6779320000001
 31
0.0
  0
LINE
  5
7C6B
  8
2
  6
CENTER
 10
3212.7676759999999
 20
2608.4926579999992
 30
0.0
 11
3212.7676759999999
 21
1378.6415307592649
 31
0.0
  0
LINE
  5
7C6C
  8
2
  6
CENTER
 10
2271.3610229999999
 20
3674.8079320000002
 30
0.0
 11
886.15723800000012
 21
3674.8079320000002
 31
0.0
  0
LINE
  5
7C6D
  8
2
  6
CENTER
 10
1347.0089779999989
 20
2625.036936790209
 30
0.0
 11
1347.0089779999989
 21
1466.0502289510041
 31
0.0
  0
LINE
  5
7C6E
  8
2
  6
CENTER
 10
2184.1040979999998
 20
2071.6779320000001
 30
0.0
 11
889.21061323311551
 21
2071.6779320000001
 31
0.0
  0
LINE
  5
7C6F
  8
1
  6
CONTINUOUS
 10
1121.5089779999989
 20
1716.6779320000001
 30
0.0
 11
1121.5089779999989
 21
2386.6779320000001
 31
0.0
  0
LINE
  5
7C70
  8
1
  6
CONTINUOUS
 10
1121.5089779999989
 20
2386.6779320000001
 30
0.0
 11
1361.5089779999989
 21
2461.6779320000001
 31
0.0
  0
LINE
  5
7C71
  8
1
  6
CONTINUOUS
 10
1361.5089779999989
 20
2461.6779320000001
 30
0.0
 11
2121.5089779999998
 21
1951.6779320000001
 31
0.0
  0
LINE
  5
7C72
  8
1
  6
CONTINUOUS
 10
2121.5089779999998
 20
1951.6779320000001
 30
0.0
 11
2121.5089779999998
 21
1716.6779320000001
 31
0.0
  0
LINE
  5
7C73
  8
4
  6
CONTINUOUS
 10
3700.0
 20
1000.0
 30
0.0
 11
3700.0
 21
600.0
 31
0.0
  0
LINE
  5
7C74
  8
4
  6
CONTINUOUS
 10
2300.0
 20
1000.0
 30
0.0
 11
2300.0
 21
600.0
 31
0.0
  0
LINE
  5
7C75
  8
4
  6
CONTINUOUS
 10
1300.0
 20
1000.0
 30
0.0
 11
1300.0
 21
600.0
 31
0.0
  0
LINE
  5
7C78
  8
4
  6
CONTINUOUS
 10
1300.0
 20
600.0
 30
0.0
 11
3700.0
 21
600.0
 31
0.0
  0
LINE
  5
7C79
  8
4
  6
CONTINUOUS
 10
1300.0
 20
800.0
 30
0.0
 11
3700.0
 21
800.0
 31
0.0
  0
TEXT
  5
7C7A
  8
4
  6
CONTINUOUS
 10
1377.004162
 20
863.086052
 30
0.0
 40
100.0
  1
機器名称
  0
TEXT
  5
7C7B
  8
4
  6
CONTINUOUS
 10
1372.516212
 20
643.29031299999986
 30
0.0
 40
100.0
  1
機器型番
  0
TEXT
  5
7C7C
  8
4
  6
CONTINUOUS
 10
2355.3574910000002
 20
845.14353800000015
 30
0.0
 40
100.0
  1
ミツヤ多翼送風機
  0
TEXT
  5
7C7D
  8
4
  6
CONTINUOUS
 10
2373.3089909999999
 20
634.31916899999999
 30
0.0
 40
100.0
  1
MF#3-4
  0
TEXT
  5
7C7F
  8
4
  6
CONTINUOUS
 10
1468.4422819999991
 20
4766.8576830000002
 30
0.0
 40
108.0
  1
天井吊防振ベット
  0
TEXT
  5
7C80
  8
4
  6
CONTINUOUS
 10
632.33518700000002
 20
5067.7619520000007
 30
0.0
 40
144.0
  1
ベルト駆動式片吸込両持多翼ファン
  0
LINE
  5
7C81
  8
4
  6
CONTINUOUS
 10
500.0
 20
4938.8175090000004
 30
0.0
 11
3700.0
 21
4938.8175090000004
 31
0.0
  0
LINE
  5
7C82
  8
4
  6
CONTINUOUS
 10
500.0
 20
5338.8175090000004
 30
0.0
 11
3700.0
 21
5338.8175090000004
 31
0.0
  0
LINE
  5
7C83
  8
4
  6
CONTINUOUS
 10
1300.0
 20
1000.0
 30
0.0
 11
3700.0
 21
1000.0
 31
0.0
  0
LINE
  5
7C84
  8
4
  6
CONTINUOUS
 10
500.0
 20
5338.8175090000004
 30
0.0
 11
500.0
 21
4938.8175090000004
 31
0.0
  0
TEXT
  5
7C85
  8
4
  6
CONTINUOUS
 10
596.72461799999996
 20
4764.6389549999994
 30
0.0
 40
108.0
  1
左回転左横向
  0
TEXT
  5
7C86
  8
4
  6
CONTINUOUS
 10
2937.9391179999998
 20
5412.122163
 30
0.0
 40
112.0
  1
No.
  0
TEXT
  5
7C87
  8
4
  6
CONTINUOUS
 10
2622.5921250000001
 20
4766.8576830000002
 30
0.0
 40
108.0
  1
縮尺：1/20
  0
LINE
  5
7C88
  8
4
  6
CONTINUOUS
 10
3700.0
 20
5338.8175090000004
 30
0.0
 11
3700.0
 21
4938.8175090000004
 31
0.0
  0
LINE
  5
7C8A
  8
4
  6
CONTINUOUS
 10
2881.234845
 20
5362.5271659999999
 30
0.0
 11
2881.234845
 21
5573.3045229999998
 31
0.0
  0
LINE
  5
7C8B
  8
4
  6
CONTINUOUS
 10
2881.234845
 20
5573.3045229999998
 30
0.0
 11
3700.0
 21
5573.3045229999998
 31
0.0
  0
LINE
  5
7C8C
  8
4
  6
CONTINUOUS
 10
3700.0
 20
5573.3045229999998
 30
0.0
 11
3700.0
 21
5362.5271659999999
 31
0.0
  0
LINE
  5
7C8D
  8
4
  6
CONTINUOUS
 10
3700.0
 20
5362.5271659999999
 30
0.0
 11
2881.234845
 21
5362.5271659999999
 31
0.0
  0
DIMENSION
  5
7CA5
  8
3
  6
CONTINUOUS
  2
*D1
 10
921.74334900000031
 20
2053.6779320000001
 30
0.0
 11
921.74334899999985
 21
2257.7886939999999
 31
0.0
 70
   128
 13
992.00897799999996
 23
2533.6779320000001
 33
0.0
 14
992.00897799999996
 24
2053.6779320000001
 34
0.0
 50
90.0
1001
ACAD
1000
DSTYLE
1002
{
1070
   287
1070
     3
1070
    40
1040
20.0
1070
   143
1040
0.039
1070
   172
1070
     1
1070
   271
1070
     0
1070
   279
1070
     0
1070
   288
1070
     1
1002
}
  0
DIMENSION
  5
7CB2
  8
3
  6
CONTINUOUS
  2
*D2
 10
805.25013800000045
 20
2071.6779320000001
 30
0.0
 11
805.25013799999999
 21
2261.9452999999999
 31
0.0
 70
   128
 13
921.74334899999985
 23
2533.6779320000001
 33
0.0
 14
889.21061323311551
 24
2071.6779320000001
 34
0.0
 50
90.0
1001
ACAD
1000
DSTYLE
1002
{
1070
   287
1070
     3
1070
    40
1040
20.0
1070
   143
1040
0.039
1070
   172
1070
     1
1070
   271
1070
     0
1070
   279
1070
     0
1070
   288
1070
     1
1002
}
  0
DIMENSION
  5
7CBE
  8
3
  6
CONTINUOUS
  2
*D3
 10
805.25013799999999
 20
1636.6779320000001
 30
0.0
 11
755.25013799999977
 21
1854.1779319999989
 31
0.0
 70
     0
 13
889.21061323311551
 23
2071.6779320000001
 33
0.0
 14
1047.0089779999989
 24
1636.6779320000001
 34
0.0
 50
90.0
1001
ACAD
1000
DSTYLE
1002
{
1070
   287
1070
     4
1070
    40
1040
20.0
1070
    75
1070
     1
1070
   143
1040
0.039
1070
   172
1070
     1
1070
   271
1070
     0
1070
   279
1070
     1
1070
   288
1070
     1
1002
}
  0
DIMENSION
  5
7CD9
  8
3
  6
CONTINUOUS
  2
*D4
 10
673.03393600000015
 20
1509.6779320000001
 30
0.0
 11
673.03393600000004
 21
2033.332171
 31
0.0
 70
   128
 13
992.00897799999996
 23
2550.6779320000001
 33
0.0
 14
1047.0089779999989
 24
1509.6779320000001
 34
0.0
 50
90.0
1001
ACAD
1000
DSTYLE
1002
{
1070
   287
1070
     3
1070
    40
1040
20.0
1070
   143
1040
0.039
1070
   172
1070
     1
1070
   271
1070
     0
1070
   279
1070
     0
1070
   288
1070
     1
1002
}
  0
DIMENSION
  5
7D2C
  8
3
  6
CONTINUOUS
  2
*D5
 10
1347.0089779999989
 20
2662.9842129999988
 30
0.0
 11
1170.959169
 21
2662.9842129999988
 31
0.0
 70
   128
 13
992.00897799999996
 23
2550.6779320000001
 33
0.0
 14
1347.0089779999989
 24
2665.7228960000002
 34
0.0
1001
ACAD
1000
DSTYLE
1002
{
1070
   287
1070
     3
1070
    40
1040
20.0
1070
   143
1040
0.039
1070
   172
1070
     1
1070
   271
1070
     0
1070
   279
1070
     0
1070
   288
1070
     1
1002
}
  0
DIMENSION
  5
7D38
  8
3
  6
CONTINUOUS
  2
*D6
 10
1757.0089779999989
 20
2662.9842129999988
 30
0.0
 11
1552.0089779999989
 21
2712.9842129999988
 31
0.0
 70
     0
 13
1347.0089779999989
 23
2620.4148460899451
 33
0.0
 14
1757.0089779999989
 24
2426.6779320000001
 34
0.0
1001
ACAD
1000
DSTYLE
1002
{
1070
   287
1070
     3
1070
    40
1040
20.0
1070
   143
1040
0.039
1070
   172
1070
     1
1070
   271
1070
     0
1070
   279
1070
     0
1070
   288
1070
     1
1002
}
  0
DIMENSION
  5
7D45
  8
3
  6
CONTINUOUS
  2
*D7
 10
1347.0089779999989
 20
1363.2815318023349
 30
0.0
 11
1209.8661208571421
 21
1363.2815318023349
 31
0.0
 70
   128
 13
1047.0089779999989
 23
1509.6779320000001
 33
0.0
 14
1347.0089779999989
 24
1466.0502289510041
 34
0.0
1001
ACAD
1000
DSTYLE
1002
{
1070
   287
1070
     3
1070
    40
1040
20.0
1070
   143
1040
0.039
1070
   172
1070
     1
1070
   271
1070
     0
1070
   279
1070
     0
1070
   288
1070
     1
1002
}
  0
DIMENSION
  5
7D51
  8
3
  6
CONTINUOUS
  2
*D8
 10
2167.0089779999998
 20
1363.2815318023349
 30
0.0
 11
1757.0089779999989
 21
1413.2815318023349
 31
0.0
 70
     0
 13
1347.0089779999989
 23
1466.0502289510041
 33
0.0
 14
2167.0089779999998
 24
1509.6779320000001
 34
0.0
1001
ACAD
1000
DSTYLE
1002
{
1070
   287
1070
     4
1070
    40
1040
20.0
1070
    75
1070
     1
1070
   143
1040
0.039
1070
   172
1070
     1
1070
   271
1070
     0
1070
   279
1070
     1
1070
   288
1070
     1
1002
}
  0
LINE
  5
7D75
  8
1
  6
CONTINUOUS
 10
3393.7676759999999
 20
2321.6779320000001
 30
0.0
 11
3393.7676759999999
 21
1821.6779320000001
 31
0.0
  0
DIMENSION
  5
7D84
  8
3
  6
CONTINUOUS
  2
*D9
 10
3535.7383599999998
 20
1821.6779320000001
 30
0.0
 11
3535.7383599999998
 21
2071.837841
 31
0.0
 70
   128
 13
3393.7676759999999
 23
2321.6779320000001
 33
0.0
 14
3393.7676759999999
 24
1821.6779320000001
 34
0.0
 50
90.0
1001
ACAD
1000
DSTYLE
1002
{
1070
   287
1070
     3
1070
     3
1000
φ<>
1070
    40
1040
20.0
1070
   143
1040
0.039
1070
   172
1070
     1
1070
   271
1070
     0
1070
   279
1070
     0
1070
   288
1070
     1
1002
}
  0
DIMENSION
  5
7D93
  8
3
  6
CONTINUOUS
  2
*D10
 10
3212.7676759999999
 20
2780.6346629999998
 30
0.0
 11
3303.2676759999999
 21
2831.1305160349721
 31
0.0
 70
   128
 13
3393.7676759999999
 23
2321.6779320000001
 33
0.0
 14
3212.7676759999999
 24
2713.7078470000001
 34
0.0
1001
ACAD
1000
DSTYLE
1002
{
1070
   288
1070
     1
1070
   172
1070
     1
1070
    40
1040
20.0
1070
   271
1070
     0
1070
   143
1040
0.039
1002
}
  0
DIMENSION
  5
7D9F
  8
3
  6
CONTINUOUS
  2
*D11
 10
2842.7676759999999
 20
2780.6346629999998
 30
0.0
 11
3027.767675999999
 21
2880.6346629999998
 31
0.0
 70
     0
  1
MAX\P430
 13
3212.7676759999999
 23
2713.7078470000001
 33
0.0
 14
2842.7676759999999
 24
2461.6779320000001
 34
0.0
1001
ACAD
1000
DSTYLE
1002
{
1070
   287
1070
     4
1070
    40
1040
20.0
1070
    75
1070
     1
1070
   143
1040
0.039
1070
   172
1070
     1
1070
   271
1070
     0
1070
   279
1070
     1
1070
   288
1070
     1
1002
}
  0
DIMENSION
  5
7DAC
  8
3
  6
CONTINUOUS
  2
*D12
 10
3212.7676759999999
 20
1353.3898099999999
 30
0.0
 11
3015.2221549999999
 21
1353.3898099999999
 31
0.0
 70
   128
 13
2826.7676759999999
 23
1509.6779320000001
 33
0.0
 14
3212.7676759999999
 24
1378.6415307592649
 34
0.0
1001
ACAD
1000
DSTYLE
1002
{
1070
   287
1070
     3
1070
    40
1040
20.0
1070
   143
1040
0.039
1070
   172
1070
     1
1070
   271
1070
     0
1070
   279
1070
     0
1070
   288
1070
     1
1002
}
  0
DIMENSION
  5
7DB8
  8
3
  6
CONTINUOUS
  2
*D13
 10
3516.7676759999999
 20
1353.3898099999999
 30
0.0
 11
3364.7676759999999
 21
1403.3898099999999
 31
0.0
 70
     0
 13
3212.7676759999999
 23
1389.1172450486099
 33
0.0
 14
3516.7676759999999
 24
1509.6779320000001
 34
0.0
1001
ACAD
1000
DSTYLE
1002
{
1070
   287
1070
     4
1070
    40
1040
20.0
1070
    75
1070
     1
1070
   143
1040
0.039
1070
   172
1070
     1
1070
   271
1070
     0
1070
   279
1070
     1
1070
   288
1070
     1
1002
}
  0
DIMENSION
  5
7DC5
  8
3
  6
CONTINUOUS
  2
*D14
 10
2167.0089779999998
 20
4077.0365350000002
 30
0.0
 11
1587.327469999999
 21
4077.0365350000002
 31
0.0
 70
   128
 13
1047.0089779999989
 23
3978.8079320000002
 33
0.0
 14
2167.0089779999998
 24
3978.8079320000002
 34
0.0
1001
ACAD
1000
DSTYLE
1002
{
1070
   287
1070
     3
1070
    40
1040
20.0
1070
   143
1040
0.039
1070
   172
1070
     1
1070
   271
1070
     0
1070
   279
1070
     0
1070
   288
1070
     1
1002
}
  0
DIMENSION
  5
7DD2
  8
3
  6
CONTINUOUS
  2
*D15
 10
2364.6169049999999
 20
3288.8079320000002
 30
0.0
 11
2364.616904999999
 21
3642.759724
 31
0.0
 70
   128
 13
2167.0089779999998
 23
3978.8079320000002
 33
0.0
 14
2167.0089779999998
 24
3288.8079320000002
 34
0.0
 50
90.0
1001
ACAD
1000
DSTYLE
1002
{
1070
   287
1070
     3
1070
    40
1040
20.0
1070
   143
1040
0.039
1070
   172
1070
     1
1070
   271
1070
     0
1070
   279
1070
     0
1070
   288
1070
     1
1002
}
  0
DIMENSION
  5
7DE8
  8
3
  6
CONTINUOUS
  2
*D16
 10
805.25013799999999
 20
1549.6779320000001
 30
0.0
 11
805.11692799999992
 21
1606.2435640000001
 31
0.0
 70
   128
 13
1047.0089779999989
 23
1636.6779320000001
 33
0.0
 14
1047.0089779999989
 24
1549.6779320000001
 34
0.0
 50
90.0
1001
ACAD
1000
DSTYLE
1002
{
1070
   287
1070
     4
1070
    40
1040
20.0
1070
    75
1070
     1
1070
   143
1040
0.039
1070
   172
1070
     1
1070
   271
1070
     0
1070
   279
1070
     1
1070
   288
1070
     1
1070
     7
1000
DOT
1002
}
  0
DIMENSION
  5
7DF8
  8
3
  6
CONTINUOUS
  2
*D17
 10
805.25013800000022
 20
1509.6779320000001
 30
0.0
 11
805.25013799999999
 21
1361.1065034285709
 31
0.0
 70
   128
 13
1047.0089779999989
 23
1549.6779320000001
 33
0.0
 14
1047.0089779999989
 24
1509.6779320000001
 34
0.0
 50
90.0
1001
ACAD
1000
DSTYLE
1002
{
1070
   287
1070
     3
1070
    40
1040
20.0
1070
   143
1040
0.039
1070
   172
1070
     1
1070
   271
1070
     0
1070
   279
1070
     0
1070
   288
1070
     1
1070
     6
1000
DOT
1002
}
  0
DIMENSION
  5
7E8D
  8
3
  6
CONTINUOUS
  2
*D18
 10
3392.7676759999999
 20
2624.043322
 30
0.0
 11
3204.9029169999999
 21
2624.043322
 31
0.0
 70
   128
 13
3032.7676759999999
 23
2560.6779320000001
 33
0.0
 14
3392.7676759999999
 24
2560.6779320000001
 34
0.0
1001
ACAD
1000
DSTYLE
1002
{
1070
   287
1070
     3
1070
    40
1040
20.0
1070
   143
1040
0.039
1070
   172
1070
     1
1070
   271
1070
     0
1070
   279
1070
     0
1070
   288
1070
     1
1002
}
  0
DIMENSION
  5
7F66
  8
3
  2
*D20
 10
2167.0089779999998
 20
2781.762047822152
 30
0.0
 11
1569.0565068499491
 21
2781.762047822152
 31
0.0
 70
   128
 13
992.00897799999996
 23
2550.6779320000001
 33
0.0
 14
2167.0089779999998
 24
1716.6779320000001
 34
0.0
1001
ACAD
1000
DSTYLE
1002
{
1070
   287
1070
     3
1070
    40
1040
20.0
1070
   143
1040
0.039
1070
   172
1070
     1
1070
   271
1070
     0
1070
   279
1070
     0
1070
   288
1070
     1
1002
}
  0
ENDSEC
  0
EOF
