  0
SECTION
  2
HEADER
  9
$ACADVER
  1
AC1009
  9
$INSBASE
 10
0.0
 20
0.0
 30
0.0
  9
$EXTMIN
 10
500.0
 20
600.0
 30
0.0
  9
$EXTMAX
 10
3700.0
 20
5573.3045229999998
 30
0.0
  9
$LIMMIN
 10
0.0
 20
0.0
  9
$LIMMAX
 10
297.0
 20
210.0
  9
$ORTHOMODE
 70
     0
  9
$REGENMODE
 70
     1
  9
$FILLMODE
 70
     0
  9
$QTEXTMODE
 70
     0
  9
$MIRRTEXT
 70
     1
  9
$DRAGMODE
 70
     2
  9
$LTSCALE
 40
100.0
  9
$OSMODE
 70
    37
  9
$ATTMODE
 70
     1
  9
$TEXTSIZE
 40
180.0
  9
$TRACEWID
 40
0.05
  9
$TEXTSTYLE
  7
STANDARD
  9
$CLAYER
  8
3
  9
$CELTYPE
  6
BYLAYER
  9
$CECOLOR
 62
   256
  9
$DIMSCALE
 40
20.0
  9
$DIMASZ
 40
2.0
  9
$DIMEXO
 40
0.5
  9
$DIMDLI
 40
10.0
  9
$DIMRND
 40
0.0
  9
$DIMDLE
 40
0.0
  9
$DIMEXE
 40
1.0
  9
$DIMTP
 40
1.0
  9
$DIMTM
 40
1.0
  9
$DIMTXT
 40
3.0
  9
$DIMCEN
 40
0.0
  9
$DIMTSZ
 40
0.0
  9
$DIMTOL
 70
     0
  9
$DIMLIM
 70
     0
  9
$DIMTIH
 70
     0
  9
$DIMTOH
 70
     0
  9
$DIMSE1
 70
     0
  9
$DIMSE2
 70
     0
  9
$DIMTAD
 70
     1
  9
$DIMZIN
 70
     8
  9
$DIMBLK
  1

  9
$DIMASO
 70
     1
  9
$DIMSHO
 70
     1
  9
$DIMPOST
  1

  9
$DIMAPOST
  1

  9
$DIMALT
 70
     0
  9
$DIMALTD
 70
     2
  9
$DIMALTF
 40
0.039
  9
$DIMLFAC
 40
1.0
  9
$DIMTOFL
 70
     1
  9
$DIMTVP
 40
0.0
  9
$DIMTIX
 70
     0
  9
$DIMSOXD
 70
     0
  9
$DIMSAH
 70
     1
  9
$DIMBLK1
  1
OPEN
  9
$DIMBLK2
  1
OPEN
  9
$DIMSTYLE
  2
IGA
  9
$DIMCLRD
 70
     0
  9
$DIMCLRE
 70
     0
  9
$DIMCLRT
 70
     0
  9
$DIMTFAC
 40
10.0
  9
$DIMGAP
 40
1.0
  9
$LUNITS
 70
     2
  9
$LUPREC
 70
     3
  9
$SKETCHINC
 40
0.1
  9
$FILLETRAD
 40
50.0
  9
$AUNITS
 70
     0
  9
$AUPREC
 70
     0
  9
$MENU
  1
acad
  9
$ELEVATION
 40
0.0
  9
$PELEVATION
 40
0.0
  9
$THICKNESS
 40
0.0
  9
$LIMCHECK
 70
     0
  9
$BLIPMODE
 70
     0
  9
$CHAMFERA
 40
0.5
  9
$CHAMFERB
 40
0.5
  9
$SKPOLY
 70
     0
  9
$TDCREATE
 40
2450731.6520932871
  9
$TDUPDATE
 40
2454953.766923646
  9
$TDINDWG
 40
0.0040223264
  9
$TDUSRTIMER
 40
0.0040223264
  9
$USRTIMER
 70
     1
  9
$ANGBASE
 50
0.0
  9
$ANGDIR
 70
     0
  9
$PDMODE
 70
     0
  9
$PDSIZE
 40
0.0
  9
$PLINEWID
 40
0.0
  9
$COORDS
 70
     1
  9
$SPLFRAME
 70
     0
  9
$SPLINETYPE
 70
     6
  9
$SPLINESEGS
 70
     8
  9
$ATTDIA
 70
     0
  9
$ATTREQ
 70
     1
  9
$HANDLING
 70
 10241
  9
$HANDSEED
  5
7F0D
  9
$SURFTAB1
 70
     6
  9
$SURFTAB2
 70
     6
  9
$SURFTYPE
 70
     6
  9
$SURFU
 70
     6
  9
$SURFV
 70
     6
  9
$UCSNAME
  2

  9
$UCSORG
 10
0.0
 20
0.0
 30
0.0
  9
$UCSXDIR
 10
1.0
 20
0.0
 30
0.0
  9
$UCSYDIR
 10
0.0
 20
1.0
 30
0.0
  9
$PUCSNAME
  2

  9
$PUCSORG
 10
0.0
 20
0.0
 30
0.0
  9
$PUCSXDIR
 10
1.0
 20
0.0
 30
0.0
  9
$PUCSYDIR
 10
0.0
 20
1.0
 30
0.0
  9
$USERI1
 70
     0
  9
$USERI2
 70
     0
  9
$USERI3
 70
     0
  9
$USERI4
 70
     0
  9
$USERI5
 70
     0
  9
$USERR1
 40
0.0
  9
$USERR2
 40
0.0
  9
$USERR3
 40
0.0
  9
$USERR4
 40
0.0
  9
$USERR5
 40
0.0
  9
$WORLDVIEW
 70
     1
  9
$SHADEDGE
 70
     3
  9
$SHADEDIF
 70
    70
  9
$TILEMODE
 70
     1
  9
$MAXACTVP
 70
    16
  9
$PLIMCHECK
 70
     0
  9
$PEXTMIN
 10
1.0000000000000000E+020
 20
1.0000000000000000E+020
 30
1.0000000000000000E+020
  9
$PEXTMAX
 10
-1.0000000000000000E+020
 20
-1.0000000000000000E+020
 30
-1.0000000000000000E+020
  9
$PLIMMIN
 10
0.0
 20
0.0
  9
$PLIMMAX
 10
12.0
 20
9.0
  9
$UNITMODE
 70
     0
  9
$VISRETAIN
 70
     0
  9
$PLINEGEN
 70
     0
  9
$PSLTSCALE
 70
     1
  0
ENDSEC
  0
SECTION
  2
TABLES
  0
TABLE
  2
VPORT
 70
     2
  0
VPORT
  2
*ACTIVE
 70
     0
 10
0.0
 20
0.0
 11
1.0
 21
1.0
 12
6292.1124769529506
 22
3086.6374998146398
 13
0.0
 23
0.0
 14
10.0
 24
10.0
 15
10.0
 25
10.0
 16
0.0
 26
0.0
 36
1.0
 17
0.0
 27
0.0
 37
0.0
 40
5011.4968576296578
 41
3.1666666666666661
 42
50.0
 43
0.0
 44
0.0
 50
0.0
 51
0.0
 71
     0
 72
   100
 73
     1
 74
     0
 75
     0
 76
     0
 77
     0
 78
     0
  0
ENDTAB
  0
TABLE
  2
LTYPE
 70
     2
  0
LTYPE
  2
CONTINUOUS
 70
     0
  3
Solid line
 72
    65
 73
     0
 40
0.0
  0
LTYPE
  2
CENTER
 70
     0
  3
____ _ ____ _ ____ _ ____ _ ____ _ ____ _ ____ 
 72
    65
 73
     4
 40
2.0
 49
1.25
 49
-0.25
 49
0.25
 49
-0.25
  0
ENDTAB
  0
TABLE
  2
LAYER
 70
     6
  0
LAYER
  2
0
 70
     0
 62
     7
  6
CONTINUOUS
  0
LAYER
  2
3
 70
     0
 62
     2
  6
CONTINUOUS
  0
LAYER
  2
2
 70
     0
 62
     3
  6
CENTER
  0
LAYER
  2
1
 70
     0
 62
     4
  6
CONTINUOUS
  0
LAYER
  2
4
 70
     0
 62
     7
  6
CONTINUOUS
  0
LAYER
  2
DEFPOINTS
 70
     0
 62
     7
  6
CONTINUOUS
  0
ENDTAB
  0
TABLE
  2
STYLE
 70
     1
  0
STYLE
  2
STANDARD
 70
     0
 40
0.0
 41
1.0
 50
0.0
 71
     0
 42
180.0
  3
simplex.shx
  4
extfont.shx
  0
ENDTAB
  0
TABLE
  2
VIEW
 70
     0
  0
ENDTAB
  0
TABLE
  2
UCS
 70
     0
  0
ENDTAB
  0
TABLE
  2
APPID
 70
     1
  0
APPID
  2
ACAD
 70
     0
  0
ENDTAB
  0
TABLE
  2
DIMSTYLE
 70
     1
  0
DIMSTYLE
  2
IGA
 70
     0
  3

  4

  5

  6
OPEN
  7
OPEN
 40
2.0
 41
2.0
 42
0.5
 43
10.0
 44
1.0
 45
0.0
 46
0.0
 47
1.0
 48
1.0
140
3.0
141
0.0
142
0.0
143
0.03937
144
1.0
145
0.0
146
10.0
147
1.0
 71
     0
 72
     0
 73
     0
 74
     0
 75
     0
 76
     0
 77
     1
 78
     8
170
     0
171
     2
172
     0
173
     1
174
     0
175
     0
176
     0
177
     0
178
     0
  0
ENDTAB
  0
ENDSEC
  0
SECTION
  2
BLOCKS
  0
BLOCK
  8
0
  2
$MODEL_SPACE
 70
     0
 10
0.0
 20
0.0
 30
0.0
  3
$MODEL_SPACE
  1

  0
ENDBLK
  5
1B
  8
0
  0
BLOCK
 67
     1
  8
0
  2
$PAPER_SPACE
 70
     0
 10
0.0
 20
0.0
 30
0.0
  3
$PAPER_SPACE
  1

  0
ENDBLK
  5
18
 67
     1
  8
0
  0
BLOCK
  8
0
  2
_OPEN
 70
     0
 10
0.0
 20
0.0
 30
0.0
  3
_OPEN
  1

  0
LINE
  5
7BBA
  8
0
  6
BYBLOCK
 62
     0
 10
-1.0
 20
0.166667
 30
0.0
 11
0.0
 21
0.0
 31
0.0
  0
LINE
  5
7BBB
  8
0
  6
BYBLOCK
 62
     0
 10
0.0
 20
0.0
 30
0.0
 11
-1.0
 21
-0.166667
 31
0.0
  0
LINE
  5
7BBC
  8
0
  6
BYBLOCK
 62
     0
 10
0.0
 20
0.0
 30
0.0
 11
-1.0
 21
0.0
 31
0.0
  0
ENDBLK
  5
7BBD
  8
0
  0
BLOCK
  8
0
  2
*D1
 70
     1
 10
0.0
 20
0.0
 30
0.0
  3
*D1
  1

  0
LINE
  5
7E57
  8
3
  6
CONTINUOUS
 62
     0
 10
1127.977425
 20
2510.3151090000001
 30
0.0
 11
1062.9511130000001
 21
2510.3151090000001
 31
0.0
  0
LINE
  5
7E58
  8
3
  6
CONTINUOUS
 62
     0
 10
1127.977425
 20
2030.3151089999999
 30
0.0
 11
1062.9511130000001
 21
2030.3151089999999
 31
0.0
  0
LINE
  5
7E59
  8
3
  6
CONTINUOUS
 62
     0
 10
1082.9511130000001
 20
2470.3151090000001
 30
0.0
 11
1082.9511130000001
 21
2070.3151090000001
 31
0.0
  0
INSERT
  5
7E5A
  8
3
  6
CONTINUOUS
 62
     0
  2
_OPEN
 10
1082.9511130000001
 20
2510.3151090000001
 30
0.0
 41
40.0
 42
40.0
 43
40.0
 50
90.0
  0
INSERT
  5
7E5B
  8
3
  6
CONTINUOUS
 62
     0
  2
_OPEN
 10
1082.9511130000001
 20
2030.3151089999999
 30
0.0
 41
40.0
 42
40.0
 43
40.0
 50
270.0
  0
TEXT
  8
3
  40
60
  5
7EFA
  62
0
  72
0
  71
0
 10
912.951
 20
2161.13
 30
0.000000
  1
480
  0
POINT
  5
7E5D
  8
DEFPOINTS
  6
CONTINUOUS
 62
     0
 10
1137.977425
 20
2510.3151090000001
 30
0.0
  0
POINT
  5
7E5E
  8
DEFPOINTS
  6
CONTINUOUS
 62
     0
 10
1137.977425
 20
2030.3151089999999
 30
0.0
  0
POINT
  5
7E5F
  8
DEFPOINTS
  6
CONTINUOUS
 62
     0
 10
1082.9511130000001
 20
2030.3151089999999
 30
0.0
  0
ENDBLK
  5
7C61
  8
0
  0
BLOCK
  8
0
  2
*D2
 70
     1
 10
0.0
 20
0.0
 30
0.0
  3
*D2
  1

  0
LINE
  5
7E60
  8
3
  6
CONTINUOUS
 62
     0
 10
1172.977425
 20
2847.3151090000001
 30
0.0
 11
840.15183800000068
 21
2847.3151090000001
 31
0.0
  0
LINE
  5
7E61
  8
3
  6
CONTINUOUS
 62
     0
 10
1011.196856
 20
2492.3151090000001
 30
0.0
 11
840.15183800000045
 21
2492.3151090000001
 31
0.0
  0
LINE
  5
7E62
  8
3
  6
CONTINUOUS
 62
     0
 10
860.15183800000068
 20
2887.315109000001
 30
0.0
 11
860.15183800000068
 21
2927.3151090000001
 31
0.0
  0
LINE
  5
7E63
  8
3
  6
CONTINUOUS
 62
     0
 10
860.15183800000045
 20
2452.3151090000001
 30
0.0
 11
860.15183800000045
 21
2412.3151090000001
 31
0.0
  0
LINE
  5
7E64
  8
3
  6
CONTINUOUS
 62
     0
 10
860.15183800000068
 20
2847.3151090000001
 30
0.0
 11
860.15183800000045
 21
2492.3151090000001
 31
0.0
  0
INSERT
  5
7E65
  8
3
  6
CONTINUOUS
 62
     0
  2
_OPEN
 10
860.15183800000068
 20
2847.3151090000001
 30
0.0
 41
40.0
 42
40.0
 43
40.0
 50
270.0
  0
INSERT
  5
7E66
  8
3
  6
CONTINUOUS
 62
     0
  2
_OPEN
 10
860.15183800000045
 20
2492.3151090000001
 30
0.0
 41
40.0
 42
40.0
 43
40.0
 50
90.0
  0
TEXT
  8
3
  40
60
  5
7EFB
  62
0
  72
0
  71
0
 10
690.152
 20
2523.26
 30
0.000000
  1
355
  0
POINT
  5
7E68
  8
DEFPOINTS
  6
CONTINUOUS
 62
     0
 10
1182.977425
 20
2847.3151090000001
 30
0.0
  0
POINT
  5
7E69
  8
DEFPOINTS
  6
CONTINUOUS
 62
     0
 10
1021.196856
 20
2492.3151090000001
 30
0.0
  0
POINT
  5
7E6A
  8
DEFPOINTS
  6
CONTINUOUS
 62
     0
 10
860.15183800000045
 20
2492.3151090000001
 30
0.0
  0
ENDBLK
  5
7D53
  8
0
  0
BLOCK
  8
0
  2
*D3
 70
     1
 10
0.0
 20
0.0
 30
0.0
  3
*D3
  1

  0
LINE
  5
7E6B
  8
3
  6
CONTINUOUS
 62
     0
 10
1182.977425
 20
1892.3151089999999
 30
0.0
 11
840.151838
 21
1892.3151089999999
 31
0.0
  0
LINE
  5
7E6C
  8
3
  6
CONTINUOUS
 62
     0
 10
860.15183800000011
 20
2452.3151090000001
 30
0.0
 11
860.15183800000011
 21
1932.3151089999999
 31
0.0
  0
INSERT
  5
7E6D
  8
3
  6
CONTINUOUS
 62
     0
  2
_OPEN
 10
860.15183800000011
 20
2492.3151090000001
 30
0.0
 41
40.0
 42
40.0
 43
40.0
 50
90.0
  0
INSERT
  5
7E6E
  8
3
  6
CONTINUOUS
 62
     0
  2
_OPEN
 10
860.15183800000011
 20
1892.3151089999999
 30
0.0
 41
40.0
 42
40.0
 43
40.0
 50
270.0
  0
TEXT
  8
3
  40
60
  5
7EFC
  62
0
  72
0
  71
0
 10
690.152
 20
2086.12
 30
0.000000
  1
600
  0
POINT
  5
7E70
  8
DEFPOINTS
  6
CONTINUOUS
 62
     0
 10
1021.196856
 20
2492.3151090000001
 30
0.0
  0
POINT
  5
7E71
  8
DEFPOINTS
  6
CONTINUOUS
 62
     0
 10
1192.977425
 20
1892.3151089999999
 30
0.0
  0
POINT
  5
7E72
  8
DEFPOINTS
  6
CONTINUOUS
 62
     0
 10
860.15183800000011
 20
1892.3151089999999
 30
0.0
  0
ENDBLK
  5
7D69
  8
0
  0
BLOCK
  8
0
  2
*D4
 70
     1
 10
0.0
 20
0.0
 30
0.0
  3
*D4
  1

  0
LINE
  5
7E73
  8
3
  6
CONTINUOUS
 62
     0
 10
1182.977425
 20
1892.3151089999999
 30
0.0
 11
841.36916900000028
 21
1892.3151089999999
 31
0.0
  0
LINE
  5
7E74
  8
3
  6
CONTINUOUS
 62
     0
 10
1182.977425
 20
1852.3151089999999
 30
0.0
 11
841.36916900000028
 21
1852.3151089999999
 31
0.0
  0
LINE
  5
7E75
  8
3
  6
CONTINUOUS
 62
     0
 10
861.36916900000028
 20
1932.3151089999999
 30
0.0
 11
861.36916900000028
 21
1972.315108999999
 31
0.0
  0
LINE
  5
7E76
  8
3
  6
CONTINUOUS
 62
     0
 10
861.36916900000028
 20
1812.3151089999999
 30
0.0
 11
861.36916900000006
 21
1635.172251857143
 31
0.0
  0
LINE
  5
7E77
  8
3
  6
CONTINUOUS
 62
     0
 10
861.36916900000028
 20
1892.3151089999999
 30
0.0
 11
861.36916900000028
 21
1852.3151089999999
 31
0.0
  0
INSERT
  5
7E78
  8
3
  6
CONTINUOUS
 62
     0
  2
_OPEN
 10
861.36916900000028
 20
1892.3151089999999
 30
0.0
 41
40.0
 42
40.0
 43
40.0
 50
270.0
  0
INSERT
  5
7E79
  8
3
  6
CONTINUOUS
 62
     0
  2
_OPEN
 10
861.36916900000028
 20
1852.3151089999999
 30
0.0
 41
40.0
 42
40.0
 43
40.0
 50
90.0
  0
TEXT
  8
3
  40
60
  5
7EFD
  62
0
  72
0
  71
0
 10
691.369
 20
1597.54
 30
0.000000
  1
40
  0
POINT
  5
7E7B
  8
DEFPOINTS
  6
CONTINUOUS
 62
     0
 10
1192.977425
 20
1892.3151089999999
 30
0.0
  0
POINT
  5
7E7C
  8
DEFPOINTS
  6
CONTINUOUS
 62
     0
 10
1192.977425
 20
1852.3151089999999
 30
0.0
  0
POINT
  5
7E7D
  8
DEFPOINTS
  6
CONTINUOUS
 62
     0
 10
861.36916900000028
 20
1852.3151089999999
 30
0.0
  0
ENDBLK
  5
7E10
  8
0
  0
BLOCK
  8
0
  2
*D5
 70
     1
 10
0.0
 20
0.0
 30
0.0
  3
*D5
  1

  0
LINE
  5
7E7E
  8
3
  6
CONTINUOUS
 62
     0
 10
1172.977425
 20
2847.3151090000001
 30
0.0
 11
709.60200100000054
 21
2847.3151090000001
 31
0.0
  0
LINE
  5
7E7F
  8
3
  6
CONTINUOUS
 62
     0
 10
1182.977425
 20
1852.3151089999999
 30
0.0
 11
709.60200100000031
 21
1852.3151089999999
 31
0.0
  0
LINE
  5
7E80
  8
3
  6
CONTINUOUS
 62
     0
 10
729.60200100000043
 20
2807.315109000001
 30
0.0
 11
729.6020010000002
 21
1892.3151089999999
 31
0.0
  0
INSERT
  5
7E81
  8
3
  6
CONTINUOUS
 62
     0
  2
_OPEN
 10
729.60200100000054
 20
2847.3151090000001
 30
0.0
 41
40.0
 42
40.0
 43
40.0
 50
90.0
  0
INSERT
  5
7E82
  8
3
  6
CONTINUOUS
 62
     0
  2
_OPEN
 10
729.6020010000002
 20
1852.3151089999999
 30
0.0
 41
40.0
 42
40.0
 43
40.0
 50
270.0
  0
TEXT
  8
3
  40
60
  5
7EFE
  62
0
  72
0
  71
0
 10
559.602
 20
2298.17
 30
0.000000
  1
995
  0
POINT
  5
7E84
  8
DEFPOINTS
  6
CONTINUOUS
 62
     0
 10
1182.977425
 20
2847.3151090000001
 30
0.0
  0
POINT
  5
7E85
  8
DEFPOINTS
  6
CONTINUOUS
 62
     0
 10
1192.977425
 20
1852.3151089999999
 30
0.0
  0
POINT
  5
7E86
  8
DEFPOINTS
  6
CONTINUOUS
 62
     0
 10
729.6020010000002
 20
1852.3151089999999
 30
0.0
  0
ENDBLK
  5
7D48
  8
0
  0
BLOCK
  8
0
  2
*D6
 70
     1
 10
0.0
 20
0.0
 30
0.0
  3
*D6
  1

  0
LINE
  5
7E87
  8
3
  6
CONTINUOUS
 62
     0
 10
1137.977425
 20
2537.3151090000001
 30
0.0
 11
1137.977425
 21
2949.6930139999999
 31
0.0
  0
LINE
  5
7E88
  8
3
  6
CONTINUOUS
 62
     0
 10
1492.977425
 20
2914.0205710390269
 30
0.0
 11
1492.977425
 21
2949.6930139999999
 31
0.0
  0
LINE
  5
7E89
  8
3
  6
CONTINUOUS
 62
     0
 10
1177.977425
 20
2929.6930139999999
 30
0.0
 11
1452.977425
 21
2929.6930139999999
 31
0.0
  0
INSERT
  5
7E8A
  8
3
  6
CONTINUOUS
 62
     0
  2
_OPEN
 10
1137.977425
 20
2929.6930139999999
 30
0.0
 41
40.0
 42
40.0
 43
40.0
 50
180.0
  0
INSERT
  5
7E8B
  8
3
  6
CONTINUOUS
 62
     0
  2
_OPEN
 10
1492.977425
 20
2929.6930139999999
 30
0.0
 41
40.0
 42
40.0
 43
40.0
  0
TEXT
  8
3
  40
60
  5
7EFF
  62
0
  72
0
  71
0
 10
1195.39
 20
2873.49
 30
0.000000
  1
355
  0
POINT
  5
7E8D
  8
DEFPOINTS
  6
CONTINUOUS
 62
     0
 10
1137.977425
 20
2527.3151090000001
 30
0.0
  0
POINT
  5
7E8E
  8
DEFPOINTS
  6
CONTINUOUS
 62
     0
 10
1492.977425
 20
2904.0205710390269
 30
0.0
  0
POINT
  5
7E8F
  8
DEFPOINTS
  6
CONTINUOUS
 62
     0
 10
1492.977425
 20
2929.6930139999999
 30
0.0
  0
ENDBLK
  5
7E34
  8
0
  0
BLOCK
  8
0
  2
*D7
 70
     1
 10
0.0
 20
0.0
 30
0.0
  3
*D7
  1

  0
LINE
  5
7E90
  8
3
  6
CONTINUOUS
 62
     0
 10
1889.977425
 20
2507.4554800605242
 30
0.0
 11
1889.977425
 21
2949.6930139999999
 31
0.0
  0
LINE
  5
7E91
  8
3
  6
CONTINUOUS
 62
     0
 10
1532.977425
 20
2929.6930139999999
 30
0.0
 11
1849.977425
 21
2929.6930139999999
 31
0.0
  0
INSERT
  5
7E92
  8
3
  6
CONTINUOUS
 62
     0
  2
_OPEN
 10
1492.977425
 20
2929.6930139999999
 30
0.0
 41
40.0
 42
40.0
 43
40.0
 50
180.0
  0
INSERT
  5
7E93
  8
3
  6
CONTINUOUS
 62
     0
  2
_OPEN
 10
1889.977425
 20
2929.6930139999999
 30
0.0
 41
40.0
 42
40.0
 43
40.0
  0
TEXT
  8
3
  40
60
  5
7F00
  62
0
  72
0
  71
0
 10
1571.48
 20
2873.49
 30
0.000000
  1
397
  0
POINT
  5
7E95
  8
DEFPOINTS
  6
CONTINUOUS
 62
     0
 10
1492.977425
 20
2904.0205710390269
 30
0.0
  0
POINT
  5
7E96
  8
DEFPOINTS
  6
CONTINUOUS
 62
     0
 10
1889.977425
 20
2497.4554800605251
 30
0.0
  0
POINT
  5
7E97
  8
DEFPOINTS
  6
CONTINUOUS
 62
     0
 10
1889.977425
 20
2929.6930139999999
 30
0.0
  0
ENDBLK
  5
7E29
  8
0
  0
BLOCK
  8
0
  2
*D8
 70
     1
 10
0.0
 20
0.0
 30
0.0
  3
*D8
  1

  0
LINE
  5
7E98
  8
3
  6
CONTINUOUS
 62
     0
 10
1192.977425
 20
1842.3151089999999
 30
0.0
 11
1192.977425
 21
1687.836843
 31
0.0
  0
LINE
  5
7E99
  8
3
  6
CONTINUOUS
 62
     0
 10
1492.977425
 20
1719.4555600000001
 30
0.0
 11
1492.977425
 21
1687.836843
 31
0.0
  0
LINE
  5
7E9A
  8
3
  6
CONTINUOUS
 62
     0
 10
1152.977425
 20
1707.836843
 30
0.0
 11
1112.977425
 21
1707.836843
 31
0.0
  0
LINE
  5
7E9B
  8
3
  6
CONTINUOUS
 62
     0
 10
1532.977425
 20
1707.836843
 30
0.0
 11
1572.977425
 21
1707.836843
 31
0.0
  0
LINE
  5
7E9C
  8
3
  6
CONTINUOUS
 62
     0
 10
1192.977425
 20
1707.836843
 30
0.0
 11
1492.977425
 21
1707.836843
 31
0.0
  0
INSERT
  5
7E9D
  8
3
  6
CONTINUOUS
 62
     0
  2
_OPEN
 10
1192.977425
 20
1707.836843
 30
0.0
 41
40.0
 42
40.0
 43
40.0
  0
INSERT
  5
7E9E
  8
3
  6
CONTINUOUS
 62
     0
  2
_OPEN
 10
1492.977425
 20
1707.836843
 30
0.0
 41
40.0
 42
40.0
 43
40.0
 50
180.0
  0
TEXT
  8
3
  40
60
  5
7F01
  62
0
  72
0
  71
0
 10
1210.12
 20
1651.64
 30
0.000000
  1
300
  0
POINT
  5
7EA0
  8
DEFPOINTS
  6
CONTINUOUS
 62
     0
 10
1192.977425
 20
1852.3151089999999
 30
0.0
  0
POINT
  5
7EA1
  8
DEFPOINTS
  6
CONTINUOUS
 62
     0
 10
1492.977425
 20
1729.4555600000001
 30
0.0
  0
POINT
  5
7EA2
  8
DEFPOINTS
  6
CONTINUOUS
 62
     0
 10
1492.977425
 20
1707.836843
 30
0.0
  0
ENDBLK
  5
7D7E
  8
0
  0
BLOCK
  8
0
  2
*D9
 70
     1
 10
0.0
 20
0.0
 30
0.0
  3
*D9
  1

  0
LINE
  5
7EA3
  8
3
  6
CONTINUOUS
 62
     0
 10
2312.977425
 20
1842.3151089999999
 30
0.0
 11
2312.977425
 21
1687.836843
 31
0.0
  0
LINE
  5
7EA4
  8
3
  6
CONTINUOUS
 62
     0
 10
1532.977425
 20
1707.836843
 30
0.0
 11
2272.977425
 21
1707.836843
 31
0.0
  0
INSERT
  5
7EA5
  8
3
  6
CONTINUOUS
 62
     0
  2
_OPEN
 10
1492.977425
 20
1707.836843
 30
0.0
 41
40.0
 42
40.0
 43
40.0
 50
180.0
  0
INSERT
  5
7EA6
  8
3
  6
CONTINUOUS
 62
     0
  2
_OPEN
 10
2312.977425
 20
1707.836843
 30
0.0
 41
40.0
 42
40.0
 43
40.0
  0
TEXT
  8
3
  40
60
  5
7F02
  62
0
  72
0
  71
0
 10
1782.98
 20
1651.64
 30
0.000000
  1
820
  0
POINT
  5
7EA8
  8
DEFPOINTS
  6
CONTINUOUS
 62
     0
 10
1492.977425
 20
1729.4555600000001
 30
0.0
  0
POINT
  5
7EA9
  8
DEFPOINTS
  6
CONTINUOUS
 62
     0
 10
2312.977425
 20
1852.3151089999999
 30
0.0
  0
POINT
  5
7EAA
  8
DEFPOINTS
  6
CONTINUOUS
 62
     0
 10
2312.977425
 20
1707.836843
 30
0.0
  0
ENDBLK
  5
7D73
  8
0
  0
BLOCK
  8
0
  2
*D10
 70
     1
 10
0.0
 20
0.0
 30
0.0
  3
*D10
  1

  0
LINE
  5
7EAB
  8
3
  6
CONTINUOUS
 62
     0
 10
2809.2713819999999
 20
1842.3151089999999
 30
0.0
 11
2809.2713819999999
 21
1660.9180809999989
 31
0.0
  0
LINE
  5
7EAC
  8
3
  6
CONTINUOUS
 62
     0
 10
3195.2713819999999
 20
1686.725351
 30
0.0
 11
3195.2713819999999
 21
1700.9180809999989
 31
0.0
  0
LINE
  5
7EAD
  8
3
  6
CONTINUOUS
 62
     0
 10
2849.271381999999
 20
1680.9180809999989
 30
0.0
 11
3155.2713819999999
 21
1680.9180809999989
 31
0.0
  0
INSERT
  5
7EAE
  8
3
  6
CONTINUOUS
 62
     0
  2
_OPEN
 10
2809.2713819999999
 20
1680.9180809999989
 30
0.0
 41
40.0
 42
40.0
 43
40.0
 50
180.0
  0
INSERT
  5
7EAF
  8
3
  6
CONTINUOUS
 62
     0
  2
_OPEN
 10
3195.2713819999999
 20
1680.9180809999989
 30
0.0
 41
40.0
 42
40.0
 43
40.0
  0
TEXT
  8
3
  40
60
  5
7F03
  62
0
  72
0
  71
0
 10
2891.40
 20
1624.72
 30
0.000000
  1
386
  0
POINT
  5
7EB1
  8
DEFPOINTS
  6
CONTINUOUS
 62
     0
 10
2809.2713819999999
 20
1852.3151089999999
 30
0.0
  0
POINT
  5
7EB2
  8
DEFPOINTS
  6
CONTINUOUS
 62
     0
 10
3195.2713819999999
 20
1676.7253509999989
 30
0.0
  0
POINT
  5
7EB3
  8
DEFPOINTS
  6
CONTINUOUS
 62
     0
 10
3195.2713819999999
 20
1680.9180809999989
 30
0.0
  0
ENDBLK
  5
7DC1
  8
0
  0
BLOCK
  8
0
  2
*D11
 70
     1
 10
0.0
 20
0.0
 30
0.0
  3
*D11
  1

  0
LINE
  5
7EB4
  8
3
  6
CONTINUOUS
 62
     0
 10
3499.271381999999
 20
1842.3151089999999
 30
0.0
 11
3499.271381999999
 21
1660.9180809999989
 31
0.0
  0
LINE
  5
7EB5
  8
3
  6
CONTINUOUS
 62
     0
 10
3235.2713819999999
 20
1680.9180809999989
 30
0.0
 11
3459.2713819999999
 21
1680.9180809999989
 31
0.0
  0
INSERT
  5
7EB6
  8
3
  6
CONTINUOUS
 62
     0
  2
_OPEN
 10
3195.2713819999999
 20
1680.9180809999989
 30
0.0
 41
40.0
 42
40.0
 43
40.0
 50
180.0
  0
INSERT
  5
7EB7
  8
3
  6
CONTINUOUS
 62
     0
  2
_OPEN
 10
3499.271381999999
 20
1680.9180809999989
 30
0.0
 41
40.0
 42
40.0
 43
40.0
  0
TEXT
  8
3
  40
60
  5
7F04
  62
0
  72
0
  71
0
 10
3227.27
 20
1624.72
 30
0.000000
  1
304
  0
POINT
  5
7EB9
  8
DEFPOINTS
  6
CONTINUOUS
 62
     0
 10
3195.2713819999999
 20
1676.7253509999989
 30
0.0
  0
POINT
  5
7EBA
  8
DEFPOINTS
  6
CONTINUOUS
 62
     0
 10
3499.271381999999
 20
1852.3151089999999
 30
0.0
  0
POINT
  5
7EBB
  8
DEFPOINTS
  6
CONTINUOUS
 62
     0
 10
3499.271381999999
 20
1680.9180809999989
 30
0.0
  0
ENDBLK
  5
7DB6
  8
0
  0
BLOCK
  8
0
  2
*D12
 70
     1
 10
0.0
 20
0.0
 30
0.0
  3
*D12
  1

  0
LINE
  5
7EBC
  8
3
  6
CONTINUOUS
 62
     0
 10
3375.271381999999
 20
2856.2951090000001
 30
0.0
 11
3375.271381999999
 21
2947.6983730000002
 31
0.0
  0
LINE
  5
7EBD
  8
3
  6
CONTINUOUS
 62
     0
 10
3015.271381999999
 20
2856.2951090000001
 30
0.0
 11
3015.271381999999
 21
2947.6983730000002
 31
0.0
  0
LINE
  5
7EBE
  8
3
  6
CONTINUOUS
 62
     0
 10
3335.2713819999999
 20
2927.6983730000002
 30
0.0
 11
3055.2713819999999
 21
2927.6983730000002
 31
0.0
  0
INSERT
  5
7EBF
  8
3
  6
CONTINUOUS
 62
     0
  2
_OPEN
 10
3375.271381999999
 20
2927.6983730000002
 30
0.0
 41
40.0
 42
40.0
 43
40.0
  0
INSERT
  5
7EC0
  8
3
  6
CONTINUOUS
 62
     0
  2
_OPEN
 10
3015.271381999999
 20
2927.6983730000002
 30
0.0
 41
40.0
 42
40.0
 43
40.0
 50
180.0
  0
TEXT
  8
3
  40
60
  5
7F05
  62
0
  72
0
  71
0
 10
3070.49
 20
2871.50
 30
0.000000
  1
360
  0
POINT
  5
7EC2
  8
DEFPOINTS
  6
CONTINUOUS
 62
     0
 10
3375.271381999999
 20
2846.2951090000001
 30
0.0
  0
POINT
  5
7EC3
  8
DEFPOINTS
  6
CONTINUOUS
 62
     0
 10
3015.271381999999
 20
2846.2951090000001
 30
0.0
  0
POINT
  5
7EC4
  8
DEFPOINTS
  6
CONTINUOUS
 62
     0
 10
3015.271381999999
 20
2927.6983730000002
 30
0.0
  0
ENDBLK
  5
7DAB
  8
0
  0
BLOCK
  8
0
  2
*D13
 70
     1
 10
0.0
 20
0.0
 30
0.0
  3
*D13
  1

  0
LINE
  5
7DD8
  8
0
  6
BYBLOCK
 62
     0
 10
3376.2713819999999
 20
2752.3151090000001
 30
0.0
 11
3376.2713819999999
 21
3084.738022999999
 31
0.0
  0
LINE
  5
7DD9
  8
0
  6
BYBLOCK
 62
     0
 10
3195.2713819999999
 20
2997.910222
 30
0.0
 11
3195.2713819999999
 21
3084.738022999999
 31
0.0
  0
LINE
  5
7DDA
  8
0
  6
BYBLOCK
 62
     0
 10
3336.271381999999
 20
3064.7380229999999
 30
0.0
 11
3235.2713819999999
 21
3064.7380229999999
 31
0.0
  0
TEXT
  5
7DDB
  8
3
 62
     0
 10
3227.199953428571
 20
3100.4105094583279
 30
0.0
 40
60.0
  1
181
  0
INSERT
  5
7DDC
  8
0
  6
BYBLOCK
 62
     0
  2
_OPEN
 10
3376.2713819999999
 20
3064.7380229999999
 30
0.0
 41
40.0
 42
40.0
 43
40.0
  0
INSERT
  5
7DDD
  8
0
  6
BYBLOCK
 62
     0
  2
_OPEN
 10
3195.2713819999999
 20
3064.7380229999999
 30
0.0
 41
40.0
 42
40.0
 43
40.0
 50
180.0
  0
POINT
  5
7DDE
  8
DEFPOINTS
  6
BYBLOCK
 62
     0
 10
3376.2713819999999
 20
2742.3151090000001
 30
0.0
  0
POINT
  5
7DDF
  8
DEFPOINTS
  6
BYBLOCK
 62
     0
 10
3195.2713819999999
 20
2987.910222
 30
0.0
  0
POINT
  5
7DE0
  8
DEFPOINTS
  6
BYBLOCK
 62
     0
 10
3195.2713819999999
 20
3064.7380229999999
 30
0.0
  0
ENDBLK
  5
7DE1
  8
0
  0
BLOCK
  8
0
  2
*D14
 70
     1
 10
0.0
 20
0.0
 30
0.0
  3
*D14
  1

  0
LINE
  5
7EC5
  8
3
  6
CONTINUOUS
 62
     0
 10
2825.2713819999999
 20
2727.3151090000001
 30
0.0
 11
2825.2713819999999
 21
3084.738022999999
 31
0.0
  0
LINE
  5
7EC6
  8
3
  6
CONTINUOUS
 62
     0
 10
3155.2713819999999
 20
3064.7380229999999
 30
0.0
 11
2865.271381999999
 21
3064.7380229999999
 31
0.0
  0
INSERT
  5
7EC7
  8
3
  6
CONTINUOUS
 62
     0
  2
_OPEN
 10
3195.2713819999999
 20
3064.7380229999999
 30
0.0
 41
40.0
 42
40.0
 43
40.0
  0
INSERT
  5
7EC8
  8
3
  6
CONTINUOUS
 62
     0
  2
_OPEN
 10
2825.2713819999999
 20
3064.7380229999999
 30
0.0
 41
40.0
 42
40.0
 43
40.0
 50
180.0
  0
TEXT
  8
3
  40
60
  5
7F06
  62
0
  72
0
  71
0
 10
2890.27
 20
3058.54
 30
0.000000
  1
MAX
  0
TEXT
  8
3
  40
60
  5
7F07
  62
0
  72
0
  71
0
 10
2890.27
 20
2980.54
 30
0.000000
  1
430
  0
POINT
  5
7ECA
  8
DEFPOINTS
  6
CONTINUOUS
 62
     0
 10
3195.2713819999999
 20
2987.910222
 30
0.0
  0
POINT
  5
7ECB
  8
DEFPOINTS
  6
CONTINUOUS
 62
     0
 10
2825.2713819999999
 20
2717.3151090000001
 30
0.0
  0
POINT
  5
7ECC
  8
DEFPOINTS
  6
CONTINUOUS
 62
     0
 10
2825.2713819999999
 20
3064.7380229999999
 30
0.0
  0
ENDBLK
  5
7E03
  8
0
  0
BLOCK
  8
0
  2
*D15
 70
     1
 10
0.0
 20
0.0
 30
0.0
  3
*D15
  1

  0
LINE
  5
7ECD
  8
3
  6
CONTINUOUS
 62
     0
 10
3386.271381999999
 20
2742.3151090000001
 30
0.0
 11
3557.2367610000001
 21
2742.3151090000001
 31
0.0
  0
LINE
  5
7ECE
  8
3
  6
CONTINUOUS
 62
     0
 10
3386.271381999999
 20
2242.3151090000001
 30
0.0
 11
3557.2367610000001
 21
2242.3151090000001
 31
0.0
  0
LINE
  5
7ECF
  8
3
  6
CONTINUOUS
 62
     0
 10
3537.2367610000001
 20
2702.3151090000001
 30
0.0
 11
3537.2367610000001
 21
2282.3151090000001
 31
0.0
  0
INSERT
  5
7ED0
  8
3
  6
CONTINUOUS
 62
     0
  2
_OPEN
 10
3537.2367610000001
 20
2742.3151090000001
 30
0.0
 41
40.0
 42
40.0
 43
40.0
 50
90.0
  0
INSERT
  5
7ED1
  8
3
  6
CONTINUOUS
 62
     0
  2
_OPEN
 10
3537.2367610000001
 20
2242.3151090000001
 30
0.0
 41
40.0
 42
40.0
 43
40.0
 50
270.0
  0
TEXT
  8
3
  40
60
  5
7F08
  62
0
  72
0
  71
0
 10
3367.24
 20
2385.35
 30
0.000000
  1
φ500
  0
POINT
  5
7ED3
  8
DEFPOINTS
  6
CONTINUOUS
 62
     0
 10
3376.2713819999999
 20
2742.3151090000001
 30
0.0
  0
POINT
  5
7ED4
  8
DEFPOINTS
  6
CONTINUOUS
 62
     0
 10
3376.2713819999999
 20
2242.3151090000001
 30
0.0
  0
POINT
  5
7ED5
  8
DEFPOINTS
  6
CONTINUOUS
 62
     0
 10
3537.2367610000001
 20
2242.3151090000001
 30
0.0
  0
ENDBLK
  5
7DEC
  8
0
  0
BLOCK
  8
0
  2
*D16
 70
     1
 10
0.0
 20
0.0
 30
0.0
  3
*D16
  1

  0
LINE
  5
7ED6
  8
3
  6
CONTINUOUS
 62
     0
 10
1192.977425
 20
4241.4451089999993
 30
0.0
 11
1192.977425
 21
4384.7039610000002
 31
0.0
  0
LINE
  5
7ED7
  8
3
  6
CONTINUOUS
 62
     0
 10
2312.977425
 20
4241.4451089999993
 30
0.0
 11
2312.977425
 21
4384.7039610000002
 31
0.0
  0
LINE
  5
7ED8
  8
3
  6
CONTINUOUS
 62
     0
 10
1232.977425
 20
4364.7039610000002
 30
0.0
 11
2272.977425
 21
4364.7039610000002
 31
0.0
  0
INSERT
  5
7ED9
  8
3
  6
CONTINUOUS
 62
     0
  2
_OPEN
 10
1192.977425
 20
4364.7039610000002
 30
0.0
 41
40.0
 42
40.0
 43
40.0
 50
180.0
  0
INSERT
  5
7EDA
  8
3
  6
CONTINUOUS
 62
     0
  2
_OPEN
 10
2312.977425
 20
4364.7039610000002
 30
0.0
 41
40.0
 42
40.0
 43
40.0
  0
TEXT
  8
3
  40
60
  5
7F09
  62
0
  72
0
  71
0
 10
1584.81
 20
4308.50
 30
0.000000
  1
1120
  0
POINT
  5
7EDC
  8
DEFPOINTS
  6
CONTINUOUS
 62
     0
 10
1192.977425
 20
4231.4451090000002
 30
0.0
  0
POINT
  5
7EDD
  8
DEFPOINTS
  6
CONTINUOUS
 62
     0
 10
2312.977425
 20
4231.4451090000002
 30
0.0
  0
POINT
  5
7EDE
  8
DEFPOINTS
  6
CONTINUOUS
 62
     0
 10
2312.977425
 20
4364.7039610000002
 30
0.0
  0
ENDBLK
  5
7D89
  8
0
  0
BLOCK
  8
0
  2
*D17
 70
     1
 10
0.0
 20
0.0
 30
0.0
  3
*D17
  1

  0
LINE
  5
7EDF
  8
3
  6
CONTINUOUS
 62
     0
 10
2322.977425
 20
4231.4451090000002
 30
0.0
 11
2490.7092090000001
 21
4231.4451090000002
 31
0.0
  0
LINE
  5
7EE0
  8
3
  6
CONTINUOUS
 62
     0
 10
2322.977425
 20
3541.4451089999998
 30
0.0
 11
2490.7092090000001
 21
3541.4451089999998
 31
0.0
  0
LINE
  5
7EE1
  8
3
  6
CONTINUOUS
 62
     0
 10
2470.7092090000001
 20
4191.4451090000002
 30
0.0
 11
2470.7092090000001
 21
3581.4451089999998
 31
0.0
  0
INSERT
  5
7EE2
  8
3
  6
CONTINUOUS
 62
     0
  2
_OPEN
 10
2470.7092090000001
 20
4231.4451090000002
 30
0.0
 41
40.0
 42
40.0
 43
40.0
 50
90.0
  0
INSERT
  5
7EE3
  8
3
  6
CONTINUOUS
 62
     0
  2
_OPEN
 10
2470.7092090000001
 20
3541.4451089999998
 30
0.0
 41
40.0
 42
40.0
 43
40.0
 50
270.0
  0
TEXT
  8
3
  40
60
  5
7F0A
  62
0
  72
0
  71
0
 10
2300.71
 20
3792.63
 30
0.000000
  1
690
  0
POINT
  5
7EE5
  8
DEFPOINTS
  6
CONTINUOUS
 62
     0
 10
2312.977425
 20
4231.4451090000002
 30
0.0
  0
POINT
  5
7EE6
  8
DEFPOINTS
  6
CONTINUOUS
 62
     0
 10
2312.977425
 20
3541.4451089999998
 30
0.0
  0
POINT
  5
7EE7
  8
DEFPOINTS
  6
CONTINUOUS
 62
     0
 10
2470.7092090000001
 20
3541.4451089999998
 30
0.0
  0
ENDBLK
  5
7CF0
  8
0
  0
BLOCK
  8
0
  2
*D18
 70
     1
 10
0.0
 20
0.0
 30
0.0
  3
*D18
  1

  0
LINE
  5
7EE8
  8
3
  6
CONTINUOUS
 62
     0
 10
1127.977425
 20
2030.3151089999999
 30
0.0
 11
955.48587300000042
 21
2030.3151089999999
 31
0.0
  0
LINE
  5
7EE9
  8
3
  6
CONTINUOUS
 62
     0
 10
1127.977425
 20
2492.3151090000001
 30
0.0
 11
955.48587300000042
 21
2492.3151090000001
 31
0.0
  0
LINE
  5
7EEA
  8
3
  6
CONTINUOUS
 62
     0
 10
975.48587300000042
 20
2070.3151090000001
 30
0.0
 11
975.48587300000054
 21
2452.3151090000001
 31
0.0
  0
INSERT
  5
7EEB
  8
3
  6
CONTINUOUS
 62
     0
  2
_OPEN
 10
975.48587300000042
 20
2030.3151089999999
 30
0.0
 41
40.0
 42
40.0
 43
40.0
 50
270.0
  0
INSERT
  5
7EEC
  8
3
  6
CONTINUOUS
 62
     0
  2
_OPEN
 10
975.48587300000054
 20
2492.3151090000001
 30
0.0
 41
40.0
 42
40.0
 43
40.0
 50
90.0
  0
TEXT
  8
3
  40
60
  5
7F0B
  62
0
  72
0
  71
0
 10
805.486
 20
2171.55
 30
0.000000
  1
462
  0
POINT
  5
7EEE
  8
DEFPOINTS
  6
CONTINUOUS
 62
     0
 10
1137.977425
 20
2030.3151089999999
 30
0.0
  0
POINT
  5
7EEF
  8
DEFPOINTS
  6
CONTINUOUS
 62
     0
 10
1137.977425
 20
2492.3151090000001
 30
0.0
  0
POINT
  5
7EF0
  8
DEFPOINTS
  6
CONTINUOUS
 62
     0
 10
975.48587300000054
 20
2492.3151090000001
 30
0.0
  0
ENDBLK
  5
7D0C
  8
0
  0
BLOCK
  8
0
  2
*D19
 70
     1
 10
0.0
 20
0.0
 30
0.0
  3
*D19
  1

  0
LINE
  5
7EF1
  8
3
 62
     0
 10
1137.977425
 20
2537.3151090000001
 30
0.0
 11
1137.977425
 21
3085.1269804119711
 31
0.0
  0
LINE
  5
7EF2
  8
3
 62
     0
 10
2312.977425
 20
1982.315108999999
 30
0.0
 11
2312.977425
 21
3085.1269804119711
 31
0.0
  0
LINE
  5
7EF3
  8
3
 62
     0
 10
1177.977425
 20
3065.1269804119711
 30
0.0
 11
2272.977425
 21
3065.1269804119711
 31
0.0
  0
INSERT
  5
7EF4
  8
3
 62
     0
  2
_OPEN
 10
1137.977425
 20
3065.1269804119711
 30
0.0
 41
40.0
 42
40.0
 43
40.0
 50
180.0
  0
INSERT
  5
7EF5
  8
3
 62
     0
  2
_OPEN
 10
2312.977425
 20
3065.1269804119711
 30
0.0
 41
40.0
 42
40.0
 43
40.0
  0
TEXT
  8
3
  40
60
  5
7F0C
  62
0
  72
0
  71
0
 10
1614.87
 20
3008.93
 30
0.000000
  1
1175
  0
POINT
  5
7EF7
  8
DEFPOINTS
 62
     0
 10
1137.977425
 20
2527.3151090000001
 30
0.0
  0
POINT
  5
7EF8
  8
DEFPOINTS
 62
     0
 10
2312.977425
 20
1972.315108999999
 30
0.0
  0
POINT
  5
7EF9
  8
DEFPOINTS
 62
     0
 10
2312.977425
 20
3065.1269804119711
 30
0.0
  0
ENDBLK
  5
7DF8
  8
0
  0
ENDSEC
  0
SECTION
  2
ENTITIES
  0
LINE
  5
7ACB
  8
1
  6
CONTINUOUS
 10
1192.977425
 20
1852.3151089999999
 30
0.0
 11
1232.977425
 21
1852.3151089999999
 31
0.0
  0
LINE
  5
7ACC
  8
1
  6
CONTINUOUS
 10
2312.977425
 20
1892.3151089999999
 30
0.0
 11
1192.977425
 21
1892.3151089999999
 31
0.0
  0
LINE
  5
7ACD
  8
1
  6
CONTINUOUS
 10
2312.977425
 20
1972.315108999999
 30
0.0
 11
1182.977425
 21
1972.315108999999
 31
0.0
  0
LINE
  5
7ACE
  8
1
  6
CONTINUOUS
 10
1802.9774249999989
 20
2847.3151090000001
 30
0.0
 11
1182.977425
 21
2847.3151090000001
 31
0.0
  0
CIRCLE
  5
7ACF
  8
1
  6
CONTINUOUS
 10
1492.977425
 20
2492.3151090000001
 30
0.0
 40
275.0
  0
LINE
  5
7AD0
  8
1
  6
CONTINUOUS
 10
1137.977425
 20
2030.3151089999999
 30
0.0
 11
1493.3574249999999
 21
2031.315108999999
 31
0.0
  0
ARC
  5
7AD1
  8
1
  6
CONTINUOUS
 10
1523.438568
 20
2503.444117999999
 30
0.0
 40
343.89392400000003
 50
99.976388000000014
 51
178.85972100000001
  0
LINE
  5
7AD2
  8
1
  6
CONTINUOUS
 10
1137.977425
 20
2013.3151089999999
 30
0.0
 11
1137.977425
 21
2527.3151090000001
 31
0.0
  0
LINE
  5
7AD3
  8
1
  6
CONTINUOUS
 10
1162.977425
 20
2510.3151090000001
 30
0.0
 11
1162.977425
 21
2030.3851090000001
 31
0.0
  0
LINE
  5
7AD4
  8
1
  6
CONTINUOUS
 10
1182.977425
 20
1972.315108999999
 30
0.0
 11
1182.977425
 21
2847.3151090000001
 31
0.0
  0
LINE
  5
7AD5
  8
1
  6
CONTINUOUS
 10
1192.977425
 20
1972.315108999999
 30
0.0
 11
1192.977425
 21
1852.3151089999999
 31
0.0
  0
LINE
  5
7AD6
  8
1
  6
CONTINUOUS
 10
1179.6074249999999
 20
2510.3151090000001
 30
0.0
 11
1137.977425
 21
2510.3151090000001
 31
0.0
  0
LINE
  5
7ADE
  8
1
  6
CONTINUOUS
 10
2068.1974249999998
 20
2099.665109
 30
0.0
 11
1443.4174250000001
 21
2383.0251090000002
 31
0.0
  0
LINE
  5
7ADF
  8
1
  6
CONTINUOUS
 10
1560.757425
 20
2591.3351090000001
 30
0.0
 11
2126.867424999999
 21
2203.825108999999
 31
0.0
  0
ARC
  5
7AE0
  8
1
  6
CONTINUOUS
 10
1477.2222363939829
 20
2446.8506724992039
 30
0.0
 40
415.84575538233668
 50
272.22533583350167
 51
6.9897219507777164
  0
ARC
  5
7AE1
  8
1
  6
CONTINUOUS
 10
1524.1422335934631
 20
2480.926483870619
 30
0.0
 40
366.20859549172889
 50
2.5876158645987628
 51
99.474316639468796
  0
LINE
  5
7AE2
  8
1
  6
CONTINUOUS
 10
1802.9774249999989
 20
1972.315108999999
 30
0.0
 11
1802.9774249999989
 21
2847.3151090000001
 31
0.0
  0
CIRCLE
  5
7AE3
  8
1
  6
CONTINUOUS
 10
1492.977425
 20
2492.3151090000001
 30
0.0
 40
250.0
  0
LINE
  5
7AE4
  8
1
  6
CONTINUOUS
 10
1232.977425
 20
1892.3151089999999
 30
0.0
 11
1232.977425
 21
1852.3151089999999
 31
0.0
  0
CIRCLE
  5
7AE5
  8
1
  6
CONTINUOUS
 10
1492.977425
 20
2492.3151090000001
 30
0.0
 40
120.0
  0
LINE
  5
7AE6
  8
2
  6
CENTER
 10
3426.7343310000001
 20
2492.3151090000001
 30
0.0
 11
2715.934702
 21
2492.3151090000001
 31
0.0
  0
LINE
  5
7AE7
  8
2
  6
CENTER
 10
1492.977425
 20
1729.4555600000001
 30
0.0
 11
1492.977425
 21
2908.7534279108559
 31
0.0
  0
ARC
  5
7AE8
  8
1
  6
CONTINUOUS
 10
2092.977425
 20
2154.3151090000001
 30
0.0
 40
122.0
 50
324.60000000000002
 51
215.39999999999989
  0
LINE
  5
7AE9
  8
2
  6
CENTER
 10
2152.977425
 20
2154.3151090000001
 30
0.0
 11
2032.9774249999989
 21
2154.3151090000001
 31
0.0
  0
CIRCLE
  5
7AEA
  8
1
  6
CONTINUOUS
 10
2092.977425
 20
2154.3151090000001
 30
0.0
 40
60.0
  0
LINE
  5
7AEB
  8
1
  6
CONTINUOUS
 10
2222.977425
 20
2022.315108999999
 30
0.0
 11
1962.977425
 21
2022.315108999999
 31
0.0
  0
LINE
  5
7AEC
  8
1
  6
CONTINUOUS
 10
1962.977425
 20
2022.315108999999
 30
0.0
 11
1993.5374249999991
 21
2083.6351089999989
 31
0.0
  0
LINE
  5
7AED
  8
1
  6
CONTINUOUS
 10
1962.977425
 20
2022.315108999999
 30
0.0
 11
2012.977425
 21
2022.315108999999
 31
0.0
  0
LINE
  5
7AEE
  8
1
  6
CONTINUOUS
 10
1962.977425
 20
1972.315108999999
 30
0.0
 11
1962.977425
 21
2022.315108999999
 31
0.0
  0
LINE
  5
7AEF
  8
2
  6
CENTER
 10
2092.977425
 20
2094.3151090000001
 30
0.0
 11
2092.977425
 21
2214.3151090000001
 31
0.0
  0
LINE
  5
7AF0
  8
1
  6
CONTINUOUS
 10
2312.977425
 20
1852.3151089999999
 30
0.0
 11
2272.977425
 21
1852.3151089999999
 31
0.0
  0
LINE
  5
7AF1
  8
1
  6
CONTINUOUS
 10
2272.977425
 20
1892.3151089999999
 30
0.0
 11
2272.977425
 21
1852.3151089999999
 31
0.0
  0
LINE
  5
7AF2
  8
1
  6
CONTINUOUS
 10
2222.977425
 20
2022.315108999999
 30
0.0
 11
2172.977425
 21
2022.315108999999
 31
0.0
  0
LINE
  5
7AF3
  8
1
  6
CONTINUOUS
 10
2222.977425
 20
1972.315108999999
 30
0.0
 11
2222.977425
 21
2022.315108999999
 31
0.0
  0
LINE
  5
7AF4
  8
1
  6
CONTINUOUS
 10
2222.977425
 20
2022.315108999999
 30
0.0
 11
2192.4174249999992
 21
2083.6351089999989
 31
0.0
  0
LINE
  5
7AF5
  8
1
  6
CONTINUOUS
 10
2312.977425
 20
1972.315108999999
 30
0.0
 11
2312.977425
 21
1852.3151089999999
 31
0.0
  0
LINE
  5
7AF6
  8
1
  6
CONTINUOUS
 10
3375.271381999999
 20
2537.3151090000001
 30
0.0
 11
3015.271381999999
 21
2003.3151089999999
 31
0.0
  0
LINE
  5
7AF7
  8
1
  6
CONTINUOUS
 10
3015.271381999999
 20
2537.3151090000001
 30
0.0
 11
3375.271381999999
 21
2003.3151089999999
 31
0.0
  0
LINE
  5
7AF8
  8
1
  6
CONTINUOUS
 10
3375.271381999999
 20
2846.2951090000001
 30
0.0
 11
3015.271381999999
 21
2846.2951090000001
 31
0.0
  0
LINE
  5
7AF9
  8
1
  6
CONTINUOUS
 10
2971.2713819999999
 20
1972.315108999999
 30
0.0
 11
3419.2713819999999
 21
1972.315108999999
 31
0.0
  0
LINE
  5
7AFA
  8
1
  6
CONTINUOUS
 10
2809.2713819999999
 20
1892.3151089999999
 30
0.0
 11
3499.271381999999
 21
1892.3151089999999
 31
0.0
  0
LINE
  5
7AFB
  8
1
  6
CONTINUOUS
 10
3015.271381999999
 20
2003.3151089999999
 30
0.0
 11
3375.271381999999
 21
2003.3151089999999
 31
0.0
  0
LINE
  5
7AFC
  8
1
  6
CONTINUOUS
 10
3375.271381999999
 20
2537.3151090000001
 30
0.0
 11
3015.271381999999
 21
2537.3151090000001
 31
0.0
  0
LINE
  5
7AFD
  8
1
  6
CONTINUOUS
 10
2809.2713819999999
 20
1852.3151089999999
 30
0.0
 11
3499.271381999999
 21
1852.3151089999999
 31
0.0
  0
LINE
  5
7B29
  8
1
  6
CONTINUOUS
 10
3015.271381999999
 20
2846.2951090000001
 30
0.0
 11
3015.271381999999
 21
2003.3151089999999
 31
0.0
  0
LINE
  5
7B2A
  8
1
  6
CONTINUOUS
 10
2825.2713819999999
 20
1972.315108999999
 30
0.0
 11
2825.2713819999999
 21
2717.3151090000001
 31
0.0
  0
LINE
  5
7B2B
  8
1
  6
CONTINUOUS
 10
2945.271381999999
 20
2717.3151090000001
 30
0.0
 11
2945.271381999999
 21
1972.315108999999
 31
0.0
  0
LINE
  5
7B2C
  8
1
  6
CONTINUOUS
 10
2915.2713819999999
 20
2204.3151090000001
 30
0.0
 11
2855.2713819999999
 21
2204.3151090000001
 31
0.0
  0
LINE
  5
7B2D
  8
1
  6
CONTINUOUS
 10
2855.2713819999999
 20
2104.3151090000001
 30
0.0
 11
2915.2713819999999
 21
2104.3151090000001
 31
0.0
  0
LINE
  5
7B2E
  8
1
  6
CONTINUOUS
 10
2945.271381999999
 20
1972.315108999999
 30
0.0
 11
2825.2713819999999
 21
1972.315108999999
 31
0.0
  0
LINE
  5
7B2F
  8
1
  6
CONTINUOUS
 10
2809.2713819999999
 20
1892.3151089999999
 30
0.0
 11
2809.2713819999999
 21
1852.3151089999999
 31
0.0
  0
LINE
  5
7B30
  8
1
  6
CONTINUOUS
 10
2855.2713819999999
 20
2204.3151090000001
 30
0.0
 11
2855.2713819999999
 21
2104.3151090000001
 31
0.0
  0
LINE
  5
7B31
  8
1
  6
CONTINUOUS
 10
3015.271381999999
 20
2003.3151089999999
 30
0.0
 11
3015.271381999999
 21
1972.315108999999
 31
0.0
  0
LINE
  5
7B32
  8
1
  6
CONTINUOUS
 10
2971.2713819999999
 20
1972.315108999999
 30
0.0
 11
2971.2713819999999
 21
1892.3151089999999
 31
0.0
  0
LINE
  5
7B33
  8
1
  6
CONTINUOUS
 10
2915.2713819999999
 20
2173.3151090000001
 30
0.0
 11
3015.271381999999
 21
2173.3151090000001
 31
0.0
  0
LINE
  5
7B34
  8
1
  6
CONTINUOUS
 10
2915.2713819999999
 20
2135.3151089999992
 30
0.0
 11
3015.271381999999
 21
2135.3151089999992
 31
0.0
  0
LINE
  5
7B35
  8
1
  6
CONTINUOUS
 10
2915.2713819999999
 20
2104.3151090000001
 30
0.0
 11
2915.2713819999999
 21
2204.3151090000001
 31
0.0
  0
LINE
  5
7B36
  8
1
  6
CONTINUOUS
 10
2915.2713819999999
 20
2612.3151090000001
 30
0.0
 11
2855.2713819999999
 21
2612.3151090000001
 31
0.0
  0
LINE
  5
7B37
  8
1
  6
CONTINUOUS
 10
2915.2713819999999
 20
2372.3151090000001
 30
0.0
 11
2855.2713819999999
 21
2372.3151090000001
 31
0.0
  0
LINE
  5
7B38
  8
1
  6
CONTINUOUS
 10
2825.2713819999999
 20
2717.3151090000001
 30
0.0
 11
2945.271381999999
 21
2717.3151090000001
 31
0.0
  0
LINE
  5
7B39
  8
1
  6
CONTINUOUS
 10
2855.2713819999999
 20
2612.3151090000001
 30
0.0
 11
2855.2713819999999
 21
2372.3151090000001
 31
0.0
  0
LINE
  5
7B3A
  8
1
  6
CONTINUOUS
 10
2915.2713819999999
 20
2511.3151090000001
 30
0.0
 11
3015.271381999999
 21
2511.3151090000001
 31
0.0
  0
LINE
  5
7B3B
  8
1
  6
CONTINUOUS
 10
2915.2713819999999
 20
2473.3151090000001
 30
0.0
 11
3015.271381999999
 21
2473.3151090000001
 31
0.0
  0
LINE
  5
7B3C
  8
1
  6
CONTINUOUS
 10
2915.2713819999999
 20
2372.3151090000001
 30
0.0
 11
2915.2713819999999
 21
2612.3151090000001
 31
0.0
  0
LINE
  5
7B3D
  8
1
  6
CONTINUOUS
 10
3375.271381999999
 20
2846.2951090000001
 30
0.0
 11
3375.271381999999
 21
2003.3151089999999
 31
0.0
  0
LINE
  5
7B3E
  8
1
  6
CONTINUOUS
 10
3375.271381999999
 20
2003.3151089999999
 30
0.0
 11
3375.271381999999
 21
1972.315108999999
 31
0.0
  0
LINE
  5
7B3F
  8
1
  6
CONTINUOUS
 10
3419.2713819999999
 20
1972.315108999999
 30
0.0
 11
3419.2713819999999
 21
1892.3151089999999
 31
0.0
  0
LINE
  5
7B40
  8
1
  6
CONTINUOUS
 10
3499.271381999999
 20
1892.3151089999999
 30
0.0
 11
3499.271381999999
 21
1852.3151089999999
 31
0.0
  0
LINE
  5
7B41
  8
1
  6
CONTINUOUS
 10
1232.977425
 20
3541.4451089999998
 30
0.0
 11
1192.977425
 21
3541.4451089999998
 31
0.0
  0
LINE
  5
7B42
  8
1
  6
CONTINUOUS
 10
1232.977425
 20
4231.4451090000002
 30
0.0
 11
1192.977425
 21
4231.4451090000002
 31
0.0
  0
LINE
  5
7B43
  8
1
  6
CONTINUOUS
 10
2312.977425
 20
4151.4451089999993
 30
0.0
 11
1192.977425
 21
4151.4451089999993
 31
0.0
  0
LINE
  5
7B44
  8
1
  6
CONTINUOUS
 10
1473.977425
 20
3703.4451089999998
 30
0.0
 11
1192.977425
 21
3703.4451089999998
 31
0.0
  0
LINE
  5
7B45
  8
1
  6
CONTINUOUS
 10
1901.1674250000001
 20
4109.4451090000002
 30
0.0
 11
1137.977425
 21
4109.4451090000002
 31
0.0
  0
LINE
  5
7B46
  8
1
  6
CONTINUOUS
 10
1901.1674250000001
 20
3745.4451089999998
 30
0.0
 11
1137.977425
 21
3745.4451089999998
 31
0.0
  0
LINE
  5
7B47
  8
1
  6
CONTINUOUS
 10
1162.977425
 20
3746.4451089999998
 30
0.0
 11
1162.977425
 21
4108.4451090000002
 31
0.0
  0
LINE
  5
7B48
  8
1
  6
CONTINUOUS
 10
1137.977425
 20
3720.4451089999998
 30
0.0
 11
1137.977425
 21
4134.4451090000002
 31
0.0
  0
LINE
  5
7B49
  8
1
  6
CONTINUOUS
 10
1192.977425
 20
3541.4451089999998
 30
0.0
 11
1192.977425
 21
3745.4451089999998
 31
0.0
  0
LINE
  5
7B4A
  8
1
  6
CONTINUOUS
 10
1192.977425
 20
4231.4451090000002
 30
0.0
 11
1192.977425
 21
4109.4451090000002
 31
0.0
  0
LINE
  5
7B4B
  8
1
  6
CONTINUOUS
 10
2073.977425
 20
3703.4451089999998
 30
0.0
 11
1511.977425
 21
3703.4451089999998
 31
0.0
  0
LINE
  5
7B4C
  8
1
  6
CONTINUOUS
 10
1267.477425
 20
3557.4451089999998
 30
0.0
 11
2267.477425
 21
3557.4451089999998
 31
0.0
  0
LINE
  5
7B4D
  8
1
  6
CONTINUOUS
 10
2267.477425
 20
3677.4451089999998
 30
0.0
 11
1267.477425
 21
3677.4451089999998
 31
0.0
  0
LINE
  5
7B4E
  8
1
  6
CONTINUOUS
 10
1612.977425
 20
3587.4451089999998
 30
0.0
 11
1372.977425
 21
3587.4451089999998
 31
0.0
  0
LINE
  5
7B4F
  8
1
  6
CONTINUOUS
 10
1372.977425
 20
3647.4451089999998
 30
0.0
 11
1612.977425
 21
3647.4451089999998
 31
0.0
  0
LINE
  5
7B50
  8
1
  6
CONTINUOUS
 10
1232.977425
 20
3541.4451089999998
 30
0.0
 11
1232.977425
 21
3703.4451089999998
 31
0.0
  0
LINE
  5
7B51
  8
1
  6
CONTINUOUS
 10
1372.977425
 20
3587.4451089999998
 30
0.0
 11
1372.977425
 21
3647.4451089999998
 31
0.0
  0
LINE
  5
7B52
  8
1
  6
CONTINUOUS
 10
1267.477425
 20
3677.4451089999998
 30
0.0
 11
1267.477425
 21
3557.4451089999998
 31
0.0
  0
LINE
  5
7B53
  8
1
  6
CONTINUOUS
 10
1473.977425
 20
3647.4451089999998
 30
0.0
 11
1473.977425
 21
3746.4451089999998
 31
0.0
  0
LINE
  5
7B54
  8
1
  6
CONTINUOUS
 10
1511.977425
 20
3647.4451089999998
 30
0.0
 11
1511.977425
 21
3746.4451089999998
 31
0.0
  0
LINE
  5
7B55
  8
1
  6
CONTINUOUS
 10
1612.977425
 20
3587.4451089999998
 30
0.0
 11
1612.977425
 21
3647.4451089999998
 31
0.0
  0
LINE
  5
7B56
  8
1
  6
CONTINUOUS
 10
1232.977425
 20
4231.4451090000002
 30
0.0
 11
1232.977425
 21
4151.4451089999993
 31
0.0
  0
LINE
  5
7B57
  8
1
  6
CONTINUOUS
 10
1901.1674250000001
 20
3745.4451089999998
 30
0.0
 11
1901.1674250000001
 21
4109.4451090000002
 31
0.0
  0
LINE
  5
7B58
  8
1
  6
CONTINUOUS
 10
2312.977425
 20
4231.4451090000002
 30
0.0
 11
2312.977425
 21
3541.4451089999998
 31
0.0
  0
LINE
  5
7B59
  8
1
  6
CONTINUOUS
 10
1970.977425
 20
3727.6851090000009
 30
0.0
 11
1970.977425
 21
4077.685109
 31
0.0
  0
LINE
  5
7B5A
  8
1
  6
CONTINUOUS
 10
2214.977425
 20
3727.6851090000009
 30
0.0
 11
2214.977425
 21
4077.685109
 31
0.0
  0
LINE
  5
7B5B
  8
1
  6
CONTINUOUS
 10
2312.977425
 20
3703.4451089999998
 30
0.0
 11
2111.977425
 21
3703.4451089999998
 31
0.0
  0
LINE
  5
7B5C
  8
1
  6
CONTINUOUS
 10
2214.977425
 20
3727.6851090000009
 30
0.0
 11
1970.977425
 21
3727.6851090000009
 31
0.0
  0
LINE
  5
7B5D
  8
1
  6
CONTINUOUS
 10
2042.977425
 20
3647.4451089999998
 30
0.0
 11
2142.977425
 21
3647.4451089999998
 31
0.0
  0
LINE
  5
7B5E
  8
1
  6
CONTINUOUS
 10
2142.977425
 20
3587.4451089999998
 30
0.0
 11
2042.977425
 21
3587.4451089999998
 31
0.0
  0
LINE
  5
7B5F
  8
1
  6
CONTINUOUS
 10
2042.977425
 20
3587.4451089999998
 30
0.0
 11
2042.977425
 21
3647.4451089999998
 31
0.0
  0
LINE
  5
7B60
  8
1
  6
CONTINUOUS
 10
2111.977425
 20
3647.4451089999998
 30
0.0
 11
2111.977425
 21
3727.6851090000009
 31
0.0
  0
LINE
  5
7B61
  8
1
  6
CONTINUOUS
 10
2073.977425
 20
3647.4451089999998
 30
0.0
 11
2073.977425
 21
3727.6851090000009
 31
0.0
  0
LINE
  5
7B62
  8
1
  6
CONTINUOUS
 10
2272.977425
 20
3541.4451089999998
 30
0.0
 11
2272.977425
 21
3703.4451089999998
 31
0.0
  0
LINE
  5
7B63
  8
1
  6
CONTINUOUS
 10
2142.977425
 20
3647.4451089999998
 30
0.0
 11
2142.977425
 21
3587.4451089999998
 31
0.0
  0
LINE
  5
7B64
  8
1
  6
CONTINUOUS
 10
2267.477425
 20
3557.4451089999998
 30
0.0
 11
2267.477425
 21
3677.4451089999998
 31
0.0
  0
LINE
  5
7B65
  8
1
  6
CONTINUOUS
 10
2272.977425
 20
3541.4451089999998
 30
0.0
 11
2312.977425
 21
3541.4451089999998
 31
0.0
  0
LINE
  5
7B66
  8
1
  6
CONTINUOUS
 10
2214.977425
 20
4077.685109
 30
0.0
 11
1970.977425
 21
4077.685109
 31
0.0
  0
LINE
  5
7B67
  8
1
  6
CONTINUOUS
 10
2272.977425
 20
4231.4451090000002
 30
0.0
 11
2312.977425
 21
4231.4451090000002
 31
0.0
  0
LINE
  5
7B68
  8
1
  6
CONTINUOUS
 10
2272.977425
 20
4231.4451090000002
 30
0.0
 11
2272.977425
 21
4151.4451089999993
 31
0.0
  0
LINE
  5
7B91
  8
2
  6
CENTER
 10
3195.2713819999999
 20
2884.2035850000002
 30
0.0
 11
3195.2713819999999
 21
1676.7253509999989
 31
0.0
  0
LINE
  5
7B92
  8
2
  6
CENTER
 10
2352.8466574213671
 20
3927.4451089999998
 30
0.0
 11
1089.3154908707111
 21
3927.4451089999998
 31
0.0
  0
LINE
  5
7B93
  8
2
  6
CENTER
 10
1492.977425
 20
3457.102875999999
 30
0.0
 11
1492.977425
 21
4201.9860735056436
 31
0.0
  0
LINE
  5
7B94
  8
2
  6
CENTER
 10
2137.0671459999999
 20
2492.3151090000001
 30
0.0
 11
1031.1968559999989
 21
2492.3151090000001
 31
0.0
  0
LINE
  5
7B95
  8
1
  6
CONTINUOUS
 10
1267.477425
 20
1972.315108999999
 30
0.0
 11
1267.477425
 21
2642.3151090000001
 31
0.0
  0
LINE
  5
7B96
  8
1
  6
CONTINUOUS
 10
1267.477425
 20
2642.3151090000001
 30
0.0
 11
1507.477425
 21
2717.3151090000001
 31
0.0
  0
LINE
  5
7B97
  8
1
  6
CONTINUOUS
 10
1507.477425
 20
2717.3151090000001
 30
0.0
 11
2267.477425
 21
2207.3151090000001
 31
0.0
  0
LINE
  5
7B98
  8
1
  6
CONTINUOUS
 10
2267.477425
 20
2207.3151090000001
 30
0.0
 11
2267.477425
 21
1972.315108999999
 31
0.0
  0
LINE
  5
7B99
  8
4
  6
CONTINUOUS
 10
3700.0
 20
1000.0
 30
0.0
 11
3700.0
 21
600.0
 31
0.0
  0
LINE
  5
7B9A
  8
4
  6
CONTINUOUS
 10
2300.0
 20
1000.0
 30
0.0
 11
2300.0
 21
600.0
 31
0.0
  0
LINE
  5
7B9B
  8
4
  6
CONTINUOUS
 10
1300.0
 20
1000.0
 30
0.0
 11
1300.0
 21
600.0
 31
0.0
  0
LINE
  5
7B9E
  8
4
  6
CONTINUOUS
 10
1300.0
 20
600.0
 30
0.0
 11
3700.0
 21
600.0
 31
0.0
  0
LINE
  5
7B9F
  8
4
  6
CONTINUOUS
 10
1300.0
 20
800.0
 30
0.0
 11
3700.0
 21
800.0
 31
0.0
  0
TEXT
  5
7BA0
  8
4
  6
CONTINUOUS
 10
1377.004162
 20
863.086052
 30
0.0
 40
100.0
  1
機器名称
  0
TEXT
  5
7BA1
  8
4
  6
CONTINUOUS
 10
1372.516212
 20
643.29031299999986
 30
0.0
 40
100.0
  1
機器型番
  0
TEXT
  5
7BA2
  8
4
  6
CONTINUOUS
 10
2355.3574910000002
 20
845.14353800000015
 30
0.0
 40
100.0
  1
ミツヤ多翼送風機
  0
TEXT
  5
7BA3
  8
4
  6
CONTINUOUS
 10
2373.3089909999999
 20
634.31916899999999
 30
0.0
 40
100.0
  1
MF#3-4
  0
TEXT
  5
7BA5
  8
4
  6
CONTINUOUS
 10
1586.0596829999999
 20
4766.8576830000002
 30
0.0
 40
108.0
  1
天井吊ベット
  0
TEXT
  5
7BA6
  8
4
  6
CONTINUOUS
 10
632.33518700000002
 20
5067.7619520000007
 30
0.0
 40
144.0
  1
ベルト駆動式片吸込両持多翼ファン
  0
LINE
  5
7BA7
  8
4
  6
CONTINUOUS
 10
500.0
 20
4938.8175090000004
 30
0.0
 11
3700.0
 21
4938.8175090000004
 31
0.0
  0
LINE
  5
7BA8
  8
4
  6
CONTINUOUS
 10
500.0
 20
5338.8175090000004
 30
0.0
 11
3700.0
 21
5338.8175090000004
 31
0.0
  0
LINE
  5
7BA9
  8
4
  6
CONTINUOUS
 10
1300.0
 20
1000.0
 30
0.0
 11
3700.0
 21
1000.0
 31
0.0
  0
LINE
  5
7BAA
  8
4
  6
CONTINUOUS
 10
500.0
 20
5338.8175090000004
 30
0.0
 11
500.0
 21
4938.8175090000004
 31
0.0
  0
TEXT
  5
7BAB
  8
4
  6
CONTINUOUS
 10
714.34201799999994
 20
4764.6389549999994
 30
0.0
 40
108.0
  1
右回転左横向
  0
TEXT
  5
7BAC
  8
4
  6
CONTINUOUS
 10
2937.9391179999998
 20
5412.122163
 30
0.0
 40
112.0
  1
No.
  0
TEXT
  5
7BAD
  8
4
  6
CONTINUOUS
 10
2622.5921250000001
 20
4766.8576830000002
 30
0.0
 40
108.0
  1
縮尺：1/20
  0
LINE
  5
7BAE
  8
4
  6
CONTINUOUS
 10
3700.0
 20
5338.8175090000004
 30
0.0
 11
3700.0
 21
4938.8175090000004
 31
0.0
  0
LINE
  5
7BB0
  8
4
  6
CONTINUOUS
 10
2881.234845
 20
5362.5271659999999
 30
0.0
 11
2881.234845
 21
5573.3045229999998
 31
0.0
  0
LINE
  5
7BB1
  8
4
  6
CONTINUOUS
 10
2881.234845
 20
5573.3045229999998
 30
0.0
 11
3700.0
 21
5573.3045229999998
 31
0.0
  0
LINE
  5
7BB2
  8
4
  6
CONTINUOUS
 10
3700.0
 20
5573.3045229999998
 30
0.0
 11
3700.0
 21
5362.5271659999999
 31
0.0
  0
LINE
  5
7BB3
  8
4
  6
CONTINUOUS
 10
3700.0
 20
5362.5271659999999
 30
0.0
 11
2881.234845
 21
5362.5271659999999
 31
0.0
  0
DIMENSION
  5
7BCB
  8
3
  6
CONTINUOUS
  2
*D1
 10
1082.9511130000001
 20
2030.3151089999999
 30
0.0
 11
1082.9511130000001
 21
2267.3346689999998
 31
0.0
 70
   128
 13
1137.977425
 23
2510.3151090000001
 33
0.0
 14
1137.977425
 24
2030.3151089999999
 34
0.0
 50
90.0
1001
ACAD
1000
DSTYLE
1002
{
1070
   287
1070
     3
1070
    40
1040
20.0
1070
   143
1040
0.039
1070
   172
1070
     1
1070
   271
1070
     0
1070
   279
1070
     0
1070
   288
1070
     1
1002
}
  0
DIMENSION
  5
7BE5
  8
3
  6
CONTINUOUS
  2
*D2
 10
860.15183800000045
 20
2492.3151090000001
 30
0.0
 11
860.15183800000011
 21
2629.4579659999999
 31
0.0
 70
   128
 13
1182.977425
 23
2847.3151090000001
 33
0.0
 14
1021.196856
 24
2492.3151090000001
 34
0.0
 50
90.0
1001
ACAD
1000
DSTYLE
1002
{
1070
   287
1070
     3
1070
    40
1040
20.0
1070
   143
1040
0.039
1070
   172
1070
     1
1070
   271
1070
     0
1070
   279
1070
     0
1070
   288
1070
     1
1002
}
  0
DIMENSION
  5
7BF1
  8
3
  6
CONTINUOUS
  2
*D3
 10
860.15183800000011
 20
1892.3151089999999
 30
0.0
 11
810.15183799999977
 21
2192.3151090000001
 31
0.0
 70
     0
 13
1021.196856
 23
2492.3151090000001
 33
0.0
 14
1192.977425
 24
1892.3151089999999
 34
0.0
 50
90.0
1001
ACAD
1000
DSTYLE
1002
{
1070
   287
1070
     4
1070
    40
1040
20.0
1070
    75
1070
     1
1070
   143
1040
0.039
1070
   172
1070
     1
1070
   271
1070
     0
1070
   279
1070
     1
1070
   288
1070
     1
1002
}
  0
DIMENSION
  5
7C01
  8
3
  6
CONTINUOUS
  2
*D4
 10
861.36916900000028
 20
1852.3151089999999
 30
0.0
 11
861.36916899999994
 21
1703.743680428571
 31
0.0
 70
   128
 13
1192.977425
 23
1892.3151089999999
 33
0.0
 14
1192.977425
 24
1852.3151089999999
 34
0.0
 50
90.0
1001
ACAD
1000
DSTYLE
1002
{
1070
   287
1070
     3
1070
    40
1040
20.0
1070
   143
1040
0.039
1070
   172
1070
     1
1070
   271
1070
     0
1070
   279
1070
     0
1070
   288
1070
     1
1002
}
  0
DIMENSION
  5
7C0E
  8
3
  6
CONTINUOUS
  2
*D5
 10
729.6020010000002
 20
1852.3151089999999
 30
0.0
 11
729.60200099999986
 21
2404.3743329999988
 31
0.0
 70
   128
 13
1182.977425
 23
2847.3151090000001
 33
0.0
 14
1192.977425
 24
1852.3151089999999
 34
0.0
 50
90.0
1001
ACAD
1000
DSTYLE
1002
{
1070
   287
1070
     3
1070
    40
1040
20.0
1070
   143
1040
0.039
1070
   172
1070
     1
1070
   271
1070
     0
1070
   279
1070
     0
1070
   288
1070
     1
1002
}
  0
DIMENSION
  5
7C1B
  8
3
  6
CONTINUOUS
  2
*D6
 10
1492.977425
 20
2929.6930139999999
 30
0.0
 11
1315.387281
 21
2929.6930139999999
 31
0.0
 70
   128
 13
1137.977425
 23
2527.3151090000001
 33
0.0
 14
1492.977425
 24
2904.0205710390269
 34
0.0
1001
ACAD
1000
DSTYLE
1002
{
1070
   287
1070
     3
1070
    40
1040
20.0
1070
   143
1040
0.039
1070
   172
1070
     1
1070
   271
1070
     0
1070
   279
1070
     0
1070
   288
1070
     1
1002
}
  0
DIMENSION
  5
7C27
  8
3
  6
CONTINUOUS
  2
*D7
 10
1889.977425
 20
2929.6930139999999
 30
0.0
 11
1691.477425
 21
2979.6930139999999
 31
0.0
 70
     0
 13
1492.977425
 23
2904.0205710390269
 33
0.0
 14
1889.977425
 24
2497.4554800605251
 34
0.0
1001
ACAD
1000
DSTYLE
1002
{
1070
   287
1070
     4
1070
    40
1040
20.0
1070
    75
1070
     1
1070
   143
1040
0.039
1070
   172
1070
     1
1070
   271
1070
     0
1070
   279
1070
     1
1070
   288
1070
     1
1002
}
  0
DIMENSION
  5
7C34
  8
3
  6
CONTINUOUS
  2
*D8
 10
1492.977425
 20
1707.836843
 30
0.0
 11
1330.1202820000001
 21
1707.836843
 31
0.0
 70
   128
 13
1192.977425
 23
1852.3151089999999
 33
0.0
 14
1492.977425
 24
1729.4555600000001
 34
0.0
1001
ACAD
1000
DSTYLE
1002
{
1070
   287
1070
     3
1070
    40
1040
20.0
1070
   143
1040
0.039
1070
   172
1070
     1
1070
   271
1070
     0
1070
   279
1070
     0
1070
   288
1070
     1
1002
}
  0
DIMENSION
  5
7C40
  8
3
  6
CONTINUOUS
  2
*D9
 10
2312.977425
 20
1707.836843
 30
0.0
 11
1902.9774249999989
 21
1757.836843
 31
0.0
 70
     0
 13
1492.977425
 23
1729.4555600000001
 33
0.0
 14
2312.977425
 24
1852.3151089999999
 34
0.0
1001
ACAD
1000
DSTYLE
1002
{
1070
   287
1070
     4
1070
    40
1040
20.0
1070
    75
1070
     1
1070
   143
1040
0.039
1070
   172
1070
     1
1070
   271
1070
     0
1070
   279
1070
     1
1070
   288
1070
     1
1002
}
  0
DIMENSION
  5
7C7C
  8
3
  6
CONTINUOUS
  2
*D10
 10
3195.2713819999999
 20
1680.9180809999989
 30
0.0
 11
3011.3976079999989
 21
1680.9180809999989
 31
0.0
 70
   128
 13
2809.2713819999999
 23
1852.3151089999999
 33
0.0
 14
3195.2713819999999
 24
1676.7253509999989
 34
0.0
1001
ACAD
1000
DSTYLE
1002
{
1070
   287
1070
     3
1070
    40
1040
20.0
1070
   143
1040
0.039
1070
   172
1070
     1
1070
   271
1070
     0
1070
   279
1070
     0
1070
   288
1070
     1
1002
}
  0
DIMENSION
  5
7C88
  8
3
  6
CONTINUOUS
  2
*D11
 10
3499.271381999999
 20
1680.9180809999989
 30
0.0
 11
3347.2713819999999
 21
1730.9180809999989
 31
0.0
 70
     0
 13
3195.2713819999999
 23
1676.7253509999989
 33
0.0
 14
3499.271381999999
 24
1852.3151089999999
 34
0.0
1001
ACAD
1000
DSTYLE
1002
{
1070
   287
1070
     4
1070
    40
1040
20.0
1070
    75
1070
     1
1070
   143
1040
0.039
1070
   172
1070
     1
1070
   271
1070
     0
1070
   279
1070
     1
1070
   288
1070
     1
1002
}
  0
DIMENSION
  5
7C95
  8
3
  6
CONTINUOUS
  2
*D12
 10
3015.271381999999
 20
2927.6983730000002
 30
0.0
 11
3190.4877529999999
 21
2927.6983730000002
 31
0.0
 70
   128
 13
3375.271381999999
 23
2846.2951090000001
 33
0.0
 14
3015.271381999999
 24
2846.2951090000001
 34
0.0
1001
ACAD
1000
DSTYLE
1002
{
1070
   287
1070
     3
1070
    40
1040
20.0
1070
   143
1040
0.039
1070
   172
1070
     1
1070
   271
1070
     0
1070
   279
1070
     0
1070
   288
1070
     1
1002
}
  0
LINE
  5
7CAC
  8
1
  6
CONTINUOUS
 10
3376.2713819999999
 20
2742.3151090000001
 30
0.0
 11
3376.2713819999999
 21
2242.3151090000001
 31
0.0
  0
DIMENSION
  5
7CBD
  8
3
  6
CONTINUOUS
  2
*D13
 10
3195.2713819999999
 20
3064.7380229999999
 30
0.0
 11
3285.7713819999999
 21
3130.4105094583279
 31
0.0
 70
   128
 13
3376.2713819999999
 23
2742.3151090000001
 33
0.0
 14
3195.2713819999999
 24
2987.910222
 34
0.0
1001
ACAD
1000
DSTYLE
1002
{
1070
   288
1070
     1
1070
   172
1070
     1
1070
    40
1040
20.0
1070
   271
1070
     0
1070
   143
1040
0.039
1002
}
  0
DIMENSION
  5
7CC9
  8
3
  6
CONTINUOUS
  2
*D14
 10
2825.2713819999999
 20
3064.7380229999999
 30
0.0
 11
3010.271381999999
 21
3164.738022999999
 31
0.0
 70
     0
  1
MAX\P430
 13
3195.2713819999999
 23
2987.910222
 33
0.0
 14
2825.2713819999999
 24
2717.3151090000001
 34
0.0
1001
ACAD
1000
DSTYLE
1002
{
1070
   287
1070
     4
1070
    40
1040
20.0
1070
    75
1070
     1
1070
   143
1040
0.039
1070
   172
1070
     1
1070
   271
1070
     0
1070
   279
1070
     1
1070
   288
1070
     1
1002
}
  0
DIMENSION
  5
7CD7
  8
3
  6
CONTINUOUS
  2
*D15
 10
3537.2367610000001
 20
2242.3151090000001
 30
0.0
 11
3537.2367610000001
 21
2491.55249
 31
0.0
 70
   128
 13
3376.2713819999999
 23
2742.3151090000001
 33
0.0
 14
3376.2713819999999
 24
2242.3151090000001
 34
0.0
 50
90.0
1001
ACAD
1000
DSTYLE
1002
{
1070
   287
1070
     3
1070
     3
1000
φ<>
1070
    40
1040
20.0
1070
   143
1040
0.039
1070
   172
1070
     1
1070
   271
1070
     0
1070
   279
1070
     0
1070
   288
1070
     1
1002
}
  0
DIMENSION
  5
7CE4
  8
3
  6
CONTINUOUS
  2
*D16
 10
2312.977425
 20
4364.7039610000002
 30
0.0
 11
1704.813067
 21
4364.7039610000002
 31
0.0
 70
   128
 13
1192.977425
 23
4231.4451090000002
 33
0.0
 14
2312.977425
 24
4231.4451090000002
 34
0.0
1001
ACAD
1000
DSTYLE
1002
{
1070
   287
1070
     3
1070
    40
1040
20.0
1070
   143
1040
0.039
1070
   172
1070
     1
1070
   271
1070
     0
1070
   279
1070
     0
1070
   288
1070
     1
1002
}
  0
DIMENSION
  5
7CF1
  8
3
  6
CONTINUOUS
  2
*D17
 10
2470.7092090000001
 20
3541.4451089999998
 30
0.0
 11
2470.7092090000001
 21
3898.8336519999998
 31
0.0
 70
   128
 13
2312.977425
 23
4231.4451090000002
 33
0.0
 14
2312.977425
 24
3541.4451089999998
 34
0.0
 50
90.0
1001
ACAD
1000
DSTYLE
1002
{
1070
   287
1070
     3
1070
    40
1040
20.0
1070
   143
1040
0.039
1070
   172
1070
     1
1070
   271
1070
     0
1070
   279
1070
     0
1070
   288
1070
     1
1002
}
  0
DIMENSION
  5
7D0D
  8
3
  6
CONTINUOUS
  2
*D18
 10
975.48587300000054
 20
2492.3151090000001
 30
0.0
 11
975.48587299999997
 21
2277.7529539999991
 31
0.0
 70
   128
 13
1137.977425
 23
2030.3151089999999
 33
0.0
 14
1137.977425
 24
2492.3151090000001
 34
0.0
 50
90.0
1001
ACAD
1000
DSTYLE
1002
{
1070
   287
1070
     3
1070
    40
1040
20.0
1070
   143
1040
0.039
1070
   172
1070
     1
1070
   271
1070
     0
1070
   279
1070
     0
1070
   288
1070
     1
1002
}
  0
DIMENSION
  5
7DF9
  8
3
  2
*D19
 10
2312.977425
 20
3065.1269804119711
 30
0.0
 11
1734.8670403106371
 21
3065.1269804119711
 31
0.0
 70
   128
 13
1137.977425
 23
2527.3151090000001
 33
0.0
 14
2312.977425
 24
1972.315108999999
 34
0.0
1001
ACAD
1000
DSTYLE
1002
{
1070
   287
1070
     3
1070
    40
1040
20.0
1070
   143
1040
0.039
1070
   172
1070
     1
1070
   271
1070
     0
1070
   279
1070
     0
1070
   288
1070
     1
1002
}
  0
ENDSEC
  0
EOF
