  0
SECTION
  2
HEADER
  9
$ACADVER
  1
AC1009
  9
$INSBASE
 10
0.0
 20
0.0
 30
0.0
  9
$EXTMIN
 10
500.0
 20
600.0
 30
0.0
  9
$EXTMAX
 10
3700.0
 20
5573.3045229999998
 30
0.0
  9
$LIMMIN
 10
0.0
 20
0.0
  9
$LIMMAX
 10
297.0
 20
210.0
  9
$ORTHOMODE
 70
     0
  9
$REGENMODE
 70
     1
  9
$FILLMODE
 70
     0
  9
$QTEXTMODE
 70
     0
  9
$MIRRTEXT
 70
     1
  9
$DRAGMODE
 70
     2
  9
$LTSCALE
 40
100.0
  9
$OSMODE
 70
    37
  9
$ATTMODE
 70
     1
  9
$TEXTSIZE
 40
180.0
  9
$TRACEWID
 40
0.05
  9
$TEXTSTYLE
  7
STANDARD
  9
$CLAYER
  8
3
  9
$CELTYPE
  6
BYLAYER
  9
$CECOLOR
 62
   256
  9
$DIMSCALE
 40
20.0
  9
$DIMASZ
 40
2.0
  9
$DIMEXO
 40
0.5
  9
$DIMDLI
 40
10.0
  9
$DIMRND
 40
0.0
  9
$DIMDLE
 40
0.0
  9
$DIMEXE
 40
1.0
  9
$DIMTP
 40
1.0
  9
$DIMTM
 40
1.0
  9
$DIMTXT
 40
3.0
  9
$DIMCEN
 40
0.0
  9
$DIMTSZ
 40
0.0
  9
$DIMTOL
 70
     0
  9
$DIMLIM
 70
     0
  9
$DIMTIH
 70
     0
  9
$DIMTOH
 70
     0
  9
$DIMSE1
 70
     0
  9
$DIMSE2
 70
     0
  9
$DIMTAD
 70
     1
  9
$DIMZIN
 70
     8
  9
$DIMBLK
  1

  9
$DIMASO
 70
     1
  9
$DIMSHO
 70
     1
  9
$DIMPOST
  1

  9
$DIMAPOST
  1

  9
$DIMALT
 70
     0
  9
$DIMALTD
 70
     2
  9
$DIMALTF
 40
0.039
  9
$DIMLFAC
 40
1.0
  9
$DIMTOFL
 70
     1
  9
$DIMTVP
 40
0.0
  9
$DIMTIX
 70
     0
  9
$DIMSOXD
 70
     0
  9
$DIMSAH
 70
     1
  9
$DIMBLK1
  1
OPEN
  9
$DIMBLK2
  1
OPEN
  9
$DIMSTYLE
  2
IGA
  9
$DIMCLRD
 70
     0
  9
$DIMCLRE
 70
     0
  9
$DIMCLRT
 70
     0
  9
$DIMTFAC
 40
10.0
  9
$DIMGAP
 40
1.0
  9
$LUNITS
 70
     2
  9
$LUPREC
 70
     3
  9
$SKETCHINC
 40
0.1
  9
$FILLETRAD
 40
50.0
  9
$AUNITS
 70
     0
  9
$AUPREC
 70
     0
  9
$MENU
  1
acad
  9
$ELEVATION
 40
0.0
  9
$PELEVATION
 40
0.0
  9
$THICKNESS
 40
0.0
  9
$LIMCHECK
 70
     0
  9
$BLIPMODE
 70
     0
  9
$CHAMFERA
 40
0.5
  9
$CHAMFERB
 40
0.5
  9
$SKPOLY
 70
     0
  9
$TDCREATE
 40
2450731.636152199
  9
$TDUPDATE
 40
2454953.7668677662
  9
$TDINDWG
 40
0.0047353704
  9
$TDUSRTIMER
 40
0.0047353704
  9
$USRTIMER
 70
     1
  9
$ANGBASE
 50
0.0
  9
$ANGDIR
 70
     0
  9
$PDMODE
 70
     0
  9
$PDSIZE
 40
0.0
  9
$PLINEWID
 40
0.0
  9
$COORDS
 70
     1
  9
$SPLFRAME
 70
     0
  9
$SPLINETYPE
 70
     6
  9
$SPLINESEGS
 70
     8
  9
$ATTDIA
 70
     0
  9
$ATTREQ
 70
     1
  9
$HANDLING
 70
 10241
  9
$HANDSEED
  5
7E6E
  9
$SURFTAB1
 70
     6
  9
$SURFTAB2
 70
     6
  9
$SURFTYPE
 70
     6
  9
$SURFU
 70
     6
  9
$SURFV
 70
     6
  9
$UCSNAME
  2

  9
$UCSORG
 10
0.0
 20
0.0
 30
0.0
  9
$UCSXDIR
 10
1.0
 20
0.0
 30
0.0
  9
$UCSYDIR
 10
0.0
 20
1.0
 30
0.0
  9
$PUCSNAME
  2

  9
$PUCSORG
 10
0.0
 20
0.0
 30
0.0
  9
$PUCSXDIR
 10
1.0
 20
0.0
 30
0.0
  9
$PUCSYDIR
 10
0.0
 20
1.0
 30
0.0
  9
$USERI1
 70
     0
  9
$USERI2
 70
     0
  9
$USERI3
 70
     0
  9
$USERI4
 70
     0
  9
$USERI5
 70
     0
  9
$USERR1
 40
0.0
  9
$USERR2
 40
0.0
  9
$USERR3
 40
0.0
  9
$USERR4
 40
0.0
  9
$USERR5
 40
0.0
  9
$WORLDVIEW
 70
     1
  9
$SHADEDGE
 70
     3
  9
$SHADEDIF
 70
    70
  9
$TILEMODE
 70
     1
  9
$MAXACTVP
 70
    16
  9
$PLIMCHECK
 70
     0
  9
$PEXTMIN
 10
1.0000000000000000E+020
 20
1.0000000000000000E+020
 30
1.0000000000000000E+020
  9
$PEXTMAX
 10
-1.0000000000000000E+020
 20
-1.0000000000000000E+020
 30
-1.0000000000000000E+020
  9
$PLIMMIN
 10
0.0
 20
0.0
  9
$PLIMMAX
 10
12.0
 20
9.0
  9
$UNITMODE
 70
     0
  9
$VISRETAIN
 70
     0
  9
$PLINEGEN
 70
     0
  9
$PSLTSCALE
 70
     1
  0
ENDSEC
  0
SECTION
  2
TABLES
  0
TABLE
  2
VPORT
 70
     2
  0
VPORT
  2
*ACTIVE
 70
     0
 10
0.0
 20
0.0
 11
1.0
 21
1.0
 12
6292.1124769529506
 22
3086.6374998146398
 13
0.0
 23
0.0
 14
10.0
 24
10.0
 15
10.0
 25
10.0
 16
0.0
 26
0.0
 36
1.0
 17
0.0
 27
0.0
 37
0.0
 40
5011.4968576296578
 41
3.1666666666666661
 42
50.0
 43
0.0
 44
0.0
 50
0.0
 51
0.0
 71
     0
 72
   100
 73
     1
 74
     0
 75
     0
 76
     0
 77
     0
 78
     0
  0
ENDTAB
  0
TABLE
  2
LTYPE
 70
     2
  0
LTYPE
  2
CONTINUOUS
 70
     0
  3
Solid line
 72
    65
 73
     0
 40
0.0
  0
LTYPE
  2
CENTER
 70
     0
  3
____ _ ____ _ ____ _ ____ _ ____ _ ____ _ ____ 
 72
    65
 73
     4
 40
2.0
 49
1.25
 49
-0.25
 49
0.25
 49
-0.25
  0
ENDTAB
  0
TABLE
  2
LAYER
 70
     6
  0
LAYER
  2
0
 70
     0
 62
     7
  6
CONTINUOUS
  0
LAYER
  2
3
 70
     0
 62
     2
  6
CONTINUOUS
  0
LAYER
  2
2
 70
     0
 62
     3
  6
CENTER
  0
LAYER
  2
1
 70
     0
 62
     4
  6
CONTINUOUS
  0
LAYER
  2
4
 70
     0
 62
     7
  6
CONTINUOUS
  0
LAYER
  2
DEFPOINTS
 70
     0
 62
    -7
  6
CONTINUOUS
  0
ENDTAB
  0
TABLE
  2
STYLE
 70
     1
  0
STYLE
  2
STANDARD
 70
     0
 40
0.0
 41
1.0
 50
0.0
 71
     0
 42
180.0
  3
simplex.shx
  4
extfont.shx
  0
ENDTAB
  0
TABLE
  2
VIEW
 70
     0
  0
ENDTAB
  0
TABLE
  2
UCS
 70
     0
  0
ENDTAB
  0
TABLE
  2
APPID
 70
     1
  0
APPID
  2
ACAD
 70
     0
  0
ENDTAB
  0
TABLE
  2
DIMSTYLE
 70
     1
  0
DIMSTYLE
  2
IGA
 70
     0
  3

  4

  5

  6
OPEN
  7
OPEN
 40
2.0
 41
2.0
 42
0.5
 43
10.0
 44
1.0
 45
0.0
 46
0.0
 47
1.0
 48
1.0
140
3.0
141
0.0
142
0.0
143
0.03937
144
1.0
145
0.0
146
10.0
147
1.0
 71
     0
 72
     0
 73
     0
 74
     0
 75
     0
 76
     0
 77
     1
 78
     8
170
     0
171
     2
172
     0
173
     1
174
     0
175
     0
176
     0
177
     0
178
     0
  0
ENDTAB
  0
ENDSEC
  0
SECTION
  2
BLOCKS
  0
BLOCK
  8
0
  2
$MODEL_SPACE
 70
     0
 10
0.0
 20
0.0
 30
0.0
  3
$MODEL_SPACE
  1

  0
ENDBLK
  5
1B
  8
0
  0
BLOCK
 67
     1
  8
0
  2
$PAPER_SPACE
 70
     0
 10
0.0
 20
0.0
 30
0.0
  3
$PAPER_SPACE
  1

  0
ENDBLK
  5
18
 67
     1
  8
0
  0
BLOCK
  8
0
  2
_OPEN
 70
     0
 10
0.0
 20
0.0
 30
0.0
  3
_OPEN
  1

  0
LINE
  5
7B10
  8
0
  6
BYBLOCK
 62
     0
 10
-1.0
 20
0.166667
 30
0.0
 11
0.0
 21
0.0
 31
0.0
  0
LINE
  5
7B11
  8
0
  6
BYBLOCK
 62
     0
 10
0.0
 20
0.0
 30
0.0
 11
-1.0
 21
-0.166667
 31
0.0
  0
LINE
  5
7B12
  8
0
  6
BYBLOCK
 62
     0
 10
0.0
 20
0.0
 30
0.0
 11
-1.0
 21
0.0
 31
0.0
  0
ENDBLK
  5
7B13
  8
0
  0
BLOCK
  8
0
  2
*D1
 70
     1
 10
0.0
 20
0.0
 30
0.0
  3
*D1
  1

  0
LINE
  5
7DC4
  8
3
  6
CONTINUOUS
 62
     0
 10
1168.782207
 20
2587.4888540000002
 30
0.0
 11
1168.782207
 21
2730.590745
 31
0.0
  0
LINE
  5
7DC5
  8
3
  6
CONTINUOUS
 62
     0
 10
1648.7822069999991
 20
2587.4888540000002
 30
0.0
 11
1648.7822069999991
 21
2730.590745
 31
0.0
  0
LINE
  5
7DC6
  8
3
  6
CONTINUOUS
 62
     0
 10
1208.782207
 20
2710.590745
 30
0.0
 11
1608.782207
 21
2710.590745
 31
0.0
  0
INSERT
  5
7DC7
  8
3
  6
CONTINUOUS
 62
     0
  2
_OPEN
 10
1168.782207
 20
2710.590745
 30
0.0
 41
40.0
 42
40.0
 43
40.0
 50
180.0
  0
INSERT
  5
7DC8
  8
3
  6
CONTINUOUS
 62
     0
  2
_OPEN
 10
1648.7822069999991
 20
2710.590745
 30
0.0
 41
40.0
 42
40.0
 43
40.0
  0
TEXT
  8
3
  40
60
  5
7E5C
  62
0
  72
0
  71
0
 10
1258.78
 20
2654.39
 30
0.000000
  1
480
  0
POINT
  5
7DCA
  8
DEFPOINTS
  6
CONTINUOUS
 62
     0
 10
1168.782207
 20
2577.4888540000002
 30
0.0
  0
POINT
  5
7DCB
  8
DEFPOINTS
  6
CONTINUOUS
 62
     0
 10
1648.7822069999991
 20
2577.4888540000002
 30
0.0
  0
POINT
  5
7DCC
  8
DEFPOINTS
  6
CONTINUOUS
 62
     0
 10
1648.7822069999991
 20
2710.590745
 30
0.0
  0
ENDBLK
  5
7CAF
  8
0
  0
BLOCK
  8
0
  2
*D2
 70
     1
 10
0.0
 20
0.0
 30
0.0
  3
*D2
  1

  0
LINE
  5
7DCD
  8
3
  6
CONTINUOUS
 62
     0
 10
1168.782207
 20
2587.4888540000002
 30
0.0
 11
1168.782207
 21
2843.6615000000002
 31
0.0
  0
LINE
  5
7DCE
  8
3
  6
CONTINUOUS
 62
     0
 10
1630.782207
 20
2750.1756919999998
 30
0.0
 11
1630.782207
 21
2843.6615000000002
 31
0.0
  0
LINE
  5
7DCF
  8
3
  6
CONTINUOUS
 62
     0
 10
1208.782207
 20
2823.6615000000002
 30
0.0
 11
1590.782207
 21
2823.6615000000002
 31
0.0
  0
INSERT
  5
7DD0
  8
3
  6
CONTINUOUS
 62
     0
  2
_OPEN
 10
1168.782207
 20
2823.6615000000002
 30
0.0
 41
40.0
 42
40.0
 43
40.0
 50
180.0
  0
INSERT
  5
7DD1
  8
3
  6
CONTINUOUS
 62
     0
  2
_OPEN
 10
1630.782207
 20
2823.6615000000002
 30
0.0
 41
40.0
 42
40.0
 43
40.0
  0
TEXT
  8
3
  40
60
  5
7E5D
  62
0
  72
0
  71
0
 10
1258.78
 20
2767.46
 30
0.000000
  1
462
  0
POINT
  5
7DD3
  8
DEFPOINTS
  6
CONTINUOUS
 62
     0
 10
1168.782207
 20
2577.4888540000002
 30
0.0
  0
POINT
  5
7DD4
  8
DEFPOINTS
  6
CONTINUOUS
 62
     0
 10
1630.782207
 20
2740.1756919999998
 30
0.0
  0
POINT
  5
7DD5
  8
DEFPOINTS
  6
CONTINUOUS
 62
     0
 10
1630.782207
 20
2823.6615000000002
 30
0.0
  0
ENDBLK
  5
7CA4
  8
0
  0
BLOCK
  8
0
  2
*D3
 70
     1
 10
0.0
 20
0.0
 30
0.0
  3
*D3
  1

  0
LINE
  5
7DD6
  8
3
  6
CONTINUOUS
 62
     0
 10
1985.782207
 20
2542.4888540000002
 30
0.0
 11
1985.782207
 21
2843.6615000000002
 31
0.0
  0
LINE
  5
7DD7
  8
3
  6
CONTINUOUS
 62
     0
 10
1670.782207
 20
2823.6615000000002
 30
0.0
 11
1945.7822069999991
 21
2823.6615000000002
 31
0.0
  0
INSERT
  5
7DD8
  8
3
  6
CONTINUOUS
 62
     0
  2
_OPEN
 10
1630.782207
 20
2823.6615000000002
 30
0.0
 41
40.0
 42
40.0
 43
40.0
 50
180.0
  0
INSERT
  5
7DD9
  8
3
  6
CONTINUOUS
 62
     0
  2
_OPEN
 10
1985.782207
 20
2823.6615000000002
 30
0.0
 41
40.0
 42
40.0
 43
40.0
  0
TEXT
  8
3
  40
60
  5
7E5E
  62
0
  72
0
  71
0
 10
1688.28
 20
2767.46
 30
0.000000
  1
355
  0
POINT
  5
7DDB
  8
DEFPOINTS
  6
CONTINUOUS
 62
     0
 10
1630.782207
 20
2740.1756919999998
 30
0.0
  0
POINT
  5
7DDC
  8
DEFPOINTS
  6
CONTINUOUS
 62
     0
 10
1985.782207
 20
2532.4888539999988
 30
0.0
  0
POINT
  5
7DDD
  8
DEFPOINTS
  6
CONTINUOUS
 62
     0
 10
1985.782207
 20
2823.6615000000002
 30
0.0
  0
ENDBLK
  5
7C99
  8
0
  0
BLOCK
  8
0
  2
*D4
 70
     1
 10
0.0
 20
0.0
 30
0.0
  3
*D4
  1

  0
LINE
  5
7DDE
  8
3
  6
CONTINUOUS
 62
     0
 10
1675.782207
 20
2577.4888540000002
 30
0.0
 11
2158.2044249999999
 21
2577.4888540000002
 31
0.0
  0
LINE
  5
7DDF
  8
3
  6
CONTINUOUS
 62
     0
 10
2101.2475269999991
 20
2222.4888539999988
 30
0.0
 11
2158.2044249999999
 21
2222.4888539999988
 31
0.0
  0
LINE
  5
7DE0
  8
3
  6
CONTINUOUS
 62
     0
 10
2138.2044249999999
 20
2617.4888539999988
 30
0.0
 11
2138.2044249999999
 21
2657.4888539999988
 31
0.0
  0
LINE
  5
7DE1
  8
3
  6
CONTINUOUS
 62
     0
 10
2138.2044249999999
 20
2182.4888539999988
 30
0.0
 11
2138.2044249999999
 21
2142.4888539999988
 31
0.0
  0
LINE
  5
7DE2
  8
3
  6
CONTINUOUS
 62
     0
 10
2138.2044249999999
 20
2577.4888540000002
 30
0.0
 11
2138.2044249999999
 21
2222.4888539999988
 31
0.0
  0
INSERT
  5
7DE3
  8
3
  6
CONTINUOUS
 62
     0
  2
_OPEN
 10
2138.2044249999999
 20
2577.4888540000002
 30
0.0
 41
40.0
 42
40.0
 43
40.0
 50
270.0
  0
INSERT
  5
7DE4
  8
3
  6
CONTINUOUS
 62
     0
  2
_OPEN
 10
2138.2044249999999
 20
2222.4888539999988
 30
0.0
 41
40.0
 42
40.0
 43
40.0
 50
90.0
  0
TEXT
  8
3
  40
60
  5
7E5F
  62
0
  72
0
  71
0
 10
1968.20
 20
2253.43
 30
0.000000
  1
355
  0
POINT
  5
7DE6
  8
DEFPOINTS
  6
CONTINUOUS
 62
     0
 10
1665.782207
 20
2577.4888540000002
 30
0.0
  0
POINT
  5
7DE7
  8
DEFPOINTS
  6
CONTINUOUS
 62
     0
 10
2091.247527
 20
2222.4888539999988
 30
0.0
  0
POINT
  5
7DE8
  8
DEFPOINTS
  6
CONTINUOUS
 62
     0
 10
2138.2044249999999
 20
2222.4888539999988
 30
0.0
  0
ENDBLK
  5
7B9F
  8
0
  0
BLOCK
  8
0
  2
*D5
 70
     1
 10
0.0
 20
0.0
 30
0.0
  3
*D5
  1

  0
LINE
  5
7DE9
  8
3
  6
CONTINUOUS
 62
     0
 10
1940.782207
 20
1732.4888539999999
 30
0.0
 11
2158.2044249999999
 21
1732.4888539999999
 31
0.0
  0
LINE
  5
7DEA
  8
3
  6
CONTINUOUS
 62
     0
 10
2138.2044249999999
 20
2182.4888539999988
 30
0.0
 11
2138.2044249999999
 21
1772.488853999999
 31
0.0
  0
INSERT
  5
7DEB
  8
3
  6
CONTINUOUS
 62
     0
  2
_OPEN
 10
2138.2044249999999
 20
2222.4888539999988
 30
0.0
 41
40.0
 42
40.0
 43
40.0
 50
90.0
  0
INSERT
  5
7DEC
  8
3
  6
CONTINUOUS
 62
     0
  2
_OPEN
 10
2138.2044249999999
 20
1732.4888539999999
 30
0.0
 41
40.0
 42
40.0
 43
40.0
 50
270.0
  0
TEXT
  8
3
  40
60
  5
7E60
  62
0
  72
0
  71
0
 10
1968.20
 20
1871.29
 30
0.000000
  1
490
  0
POINT
  5
7DEE
  8
DEFPOINTS
  6
CONTINUOUS
 62
     0
 10
2091.247527
 20
2222.4888539999988
 30
0.0
  0
POINT
  5
7DEF
  8
DEFPOINTS
  6
CONTINUOUS
 62
     0
 10
1930.782207
 20
1732.4888539999999
 30
0.0
  0
POINT
  5
7DF0
  8
DEFPOINTS
  6
CONTINUOUS
 62
     0
 10
2138.2044249999999
 20
1732.4888539999999
 30
0.0
  0
ENDBLK
  5
7B52
  8
0
  0
BLOCK
  8
0
  2
*D6
 70
     1
 10
0.0
 20
0.0
 30
0.0
  3
*D6
  1

  0
LINE
  5
7DF1
  8
3
  6
CONTINUOUS
 62
     0
 10
1940.782207
 20
1732.4888539999999
 30
0.0
 11
2157.9494909999999
 21
1732.4888539999999
 31
0.0
  0
LINE
  5
7DF2
  8
3
  6
CONTINUOUS
 62
     0
 10
1940.782207
 20
1692.4888539999999
 30
0.0
 11
2157.9494909999999
 21
1692.4888539999999
 31
0.0
  0
LINE
  5
7DF3
  8
3
  6
CONTINUOUS
 62
     0
 10
2137.9494909999999
 20
1772.488853999999
 30
0.0
 11
2137.9494909999999
 21
1812.4888539999999
 31
0.0
  0
LINE
  5
7DF4
  8
3
  6
CONTINUOUS
 62
     0
 10
2137.9494909999999
 20
1652.4888539999999
 30
0.0
 11
2137.9494909999999
 21
1475.3459968571419
 31
0.0
  0
LINE
  5
7DF5
  8
3
  6
CONTINUOUS
 62
     0
 10
2137.9494909999999
 20
1732.4888539999999
 30
0.0
 11
2137.9494909999999
 21
1692.4888539999999
 31
0.0
  0
INSERT
  5
7DF6
  8
3
  6
CONTINUOUS
 62
     0
  2
_OPEN
 10
2137.9494909999999
 20
1732.4888539999999
 30
0.0
 41
40.0
 42
40.0
 43
40.0
 50
270.0
  0
INSERT
  5
7DF7
  8
3
  6
CONTINUOUS
 62
     0
  2
_OPEN
 10
2137.9494909999999
 20
1692.4888539999999
 30
0.0
 41
40.0
 42
40.0
 43
40.0
 50
90.0
  0
TEXT
  8
3
  40
60
  5
7E61
  62
0
  72
0
  71
0
 10
1967.95
 20
1437.72
 30
0.000000
  1
40
  0
POINT
  5
7DF9
  8
DEFPOINTS
  6
CONTINUOUS
 62
     0
 10
1930.782207
 20
1732.4888539999999
 30
0.0
  0
POINT
  5
7DFA
  8
DEFPOINTS
  6
CONTINUOUS
 62
     0
 10
1930.782207
 20
1692.4888539999999
 30
0.0
  0
POINT
  5
7DFB
  8
DEFPOINTS
  6
CONTINUOUS
 62
     0
 10
2137.9494909999999
 20
1692.4888539999999
 30
0.0
  0
ENDBLK
  5
7D09
  8
0
  0
BLOCK
  8
0
  2
*D7
 70
     1
 10
0.0
 20
0.0
 30
0.0
  3
*D7
  1

  0
LINE
  5
7DFC
  8
3
  6
CONTINUOUS
 62
     0
 10
1685.782207
 20
2577.4888540000002
 30
0.0
 11
2316.8173120000001
 21
2577.4888540000002
 31
0.0
  0
LINE
  5
7DFD
  8
3
  6
CONTINUOUS
 62
     0
 10
1940.782207
 20
1692.4888539999999
 30
0.0
 11
2316.8173120000001
 21
1692.4888539999999
 31
0.0
  0
LINE
  5
7DFE
  8
3
  6
CONTINUOUS
 62
     0
 10
2296.8173120000001
 20
2537.4888539999988
 30
0.0
 11
2296.8173120000001
 21
1732.4888539999999
 31
0.0
  0
INSERT
  5
7DFF
  8
3
  6
CONTINUOUS
 62
     0
  2
_OPEN
 10
2296.8173120000001
 20
2577.4888540000002
 30
0.0
 41
40.0
 42
40.0
 43
40.0
 50
90.0
  0
INSERT
  5
7E00
  8
3
  6
CONTINUOUS
 62
     0
  2
_OPEN
 10
2296.8173120000001
 20
1692.4888539999999
 30
0.0
 41
40.0
 42
40.0
 43
40.0
 50
270.0
  0
TEXT
  8
3
  40
60
  5
7E62
  62
0
  72
0
  71
0
 10
2126.82
 20
2017.85
 30
0.000000
  1
885
  0
POINT
  5
7E02
  8
DEFPOINTS
  6
CONTINUOUS
 62
     0
 10
1675.782207
 20
2577.4888540000002
 30
0.0
  0
POINT
  5
7E03
  8
DEFPOINTS
  6
CONTINUOUS
 62
     0
 10
1930.782207
 20
1692.4888539999999
 30
0.0
  0
POINT
  5
7E04
  8
DEFPOINTS
  6
CONTINUOUS
 62
     0
 10
2296.8173120000001
 20
1692.4888539999999
 30
0.0
  0
ENDBLK
  5
7CBA
  8
0
  0
BLOCK
  8
0
  2
*D8
 70
     1
 10
0.0
 20
0.0
 30
0.0
  3
*D8
  1

  0
LINE
  5
7E05
  8
3
  6
CONTINUOUS
 62
     0
 10
810.78220699999997
 20
1682.488853999999
 30
0.0
 11
810.78220699999997
 21
1502.082136
 31
0.0
  0
LINE
  5
7E06
  8
3
  6
CONTINUOUS
 62
     0
 10
1630.782207
 20
1542.6216529026669
 30
0.0
 11
1630.782207
 21
1502.082136
 31
0.0
  0
LINE
  5
7E07
  8
3
  6
CONTINUOUS
 62
     0
 10
850.78220700000008
 20
1522.082136
 30
0.0
 11
1590.782207
 21
1522.082136
 31
0.0
  0
INSERT
  5
7E08
  8
3
  6
CONTINUOUS
 62
     0
  2
_OPEN
 10
810.78220699999997
 20
1522.082136
 30
0.0
 41
40.0
 42
40.0
 43
40.0
 50
180.0
  0
INSERT
  5
7E09
  8
3
  6
CONTINUOUS
 62
     0
  2
_OPEN
 10
1630.782207
 20
1522.082136
 30
0.0
 41
40.0
 42
40.0
 43
40.0
  0
TEXT
  8
3
  40
60
  5
7E63
  62
0
  72
0
  71
0
 10
1105.44
 20
1465.88
 30
0.000000
  1
820
  0
POINT
  5
7E0B
  8
DEFPOINTS
  6
CONTINUOUS
 62
     0
 10
810.78220699999997
 20
1692.4888539999999
 30
0.0
  0
POINT
  5
7E0C
  8
DEFPOINTS
  6
CONTINUOUS
 62
     0
 10
1630.782207
 20
1552.6216529026681
 30
0.0
  0
POINT
  5
7E0D
  8
DEFPOINTS
  6
CONTINUOUS
 62
     0
 10
1630.782207
 20
1522.082136
 30
0.0
  0
ENDBLK
  5
7D94
  8
0
  0
BLOCK
  8
0
  2
*D9
 70
     1
 10
0.0
 20
0.0
 30
0.0
  3
*D9
  1

  0
LINE
  5
7E0E
  8
3
  6
CONTINUOUS
 62
     0
 10
1930.782207
 20
1682.488853999999
 30
0.0
 11
1930.782207
 21
1502.082136
 31
0.0
  0
LINE
  5
7E0F
  8
3
  6
CONTINUOUS
 62
     0
 10
1670.782207
 20
1522.082136
 30
0.0
 11
1890.782207
 21
1522.082136
 31
0.0
  0
INSERT
  5
7E10
  8
3
  6
CONTINUOUS
 62
     0
  2
_OPEN
 10
1630.782207
 20
1522.082136
 30
0.0
 41
40.0
 42
40.0
 43
40.0
 50
180.0
  0
INSERT
  5
7E11
  8
3
  6
CONTINUOUS
 62
     0
  2
_OPEN
 10
1930.782207
 20
1522.082136
 30
0.0
 41
40.0
 42
40.0
 43
40.0
  0
TEXT
  8
3
  40
60
  5
7E64
  62
0
  72
0
  71
0
 10
1660.78
 20
1465.88
 30
0.000000
  1
300
  0
POINT
  5
7E13
  8
DEFPOINTS
  6
CONTINUOUS
 62
     0
 10
1630.782207
 20
1552.6216529026681
 30
0.0
  0
POINT
  5
7E14
  8
DEFPOINTS
  6
CONTINUOUS
 62
     0
 10
1930.782207
 20
1692.4888539999999
 30
0.0
  0
POINT
  5
7E15
  8
DEFPOINTS
  6
CONTINUOUS
 62
     0
 10
1930.782207
 20
1522.082136
 30
0.0
  0
ENDBLK
  5
7D89
  8
0
  0
BLOCK
  8
0
  2
*D10
 70
     1
 10
0.0
 20
0.0
 30
0.0
  3
*D10
  1

  0
LINE
  5
7E16
  8
3
  6
CONTINUOUS
 62
     0
 10
3353.552764999999
 20
2587.4888540000002
 30
0.0
 11
3353.552764999999
 21
2639.475345153021
 31
0.0
  0
LINE
  5
7E17
  8
3
  6
CONTINUOUS
 62
     0
 10
2993.5527649999999
 20
2587.4888540000002
 30
0.0
 11
2993.5527649999999
 21
2639.475345153021
 31
0.0
  0
LINE
  5
7E18
  8
3
  6
CONTINUOUS
 62
     0
 10
3313.5527649999999
 20
2619.475345153021
 30
0.0
 11
3033.5527649999999
 21
2619.475345153021
 31
0.0
  0
INSERT
  5
7E19
  8
3
  6
CONTINUOUS
 62
     0
  2
_OPEN
 10
3353.552764999999
 20
2619.475345153021
 30
0.0
 41
40.0
 42
40.0
 43
40.0
  0
INSERT
  5
7E1A
  8
3
  6
CONTINUOUS
 62
     0
  2
_OPEN
 10
2993.5527649999999
 20
2619.475345153021
 30
0.0
 41
40.0
 42
40.0
 43
40.0
 50
180.0
  0
TEXT
  8
3
  40
60
  5
7E65
  62
0
  72
0
  71
0
 10
3052.77
 20
2563.28
 30
0.000000
  1
360
  0
POINT
  5
7E1C
  8
DEFPOINTS
  6
CONTINUOUS
 62
     0
 10
3353.552764999999
 20
2577.4888540000002
 30
0.0
  0
POINT
  5
7E1D
  8
DEFPOINTS
  6
CONTINUOUS
 62
     0
 10
2993.5527649999999
 20
2577.4888540000002
 30
0.0
  0
POINT
  5
7E1E
  8
DEFPOINTS
  6
CONTINUOUS
 62
     0
 10
2993.5527649999999
 20
2619.475345153021
 30
0.0
  0
ENDBLK
  5
7D4B
  8
0
  0
BLOCK
  8
0
  2
*D11
 70
     1
 10
0.0
 20
0.0
 30
0.0
  3
*D11
  1

  0
LINE
  5
7E1F
  8
3
  6
CONTINUOUS
 62
     0
 10
2787.5527649999999
 20
1682.488853999999
 30
0.0
 11
2787.5527649999999
 21
1490.3034339999999
 31
0.0
  0
LINE
  5
7E20
  8
3
  6
CONTINUOUS
 62
     0
 10
3173.5527649999999
 20
1557.4975641979979
 30
0.0
 11
3173.5527649999999
 21
1490.3034339999999
 31
0.0
  0
LINE
  5
7E21
  8
3
  6
CONTINUOUS
 62
     0
 10
2827.5527649999999
 20
1510.303433999999
 30
0.0
 11
3133.5527649999999
 21
1510.303433999999
 31
0.0
  0
INSERT
  5
7E22
  8
3
  6
CONTINUOUS
 62
     0
  2
_OPEN
 10
2787.5527649999999
 20
1510.303433999999
 30
0.0
 41
40.0
 42
40.0
 43
40.0
 50
180.0
  0
INSERT
  5
7E23
  8
3
  6
CONTINUOUS
 62
     0
  2
_OPEN
 10
3173.5527649999999
 20
1510.303433999999
 30
0.0
 41
40.0
 42
40.0
 43
40.0
  0
TEXT
  8
3
  40
60
  5
7E66
  62
0
  72
0
  71
0
 10
2866.57
 20
1454.10
 30
0.000000
  1
386
  0
POINT
  5
7E25
  8
DEFPOINTS
  6
CONTINUOUS
 62
     0
 10
2787.5527649999999
 20
1692.4888539999999
 30
0.0
  0
POINT
  5
7E26
  8
DEFPOINTS
  6
CONTINUOUS
 62
     0
 10
3173.5527649999999
 20
1567.4975641979979
 30
0.0
  0
POINT
  5
7E27
  8
DEFPOINTS
  6
CONTINUOUS
 62
     0
 10
3173.5527649999999
 20
1510.303433999999
 30
0.0
  0
ENDBLK
  5
7D75
  8
0
  0
BLOCK
  8
0
  2
*D12
 70
     1
 10
0.0
 20
0.0
 30
0.0
  3
*D12
  1

  0
LINE
  5
7E28
  8
3
  6
CONTINUOUS
 62
     0
 10
3477.5527649999999
 20
1682.488853999999
 30
0.0
 11
3477.5527649999999
 21
1490.3034339999999
 31
0.0
  0
LINE
  5
7E29
  8
3
  6
CONTINUOUS
 62
     0
 10
3213.5527649999999
 20
1510.303433999999
 30
0.0
 11
3437.5527649999999
 21
1510.303433999999
 31
0.0
  0
INSERT
  5
7E2A
  8
3
  6
CONTINUOUS
 62
     0
  2
_OPEN
 10
3173.5527649999999
 20
1510.303433999999
 30
0.0
 41
40.0
 42
40.0
 43
40.0
 50
180.0
  0
INSERT
  5
7E2B
  8
3
  6
CONTINUOUS
 62
     0
  2
_OPEN
 10
3477.5527649999999
 20
1510.303433999999
 30
0.0
 41
40.0
 42
40.0
 43
40.0
  0
TEXT
  8
3
  40
60
  5
7E67
  62
0
  72
0
  71
0
 10
3205.55
 20
1454.10
 30
0.000000
  1
304
  0
POINT
  5
7E2D
  8
DEFPOINTS
  6
CONTINUOUS
 62
     0
 10
3173.5527649999999
 20
1572.0890966362711
 30
0.0
  0
POINT
  5
7E2E
  8
DEFPOINTS
  6
CONTINUOUS
 62
     0
 10
3477.5527649999999
 20
1692.4888539999999
 30
0.0
  0
POINT
  5
7E2F
  8
DEFPOINTS
  6
CONTINUOUS
 62
     0
 10
3477.5527649999999
 20
1510.303433999999
 30
0.0
  0
ENDBLK
  5
7D7F
  8
0
  0
BLOCK
  8
0
  2
*D13
 70
     1
 10
0.0
 20
0.0
 30
0.0
  3
*D13
  1

  0
LINE
  5
7D16
  8
0
  6
BYBLOCK
 62
     0
 10
3354.552764999999
 20
2482.4888539999988
 30
0.0
 11
3354.552764999999
 21
2788.0438709999999
 31
0.0
  0
LINE
  5
7D17
  8
0
  6
BYBLOCK
 62
     0
 10
3173.5527649999999
 20
2724.199775
 30
0.0
 11
3173.5527649999999
 21
2788.0438709999999
 31
0.0
  0
LINE
  5
7D18
  8
0
  6
BYBLOCK
 62
     0
 10
3314.5527649999999
 20
2768.0438709999999
 30
0.0
 11
3213.5527649999999
 21
2768.0438709999999
 31
0.0
  0
TEXT
  5
7D19
  8
3
 62
     0
 10
3205.481336428571
 20
2797.1355502501701
 30
0.0
 40
60.0
  1
181
  0
INSERT
  5
7D1A
  8
0
  6
BYBLOCK
 62
     0
  2
_OPEN
 10
3354.552764999999
 20
2768.0438709999999
 30
0.0
 41
40.0
 42
40.0
 43
40.0
  0
INSERT
  5
7D1B
  8
0
  6
BYBLOCK
 62
     0
  2
_OPEN
 10
3173.5527649999999
 20
2768.0438709999999
 30
0.0
 41
40.0
 42
40.0
 43
40.0
 50
180.0
  0
POINT
  5
7D1C
  8
DEFPOINTS
  6
BYBLOCK
 62
     0
 10
3354.552764999999
 20
2472.4888539999988
 30
0.0
  0
POINT
  5
7D1D
  8
DEFPOINTS
  6
BYBLOCK
 62
     0
 10
3173.5527649999999
 20
2714.199775
 30
0.0
  0
POINT
  5
7D1E
  8
DEFPOINTS
  6
BYBLOCK
 62
     0
 10
3173.5527649999999
 20
2768.0438709999999
 30
0.0
  0
ENDBLK
  5
7D1F
  8
0
  0
BLOCK
  8
0
  2
*D14
 70
     1
 10
0.0
 20
0.0
 30
0.0
  3
*D14
  1

  0
LINE
  5
7E30
  8
3
  6
CONTINUOUS
 62
     0
 10
2803.5527649999999
 20
2567.4888540000002
 30
0.0
 11
2803.5527649999999
 21
2788.0438709999999
 31
0.0
  0
LINE
  5
7E31
  8
3
  6
CONTINUOUS
 62
     0
 10
3133.5527649999999
 20
2768.0438709999999
 30
0.0
 11
2843.5527649999999
 21
2768.0438709999999
 31
0.0
  0
INSERT
  5
7E32
  8
3
  6
CONTINUOUS
 62
     0
  2
_OPEN
 10
3173.5527649999999
 20
2768.0438709999999
 30
0.0
 41
40.0
 42
40.0
 43
40.0
  0
INSERT
  5
7E33
  8
3
  6
CONTINUOUS
 62
     0
  2
_OPEN
 10
2803.5527649999999
 20
2768.0438709999999
 30
0.0
 41
40.0
 42
40.0
 43
40.0
 50
180.0
  0
TEXT
  8
3
  40
60
  5
7E68
  62
0
  72
0
  71
0
 10
2868.55
 20
2761.84
 30
0.000000
  1
MAX
  0
TEXT
  8
3
  40
60
  5
7E69
  62
0
  72
0
  71
0
 10
2868.55
 20
2683.84
 30
0.000000
  1
430
  0
POINT
  5
7E35
  8
DEFPOINTS
  6
CONTINUOUS
 62
     0
 10
3173.5527649999999
 20
2714.199775
 30
0.0
  0
POINT
  5
7E36
  8
DEFPOINTS
  6
CONTINUOUS
 62
     0
 10
2803.5527649999999
 20
2557.4888539999988
 30
0.0
  0
POINT
  5
7E37
  8
DEFPOINTS
  6
CONTINUOUS
 62
     0
 10
2803.5527649999999
 20
2768.0438709999999
 30
0.0
  0
ENDBLK
  5
7D55
  8
0
  0
BLOCK
  8
0
  2
*D15
 70
     1
 10
0.0
 20
0.0
 30
0.0
  3
*D15
  1

  0
LINE
  5
7E38
  8
3
  6
CONTINUOUS
 62
     0
 10
3364.5527649999999
 20
2472.4888539999988
 30
0.0
 11
3532.3177959999998
 21
2472.4888539999988
 31
0.0
  0
LINE
  5
7E39
  8
3
  6
CONTINUOUS
 62
     0
 10
3364.5527649999999
 20
1972.488853999999
 30
0.0
 11
3532.3177959999998
 21
1972.488853999999
 31
0.0
  0
LINE
  5
7E3A
  8
3
  6
CONTINUOUS
 62
     0
 10
3512.3177959999998
 20
2432.4888539999988
 30
0.0
 11
3512.3177959999998
 21
2012.4888539999999
 31
0.0
  0
INSERT
  5
7E3B
  8
3
  6
CONTINUOUS
 62
     0
  2
_OPEN
 10
3512.3177959999998
 20
2472.4888539999988
 30
0.0
 41
40.0
 42
40.0
 43
40.0
 50
90.0
  0
INSERT
  5
7E3C
  8
3
  6
CONTINUOUS
 62
     0
  2
_OPEN
 10
3512.3177959999998
 20
1972.488853999999
 30
0.0
 41
40.0
 42
40.0
 43
40.0
 50
270.0
  0
TEXT
  8
3
  40
60
  5
7E6A
  62
0
  72
0
  71
0
 10
3342.32
 20
2101.74
 30
0.000000
  1
φ500
  0
POINT
  5
7E3E
  8
DEFPOINTS
  6
CONTINUOUS
 62
     0
 10
3354.552764999999
 20
2472.4888539999988
 30
0.0
  0
POINT
  5
7E3F
  8
DEFPOINTS
  6
CONTINUOUS
 62
     0
 10
3354.552764999999
 20
1972.488853999999
 30
0.0
  0
POINT
  5
7E40
  8
DEFPOINTS
  6
CONTINUOUS
 62
     0
 10
3512.3177959999998
 20
1972.488853999999
 30
0.0
  0
ENDBLK
  5
7D40
  8
0
  0
BLOCK
  8
0
  2
*D16
 70
     1
 10
0.0
 20
0.0
 30
0.0
  3
*D16
  1

  0
LINE
  5
7E41
  8
3
  6
CONTINUOUS
 62
     0
 10
810.78220699999997
 20
4088.8888539999989
 30
0.0
 11
810.78220699999997
 21
4127.1261319999994
 31
0.0
  0
LINE
  5
7E42
  8
3
  6
CONTINUOUS
 62
     0
 10
1930.782207
 20
4088.8888539999989
 30
0.0
 11
1930.782207
 21
4127.1261319999994
 31
0.0
  0
LINE
  5
7E43
  8
3
  6
CONTINUOUS
 62
     0
 10
850.78220700000008
 20
4107.1261320000003
 30
0.0
 11
1890.782207
 21
4107.1261320000003
 31
0.0
  0
INSERT
  5
7E44
  8
3
  6
CONTINUOUS
 62
     0
  2
_OPEN
 10
810.78220699999997
 20
4107.1261320000003
 30
0.0
 41
40.0
 42
40.0
 43
40.0
 50
180.0
  0
INSERT
  5
7E45
  8
3
  6
CONTINUOUS
 62
     0
  2
_OPEN
 10
1930.782207
 20
4107.1261320000003
 30
0.0
 41
40.0
 42
40.0
 43
40.0
  0
TEXT
  8
3
  40
60
  5
7E6B
  62
0
  72
0
  71
0
 10
1244.18
 20
4050.93
 30
0.000000
  1
1120
  0
POINT
  5
7E47
  8
DEFPOINTS
  6
CONTINUOUS
 62
     0
 10
810.78220699999997
 20
4078.8888539999998
 30
0.0
  0
POINT
  5
7E48
  8
DEFPOINTS
  6
CONTINUOUS
 62
     0
 10
1930.782207
 20
4078.8888539999998
 30
0.0
  0
POINT
  5
7E49
  8
DEFPOINTS
  6
CONTINUOUS
 62
     0
 10
1930.782207
 20
4107.1261320000003
 30
0.0
  0
ENDBLK
  5
7C40
  8
0
  0
BLOCK
  8
0
  2
*D17
 70
     1
 10
0.0
 20
0.0
 30
0.0
  3
*D17
  1

  0
LINE
  5
7E4A
  8
3
  6
CONTINUOUS
 62
     0
 10
1940.782207
 20
4078.8888539999998
 30
0.0
 11
2143.6001900000001
 21
4078.8888539999998
 31
0.0
  0
LINE
  5
7E4B
  8
3
  6
CONTINUOUS
 62
     0
 10
1940.782207
 20
3388.8888539999989
 30
0.0
 11
2143.6001900000001
 21
3388.8888539999989
 31
0.0
  0
LINE
  5
7E4C
  8
3
  6
CONTINUOUS
 62
     0
 10
2123.6001900000001
 20
4038.8888539999989
 30
0.0
 11
2123.6001900000001
 21
3428.8888539999998
 31
0.0
  0
INSERT
  5
7E4D
  8
3
  6
CONTINUOUS
 62
     0
  2
_OPEN
 10
2123.6001900000001
 20
4078.8888539999998
 30
0.0
 41
40.0
 42
40.0
 43
40.0
 50
90.0
  0
INSERT
  5
7E4E
  8
3
  6
CONTINUOUS
 62
     0
  2
_OPEN
 10
2123.6001900000001
 20
3388.8888539999989
 30
0.0
 41
40.0
 42
40.0
 43
40.0
 50
270.0
  0
TEXT
  8
3
  40
60
  5
7E6C
  62
0
  72
0
  71
0
 10
1953.60
 20
3650.77
 30
0.000000
  1
690
  0
POINT
  5
7E50
  8
DEFPOINTS
  6
CONTINUOUS
 62
     0
 10
1930.782207
 20
4078.8888539999998
 30
0.0
  0
POINT
  5
7E51
  8
DEFPOINTS
  6
CONTINUOUS
 62
     0
 10
1930.782207
 20
3388.8888539999989
 30
0.0
  0
POINT
  5
7E52
  8
DEFPOINTS
  6
CONTINUOUS
 62
     0
 10
2123.6001900000001
 20
3388.8888539999989
 30
0.0
  0
ENDBLK
  5
7C5A
  8
0
  0
BLOCK
  8
0
  2
*D18
 70
     1
 10
0.0
 20
0.0
 30
0.0
  3
*D18
  1

  0
LINE
  5
7E53
  8
3
 62
     0
 10
1985.782207
 20
2542.4888540000002
 30
0.0
 11
1985.782207
 21
2966.1995125176832
 31
0.0
  0
LINE
  5
7E54
  8
3
 62
     0
 10
810.78220699999997
 20
1822.488853999999
 30
0.0
 11
810.7822070000002
 21
2966.1995125176832
 31
0.0
  0
LINE
  5
7E55
  8
3
 62
     0
 10
1945.7822069999991
 20
2946.1995125176832
 30
0.0
 11
850.78220700000008
 21
2946.1995125176832
 31
0.0
  0
INSERT
  5
7E56
  8
3
 62
     0
  2
_OPEN
 10
1985.782207
 20
2946.1995125176832
 30
0.0
 41
40.0
 42
40.0
 43
40.0
  0
INSERT
  5
7E57
  8
3
 62
     0
  2
_OPEN
 10
810.7822070000002
 20
2946.1995125176832
 30
0.0
 41
40.0
 42
40.0
 43
40.0
 50
180.0
  0
TEXT
  8
3
  40
60
  5
7E6D
  62
0
  72
0
  71
0
 10
1314.60
 20
2890.00
 30
0.000000
  1
1175
  0
POINT
  5
7E59
  8
DEFPOINTS
 62
     0
 10
1985.782207
 20
2532.4888539999988
 30
0.0
  0
POINT
  5
7E5A
  8
DEFPOINTS
 62
     0
 10
810.78220699999997
 20
1812.4888539999999
 30
0.0
  0
POINT
  5
7E5B
  8
DEFPOINTS
 62
     0
 10
810.7822070000002
 20
2946.1995125176832
 30
0.0
  0
ENDBLK
  5
7DA0
  8
0
  0
ENDSEC
  0
SECTION
  2
ENTITIES
  0
LINE
  5
7A76
  8
1
  6
CONTINUOUS
 10
2893.5527649999999
 20
2342.4888539999988
 30
0.0
 11
2833.5527649999999
 21
2342.4888539999988
 31
0.0
  0
LINE
  5
7A77
  8
1
  6
CONTINUOUS
 10
2833.5527649999999
 20
2102.4888540000002
 30
0.0
 11
2893.5527649999999
 21
2102.4888540000002
 31
0.0
  0
LINE
  5
7A78
  8
1
  6
CONTINUOUS
 10
2787.5527649999999
 20
1692.4888539999999
 30
0.0
 11
3477.5527649999999
 21
1692.4888539999999
 31
0.0
  0
LINE
  5
7A79
  8
1
  6
CONTINUOUS
 10
2787.5527649999999
 20
1732.4888539999999
 30
0.0
 11
3477.5527649999999
 21
1732.4888539999999
 31
0.0
  0
LINE
  5
7A7A
  8
1
  6
CONTINUOUS
 10
2893.5527649999999
 20
2044.4888539999999
 30
0.0
 11
2833.5527649999999
 21
2044.4888539999999
 31
0.0
  0
LINE
  5
7A7B
  8
1
  6
CONTINUOUS
 10
2833.5527649999999
 20
1944.4888539999999
 30
0.0
 11
2893.5527649999999
 21
1944.4888539999999
 31
0.0
  0
LINE
  5
7A7C
  8
1
  6
CONTINUOUS
 10
2803.5527649999999
 20
2557.4888539999988
 30
0.0
 11
2923.5527649999999
 21
2557.4888539999988
 31
0.0
  0
LINE
  5
7A7D
  8
1
  6
CONTINUOUS
 10
2923.5527649999999
 20
1812.4888539999999
 30
0.0
 11
2803.5527649999999
 21
1812.4888539999999
 31
0.0
  0
ARC
  5
7A7E
  8
1
  6
CONTINUOUS
 10
1600.3187889999999
 20
2245.568483
 30
0.0
 40
431.17249299999992
 50
183.12053399999999
 51
274.7365549999999
  0
LINE
  5
7A7F
  8
1
  6
CONTINUOUS
 10
1648.7822069999991
 20
2552.4888539999988
 30
0.0
 11
1168.8522069999999
 21
2552.4888539999988
 31
0.0
  0
LINE
  5
7A80
  8
1
  6
CONTINUOUS
 10
810.78220699999997
 20
1812.4888539999999
 30
0.0
 11
1985.782207
 21
1812.4888539999999
 31
0.0
  0
LINE
  5
7A81
  8
1
  6
CONTINUOUS
 10
810.78220699999997
 20
1732.4888539999999
 30
0.0
 11
1930.782207
 21
1732.4888539999999
 31
0.0
  0
LINE
  5
7A82
  8
1
  6
CONTINUOUS
 10
1665.782207
 20
2577.4888540000002
 30
0.0
 11
1151.7822069999991
 21
2577.4888540000002
 31
0.0
  0
LINE
  5
7A8A
  8
1
  6
CONTINUOUS
 10
1577.8522069999999
 20
2330.188854
 30
0.0
 11
1004.322207
 21
2048.3388540000001
 31
0.0
  0
LINE
  5
7A8B
  8
1
  6
CONTINUOUS
 10
1046.762207
 20
1936.658854
 30
0.0
 11
1662.732207
 21
2106.8188540000001
 31
0.0
  0
ARC
  5
7A8C
  8
1
  6
CONTINUOUS
 10
1030.782207
 20
1994.4888539999999
 30
0.0
 40
122.0
 50
324.60000000000002
 51
215.39999999999989
  0
LINE
  5
7A8D
  8
1
  6
CONTINUOUS
 10
900.78220700000008
 20
1862.4888539999999
 30
0.0
 11
1160.782207
 21
1862.4888539999999
 31
0.0
  0
LINE
  5
7A8E
  8
1
  6
CONTINUOUS
 10
810.78220699999997
 20
1692.4888539999999
 30
0.0
 11
850.78220700000008
 21
1692.4888539999999
 31
0.0
  0
LINE
  5
7A8F
  8
1
  6
CONTINUOUS
 10
810.78220699999997
 20
1812.4888539999999
 30
0.0
 11
810.78220699999997
 21
1692.4888539999999
 31
0.0
  0
LINE
  5
7A90
  8
1
  6
CONTINUOUS
 10
850.78220700000008
 20
1732.4888539999999
 30
0.0
 11
850.78220700000008
 21
1692.4888539999999
 31
0.0
  0
LINE
  5
7A91
  8
1
  6
CONTINUOUS
 10
900.78220700000008
 20
1862.4888539999999
 30
0.0
 11
931.34220699999992
 21
1923.8188540000001
 31
0.0
  0
LINE
  5
7A92
  8
1
  6
CONTINUOUS
 10
900.78220700000008
 20
1812.4888539999999
 30
0.0
 11
900.78220700000008
 21
1862.4888539999999
 31
0.0
  0
LINE
  5
7A93
  8
1
  6
CONTINUOUS
 10
900.78220700000008
 20
1862.4888539999999
 30
0.0
 11
950.78220700000008
 21
1862.4888539999999
 31
0.0
  0
LINE
  5
7A94
  8
1
  6
CONTINUOUS
 10
1160.782207
 20
1862.4888539999999
 30
0.0
 11
1110.7822069999991
 21
1862.4888539999999
 31
0.0
  0
CIRCLE
  5
7A95
  8
1
  6
CONTINUOUS
 10
1030.782207
 20
1994.4888539999999
 30
0.0
 40
60.0
  0
LINE
  5
7A96
  8
2
  6
CENTER
 10
1090.7822069999991
 20
1994.4888539999999
 30
0.0
 11
970.78220699999997
 21
1994.4888539999999
 31
0.0
  0
LINE
  5
7A97
  8
2
  6
CENTER
 10
1030.782207
 20
1934.488853999999
 30
0.0
 11
1030.782207
 21
2054.4888540000002
 31
0.0
  0
LINE
  5
7A98
  8
1
  6
CONTINUOUS
 10
1160.782207
 20
1812.4888539999999
 30
0.0
 11
1160.782207
 21
1862.4888539999999
 31
0.0
  0
LINE
  5
7A99
  8
1
  6
CONTINUOUS
 10
1160.782207
 20
1862.4888539999999
 30
0.0
 11
1130.222207
 21
1923.8188540000001
 31
0.0
  0
LINE
  5
7A9A
  8
1
  6
CONTINUOUS
 10
1168.782207
 20
2577.4888540000002
 30
0.0
 11
1169.7822069999991
 21
2222.1088540000001
 31
0.0
  0
CIRCLE
  5
7A9B
  8
1
  6
CONTINUOUS
 10
1630.782207
 20
2222.4888539999988
 30
0.0
 40
275.0
  0
LINE
  5
7A9C
  8
1
  6
CONTINUOUS
 10
1275.782207
 20
2532.4888539999988
 30
0.0
 11
1985.782207
 21
2532.4888539999988
 31
0.0
  0
ARC
  5
7A9D
  8
1
  6
CONTINUOUS
 10
1641.9112150000001
 20
2192.0277109999988
 30
0.0
 40
343.89392400000003
 50
9.976388
 51
88.859720999999993
  0
ARC
  5
7A9E
  8
1
  6
CONTINUOUS
 10
1603.782207
 20
2195.4888540000002
 30
0.0
 40
380.98000000000002
 50
274.83999999999992
 51
8.4700000000000006
  0
CIRCLE
  5
7A9F
  8
1
  6
CONTINUOUS
 10
1630.782207
 20
2222.4888539999988
 30
0.0
 40
250.0
  0
LINE
  5
7AA0
  8
1
  6
CONTINUOUS
 10
1275.782207
 20
2532.4888539999988
 30
0.0
 11
1275.782207
 21
1812.4888539999999
 31
0.0
  0
LINE
  5
7AA1
  8
2
  6
CENTER
 10
999.03738921229535
 20
2222.4888539999988
 30
0.0
 11
2091.247527
 21
2222.4888539999988
 31
0.0
  0
CIRCLE
  5
7AA2
  8
1
  6
CONTINUOUS
 10
1630.782207
 20
2222.4888539999988
 30
0.0
 40
120.0
  0
LINE
  5
7AA3
  8
1
  6
CONTINUOUS
 10
1648.7822069999991
 20
2535.8588540000001
 30
0.0
 11
1648.7822069999991
 21
2577.4888540000002
 31
0.0
  0
LINE
  5
7AA4
  8
2
  6
CENTER
 10
1630.782207
 20
1547.5928373964809
 30
0.0
 11
1630.782207
 21
2740.1756919999998
 31
0.0
  0
LINE
  5
7AA5
  8
1
  6
CONTINUOUS
 10
1985.782207
 20
2532.4888539999988
 30
0.0
 11
1985.782207
 21
1812.4888539999999
 31
0.0
  0
LINE
  5
7AA6
  8
1
  6
CONTINUOUS
 10
2803.5527649999999
 20
1812.4888539999999
 30
0.0
 11
2803.5527649999999
 21
2557.4888539999988
 31
0.0
  0
LINE
  5
7AA7
  8
1
  6
CONTINUOUS
 10
1930.782207
 20
1812.4888539999999
 30
0.0
 11
1930.782207
 21
1692.4888539999999
 31
0.0
  0
LINE
  5
7AA8
  8
1
  6
CONTINUOUS
 10
1930.782207
 20
1692.4888539999999
 30
0.0
 11
1890.782207
 21
1692.4888539999999
 31
0.0
  0
LINE
  5
7AA9
  8
1
  6
CONTINUOUS
 10
1890.782207
 20
1732.4888539999999
 30
0.0
 11
1890.782207
 21
1692.4888539999999
 31
0.0
  0
LINE
  5
7AAA
  8
1
  6
CONTINUOUS
 10
2787.5527649999999
 20
1732.4888539999999
 30
0.0
 11
2787.5527649999999
 21
1692.4888539999999
 31
0.0
  0
LINE
  5
7AAB
  8
1
  6
CONTINUOUS
 10
2833.5527649999999
 20
2044.4888539999999
 30
0.0
 11
2833.5527649999999
 21
1944.4888539999999
 31
0.0
  0
LINE
  5
7AAC
  8
1
  6
CONTINUOUS
 10
2833.5527649999999
 20
2342.4888539999988
 30
0.0
 11
2833.5527649999999
 21
2102.4888540000002
 31
0.0
  0
LINE
  5
7AAD
  8
1
  6
CONTINUOUS
 10
2993.5527649999999
 20
2577.4888540000002
 30
0.0
 11
2993.5527649999999
 21
1812.4888539999999
 31
0.0
  0
LINE
  5
7AAE
  8
1
  6
CONTINUOUS
 10
3353.552764999999
 20
2577.4888540000002
 30
0.0
 11
3353.552764999999
 21
1812.4888539999999
 31
0.0
  0
LINE
  5
7AAF
  8
1
  6
CONTINUOUS
 10
2923.5527649999999
 20
2557.4888539999988
 30
0.0
 11
2923.5527649999999
 21
1812.4888539999999
 31
0.0
  0
LINE
  5
7AB0
  8
1
  6
CONTINUOUS
 10
2949.552764999999
 20
1812.4888539999999
 30
0.0
 11
3397.552764999999
 21
1812.4888539999999
 31
0.0
  0
LINE
  5
7AB1
  8
1
  6
CONTINUOUS
 10
2949.552764999999
 20
1732.4888539999999
 30
0.0
 11
3397.552764999999
 21
1732.4888539999999
 31
0.0
  0
LINE
  5
7AB2
  8
1
  6
CONTINUOUS
 10
2949.552764999999
 20
1812.4888539999999
 30
0.0
 11
2949.552764999999
 21
1732.4888539999999
 31
0.0
  0
LINE
  5
7AB3
  8
1
  6
CONTINUOUS
 10
2893.5527649999999
 20
2013.488853999999
 30
0.0
 11
2993.5527649999999
 21
2013.488853999999
 31
0.0
  0
LINE
  5
7AB4
  8
1
  6
CONTINUOUS
 10
2893.5527649999999
 20
1975.488853999999
 30
0.0
 11
2993.5527649999999
 21
1975.488853999999
 31
0.0
  0
LINE
  5
7AB5
  8
1
  6
CONTINUOUS
 10
2893.5527649999999
 20
1944.4888539999999
 30
0.0
 11
2893.5527649999999
 21
2044.4888539999999
 31
0.0
  0
LINE
  5
7AB6
  8
1
  6
CONTINUOUS
 10
3397.552764999999
 20
1812.4888539999999
 30
0.0
 11
3397.552764999999
 21
1732.4888539999999
 31
0.0
  0
LINE
  5
7AB7
  8
1
  6
CONTINUOUS
 10
2993.5527649999999
 20
2552.4888539999988
 30
0.0
 11
3353.552764999999
 21
2552.4888539999988
 31
0.0
  0
LINE
  5
7AB8
  8
1
  6
CONTINUOUS
 10
3380.5527649999999
 20
2577.4888540000002
 30
0.0
 11
2966.5527649999999
 21
2577.4888540000002
 31
0.0
  0
LINE
  5
7AB9
  8
1
  6
CONTINUOUS
 10
2893.5527649999999
 20
2102.4888540000002
 30
0.0
 11
2893.5527649999999
 21
2342.4888539999988
 31
0.0
  0
LINE
  5
7ABA
  8
1
  6
CONTINUOUS
 10
2893.5527649999999
 20
2203.4888539999988
 30
0.0
 11
2993.5527649999999
 21
2203.4888539999988
 31
0.0
  0
LINE
  5
7ABB
  8
1
  6
CONTINUOUS
 10
2893.5527649999999
 20
2241.4888539999988
 30
0.0
 11
2993.5527649999999
 21
2241.4888539999988
 31
0.0
  0
LINE
  5
7ABC
  8
1
  6
CONTINUOUS
 10
3477.5527649999999
 20
1732.4888539999999
 30
0.0
 11
3477.5527649999999
 21
1692.4888539999999
 31
0.0
  0
LINE
  5
7ABD
  8
1
  6
CONTINUOUS
 10
1141.782207
 20
3592.8888539999989
 30
0.0
 11
1675.782207
 21
3956.8888539999989
 31
0.0
  0
LINE
  5
7ABE
  8
1
  6
CONTINUOUS
 10
1675.782207
 20
3592.8888539999989
 30
0.0
 11
1141.782207
 21
3956.8888539999989
 31
0.0
  0
LINE
  5
7ABF
  8
1
  6
CONTINUOUS
 10
1019.782207
 20
3550.8888539999998
 30
0.0
 11
1611.782207
 21
3550.8888539999998
 31
0.0
  0
LINE
  5
7AC0
  8
1
  6
CONTINUOUS
 10
810.78220699999997
 20
3998.8888539999998
 30
0.0
 11
1930.782207
 21
3998.8888539999998
 31
0.0
  0
LINE
  5
7AC1
  8
1
  6
CONTINUOUS
 10
1141.782207
 20
3956.8888539999989
 30
0.0
 11
1985.782207
 21
3956.8888539999989
 31
0.0
  0
LINE
  5
7AC2
  8
1
  6
CONTINUOUS
 10
1141.782207
 20
3592.8888539999989
 30
0.0
 11
1985.782207
 21
3592.8888539999989
 31
0.0
  0
LINE
  5
7AC3
  8
1
  6
CONTINUOUS
 10
856.28220700000008
 20
3404.8888539999998
 30
0.0
 11
1856.2822069999991
 21
3404.8888539999998
 31
0.0
  0
LINE
  5
7AC4
  8
1
  6
CONTINUOUS
 10
1856.2822069999991
 20
3524.8888539999989
 30
0.0
 11
856.28220700000008
 21
3524.8888539999989
 31
0.0
  0
LINE
  5
7AC5
  8
1
  6
CONTINUOUS
 10
878.78220699999997
 20
3575.128854
 30
0.0
 11
878.78220699999997
 21
3925.128854
 31
0.0
  0
LINE
  5
7AC6
  8
1
  6
CONTINUOUS
 10
1122.7822069999991
 20
3575.128854
 30
0.0
 11
1122.7822069999991
 21
3925.128854
 31
0.0
  0
LINE
  5
7AC7
  8
1
  6
CONTINUOUS
 10
1141.782207
 20
3956.8888539999989
 30
0.0
 11
1141.782207
 21
3592.8888539999989
 31
0.0
  0
LINE
  5
7AC8
  8
1
  6
CONTINUOUS
 10
810.78220699999997
 20
4078.8888539999998
 30
0.0
 11
810.78220699999997
 21
3388.8888539999989
 31
0.0
  0
LINE
  5
7AC9
  8
1
  6
CONTINUOUS
 10
1050.7822069999991
 20
3494.8888539999998
 30
0.0
 11
950.78220700000008
 21
3494.8888539999998
 31
0.0
  0
LINE
  5
7ACA
  8
1
  6
CONTINUOUS
 10
950.78220700000008
 20
3434.8888539999989
 30
0.0
 11
1050.7822069999991
 21
3434.8888539999989
 31
0.0
  0
LINE
  5
7ACB
  8
1
  6
CONTINUOUS
 10
878.78220699999997
 20
3575.128854
 30
0.0
 11
1122.7822069999991
 21
3575.128854
 31
0.0
  0
LINE
  5
7ACC
  8
1
  6
CONTINUOUS
 10
810.78220699999997
 20
3550.8888539999998
 30
0.0
 11
981.78220700000008
 21
3550.8888539999998
 31
0.0
  0
LINE
  5
7ACD
  8
1
  6
CONTINUOUS
 10
950.78220700000008
 20
3494.8888539999998
 30
0.0
 11
950.78220700000008
 21
3434.8888539999989
 31
0.0
  0
LINE
  5
7ACE
  8
1
  6
CONTINUOUS
 10
850.78220700000008
 20
3388.8888539999989
 30
0.0
 11
850.78220700000008
 21
3550.8888539999998
 31
0.0
  0
LINE
  5
7ACF
  8
1
  6
CONTINUOUS
 10
856.28220700000008
 20
3524.8888539999989
 30
0.0
 11
856.28220700000008
 21
3404.8888539999998
 31
0.0
  0
LINE
  5
7AD0
  8
1
  6
CONTINUOUS
 10
850.78220700000008
 20
3388.8888539999989
 30
0.0
 11
810.78220699999997
 21
3388.8888539999989
 31
0.0
  0
LINE
  5
7AD1
  8
1
  6
CONTINUOUS
 10
1050.7822069999991
 20
3434.8888539999989
 30
0.0
 11
1050.7822069999991
 21
3494.8888539999998
 31
0.0
  0
LINE
  5
7AD2
  8
1
  6
CONTINUOUS
 10
1019.782207
 20
3494.8888539999998
 30
0.0
 11
1019.782207
 21
3575.128854
 31
0.0
  0
LINE
  5
7AD3
  8
1
  6
CONTINUOUS
 10
981.78220700000008
 20
3494.8888539999998
 30
0.0
 11
981.78220700000008
 21
3575.128854
 31
0.0
  0
LINE
  5
7AD4
  8
1
  6
CONTINUOUS
 10
878.78220699999997
 20
3925.128854
 30
0.0
 11
1122.7822069999991
 21
3925.128854
 31
0.0
  0
LINE
  5
7AD5
  8
1
  6
CONTINUOUS
 10
850.78220700000008
 20
4078.8888539999998
 30
0.0
 11
810.78220699999997
 21
4078.8888539999998
 31
0.0
  0
LINE
  5
7AD6
  8
1
  6
CONTINUOUS
 10
850.78220700000008
 20
4078.8888539999998
 30
0.0
 11
850.78220700000008
 21
3998.8888539999998
 31
0.0
  0
LINE
  5
7AD7
  8
1
  6
CONTINUOUS
 10
1649.782207
 20
3550.8888539999998
 30
0.0
 11
1930.782207
 21
3550.8888539999998
 31
0.0
  0
LINE
  5
7AD8
  8
1
  6
CONTINUOUS
 10
1675.782207
 20
3592.8888539999989
 30
0.0
 11
1675.782207
 21
3956.8888539999989
 31
0.0
  0
LINE
  5
7AD9
  8
1
  6
CONTINUOUS
 10
1750.782207
 20
3494.8888539999998
 30
0.0
 11
1510.782207
 21
3494.8888539999998
 31
0.0
  0
LINE
  5
7ADA
  8
1
  6
CONTINUOUS
 10
1510.782207
 20
3434.8888539999989
 30
0.0
 11
1750.782207
 21
3434.8888539999989
 31
0.0
  0
LINE
  5
7ADB
  8
1
  6
CONTINUOUS
 10
1510.782207
 20
3434.8888539999989
 30
0.0
 11
1510.782207
 21
3494.8888539999998
 31
0.0
  0
LINE
  5
7ADC
  8
1
  6
CONTINUOUS
 10
1750.782207
 20
3434.8888539999989
 30
0.0
 11
1750.782207
 21
3494.8888539999998
 31
0.0
  0
LINE
  5
7ADD
  8
1
  6
CONTINUOUS
 10
1856.2822069999991
 20
3404.8888539999998
 30
0.0
 11
1856.2822069999991
 21
3524.8888539999989
 31
0.0
  0
LINE
  5
7ADE
  8
1
  6
CONTINUOUS
 10
1611.782207
 20
3494.8888539999998
 30
0.0
 11
1611.782207
 21
3592.8888539999989
 31
0.0
  0
LINE
  5
7ADF
  8
1
  6
CONTINUOUS
 10
1649.782207
 20
3494.8888539999998
 30
0.0
 11
1649.782207
 21
3592.8888539999989
 31
0.0
  0
LINE
  5
7AE0
  8
1
  6
CONTINUOUS
 10
1985.782207
 20
3592.8888539999989
 30
0.0
 11
1985.782207
 21
3956.8888539999989
 31
0.0
  0
LINE
  5
7AE1
  8
1
  6
CONTINUOUS
 10
1930.782207
 20
3592.8888539999989
 30
0.0
 11
1930.782207
 21
3388.8888539999989
 31
0.0
  0
LINE
  5
7AE2
  8
1
  6
CONTINUOUS
 10
1890.782207
 20
3388.8888539999989
 30
0.0
 11
1890.782207
 21
3550.8888539999998
 31
0.0
  0
LINE
  5
7AE3
  8
1
  6
CONTINUOUS
 10
1890.782207
 20
3388.8888539999989
 30
0.0
 11
1930.782207
 21
3388.8888539999989
 31
0.0
  0
LINE
  5
7AE4
  8
1
  6
CONTINUOUS
 10
1930.782207
 20
4078.8888539999998
 30
0.0
 11
1930.782207
 21
3956.8888539999989
 31
0.0
  0
LINE
  5
7AE5
  8
1
  6
CONTINUOUS
 10
1890.782207
 20
4078.8888539999998
 30
0.0
 11
1890.782207
 21
3998.8888539999998
 31
0.0
  0
LINE
  5
7AE6
  8
1
  6
CONTINUOUS
 10
1890.782207
 20
4078.8888539999998
 30
0.0
 11
1930.782207
 21
4078.8888539999998
 31
0.0
  0
LINE
  5
7AE7
  8
2
  6
CENTER
 10
3173.5527649999999
 20
2602.8822989999999
 30
0.0
 11
3173.5527649999999
 21
1572.0890966362711
 31
0.0
  0
LINE
  5
7AE8
  8
2
  6
CENTER
 10
2010.4174410000001
 20
3774.8888539999989
 30
0.0
 11
775.07431713638641
 21
3774.8888539999989
 31
0.0
  0
LINE
  5
7AE9
  8
2
  6
CENTER
 10
1630.782207
 20
3381.9824190988288
 30
0.0
 11
1630.782207
 21
4033.4530187759319
 31
0.0
  0
LINE
  5
7AEA
  8
2
  6
CENTER
 10
2753.400804540961
 20
2222.4888539999988
 30
0.0
 11
3387.684912472992
 21
2222.4888539999988
 31
0.0
  0
LINE
  5
7AEB
  8
4
  6
CONTINUOUS
 10
3700.0
 20
1000.0
 30
0.0
 11
3700.0
 21
600.0
 31
0.0
  0
LINE
  5
7AEC
  8
4
  6
CONTINUOUS
 10
2300.0
 20
1000.0
 30
0.0
 11
2300.0
 21
600.0
 31
0.0
  0
LINE
  5
7AED
  8
4
  6
CONTINUOUS
 10
1300.0
 20
1000.0
 30
0.0
 11
1300.0
 21
600.0
 31
0.0
  0
LINE
  5
7AF0
  8
4
  6
CONTINUOUS
 10
1300.0
 20
600.0
 30
0.0
 11
3700.0
 21
600.0
 31
0.0
  0
LINE
  5
7AF1
  8
4
  6
CONTINUOUS
 10
1300.0
 20
800.0
 30
0.0
 11
3700.0
 21
800.0
 31
0.0
  0
TEXT
  5
7AF2
  8
4
  6
CONTINUOUS
 10
1377.004162
 20
863.086052
 30
0.0
 40
100.0
  1
機器名称
  0
TEXT
  5
7AF3
  8
4
  6
CONTINUOUS
 10
1372.516212
 20
643.29031299999986
 30
0.0
 40
100.0
  1
機器型番
  0
TEXT
  5
7AF4
  8
4
  6
CONTINUOUS
 10
2355.3574910000002
 20
845.14353800000015
 30
0.0
 40
100.0
  1
ミツヤ多翼送風機
  0
TEXT
  5
7AF5
  8
4
  6
CONTINUOUS
 10
2373.3089909999999
 20
634.31916899999999
 30
0.0
 40
100.0
  1
MF#3-4
  0
TEXT
  5
7AF7
  8
4
  6
CONTINUOUS
 10
1600.2650570000001
 20
4766.8576830000002
 30
0.0
 40
108.0
  1
天井吊ベット
  0
TEXT
  5
7AF8
  8
4
  6
CONTINUOUS
 10
632.33518700000002
 20
5067.7619520000007
 30
0.0
 40
144.0
  1
ベルト駆動式片吸込両持多翼ファン
  0
LINE
  5
7AF9
  8
4
  6
CONTINUOUS
 10
500.0
 20
4938.8175090000004
 30
0.0
 11
3700.0
 21
4938.8175090000004
 31
0.0
  0
LINE
  5
7AFA
  8
4
  6
CONTINUOUS
 10
500.0
 20
5338.8175090000004
 30
0.0
 11
3700.0
 21
5338.8175090000004
 31
0.0
  0
LINE
  5
7AFB
  8
4
  6
CONTINUOUS
 10
1300.0
 20
1000.0
 30
0.0
 11
3700.0
 21
1000.0
 31
0.0
  0
LINE
  5
7AFC
  8
4
  6
CONTINUOUS
 10
500.0
 20
5338.8175090000004
 30
0.0
 11
500.0
 21
4938.8175090000004
 31
0.0
  0
TEXT
  5
7AFD
  8
4
  6
CONTINUOUS
 10
728.54739299999994
 20
4764.6389549999994
 30
0.0
 40
108.0
  1
右回転上向
  0
TEXT
  5
7AFE
  8
4
  6
CONTINUOUS
 10
2937.9391179999998
 20
5412.122163
 30
0.0
 40
112.0
  1
No.
  0
TEXT
  5
7AFF
  8
4
  6
CONTINUOUS
 10
2622.5921250000001
 20
4766.8576830000002
 30
0.0
 40
108.0
  1
縮尺：1/20
  0
LINE
  5
7B00
  8
4
  6
CONTINUOUS
 10
3700.0
 20
5338.8175090000004
 30
0.0
 11
3700.0
 21
4938.8175090000004
 31
0.0
  0
LINE
  5
7B02
  8
4
  6
CONTINUOUS
 10
2881.234845
 20
5362.5271659999999
 30
0.0
 11
2881.234845
 21
5573.3045229999998
 31
0.0
  0
LINE
  5
7B03
  8
4
  6
CONTINUOUS
 10
2881.234845
 20
5573.3045229999998
 30
0.0
 11
3700.0
 21
5573.3045229999998
 31
0.0
  0
LINE
  5
7B04
  8
4
  6
CONTINUOUS
 10
3700.0
 20
5573.3045229999998
 30
0.0
 11
3700.0
 21
5362.5271659999999
 31
0.0
  0
LINE
  5
7B05
  8
4
  6
CONTINUOUS
 10
3700.0
 20
5362.5271659999999
 30
0.0
 11
2881.234845
 21
5362.5271659999999
 31
0.0
  0
LINE
  5
7B0A
  8
1
  6
CONTINUOUS
 10
1856.2822069999991
 20
1812.4888539999999
 30
0.0
 11
1856.2822069999991
 21
2482.4888539999988
 31
0.0
  0
LINE
  5
7B0B
  8
1
  6
CONTINUOUS
 10
1856.2822069999991
 20
2482.4888539999988
 30
0.0
 11
1606.282207
 21
2557.4888539999988
 31
0.0
  0
LINE
  5
7B0C
  8
1
  6
CONTINUOUS
 10
1606.282207
 20
2557.4888539999988
 30
0.0
 11
856.28220700000008
 21
2047.4888539999999
 31
0.0
  0
LINE
  5
7B0D
  8
1
  6
CONTINUOUS
 10
856.28220700000008
 20
2047.4888539999999
 30
0.0
 11
856.28220700000008
 21
1812.4888539999999
 31
0.0
  0
DIMENSION
  5
7B21
  8
3
  6
CONTINUOUS
  2
*D1
 10
1648.7822069999991
 20
2710.590745
 30
0.0
 11
1378.7845519999989
 21
2710.590745
 31
0.0
 70
   128
 13
1168.782207
 23
2577.4888540000002
 33
0.0
 14
1648.7822069999991
 24
2577.4888540000002
 34
0.0
1001
ACAD
1000
DSTYLE
1002
{
1070
   287
1070
     3
1070
    40
1040
20.0
1070
   143
1040
0.039
1070
   172
1070
     1
1070
   271
1070
     0
1070
   279
1070
     0
1070
   288
1070
     1
1002
}
  0
DIMENSION
  5
7B2E
  8
3
  6
CONTINUOUS
  2
*D2
 10
1630.782207
 20
2823.6615000000002
 30
0.0
 11
1378.7845519999989
 21
2823.6615000000002
 31
0.0
 70
   128
 13
1168.782207
 23
2577.4888540000002
 33
0.0
 14
1630.782207
 24
2740.1756919999998
 34
0.0
1001
ACAD
1000
DSTYLE
1002
{
1070
   287
1070
     3
1070
    40
1040
20.0
1070
   143
1040
0.039
1070
   172
1070
     1
1070
   271
1070
     0
1070
   279
1070
     0
1070
   288
1070
     1
1002
}
  0
DIMENSION
  5
7B3A
  8
3
  6
CONTINUOUS
  2
*D3
 10
1985.782207
 20
2823.6615000000002
 30
0.0
 11
1808.2822069999991
 21
2873.6615000000002
 31
0.0
 70
     0
 13
1630.782207
 23
2740.1756919999998
 33
0.0
 14
1985.782207
 24
2532.4888539999988
 34
0.0
1001
ACAD
1000
DSTYLE
1002
{
1070
   287
1070
     4
1070
    40
1040
20.0
1070
    75
1070
     1
1070
   143
1040
0.039
1070
   172
1070
     1
1070
   271
1070
     0
1070
   279
1070
     1
1070
   288
1070
     1
1002
}
  0
DIMENSION
  5
7B47
  8
3
  6
CONTINUOUS
  2
*D4
 10
2138.2044249999999
 20
2222.4888539999988
 30
0.0
 11
2138.2044249999999
 21
2359.631711
 31
0.0
 70
   128
 13
1665.782207
 23
2577.4888540000002
 33
0.0
 14
2091.247527
 24
2222.4888539999988
 34
0.0
 50
90.0
1001
ACAD
1000
DSTYLE
1002
{
1070
   287
1070
     3
1070
    40
1040
20.0
1070
   143
1040
0.039
1070
   172
1070
     1
1070
   271
1070
     0
1070
   279
1070
     0
1070
   288
1070
     1
1002
}
  0
DIMENSION
  5
7B53
  8
3
  6
CONTINUOUS
  2
*D5
 10
2138.2044249999999
 20
1732.4888539999999
 30
0.0
 11
2088.204424999999
 21
1977.488853999999
 31
0.0
 70
     0
 13
2091.247527
 23
2222.4888539999988
 33
0.0
 14
1930.782207
 24
1732.4888539999999
 34
0.0
 50
90.0
1001
ACAD
1000
DSTYLE
1002
{
1070
   287
1070
     4
1070
    40
1040
20.0
1070
    75
1070
     1
1070
   143
1040
0.039
1070
   172
1070
     1
1070
   271
1070
     0
1070
   279
1070
     1
1070
   288
1070
     1
1002
}
  0
DIMENSION
  5
7B63
  8
3
  6
CONTINUOUS
  2
*D6
 10
2137.9494909999999
 20
1692.4888539999999
 30
0.0
 11
2137.9494909999999
 21
1543.9174254285711
 31
0.0
 70
   128
 13
1930.782207
 23
1732.4888539999999
 33
0.0
 14
1930.782207
 24
1692.4888539999999
 34
0.0
 50
90.0
1001
ACAD
1000
DSTYLE
1002
{
1070
   287
1070
     3
1070
    40
1040
20.0
1070
   143
1040
0.039
1070
   172
1070
     1
1070
   271
1070
     0
1070
   279
1070
     0
1070
   288
1070
     1
1002
}
  0
DIMENSION
  5
7B70
  8
3
  6
CONTINUOUS
  2
*D7
 10
2296.8173120000001
 20
1692.4888539999999
 30
0.0
 11
2296.8173120000001
 21
2124.0495030000002
 31
0.0
 70
   128
 13
1675.782207
 23
2577.4888540000002
 33
0.0
 14
1930.782207
 24
1692.4888539999999
 34
0.0
 50
90.0
1001
ACAD
1000
DSTYLE
1002
{
1070
   287
1070
     3
1070
    40
1040
20.0
1070
   143
1040
0.039
1070
   172
1070
     1
1070
   271
1070
     0
1070
   279
1070
     0
1070
   288
1070
     1
1002
}
  0
DIMENSION
  5
7B7D
  8
3
  6
CONTINUOUS
  2
*D8
 10
1630.782207
 20
1522.082136
 30
0.0
 11
1225.4401519999999
 21
1522.082136
 31
0.0
 70
   128
 13
810.78220699999997
 23
1692.4888539999999
 33
0.0
 14
1630.782207
 24
1552.6216529026681
 34
0.0
1001
ACAD
1000
DSTYLE
1002
{
1070
   287
1070
     3
1070
    40
1040
20.0
1070
   143
1040
0.039
1070
   172
1070
     1
1070
   271
1070
     0
1070
   279
1070
     0
1070
   288
1070
     1
1002
}
  0
DIMENSION
  5
7B89
  8
3
  6
CONTINUOUS
  2
*D9
 10
1930.782207
 20
1522.082136
 30
0.0
 11
1780.782207
 21
1572.082136
 31
0.0
 70
     0
 13
1630.782207
 23
1552.6216529026681
 33
0.0
 14
1930.782207
 24
1692.4888539999999
 34
0.0
1001
ACAD
1000
DSTYLE
1002
{
1070
   287
1070
     4
1070
    40
1040
20.0
1070
    75
1070
     1
1070
   143
1040
0.039
1070
   172
1070
     1
1070
   271
1070
     0
1070
   279
1070
     1
1070
   288
1070
     1
1002
}
  0
DIMENSION
  5
7BCD
  8
3
  6
CONTINUOUS
  2
*D10
 10
2993.5527649999999
 20
2619.475345153021
 30
0.0
 11
3172.7694729999998
 21
2619.475345153021
 31
0.0
 70
   128
 13
3353.552764999999
 23
2577.4888540000002
 33
0.0
 14
2993.5527649999999
 24
2577.4888540000002
 34
0.0
1001
ACAD
1000
DSTYLE
1002
{
1070
   287
1070
     3
1070
    40
1040
20.0
1070
   143
1040
0.039
1070
   172
1070
     1
1070
   271
1070
     0
1070
   279
1070
     0
1070
   288
1070
     1
1002
}
  0
DIMENSION
  5
7BDA
  8
3
  6
CONTINUOUS
  2
*D11
 10
3173.5527649999999
 20
1510.303433999999
 30
0.0
 11
2986.5655769999998
 21
1510.303433999999
 31
0.0
 70
   128
 13
2787.5527649999999
 23
1692.4888539999999
 33
0.0
 14
3173.5527649999999
 24
1567.4975641979979
 34
0.0
1001
ACAD
1000
DSTYLE
1002
{
1070
   287
1070
     3
1070
    40
1040
20.0
1070
   143
1040
0.039
1070
   172
1070
     1
1070
   271
1070
     0
1070
   279
1070
     0
1070
   288
1070
     1
1002
}
  0
DIMENSION
  5
7BE6
  8
3
  6
CONTINUOUS
  2
*D12
 10
3477.5527649999999
 20
1510.303433999999
 30
0.0
 11
3325.552764999999
 21
1560.303433999999
 31
0.0
 70
     0
 13
3173.5527649999999
 23
1572.0890966362711
 33
0.0
 14
3477.5527649999999
 24
1692.4888539999999
 34
0.0
1001
ACAD
1000
DSTYLE
1002
{
1070
   287
1070
     4
1070
    40
1040
20.0
1070
    75
1070
     1
1070
   143
1040
0.039
1070
   172
1070
     1
1070
   271
1070
     0
1070
   279
1070
     1
1070
   288
1070
     1
1002
}
  0
LINE
  5
7C09
  8
1
  6
CONTINUOUS
 10
3354.552764999999
 20
2472.4888539999988
 30
0.0
 11
3354.552764999999
 21
1972.488853999999
 31
0.0
  0
DIMENSION
  5
7C1B
  8
3
  6
CONTINUOUS
  2
*D13
 10
3173.5527649999999
 20
2768.0438709999999
 30
0.0
 11
3264.0527649999999
 21
2827.1355502501701
 31
0.0
 70
   128
 13
3354.552764999999
 23
2472.4888539999988
 33
0.0
 14
3173.5527649999999
 24
2714.199775
 34
0.0
1001
ACAD
1000
DSTYLE
1002
{
1070
   288
1070
     1
1070
   172
1070
     1
1070
    40
1040
20.0
1070
   271
1070
     0
1070
   143
1040
0.039
1002
}
  0
DIMENSION
  5
7C27
  8
3
  6
CONTINUOUS
  2
*D14
 10
2803.5527649999999
 20
2768.0438709999999
 30
0.0
 11
2988.5527649999999
 21
2868.0438709999999
 31
0.0
 70
     0
  1
MAX\P430
 13
3173.5527649999999
 23
2714.199775
 33
0.0
 14
2803.5527649999999
 24
2557.4888539999988
 34
0.0
1001
ACAD
1000
DSTYLE
1002
{
1070
   287
1070
     4
1070
    40
1040
20.0
1070
    75
1070
     1
1070
   143
1040
0.039
1070
   172
1070
     1
1070
   271
1070
     0
1070
   279
1070
     1
1070
   288
1070
     1
1002
}
  0
DIMENSION
  5
7C34
  8
3
  6
CONTINUOUS
  2
*D15
 10
3512.3177959999998
 20
1972.488853999999
 30
0.0
 11
3512.3177959999998
 21
2207.9406960000001
 31
0.0
 70
   128
 13
3354.552764999999
 23
2472.4888539999988
 33
0.0
 14
3354.552764999999
 24
1972.488853999999
 34
0.0
 50
90.0
1001
ACAD
1000
DSTYLE
1002
{
1070
   287
1070
     3
1070
     3
1000
φ<>
1070
    40
1040
20.0
1070
   143
1040
0.039
1070
   172
1070
     1
1070
   271
1070
     0
1070
   279
1070
     0
1070
   288
1070
     1
1002
}
  0
DIMENSION
  5
7C41
  8
3
  6
CONTINUOUS
  2
*D16
 10
1930.782207
 20
4107.1261320000003
 30
0.0
 11
1364.1803179999999
 21
4107.1261320000003
 31
0.0
 70
   128
 13
810.78220699999997
 23
4078.8888539999998
 33
0.0
 14
1930.782207
 24
4078.8888539999998
 34
0.0
1001
ACAD
1000
DSTYLE
1002
{
1070
   287
1070
     3
1070
    40
1040
20.0
1070
   143
1040
0.039
1070
   172
1070
     1
1070
   271
1070
     0
1070
   279
1070
     0
1070
   288
1070
     1
1002
}
  0
DIMENSION
  5
7C5B
  8
3
  6
CONTINUOUS
  2
*D17
 10
2123.6001900000001
 20
3388.8888539999989
 30
0.0
 11
2123.6001899999992
 21
3756.971571
 31
0.0
 70
   128
 13
1930.782207
 23
4078.8888539999998
 33
0.0
 14
1930.782207
 24
3388.8888539999989
 34
0.0
 50
90.0
1001
ACAD
1000
DSTYLE
1002
{
1070
   287
1070
     3
1070
    40
1040
20.0
1070
   143
1040
0.039
1070
   172
1070
     1
1070
   271
1070
     0
1070
   279
1070
     0
1070
   288
1070
     1
1002
}
  0
DIMENSION
  5
7DA1
  8
3
  2
*D18
 10
810.7822070000002
 20
2946.1995125176832
 30
0.0
 11
1434.5961089714469
 21
2946.1995125176832
 31
0.0
 70
   128
 13
1985.782207
 23
2532.4888539999988
 33
0.0
 14
810.78220699999997
 24
1812.4888539999999
 34
0.0
1001
ACAD
1000
DSTYLE
1002
{
1070
   287
1070
     3
1070
    40
1040
20.0
1070
   143
1040
0.039
1070
   172
1070
     1
1070
   271
1070
     0
1070
   279
1070
     0
1070
   288
1070
     1
1002
}
  0
ENDSEC
  0
EOF
