  0
SECTION
  2
HEADER
  9
$ACADVER
  1
AC1009
  9
$INSBASE
 10
0.0
 20
0.0
 30
0.0
  9
$EXTMIN
 10
500.0
 20
600.0
 30
0.0
  9
$EXTMAX
 10
3700.0
 20
5573.3045229999998
 30
0.0
  9
$LIMMIN
 10
0.0
 20
0.0
  9
$LIMMAX
 10
297.0
 20
210.0
  9
$ORTHOMODE
 70
     0
  9
$REGENMODE
 70
     1
  9
$FILLMODE
 70
     0
  9
$QTEXTMODE
 70
     0
  9
$MIRRTEXT
 70
     1
  9
$DRAGMODE
 70
     2
  9
$LTSCALE
 40
100.0
  9
$OSMODE
 70
    37
  9
$ATTMODE
 70
     1
  9
$TEXTSIZE
 40
180.0
  9
$TRACEWID
 40
0.05
  9
$TEXTSTYLE
  7
STANDARD
  9
$CLAYER
  8
3
  9
$CELTYPE
  6
BYLAYER
  9
$CECOLOR
 62
   256
  9
$DIMSCALE
 40
20.0
  9
$DIMASZ
 40
2.0
  9
$DIMEXO
 40
0.5
  9
$DIMDLI
 40
10.0
  9
$DIMRND
 40
0.0
  9
$DIMDLE
 40
0.0
  9
$DIMEXE
 40
1.0
  9
$DIMTP
 40
1.0
  9
$DIMTM
 40
1.0
  9
$DIMTXT
 40
3.0
  9
$DIMCEN
 40
0.0
  9
$DIMTSZ
 40
0.0
  9
$DIMTOL
 70
     0
  9
$DIMLIM
 70
     0
  9
$DIMTIH
 70
     0
  9
$DIMTOH
 70
     0
  9
$DIMSE1
 70
     0
  9
$DIMSE2
 70
     0
  9
$DIMTAD
 70
     1
  9
$DIMZIN
 70
     8
  9
$DIMBLK
  1

  9
$DIMASO
 70
     1
  9
$DIMSHO
 70
     1
  9
$DIMPOST
  1

  9
$DIMAPOST
  1

  9
$DIMALT
 70
     0
  9
$DIMALTD
 70
     2
  9
$DIMALTF
 40
0.039
  9
$DIMLFAC
 40
1.0
  9
$DIMTOFL
 70
     1
  9
$DIMTVP
 40
0.0
  9
$DIMTIX
 70
     0
  9
$DIMSOXD
 70
     0
  9
$DIMSAH
 70
     1
  9
$DIMBLK1
  1
OPEN
  9
$DIMBLK2
  1
OPEN
  9
$DIMSTYLE
  2
IGA
  9
$DIMCLRD
 70
     0
  9
$DIMCLRE
 70
     0
  9
$DIMCLRT
 70
     0
  9
$DIMTFAC
 40
10.0
  9
$DIMGAP
 40
1.0
  9
$LUNITS
 70
     2
  9
$LUPREC
 70
     3
  9
$SKETCHINC
 40
0.1
  9
$FILLETRAD
 40
50.0
  9
$AUNITS
 70
     0
  9
$AUPREC
 70
     0
  9
$MENU
  1
acad
  9
$ELEVATION
 40
0.0
  9
$PELEVATION
 40
0.0
  9
$THICKNESS
 40
0.0
  9
$LIMCHECK
 70
     0
  9
$BLIPMODE
 70
     0
  9
$CHAMFERA
 40
0.5
  9
$CHAMFERB
 40
0.5
  9
$SKPOLY
 70
     0
  9
$TDCREATE
 40
2450731.588353009
  9
$TDUPDATE
 40
2454953.7668182049
  9
$TDINDWG
 40
0.0056976505
  9
$TDUSRTIMER
 40
0.0056976505
  9
$USRTIMER
 70
     1
  9
$ANGBASE
 50
0.0
  9
$ANGDIR
 70
     0
  9
$PDMODE
 70
     0
  9
$PDSIZE
 40
0.0
  9
$PLINEWID
 40
0.0
  9
$COORDS
 70
     1
  9
$SPLFRAME
 70
     0
  9
$SPLINETYPE
 70
     6
  9
$SPLINESEGS
 70
     8
  9
$ATTDIA
 70
     0
  9
$ATTREQ
 70
     1
  9
$HANDLING
 70
 10241
  9
$HANDSEED
  5
7E42
  9
$SURFTAB1
 70
     6
  9
$SURFTAB2
 70
     6
  9
$SURFTYPE
 70
     6
  9
$SURFU
 70
     6
  9
$SURFV
 70
     6
  9
$UCSNAME
  2

  9
$UCSORG
 10
0.0
 20
0.0
 30
0.0
  9
$UCSXDIR
 10
1.0
 20
0.0
 30
0.0
  9
$UCSYDIR
 10
0.0
 20
1.0
 30
0.0
  9
$PUCSNAME
  2

  9
$PUCSORG
 10
0.0
 20
0.0
 30
0.0
  9
$PUCSXDIR
 10
1.0
 20
0.0
 30
0.0
  9
$PUCSYDIR
 10
0.0
 20
1.0
 30
0.0
  9
$USERI1
 70
     0
  9
$USERI2
 70
     0
  9
$USERI3
 70
     0
  9
$USERI4
 70
     0
  9
$USERI5
 70
     0
  9
$USERR1
 40
0.0
  9
$USERR2
 40
0.0
  9
$USERR3
 40
0.0
  9
$USERR4
 40
0.0
  9
$USERR5
 40
0.0
  9
$WORLDVIEW
 70
     1
  9
$SHADEDGE
 70
     3
  9
$SHADEDIF
 70
    70
  9
$TILEMODE
 70
     1
  9
$MAXACTVP
 70
    16
  9
$PLIMCHECK
 70
     0
  9
$PEXTMIN
 10
1.0000000000000000E+020
 20
1.0000000000000000E+020
 30
1.0000000000000000E+020
  9
$PEXTMAX
 10
-1.0000000000000000E+020
 20
-1.0000000000000000E+020
 30
-1.0000000000000000E+020
  9
$PLIMMIN
 10
0.0
 20
0.0
  9
$PLIMMAX
 10
12.0
 20
9.0
  9
$UNITMODE
 70
     0
  9
$VISRETAIN
 70
     0
  9
$PLINEGEN
 70
     0
  9
$PSLTSCALE
 70
     1
  0
ENDSEC
  0
SECTION
  2
TABLES
  0
TABLE
  2
VPORT
 70
     2
  0
VPORT
  2
*ACTIVE
 70
     0
 10
0.0
 20
0.0
 11
1.0
 21
1.0
 12
6292.1124769529506
 22
3086.6374998146398
 13
0.0
 23
0.0
 14
10.0
 24
10.0
 15
10.0
 25
10.0
 16
0.0
 26
0.0
 36
1.0
 17
0.0
 27
0.0
 37
0.0
 40
5011.4968576296578
 41
3.1666666666666661
 42
50.0
 43
0.0
 44
0.0
 50
0.0
 51
0.0
 71
     0
 72
   100
 73
     1
 74
     0
 75
     0
 76
     0
 77
     0
 78
     0
  0
ENDTAB
  0
TABLE
  2
LTYPE
 70
     2
  0
LTYPE
  2
CONTINUOUS
 70
     0
  3
Solid line
 72
    65
 73
     0
 40
0.0
  0
LTYPE
  2
CENTER
 70
     0
  3
____ _ ____ _ ____ _ ____ _ ____ _ ____ _ ____ 
 72
    65
 73
     4
 40
2.0
 49
1.25
 49
-0.25
 49
0.25
 49
-0.25
  0
ENDTAB
  0
TABLE
  2
LAYER
 70
     6
  0
LAYER
  2
0
 70
     0
 62
     7
  6
CONTINUOUS
  0
LAYER
  2
3
 70
     0
 62
     2
  6
CONTINUOUS
  0
LAYER
  2
2
 70
     0
 62
     3
  6
CENTER
  0
LAYER
  2
1
 70
     0
 62
     4
  6
CONTINUOUS
  0
LAYER
  2
4
 70
     0
 62
     7
  6
CONTINUOUS
  0
LAYER
  2
DEFPOINTS
 70
     0
 62
     7
  6
CONTINUOUS
  0
ENDTAB
  0
TABLE
  2
STYLE
 70
     1
  0
STYLE
  2
STANDARD
 70
     0
 40
0.0
 41
1.0
 50
0.0
 71
     0
 42
180.0
  3
simplex.shx
  4
extfont.shx
  0
ENDTAB
  0
TABLE
  2
VIEW
 70
     0
  0
ENDTAB
  0
TABLE
  2
UCS
 70
     0
  0
ENDTAB
  0
TABLE
  2
APPID
 70
     1
  0
APPID
  2
ACAD
 70
     0
  0
ENDTAB
  0
TABLE
  2
DIMSTYLE
 70
     1
  0
DIMSTYLE
  2
IGA
 70
     0
  3

  4

  5

  6
OPEN
  7
OPEN
 40
2.0
 41
2.0
 42
0.5
 43
10.0
 44
1.0
 45
0.0
 46
0.0
 47
1.0
 48
1.0
140
3.0
141
0.0
142
0.0
143
0.03937
144
1.0
145
0.0
146
10.0
147
1.0
 71
     0
 72
     0
 73
     0
 74
     0
 75
     0
 76
     0
 77
     1
 78
     8
170
     0
171
     2
172
     0
173
     1
174
     0
175
     0
176
     0
177
     0
178
     0
  0
ENDTAB
  0
ENDSEC
  0
SECTION
  2
BLOCKS
  0
BLOCK
  8
0
  2
$MODEL_SPACE
 70
     0
 10
0.0
 20
0.0
 30
0.0
  3
$MODEL_SPACE
  1

  0
ENDBLK
  5
1B
  8
0
  0
BLOCK
 67
     1
  8
0
  2
$PAPER_SPACE
 70
     0
 10
0.0
 20
0.0
 30
0.0
  3
$PAPER_SPACE
  1

  0
ENDBLK
  5
18
 67
     1
  8
0
  0
BLOCK
  8
0
  2
_OPEN
 70
     0
 10
0.0
 20
0.0
 30
0.0
  3
_OPEN
  1

  0
LINE
  5
7B12
  8
0
  6
BYBLOCK
 62
     0
 10
-1.0
 20
0.166667
 30
0.0
 11
0.0
 21
0.0
 31
0.0
  0
LINE
  5
7B13
  8
0
  6
BYBLOCK
 62
     0
 10
0.0
 20
0.0
 30
0.0
 11
-1.0
 21
-0.166667
 31
0.0
  0
LINE
  5
7B14
  8
0
  6
BYBLOCK
 62
     0
 10
0.0
 20
0.0
 30
0.0
 11
-1.0
 21
0.0
 31
0.0
  0
ENDBLK
  5
7B15
  8
0
  0
BLOCK
  8
0
  2
*D1
 70
     1
 10
0.0
 20
0.0
 30
0.0
  3
*D1
  1

  0
LINE
  5
7D9A
  8
3
  6
CONTINUOUS
 62
     0
 10
1923.374163
 20
2856.297231
 30
0.0
 11
2074.6105830000001
 21
2856.297231
 31
0.0
  0
LINE
  5
7D9B
  8
3
  6
CONTINUOUS
 62
     0
 10
1923.374163
 20
2376.297231
 30
0.0
 11
2074.6105830000001
 21
2376.297231
 31
0.0
  0
LINE
  5
7D9C
  8
3
  6
CONTINUOUS
 62
     0
 10
2054.6105830000001
 20
2816.297231
 30
0.0
 11
2054.6105830000001
 21
2416.297231
 31
0.0
  0
INSERT
  5
7D9D
  8
3
  6
CONTINUOUS
 62
     0
  2
_OPEN
 10
2054.6105830000001
 20
2856.297231
 30
0.0
 41
40.0
 42
40.0
 43
40.0
 50
90.0
  0
INSERT
  5
7D9E
  8
3
  6
CONTINUOUS
 62
     0
  2
_OPEN
 10
2054.6105830000001
 20
2376.297231
 30
0.0
 41
40.0
 42
40.0
 43
40.0
 50
270.0
  0
TEXT
  8
3
  40
60
  5
7E30
  62
0
  72
0
  71
0
 10
1884.61
 20
2473.53
 30
0.000000
  1
480
  0
POINT
  5
7DA0
  8
DEFPOINTS
  6
CONTINUOUS
 62
     0
 10
1913.374163
 20
2856.297231
 30
0.0
  0
POINT
  5
7DA1
  8
DEFPOINTS
  6
CONTINUOUS
 62
     0
 10
1913.374163
 20
2376.297231
 30
0.0
  0
POINT
  5
7DA2
  8
DEFPOINTS
  6
CONTINUOUS
 62
     0
 10
2054.6105830000001
 20
2376.297231
 30
0.0
  0
ENDBLK
  5
7BAE
  8
0
  0
BLOCK
  8
0
  2
*D2
 70
     1
 10
0.0
 20
0.0
 30
0.0
  3
*D2
  1

  0
LINE
  5
7DA3
  8
3
  6
CONTINUOUS
 62
     0
 10
1923.374163
 20
2856.297231
 30
0.0
 11
2211.5831699999999
 21
2856.297231
 31
0.0
  0
LINE
  5
7DA4
  8
3
  6
CONTINUOUS
 62
     0
 10
2028.448576
 20
2394.297231
 30
0.0
 11
2211.5831699999999
 21
2394.297231
 31
0.0
  0
LINE
  5
7DA5
  8
3
  6
CONTINUOUS
 62
     0
 10
2191.5831699999999
 20
2816.297231
 30
0.0
 11
2191.5831699999999
 21
2434.297231
 31
0.0
  0
INSERT
  5
7DA6
  8
3
  6
CONTINUOUS
 62
     0
  2
_OPEN
 10
2191.5831699999999
 20
2856.297231
 30
0.0
 41
40.0
 42
40.0
 43
40.0
 50
90.0
  0
INSERT
  5
7DA7
  8
3
  6
CONTINUOUS
 62
     0
  2
_OPEN
 10
2191.5831699999999
 20
2394.297231
 30
0.0
 41
40.0
 42
40.0
 43
40.0
 50
270.0
  0
TEXT
  8
3
  40
60
  5
7E31
  62
0
  72
0
  71
0
 10
2021.58
 20
2473.53
 30
0.000000
  1
462
  0
POINT
  5
7DA9
  8
DEFPOINTS
  6
CONTINUOUS
 62
     0
 10
1913.374163
 20
2856.297231
 30
0.0
  0
POINT
  5
7DAA
  8
DEFPOINTS
  6
CONTINUOUS
 62
     0
 10
2018.448576
 20
2394.297231
 30
0.0
  0
POINT
  5
7DAB
  8
DEFPOINTS
  6
CONTINUOUS
 62
     0
 10
2191.5831699999999
 20
2394.297231
 30
0.0
  0
ENDBLK
  5
7BCE
  8
0
  0
BLOCK
  8
0
  2
*D3
 70
     1
 10
0.0
 20
0.0
 30
0.0
  3
*D3
  1

  0
LINE
  5
7DAC
  8
3
  6
CONTINUOUS
 62
     0
 10
1868.374163
 20
1959.2972309999991
 30
0.0
 11
2211.583169999999
 21
1959.2972309999991
 31
0.0
  0
LINE
  5
7DAD
  8
3
  6
CONTINUOUS
 62
     0
 10
2191.583169999999
 20
2354.2972309999991
 30
0.0
 11
2191.583169999999
 21
1999.2972309999991
 31
0.0
  0
INSERT
  5
7DAE
  8
3
  6
CONTINUOUS
 62
     0
  2
_OPEN
 10
2191.583169999999
 20
2394.297231
 30
0.0
 41
40.0
 42
40.0
 43
40.0
 50
90.0
  0
INSERT
  5
7DAF
  8
3
  6
CONTINUOUS
 62
     0
  2
_OPEN
 10
2191.583169999999
 20
1959.2972309999991
 30
0.0
 41
40.0
 42
40.0
 43
40.0
 50
270.0
  0
TEXT
  8
3
  40
60
  5
7E32
  62
0
  72
0
  71
0
 10
2021.58
 20
2070.60
 30
0.000000
  1
435
  0
POINT
  5
7DB1
  8
DEFPOINTS
  6
CONTINUOUS
 62
     0
 10
2018.448576
 20
2394.297231
 30
0.0
  0
POINT
  5
7DB2
  8
DEFPOINTS
  6
CONTINUOUS
 62
     0
 10
1858.374162999999
 20
1959.2972309999991
 30
0.0
  0
POINT
  5
7DB3
  8
DEFPOINTS
  6
CONTINUOUS
 62
     0
 10
2191.583169999999
 20
1959.2972309999991
 30
0.0
  0
ENDBLK
  5
7B3B
  8
0
  0
BLOCK
  8
0
  2
*D4
 70
     1
 10
0.0
 20
0.0
 30
0.0
  3
*D4
  1

  0
LINE
  5
7DB4
  8
3
  6
CONTINUOUS
 62
     0
 10
1868.374163
 20
1959.2972309999991
 30
0.0
 11
2211.1306890000001
 21
1959.2972309999991
 31
0.0
  0
LINE
  5
7DB5
  8
3
  6
CONTINUOUS
 62
     0
 10
1868.374163
 20
1919.2972309999991
 30
0.0
 11
2211.1306890000001
 21
1919.2972309999991
 31
0.0
  0
LINE
  5
7DB6
  8
3
  6
CONTINUOUS
 62
     0
 10
2191.1306890000001
 20
1999.2972309999991
 30
0.0
 11
2191.1306890000001
 21
2039.2972309999991
 31
0.0
  0
LINE
  5
7DB7
  8
3
  6
CONTINUOUS
 62
     0
 10
2191.1306890000001
 20
1879.2972309999991
 30
0.0
 11
2191.1306890000001
 21
1702.154373857142
 31
0.0
  0
LINE
  5
7DB8
  8
3
  6
CONTINUOUS
 62
     0
 10
2191.1306890000001
 20
1959.2972309999991
 30
0.0
 11
2191.1306890000001
 21
1919.2972309999991
 31
0.0
  0
INSERT
  5
7DB9
  8
3
  6
CONTINUOUS
 62
     0
  2
_OPEN
 10
2191.1306890000001
 20
1959.2972309999991
 30
0.0
 41
40.0
 42
40.0
 43
40.0
 50
270.0
  0
INSERT
  5
7DBA
  8
3
  6
CONTINUOUS
 62
     0
  2
_OPEN
 10
2191.1306890000001
 20
1919.2972309999991
 30
0.0
 41
40.0
 42
40.0
 43
40.0
 50
90.0
  0
TEXT
  8
3
  40
60
  5
7E33
  62
0
  72
0
  71
0
 10
2021.13
 20
1664.53
 30
0.000000
  1
40
  0
POINT
  5
7DBC
  8
DEFPOINTS
  6
CONTINUOUS
 62
     0
 10
1858.374162999999
 20
1959.2972309999991
 30
0.0
  0
POINT
  5
7DBD
  8
DEFPOINTS
  6
CONTINUOUS
 62
     0
 10
1858.374162999999
 20
1919.2972309999991
 30
0.0
  0
POINT
  5
7DBE
  8
DEFPOINTS
  6
CONTINUOUS
 62
     0
 10
2191.1306890000001
 20
1919.2972309999991
 30
0.0
  0
ENDBLK
  5
7CEB
  8
0
  0
BLOCK
  8
0
  2
*D5
 70
     1
 10
0.0
 20
0.0
 30
0.0
  3
*D5
  1

  0
LINE
  5
7DBF
  8
3
  6
CONTINUOUS
 62
     0
 10
1923.374163
 20
2873.297231
 30
0.0
 11
2345.3826519999998
 21
2873.297231
 31
0.0
  0
LINE
  5
7DC0
  8
3
  6
CONTINUOUS
 62
     0
 10
1868.374163
 20
1919.2972309999991
 30
0.0
 11
2345.3826519999998
 21
1919.2972309999991
 31
0.0
  0
LINE
  5
7DC1
  8
3
  6
CONTINUOUS
 62
     0
 10
2325.3826519999998
 20
2833.297231
 30
0.0
 11
2325.3826519999998
 21
1959.2972309999991
 31
0.0
  0
INSERT
  5
7DC2
  8
3
  6
CONTINUOUS
 62
     0
  2
_OPEN
 10
2325.3826519999998
 20
2873.297231
 30
0.0
 41
40.0
 42
40.0
 43
40.0
 50
90.0
  0
INSERT
  5
7DC3
  8
3
  6
CONTINUOUS
 62
     0
  2
_OPEN
 10
2325.3826519999998
 20
1919.2972309999991
 30
0.0
 41
40.0
 42
40.0
 43
40.0
 50
270.0
  0
TEXT
  8
3
  40
60
  5
7E34
  62
0
  72
0
  71
0
 10
2155.38
 20
2313.10
 30
0.000000
  1
954
  0
POINT
  5
7DC5
  8
DEFPOINTS
  6
CONTINUOUS
 62
     0
 10
1913.374163
 20
2873.297231
 30
0.0
  0
POINT
  5
7DC6
  8
DEFPOINTS
  6
CONTINUOUS
 62
     0
 10
1858.374162999999
 20
1919.2972309999991
 30
0.0
  0
POINT
  5
7DC7
  8
DEFPOINTS
  6
CONTINUOUS
 62
     0
 10
2325.3826519999998
 20
1919.2972309999991
 30
0.0
  0
ENDBLK
  5
7CA6
  8
0
  0
BLOCK
  8
0
  2
*D6
 70
     1
 10
0.0
 20
0.0
 30
0.0
  3
*D6
  1

  0
LINE
  5
7DC8
  8
3
  6
CONTINUOUS
 62
     0
 10
1913.374163
 20
2883.297231
 30
0.0
 11
1913.374163
 21
2988.207453999999
 31
0.0
  0
LINE
  5
7DC9
  8
3
  6
CONTINUOUS
 62
     0
 10
1558.374163
 20
2945.7609089911248
 30
0.0
 11
1558.374163
 21
2988.207453999999
 31
0.0
  0
LINE
  5
7DCA
  8
3
  6
CONTINUOUS
 62
     0
 10
1873.374163
 20
2968.207453999999
 30
0.0
 11
1598.374163
 21
2968.207453999999
 31
0.0
  0
INSERT
  5
7DCB
  8
3
  6
CONTINUOUS
 62
     0
  2
_OPEN
 10
1913.374163
 20
2968.207453999999
 30
0.0
 41
40.0
 42
40.0
 43
40.0
  0
INSERT
  5
7DCC
  8
3
  6
CONTINUOUS
 62
     0
  2
_OPEN
 10
1558.374163
 20
2968.207453999999
 30
0.0
 41
40.0
 42
40.0
 43
40.0
 50
180.0
  0
TEXT
  8
3
  40
60
  5
7E35
  62
0
  72
0
  71
0
 10
1603.99
 20
2912.01
 30
0.000000
  1
355
  0
POINT
  5
7DCE
  8
DEFPOINTS
  6
CONTINUOUS
 62
     0
 10
1913.374163
 20
2873.297231
 30
0.0
  0
POINT
  5
7DCF
  8
DEFPOINTS
  6
CONTINUOUS
 62
     0
 10
1558.374163
 20
2935.7609089911261
 30
0.0
  0
POINT
  5
7DD0
  8
DEFPOINTS
  6
CONTINUOUS
 62
     0
 10
1558.374163
 20
2968.207453999999
 30
0.0
  0
ENDBLK
  5
7D17
  8
0
  0
BLOCK
  8
0
  2
*D7
 70
     1
 10
0.0
 20
0.0
 30
0.0
  3
*D7
  1

  0
LINE
  5
7DD1
  8
3
  6
CONTINUOUS
 62
     0
 10
1148.374163
 20
2759.297231
 30
0.0
 11
1148.374163
 21
2988.207453999999
 31
0.0
  0
LINE
  5
7DD2
  8
3
  6
CONTINUOUS
 62
     0
 10
1518.374163
 20
2968.207453999999
 30
0.0
 11
1188.374163
 21
2968.207453999999
 31
0.0
  0
INSERT
  5
7DD3
  8
3
  6
CONTINUOUS
 62
     0
  2
_OPEN
 10
1558.374163
 20
2968.207453999999
 30
0.0
 41
40.0
 42
40.0
 43
40.0
  0
INSERT
  5
7DD4
  8
3
  6
CONTINUOUS
 62
     0
  2
_OPEN
 10
1148.374163
 20
2968.207453999999
 30
0.0
 41
40.0
 42
40.0
 43
40.0
 50
180.0
  0
TEXT
  8
3
  40
60
  5
7E36
  62
0
  72
0
  71
0
 10
1233.37
 20
2912.01
 30
0.000000
  1
410
  0
POINT
  5
7DD6
  8
DEFPOINTS
  6
CONTINUOUS
 62
     0
 10
1558.374163
 20
2924.009564928002
 30
0.0
  0
POINT
  5
7DD7
  8
DEFPOINTS
  6
CONTINUOUS
 62
     0
 10
1148.374163
 20
2749.2972309999991
 30
0.0
  0
POINT
  5
7DD8
  8
DEFPOINTS
  6
CONTINUOUS
 62
     0
 10
1148.374163
 20
2968.207453999999
 30
0.0
  0
ENDBLK
  5
7D21
  8
0
  0
BLOCK
  8
0
  2
*D8
 70
     1
 10
0.0
 20
0.0
 30
0.0
  3
*D8
  1

  0
LINE
  5
7DD9
  8
3
  6
CONTINUOUS
 62
     0
 10
738.37416299999995
 20
1909.2972309999991
 30
0.0
 11
738.37416299999995
 21
1775.3899759999999
 31
0.0
  0
LINE
  5
7DDA
  8
3
  6
CONTINUOUS
 62
     0
 10
1558.374163
 20
1826.4284818100421
 30
0.0
 11
1558.374163
 21
1775.3899759999999
 31
0.0
  0
LINE
  5
7DDB
  8
3
  6
CONTINUOUS
 62
     0
 10
778.37416299999995
 20
1795.3899759999999
 30
0.0
 11
1518.374163
 21
1795.3899759999999
 31
0.0
  0
INSERT
  5
7DDC
  8
3
  6
CONTINUOUS
 62
     0
  2
_OPEN
 10
738.37416299999995
 20
1795.3899759999999
 30
0.0
 41
40.0
 42
40.0
 43
40.0
 50
180.0
  0
INSERT
  5
7DDD
  8
3
  6
CONTINUOUS
 62
     0
  2
_OPEN
 10
1558.374163
 20
1795.3899759999999
 30
0.0
 41
40.0
 42
40.0
 43
40.0
  0
TEXT
  8
3
  40
60
  5
7E37
  62
0
  72
0
  71
0
 10
1046.65
 20
1739.19
 30
0.000000
  1
820
  0
POINT
  5
7DDF
  8
DEFPOINTS
  6
CONTINUOUS
 62
     0
 10
738.37416299999995
 20
1919.2972309999991
 30
0.0
  0
POINT
  5
7DE0
  8
DEFPOINTS
  6
CONTINUOUS
 62
     0
 10
1558.374163
 20
1836.4284818100421
 30
0.0
  0
POINT
  5
7DE1
  8
DEFPOINTS
  6
CONTINUOUS
 62
     0
 10
1558.374163
 20
1795.3899759999999
 30
0.0
  0
ENDBLK
  5
7D41
  8
0
  0
BLOCK
  8
0
  2
*D9
 70
     1
 10
0.0
 20
0.0
 30
0.0
  3
*D9
  1

  0
LINE
  5
7DE2
  8
3
  6
CONTINUOUS
 62
     0
 10
3412.0992950336931
 20
2893.297231
 30
0.0
 11
3412.0992950336931
 21
2953.615472
 31
0.0
  0
LINE
  5
7DE3
  8
3
  6
CONTINUOUS
 62
     0
 10
3052.0992950336931
 20
2893.297231
 30
0.0
 11
3052.0992950336931
 21
2953.615472
 31
0.0
  0
LINE
  5
7DE4
  8
3
  6
CONTINUOUS
 62
     0
 10
3372.0992950336931
 20
2933.615471999999
 30
0.0
 11
3092.099295033694
 21
2933.615471999999
 31
0.0
  0
INSERT
  5
7DE5
  8
3
  6
CONTINUOUS
 62
     0
  2
_OPEN
 10
3412.0992950336931
 20
2933.615471999999
 30
0.0
 41
40.0
 42
40.0
 43
40.0
  0
INSERT
  5
7DE6
  8
3
  6
CONTINUOUS
 62
     0
  2
_OPEN
 10
3052.0992950336931
 20
2933.615471999999
 30
0.0
 41
40.0
 42
40.0
 43
40.0
 50
180.0
  0
TEXT
  8
3
  40
60
  5
7E38
  62
0
  72
0
  71
0
 10
3099.03
 20
2877.42
 30
0.000000
  1
360
  0
POINT
  5
7DE8
  8
DEFPOINTS
  6
CONTINUOUS
 62
     0
 10
3412.0992950336931
 20
2883.297231
 30
0.0
  0
POINT
  5
7DE9
  8
DEFPOINTS
  6
CONTINUOUS
 62
     0
 10
3052.0992950336931
 20
2883.297231
 30
0.0
  0
POINT
  5
7DEA
  8
DEFPOINTS
  6
CONTINUOUS
 62
     0
 10
3052.0992950336931
 20
2933.615471999999
 30
0.0
  0
ENDBLK
  5
7C16
  8
0
  0
BLOCK
  8
0
  2
*D10
 70
     1
 10
0.0
 20
0.0
 30
0.0
  3
*D10
  1

  0
LINE
  5
7DEB
  8
3
  6
CONTINUOUS
 62
     0
 10
2846.099295033694
 20
1909.2972309999991
 30
0.0
 11
2846.099295033694
 21
1771.7341349999999
 31
0.0
  0
LINE
  5
7DEC
  8
3
  6
CONTINUOUS
 62
     0
 10
3232.0992950336931
 20
1807.3941053809699
 30
0.0
 11
3232.0992950336931
 21
1771.7341349999999
 31
0.0
  0
LINE
  5
7DED
  8
3
  6
CONTINUOUS
 62
     0
 10
2886.0992950336931
 20
1791.7341349999999
 30
0.0
 11
3192.099295033694
 21
1791.7341349999999
 31
0.0
  0
INSERT
  5
7DEE
  8
3
  6
CONTINUOUS
 62
     0
  2
_OPEN
 10
2846.099295033694
 20
1791.7341349999999
 30
0.0
 41
40.0
 42
40.0
 43
40.0
 50
180.0
  0
INSERT
  5
7DEF
  8
3
  6
CONTINUOUS
 62
     0
  2
_OPEN
 10
3232.0992950336931
 20
1791.7341349999999
 30
0.0
 41
40.0
 42
40.0
 43
40.0
  0
TEXT
  8
3
  40
60
  5
7E39
  62
0
  72
0
  71
0
 10
2924.27
 20
1735.53
 30
0.000000
  1
386
  0
POINT
  5
7DF1
  8
DEFPOINTS
  6
CONTINUOUS
 62
     0
 10
2846.099295033694
 20
1919.2972309999991
 30
0.0
  0
POINT
  5
7DF2
  8
DEFPOINTS
  6
CONTINUOUS
 62
     0
 10
3232.0992950336931
 20
1817.3941053809699
 30
0.0
  0
POINT
  5
7DF3
  8
DEFPOINTS
  6
CONTINUOUS
 62
     0
 10
3232.0992950336931
 20
1791.7341349999999
 30
0.0
  0
ENDBLK
  5
7D6D
  8
0
  0
BLOCK
  8
0
  2
*D11
 70
     1
 10
0.0
 20
0.0
 30
0.0
  3
*D11
  1

  0
LINE
  5
7DF4
  8
3
  6
CONTINUOUS
 62
     0
 10
3536.0992950336931
 20
1909.2972309999991
 30
0.0
 11
3536.0992950336931
 21
1771.7341349999999
 31
0.0
  0
LINE
  5
7DF5
  8
3
  6
CONTINUOUS
 62
     0
 10
3272.0992950336931
 20
1791.7341349999999
 30
0.0
 11
3496.0992950336931
 21
1791.7341349999999
 31
0.0
  0
INSERT
  5
7DF6
  8
3
  6
CONTINUOUS
 62
     0
  2
_OPEN
 10
3232.0992950336931
 20
1791.7341349999999
 30
0.0
 41
40.0
 42
40.0
 43
40.0
 50
180.0
  0
INSERT
  5
7DF7
  8
3
  6
CONTINUOUS
 62
     0
  2
_OPEN
 10
3536.0992950336931
 20
1791.7341349999999
 30
0.0
 41
40.0
 42
40.0
 43
40.0
  0
TEXT
  8
3
  40
60
  5
7E3A
  62
0
  72
0
  71
0
 10
3264.10
 20
1735.53
 30
0.000000
  1
304
  0
POINT
  5
7DF9
  8
DEFPOINTS
  6
CONTINUOUS
 62
     0
 10
3232.0992950336931
 20
1817.3941053809699
 30
0.0
  0
POINT
  5
7DFA
  8
DEFPOINTS
  6
CONTINUOUS
 62
     0
 10
3536.0992950336931
 20
1919.2972309999991
 30
0.0
  0
POINT
  5
7DFB
  8
DEFPOINTS
  6
CONTINUOUS
 62
     0
 10
3536.0992950336931
 20
1791.7341349999999
 30
0.0
  0
ENDBLK
  5
7D62
  8
0
  0
BLOCK
  8
0
  2
*D12
 70
     1
 10
0.0
 20
0.0
 30
0.0
  3
*D12
  1

  0
LINE
  5
7DFC
  8
3
  6
CONTINUOUS
 62
     0
 10
3423.0992950336931
 20
2644.297231
 30
0.0
 11
3607.4381550336939
 21
2644.297231
 31
0.0
  0
LINE
  5
7DFD
  8
3
  6
CONTINUOUS
 62
     0
 10
3423.0992950336931
 20
2144.297231
 30
0.0
 11
3607.4381550336939
 21
2144.297231
 31
0.0
  0
LINE
  5
7DFE
  8
3
  6
CONTINUOUS
 62
     0
 10
3587.438155033693
 20
2604.297231
 30
0.0
 11
3587.438155033693
 21
2184.2972309999991
 31
0.0
  0
INSERT
  5
7DFF
  8
3
  6
CONTINUOUS
 62
     0
  2
_OPEN
 10
3587.438155033693
 20
2644.297231
 30
0.0
 41
40.0
 42
40.0
 43
40.0
 50
90.0
  0
INSERT
  5
7E00
  8
3
  6
CONTINUOUS
 62
     0
  2
_OPEN
 10
3587.438155033693
 20
2144.297231
 30
0.0
 41
40.0
 42
40.0
 43
40.0
 50
270.0
  0
TEXT
  8
3
  40
60
  5
7E3B
  62
0
  72
0
  71
0
 10
3417.44
 20
2275.35
 30
0.000000
  1
φ500
  0
POINT
  5
7E02
  8
DEFPOINTS
  6
CONTINUOUS
 62
     0
 10
3413.099295033694
 20
2644.297231
 30
0.0
  0
POINT
  5
7E03
  8
DEFPOINTS
  6
CONTINUOUS
 62
     0
 10
3413.099295033694
 20
2144.297231
 30
0.0
  0
POINT
  5
7E04
  8
DEFPOINTS
  6
CONTINUOUS
 62
     0
 10
3587.438155033693
 20
2144.297231
 30
0.0
  0
ENDBLK
  5
7D0C
  8
0
  0
BLOCK
  8
0
  2
*D13
 70
     1
 10
0.0
 20
0.0
 30
0.0
  3
*D13
  1

  0
LINE
  5
7CF8
  8
0
  6
BYBLOCK
 62
     0
 10
3413.099295033694
 20
2654.297231
 30
0.0
 11
3413.099295033694
 21
3076.2969320000002
 31
0.0
  0
LINE
  5
7CF9
  8
0
  6
BYBLOCK
 62
     0
 10
3232.0992950336931
 20
3020.999061
 30
0.0
 11
3232.0992950336931
 21
3076.2969320000002
 31
0.0
  0
LINE
  5
7CFA
  8
0
  6
BYBLOCK
 62
     0
 10
3373.0992950336931
 20
3056.2969320000002
 30
0.0
 11
3272.0992950336931
 21
3056.2969320000002
 31
0.0
  0
TEXT
  5
7CFB
  8
3
 62
     0
 10
3264.0278664622651
 20
3081.8545739928009
 30
0.0
 40
60.0
  1
181
  0
INSERT
  5
7CFC
  8
0
  6
BYBLOCK
 62
     0
  2
_OPEN
 10
3413.099295033694
 20
3056.2969320000002
 30
0.0
 41
40.0
 42
40.0
 43
40.0
  0
INSERT
  5
7CFD
  8
0
  6
BYBLOCK
 62
     0
  2
_OPEN
 10
3232.0992950336931
 20
3056.2969320000002
 30
0.0
 41
40.0
 42
40.0
 43
40.0
 50
180.0
  0
POINT
  5
7CFE
  8
DEFPOINTS
  6
BYBLOCK
 62
     0
 10
3413.099295033694
 20
2644.297231
 30
0.0
  0
POINT
  5
7CFF
  8
DEFPOINTS
  6
BYBLOCK
 62
     0
 10
3232.0992950336931
 20
3010.999061
 30
0.0
  0
POINT
  5
7D00
  8
DEFPOINTS
  6
BYBLOCK
 62
     0
 10
3232.0992950336931
 20
3056.2969320000002
 30
0.0
  0
ENDBLK
  5
7D01
  8
0
  0
BLOCK
  8
0
  2
*D14
 70
     1
 10
0.0
 20
0.0
 30
0.0
  3
*D14
  1

  0
LINE
  5
7E05
  8
3
  6
CONTINUOUS
 62
     0
 10
2862.099295033694
 20
2794.297231
 30
0.0
 11
2862.099295033694
 21
3076.2969320000002
 31
0.0
  0
LINE
  5
7E06
  8
3
  6
CONTINUOUS
 62
     0
 10
3192.099295033694
 20
3056.2969320000002
 30
0.0
 11
2902.0992950336931
 21
3056.2969320000002
 31
0.0
  0
INSERT
  5
7E07
  8
3
  6
CONTINUOUS
 62
     0
  2
_OPEN
 10
3232.0992950336931
 20
3056.2969320000002
 30
0.0
 41
40.0
 42
40.0
 43
40.0
  0
INSERT
  5
7E08
  8
3
  6
CONTINUOUS
 62
     0
  2
_OPEN
 10
2862.099295033694
 20
3056.2969320000002
 30
0.0
 41
40.0
 42
40.0
 43
40.0
 50
180.0
  0
TEXT
  8
3
  40
60
  5
7E3C
  62
0
  72
0
  71
0
 10
2927.10
 20
3050.10
 30
0.000000
  1
MAX
  0
TEXT
  8
3
  40
60
  5
7E3D
  62
0
  72
0
  71
0
 10
2927.10
 20
2972.10
 30
0.000000
  1
430
  0
POINT
  5
7E0A
  8
DEFPOINTS
  6
CONTINUOUS
 62
     0
 10
3232.0992950336931
 20
3010.999061
 30
0.0
  0
POINT
  5
7E0B
  8
DEFPOINTS
  6
CONTINUOUS
 62
     0
 10
2862.099295033694
 20
2784.297231
 30
0.0
  0
POINT
  5
7E0C
  8
DEFPOINTS
  6
CONTINUOUS
 62
     0
 10
2862.099295033694
 20
3056.2969320000002
 30
0.0
  0
ENDBLK
  5
7D77
  8
0
  0
BLOCK
  8
0
  2
*D15
 70
     1
 10
0.0
 20
0.0
 30
0.0
  3
*D15
  1

  0
LINE
  5
7E0D
  8
3
  6
CONTINUOUS
 62
     0
 10
738.37416299999995
 20
4311.4272309999997
 30
0.0
 11
738.37416299999995
 21
4430.7736369999993
 31
0.0
  0
LINE
  5
7E0E
  8
3
  6
CONTINUOUS
 62
     0
 10
1858.374162999999
 20
4311.4272309999997
 30
0.0
 11
1858.374162999999
 21
4430.7736369999993
 31
0.0
  0
LINE
  5
7E0F
  8
3
  6
CONTINUOUS
 62
     0
 10
778.37416299999995
 20
4410.7736369999993
 30
0.0
 11
1818.374163
 21
4410.7736369999993
 31
0.0
  0
INSERT
  5
7E10
  8
3
  6
CONTINUOUS
 62
     0
  2
_OPEN
 10
738.37416299999995
 20
4410.7736369999993
 30
0.0
 41
40.0
 42
40.0
 43
40.0
 50
180.0
  0
INSERT
  5
7E11
  8
3
  6
CONTINUOUS
 62
     0
  2
_OPEN
 10
1858.374162999999
 20
4410.7736369999993
 30
0.0
 41
40.0
 42
40.0
 43
40.0
  0
TEXT
  8
3
  40
60
  5
7E3E
  62
0
  72
0
  71
0
 10
1122.22
 20
4354.57
 30
0.000000
  1
1120
  0
POINT
  5
7E13
  8
DEFPOINTS
  6
CONTINUOUS
 62
     0
 10
738.37416299999995
 20
4301.4272309999997
 30
0.0
  0
POINT
  5
7E14
  8
DEFPOINTS
  6
CONTINUOUS
 62
     0
 10
1858.374162999999
 20
4301.4272309999997
 30
0.0
  0
POINT
  5
7E15
  8
DEFPOINTS
  6
CONTINUOUS
 62
     0
 10
1858.374162999999
 20
4410.7736369999993
 30
0.0
  0
ENDBLK
  5
7CD1
  8
0
  0
BLOCK
  8
0
  2
*D16
 70
     1
 10
0.0
 20
0.0
 30
0.0
  3
*D16
  1

  0
LINE
  5
7E16
  8
3
  6
CONTINUOUS
 62
     0
 10
1868.374163
 20
4301.4272309999997
 30
0.0
 11
2140.735287
 21
4301.4272309999988
 31
0.0
  0
LINE
  5
7E17
  8
3
  6
CONTINUOUS
 62
     0
 10
1868.374163
 20
3611.4272310000001
 30
0.0
 11
2140.735287
 21
3611.4272310000001
 31
0.0
  0
LINE
  5
7E18
  8
3
  6
CONTINUOUS
 62
     0
 10
2120.735287
 20
4261.4272309999988
 30
0.0
 11
2120.735287
 21
3651.4272310000001
 31
0.0
  0
INSERT
  5
7E19
  8
3
  6
CONTINUOUS
 62
     0
  2
_OPEN
 10
2120.735287
 20
4301.4272309999988
 30
0.0
 41
40.0
 42
40.0
 43
40.0
 50
90.0
  0
INSERT
  5
7E1A
  8
3
  6
CONTINUOUS
 62
     0
  2
_OPEN
 10
2120.735287
 20
3611.4272310000001
 30
0.0
 41
40.0
 42
40.0
 43
40.0
 50
270.0
  0
TEXT
  8
3
  40
60
  5
7E3F
  62
0
  72
0
  71
0
 10
1950.74
 20
3886.69
 30
0.000000
  1
690
  0
POINT
  5
7E1C
  8
DEFPOINTS
  6
CONTINUOUS
 62
     0
 10
1858.374162999999
 20
4301.4272309999997
 30
0.0
  0
POINT
  5
7E1D
  8
DEFPOINTS
  6
CONTINUOUS
 62
     0
 10
1858.374162999999
 20
3611.4272310000001
 30
0.0
  0
POINT
  5
7E1E
  8
DEFPOINTS
  6
CONTINUOUS
 62
     0
 10
2120.735287
 20
3611.4272310000001
 30
0.0
  0
ENDBLK
  5
7C5A
  8
0
  0
BLOCK
  8
0
  2
*D17
 70
     1
 10
0.0
 20
0.0
 30
0.0
  3
*D17
  1

  0
LINE
  5
7E1F
  8
3
  6
CONTINUOUS
 62
     0
 10
1858.374162999999
 20
1909.2972309999991
 30
0.0
 11
1858.374162999999
 21
1775.3899759999999
 31
0.0
  0
LINE
  5
7E20
  8
3
  6
CONTINUOUS
 62
     0
 10
1598.374163
 20
1795.3899759999999
 30
0.0
 11
1818.374163
 21
1795.3899759999999
 31
0.0
  0
INSERT
  5
7E21
  8
3
  6
CONTINUOUS
 62
     0
  2
_OPEN
 10
1558.374163
 20
1795.3899759999999
 30
0.0
 41
40.0
 42
40.0
 43
40.0
 50
180.0
  0
INSERT
  5
7E22
  8
3
  6
CONTINUOUS
 62
     0
  2
_OPEN
 10
1858.374162999999
 20
1795.3899759999999
 30
0.0
 41
40.0
 42
40.0
 43
40.0
  0
TEXT
  8
3
  40
60
  5
7E40
  62
0
  72
0
  71
0
 10
1588.37
 20
1739.19
 30
0.000000
  1
300
  0
POINT
  5
7E24
  8
DEFPOINTS
  6
CONTINUOUS
 62
     0
 10
1558.374163
 20
1839.09728888569
 30
0.0
  0
POINT
  5
7E25
  8
DEFPOINTS
  6
CONTINUOUS
 62
     0
 10
1858.374162999999
 20
1919.2972309999991
 30
0.0
  0
POINT
  5
7E26
  8
DEFPOINTS
  6
CONTINUOUS
 62
     0
 10
1858.374162999999
 20
1795.3899759999999
 30
0.0
  0
ENDBLK
  5
7D4B
  8
0
  0
BLOCK
  8
0
  2
*D18
 70
     1
 10
0.0
 20
0.0
 30
0.0
  3
*D18
  1

  0
LINE
  5
7E27
  8
3
 62
     0
 10
1913.374163
 20
2883.297231
 30
0.0
 11
1913.374163
 21
3112.8932627656359
 31
0.0
  0
LINE
  5
7E28
  8
3
 62
     0
 10
738.37416299999995
 20
2049.2972309999991
 30
0.0
 11
738.37416300000007
 21
3112.8932627656359
 31
0.0
  0
LINE
  5
7E29
  8
3
 62
     0
 10
1873.374163
 20
3092.8932627656359
 30
0.0
 11
778.37416299999995
 21
3092.8932627656359
 31
0.0
  0
INSERT
  5
7E2A
  8
3
 62
     0
  2
_OPEN
 10
1913.374163
 20
3092.8932627656359
 30
0.0
 41
40.0
 42
40.0
 43
40.0
  0
INSERT
  5
7E2B
  8
3
 62
     0
  2
_OPEN
 10
738.37416300000007
 20
3092.8932627656359
 30
0.0
 41
40.0
 42
40.0
 43
40.0
 50
180.0
  0
TEXT
  8
3
  40
60
  5
7E41
  62
0
  72
0
  71
0
 10
1240.76
 20
3036.69
 30
0.000000
  1
1175
  0
POINT
  5
7E2D
  8
DEFPOINTS
 62
     0
 10
1913.374163
 20
2873.297231
 30
0.0
  0
POINT
  5
7E2E
  8
DEFPOINTS
 62
     0
 10
738.37416299999995
 20
2039.2972309999991
 30
0.0
  0
POINT
  5
7E2F
  8
DEFPOINTS
 62
     0
 10
738.37416300000007
 20
3092.8932627656359
 30
0.0
  0
ENDBLK
  5
7D57
  8
0
  0
ENDSEC
  0
SECTION
  2
ENTITIES
  0
LINE
  5
7A77
  8
1
  6
CONTINUOUS
 10
738.37416299999995
 20
1959.2972309999991
 30
0.0
 11
1858.374162999999
 21
1959.2972309999991
 31
0.0
  0
LINE
  5
7A78
  8
1
  6
CONTINUOUS
 10
738.37416299999995
 20
2039.2972309999991
 30
0.0
 11
1868.374163
 21
2039.2972309999991
 31
0.0
  0
ARC
  5
7A79
  8
1
  6
CONTINUOUS
 10
955.09416299999998
 20
2221.297231
 30
0.0
 40
122.0
 50
324.60000000000002
 51
215.39999999999989
  0
LINE
  5
7A7A
  8
1
  6
CONTINUOUS
 10
825.09416299999987
 20
2089.297231
 30
0.0
 11
1085.0941629999991
 21
2089.297231
 31
0.0
  0
LINE
  5
7A7B
  8
1
  6
CONTINUOUS
 10
825.09416299999987
 20
2089.297231
 30
0.0
 11
875.09416300000009
 21
2089.297231
 31
0.0
  0
LINE
  5
7A7C
  8
1
  6
CONTINUOUS
 10
825.09416299999987
 20
2089.297231
 30
0.0
 11
855.64416300000005
 21
2150.6172309999988
 31
0.0
  0
LINE
  5
7A84
  8
1
  6
CONTINUOUS
 10
738.37416299999995
 20
2039.2972309999991
 30
0.0
 11
738.37416299999995
 21
1919.2972309999991
 31
0.0
  0
LINE
  5
7A85
  8
1
  6
CONTINUOUS
 10
738.37416299999995
 20
1919.2972309999991
 30
0.0
 11
778.37416299999995
 21
1919.2972309999991
 31
0.0
  0
LINE
  5
7A86
  8
1
  6
CONTINUOUS
 10
778.37416299999995
 20
1959.2972309999991
 30
0.0
 11
778.37416299999995
 21
1919.2972309999991
 31
0.0
  0
LINE
  5
7A87
  8
1
  6
CONTINUOUS
 10
825.09416299999987
 20
2039.2972309999991
 30
0.0
 11
825.09416299999987
 21
2089.297231
 31
0.0
  0
CIRCLE
  5
7A88
  8
1
  6
CONTINUOUS
 10
1558.374163
 20
2394.297231
 30
0.0
 40
275.0
  0
LINE
  5
7A89
  8
1
  6
CONTINUOUS
 10
1148.374163
 20
2749.2972309999991
 30
0.0
 11
1868.374163
 21
2749.2972309999991
 31
0.0
  0
ARC
  5
7A8A
  8
1
  6
CONTINUOUS
 10
1531.374163
 20
2421.297231
 30
0.0
 40
380.98000000000002
 50
184.83999999999989
 51
278.47000000000003
  0
ARC
  5
7A8B
  8
1
  6
CONTINUOUS
 10
1581.453792
 20
2424.7606489999989
 30
0.0
 40
431.17249299999992
 50
93.120533999999992
 51
184.73655500000001
  0
CIRCLE
  5
7A8C
  8
1
  6
CONTINUOUS
 10
1558.374163
 20
2394.297231
 30
0.0
 40
120.0
  0
LINE
  5
7A8D
  8
2
  6
CENTER
 10
858.48389404339468
 20
2394.297231
 30
0.0
 11
2018.448576
 21
2394.297231
 31
0.0
  0
LINE
  5
7A8E
  8
1
  6
CONTINUOUS
 10
936.28416300000004
 20
2277.087231
 30
0.0
 11
1514.2041630000001
 21
2505.8672309999988
 31
0.0
  0
LINE
  5
7A8F
  8
1
  6
CONTINUOUS
 10
1580.3841629999999
 20
2276.337231
 30
0.0
 11
969.38416300000006
 21
2162.317231
 31
0.0
  0
CIRCLE
  5
7A90
  8
1
  6
CONTINUOUS
 10
1558.374163
 20
2394.297231
 30
0.0
 40
250.0
  0
LINE
  5
7A91
  8
1
  6
CONTINUOUS
 10
1148.374163
 20
2749.2972309999991
 30
0.0
 11
1148.374163
 21
2039.2972309999991
 31
0.0
  0
LINE
  5
7A92
  8
2
  6
CENTER
 10
898.37416299999995
 20
2221.297231
 30
0.0
 11
1018.374163
 21
2221.297231
 31
0.0
  0
CIRCLE
  5
7A93
  8
1
  6
CONTINUOUS
 10
958.37416299999995
 20
2221.297231
 30
0.0
 40
60.0
  0
LINE
  5
7A94
  8
2
  6
CENTER
 10
958.37416299999995
 20
2161.297231
 30
0.0
 11
958.37416299999995
 21
2281.2972309999991
 31
0.0
  0
LINE
  5
7A95
  8
1
  6
CONTINUOUS
 10
1085.0941629999991
 20
2089.297231
 30
0.0
 11
1054.534163
 21
2150.6172309999988
 31
0.0
  0
LINE
  5
7A96
  8
1
  6
CONTINUOUS
 10
1085.0941629999991
 20
2039.2972309999991
 30
0.0
 11
1085.0941629999991
 21
2089.297231
 31
0.0
  0
LINE
  5
7A97
  8
1
  6
CONTINUOUS
 10
1085.0941629999991
 20
2089.297231
 30
0.0
 11
1035.0941629999991
 21
2089.297231
 31
0.0
  0
LINE
  5
7A98
  8
1
  6
CONTINUOUS
 10
1868.374163
 20
2749.2972309999991
 30
0.0
 11
1868.374163
 21
2039.2972309999991
 31
0.0
  0
ARC
  5
7A99
  8
1
  6
CONTINUOUS
 10
1527.9130189999989
 20
2383.1682230000001
 30
0.0
 40
343.89392400000003
 50
279.97638799999987
 51
358.85972099999998
  0
LINE
  5
7A9A
  8
2
  6
CENTER
 10
1558.374163
 20
4258.9218369866476
 30
0.0
 11
1558.374163
 21
3572.070154056918
 31
0.0
  0
LINE
  5
7A9B
  8
1
  6
CONTINUOUS
 10
1858.374162999999
 20
2039.2972309999991
 30
0.0
 11
1858.374162999999
 21
1919.2972309999991
 31
0.0
  0
LINE
  5
7A9C
  8
1
  6
CONTINUOUS
 10
1818.374163
 20
1959.2972309999991
 30
0.0
 11
1818.374163
 21
1919.2972309999991
 31
0.0
  0
LINE
  5
7A9D
  8
1
  6
CONTINUOUS
 10
1858.374162999999
 20
1919.2972309999991
 30
0.0
 11
1818.374163
 21
1919.2972309999991
 31
0.0
  0
LINE
  5
7A9E
  8
1
  6
CONTINUOUS
 10
1913.374163
 20
2856.297231
 30
0.0
 11
1557.9941630000001
 21
2855.297231
 31
0.0
  0
LINE
  5
7A9F
  8
1
  6
CONTINUOUS
 10
1913.374163
 20
2873.297231
 30
0.0
 11
1913.374163
 21
2359.297231
 31
0.0
  0
LINE
  5
7AA0
  8
1
  6
CONTINUOUS
 10
1888.374162999999
 20
2376.297231
 30
0.0
 11
1888.374162999999
 21
2856.2272309999998
 31
0.0
  0
LINE
  5
7AA1
  8
1
  6
CONTINUOUS
 10
1871.7441629999989
 20
2376.297231
 30
0.0
 11
1913.374163
 21
2376.297231
 31
0.0
  0
LINE
  5
7AA2
  8
1
  6
CONTINUOUS
 10
3052.0992950336931
 20
2349.2972309999991
 30
0.0
 11
3412.0992950336931
 21
2883.297231
 31
0.0
  0
LINE
  5
7AA3
  8
1
  6
CONTINUOUS
 10
3412.0992950336931
 20
2349.2972309999991
 30
0.0
 11
3052.0992950336931
 21
2883.297231
 31
0.0
  0
LINE
  5
7AA4
  8
1
  6
CONTINUOUS
 10
3412.0992950336931
 20
2883.297231
 30
0.0
 11
3052.0992950336931
 21
2883.297231
 31
0.0
  0
LINE
  5
7AA5
  8
1
  6
CONTINUOUS
 10
3052.0992950336931
 20
2349.2972309999991
 30
0.0
 11
3412.0992950336931
 21
2349.2972309999991
 31
0.0
  0
LINE
  5
7AA6
  8
1
  6
CONTINUOUS
 10
3008.0992950336931
 20
1959.2972309999991
 30
0.0
 11
3456.0992950336931
 21
1959.2972309999991
 31
0.0
  0
LINE
  5
7AA7
  8
1
  6
CONTINUOUS
 10
3008.0992950336931
 20
2039.2972309999991
 30
0.0
 11
3456.0992950336931
 21
2039.2972309999991
 31
0.0
  0
LINE
  5
7AA8
  8
1
  6
CONTINUOUS
 10
2846.099295033694
 20
1959.2972309999991
 30
0.0
 11
3536.0992950336931
 21
1959.2972309999991
 31
0.0
  0
LINE
  5
7AA9
  8
1
  6
CONTINUOUS
 10
2846.099295033694
 20
1919.2972309999991
 30
0.0
 11
3536.0992950336931
 21
1919.2972309999991
 31
0.0
  0
LINE
  5
7AAA
  8
1
  6
CONTINUOUS
 10
3008.0992950336931
 20
1959.2972309999991
 30
0.0
 11
3456.0992950336931
 21
1959.2972309999991
 31
0.0
  0
LINE
  5
7AAB
  8
1
  6
CONTINUOUS
 10
2952.0992950336931
 20
2274.2972309999991
 30
0.0
 11
2952.0992950336931
 21
2514.297231
 31
0.0
  0
LINE
  5
7AAC
  8
1
  6
CONTINUOUS
 10
3052.0992950336931
 20
2883.297231
 30
0.0
 11
3052.0992950336931
 21
2039.2972309999991
 31
0.0
  0
LINE
  5
7AAD
  8
1
  6
CONTINUOUS
 10
2892.0992950336931
 20
2514.297231
 30
0.0
 11
2892.0992950336931
 21
2274.2972309999991
 31
0.0
  0
LINE
  5
7AAE
  8
1
  6
CONTINUOUS
 10
2862.099295033694
 20
2039.2972309999991
 30
0.0
 11
2862.099295033694
 21
2784.297231
 31
0.0
  0
LINE
  5
7AAF
  8
1
  6
CONTINUOUS
 10
2982.0992950336931
 20
2784.297231
 30
0.0
 11
2982.0992950336931
 21
2039.2972309999991
 31
0.0
  0
LINE
  5
7AB0
  8
1
  6
CONTINUOUS
 10
2982.0992950336931
 20
2039.2972309999991
 30
0.0
 11
2862.099295033694
 21
2039.2972309999991
 31
0.0
  0
LINE
  5
7AB1
  8
1
  6
CONTINUOUS
 10
2846.099295033694
 20
1959.2972309999991
 30
0.0
 11
2846.099295033694
 21
1919.2972309999991
 31
0.0
  0
LINE
  5
7AB2
  8
1
  6
CONTINUOUS
 10
2952.0992950336931
 20
2202.297231
 30
0.0
 11
3052.0992950336931
 21
2202.297231
 31
0.0
  0
LINE
  5
7AB3
  8
1
  6
CONTINUOUS
 10
2952.0992950336931
 20
2240.297231
 30
0.0
 11
3052.0992950336931
 21
2240.297231
 31
0.0
  0
LINE
  5
7AB4
  8
1
  6
CONTINUOUS
 10
2952.0992950336931
 20
2274.2972309999991
 30
0.0
 11
2892.0992950336931
 21
2274.2972309999991
 31
0.0
  0
LINE
  5
7AB5
  8
1
  6
CONTINUOUS
 10
3008.0992950336931
 20
2039.2972309999991
 30
0.0
 11
3008.0992950336931
 21
1959.2972309999991
 31
0.0
  0
LINE
  5
7AB6
  8
1
  6
CONTINUOUS
 10
2892.0992950336931
 20
2171.297231
 30
0.0
 11
2952.0992950336931
 21
2171.297231
 31
0.0
  0
LINE
  5
7AB7
  8
1
  6
CONTINUOUS
 10
2952.0992950336931
 20
2271.297231
 30
0.0
 11
2892.0992950336931
 21
2271.297231
 31
0.0
  0
LINE
  5
7AB8
  8
1
  6
CONTINUOUS
 10
2892.0992950336931
 20
2271.297231
 30
0.0
 11
2892.0992950336931
 21
2171.297231
 31
0.0
  0
LINE
  5
7AB9
  8
1
  6
CONTINUOUS
 10
2952.0992950336931
 20
2171.297231
 30
0.0
 11
2952.0992950336931
 21
2271.297231
 31
0.0
  0
LINE
  5
7ABA
  8
1
  6
CONTINUOUS
 10
2862.099295033694
 20
2784.297231
 30
0.0
 11
2982.0992950336931
 21
2784.297231
 31
0.0
  0
LINE
  5
7ABB
  8
1
  6
CONTINUOUS
 10
2952.0992950336931
 20
2375.297231
 30
0.0
 11
3052.0992950336931
 21
2375.297231
 31
0.0
  0
LINE
  5
7ABC
  8
1
  6
CONTINUOUS
 10
2952.0992950336931
 20
2413.297231
 30
0.0
 11
3052.0992950336931
 21
2413.297231
 31
0.0
  0
LINE
  5
7ABD
  8
1
  6
CONTINUOUS
 10
2952.0992950336931
 20
2514.297231
 30
0.0
 11
2892.0992950336931
 21
2514.297231
 31
0.0
  0
LINE
  5
7ABE
  8
1
  6
CONTINUOUS
 10
3412.0992950336931
 20
2883.297231
 30
0.0
 11
3412.0992950336931
 21
2039.2972309999991
 31
0.0
  0
LINE
  5
7ABF
  8
1
  6
CONTINUOUS
 10
3456.0992950336931
 20
2039.2972309999991
 30
0.0
 11
3456.0992950336931
 21
1959.2972309999991
 31
0.0
  0
LINE
  5
7AC0
  8
1
  6
CONTINUOUS
 10
3536.0992950336931
 20
1959.2972309999991
 30
0.0
 11
3536.0992950336931
 21
1919.2972309999991
 31
0.0
  0
LINE
  5
7AC1
  8
1
  6
CONTINUOUS
 10
738.37416299999995
 20
4221.4272309999997
 30
0.0
 11
1858.374162999999
 21
4221.4272309999997
 31
0.0
  0
LINE
  5
7AC2
  8
1
  6
CONTINUOUS
 10
738.37416299999995
 20
3773.4272310000001
 30
0.0
 11
939.37416299999995
 21
3773.4272310000001
 31
0.0
  0
LINE
  5
7AC3
  8
1
  6
CONTINUOUS
 10
836.37416299999995
 20
3797.6672309999999
 30
0.0
 11
1080.374163
 21
3797.6672309999999
 31
0.0
  0
LINE
  5
7AC4
  8
1
  6
CONTINUOUS
 10
836.37416299999995
 20
4147.6672310000004
 30
0.0
 11
1080.374163
 21
4147.6672310000004
 31
0.0
  0
LINE
  5
7AC5
  8
1
  6
CONTINUOUS
 10
783.87416299999995
 20
3627.4272310000001
 30
0.0
 11
1783.874163
 21
3627.4272310000001
 31
0.0
  0
LINE
  5
7AC6
  8
1
  6
CONTINUOUS
 10
1783.874163
 20
3747.4272310000001
 30
0.0
 11
783.87416299999995
 21
3747.4272310000001
 31
0.0
  0
LINE
  5
7AC7
  8
1
  6
CONTINUOUS
 10
738.37416299999995
 20
4301.4272309999997
 30
0.0
 11
738.37416299999995
 21
3611.4272310000001
 31
0.0
  0
LINE
  5
7AC8
  8
1
  6
CONTINUOUS
 10
836.37416299999995
 20
3797.6672309999999
 30
0.0
 11
836.37416299999995
 21
4147.6672310000004
 31
0.0
  0
LINE
  5
7AC9
  8
1
  6
CONTINUOUS
 10
778.37416299999995
 20
3611.4272310000001
 30
0.0
 11
778.37416299999995
 21
3773.4272310000001
 31
0.0
  0
LINE
  5
7ACA
  8
1
  6
CONTINUOUS
 10
783.87416299999995
 20
3747.4272310000001
 30
0.0
 11
783.87416299999995
 21
3627.4272310000001
 31
0.0
  0
LINE
  5
7ACB
  8
1
  6
CONTINUOUS
 10
778.37416299999995
 20
3611.4272310000001
 30
0.0
 11
738.37416299999995
 21
3611.4272310000001
 31
0.0
  0
LINE
  5
7ACC
  8
1
  6
CONTINUOUS
 10
778.37416299999995
 20
4301.4272309999997
 30
0.0
 11
738.37416299999995
 21
4301.4272309999997
 31
0.0
  0
LINE
  5
7ACD
  8
1
  6
CONTINUOUS
 10
778.37416299999995
 20
4301.4272309999997
 30
0.0
 11
778.37416299999995
 21
4221.4272309999997
 31
0.0
  0
LINE
  5
7ACE
  8
1
  6
CONTINUOUS
 10
1438.374163
 20
3655.0972310000002
 30
0.0
 11
1678.374163
 21
3655.0972310000002
 31
0.0
  0
LINE
  5
7ACF
  8
1
  6
CONTINUOUS
 10
1150.1841629999999
 20
3815.4272310000001
 30
0.0
 11
1913.374163
 21
3815.4272310000001
 31
0.0
  0
LINE
  5
7AD0
  8
1
  6
CONTINUOUS
 10
1150.1841629999999
 20
4179.4272309999997
 30
0.0
 11
1913.374163
 21
4179.4272309999997
 31
0.0
  0
LINE
  5
7AD1
  8
1
  6
CONTINUOUS
 10
977.37416300000007
 20
3773.4272310000001
 30
0.0
 11
1539.374163
 21
3773.4272310000001
 31
0.0
  0
LINE
  5
7AD2
  8
1
  6
CONTINUOUS
 10
1678.374163
 20
3717.4272310000001
 30
0.0
 11
1438.374163
 21
3717.4272310000001
 31
0.0
  0
LINE
  5
7AD3
  8
1
  6
CONTINUOUS
 10
1150.1841629999999
 20
3815.4272310000001
 30
0.0
 11
1150.1841629999999
 21
4179.4272309999997
 31
0.0
  0
LINE
  5
7AD4
  8
1
  6
CONTINUOUS
 10
1080.374163
 20
3797.6672309999999
 30
0.0
 11
1080.374163
 21
4147.6672310000004
 31
0.0
  0
LINE
  5
7AD5
  8
1
  6
CONTINUOUS
 10
1008.374163
 20
3655.0972310000002
 30
0.0
 11
1008.374163
 21
3717.4272310000001
 31
0.0
  0
LINE
  5
7AD6
  8
1
  6
CONTINUOUS
 10
908.37416299999995
 20
3717.4272310000001
 30
0.0
 11
908.37416299999995
 21
3655.0972310000002
 31
0.0
  0
LINE
  5
7AD7
  8
1
  6
CONTINUOUS
 10
908.37416299999995
 20
3655.0972310000002
 30
0.0
 11
1008.374163
 21
3655.0972310000002
 31
0.0
  0
LINE
  5
7AD8
  8
1
  6
CONTINUOUS
 10
1008.374163
 20
3717.4272310000001
 30
0.0
 11
908.37416299999995
 21
3717.4272310000001
 31
0.0
  0
LINE
  5
7AD9
  8
1
  6
CONTINUOUS
 10
939.37416299999995
 20
3717.4272310000001
 30
0.0
 11
939.37416299999995
 21
3797.6672309999999
 31
0.0
  0
LINE
  5
7ADA
  8
1
  6
CONTINUOUS
 10
977.37416300000007
 20
3717.4272310000001
 30
0.0
 11
977.37416300000007
 21
3797.6672309999999
 31
0.0
  0
LINE
  5
7ADB
  8
1
  6
CONTINUOUS
 10
1438.374163
 20
3655.0972310000002
 30
0.0
 11
1438.374163
 21
3717.4272310000001
 31
0.0
  0
LINE
  5
7ADC
  8
1
  6
CONTINUOUS
 10
1888.374162999999
 20
3815.4272310000001
 30
0.0
 11
1888.374162999999
 21
4179.4272309999997
 31
0.0
  0
LINE
  5
7ADD
  8
1
  6
CONTINUOUS
 10
1913.374163
 20
3790.4272310000001
 30
0.0
 11
1913.374163
 21
4204.4272309999997
 31
0.0
  0
LINE
  5
7ADE
  8
1
  6
CONTINUOUS
 10
1577.374163
 20
3773.4272310000001
 30
0.0
 11
1858.374162999999
 21
3773.4272310000001
 31
0.0
  0
LINE
  5
7ADF
  8
1
  6
CONTINUOUS
 10
1678.374163
 20
3655.0972310000002
 30
0.0
 11
1678.374163
 21
3717.4272310000001
 31
0.0
  0
LINE
  5
7AE0
  8
1
  6
CONTINUOUS
 10
1577.374163
 20
3717.4272310000001
 30
0.0
 11
1577.374163
 21
3815.4272310000001
 31
0.0
  0
LINE
  5
7AE1
  8
1
  6
CONTINUOUS
 10
1539.374163
 20
3717.4272310000001
 30
0.0
 11
1539.374163
 21
3815.4272310000001
 31
0.0
  0
LINE
  5
7AE2
  8
1
  6
CONTINUOUS
 10
1858.374162999999
 20
3815.4272310000001
 30
0.0
 11
1858.374162999999
 21
3611.4272310000001
 31
0.0
  0
LINE
  5
7AE3
  8
1
  6
CONTINUOUS
 10
1818.374163
 20
3611.4272310000001
 30
0.0
 11
1818.374163
 21
3773.4272310000001
 31
0.0
  0
LINE
  5
7AE4
  8
1
  6
CONTINUOUS
 10
1783.874163
 20
3627.4272310000001
 30
0.0
 11
1783.874163
 21
3747.4272310000001
 31
0.0
  0
LINE
  5
7AE5
  8
1
  6
CONTINUOUS
 10
1818.374163
 20
3611.4272310000001
 30
0.0
 11
1858.374162999999
 21
3611.4272310000001
 31
0.0
  0
LINE
  5
7AE6
  8
1
  6
CONTINUOUS
 10
1858.374162999999
 20
4301.4272309999997
 30
0.0
 11
1858.374162999999
 21
4179.4272309999997
 31
0.0
  0
LINE
  5
7AE7
  8
1
  6
CONTINUOUS
 10
1818.374163
 20
4301.4272309999997
 30
0.0
 11
1858.374162999999
 21
4301.4272309999997
 31
0.0
  0
LINE
  5
7AE8
  8
1
  6
CONTINUOUS
 10
1818.374163
 20
4301.4272309999997
 30
0.0
 11
1818.374163
 21
4221.4272309999997
 31
0.0
  0
LINE
  5
7AE9
  8
2
  6
CENTER
 10
3232.0992950336931
 20
2918.1009909999998
 30
0.0
 11
3232.0992950336931
 21
1817.3941053809699
 31
0.0
  0
LINE
  5
7AEA
  8
2
  6
CENTER
 10
697.20389981580593
 20
3997.4272310000001
 30
0.0
 11
1944.1297028684639
 21
3997.4272310000001
 31
0.0
  0
LINE
  5
7AEB
  8
2
  6
CENTER
 10
1558.374163
 20
2917.1107572365631
 30
0.0
 11
1558.374163
 21
1836.4284818100421
 31
0.0
  0
LINE
  5
7AEC
  8
2
  6
CENTER
 10
2819.1829248048189
 20
2394.297231
 30
0.0
 11
3459.911925033693
 21
2394.297231
 31
0.0
  0
LINE
  5
7AED
  8
4
  6
CONTINUOUS
 10
3700.0
 20
1000.0
 30
0.0
 11
3700.0
 21
600.0
 31
0.0
  0
LINE
  5
7AEE
  8
4
  6
CONTINUOUS
 10
2300.0
 20
1000.0
 30
0.0
 11
2300.0
 21
600.0
 31
0.0
  0
LINE
  5
7AEF
  8
4
  6
CONTINUOUS
 10
1300.0
 20
1000.0
 30
0.0
 11
1300.0
 21
600.0
 31
0.0
  0
LINE
  5
7AF2
  8
4
  6
CONTINUOUS
 10
1300.0
 20
600.0
 30
0.0
 11
3700.0
 21
600.0
 31
0.0
  0
LINE
  5
7AF3
  8
4
  6
CONTINUOUS
 10
1300.0
 20
800.0
 30
0.0
 11
3700.0
 21
800.0
 31
0.0
  0
TEXT
  5
7AF4
  8
4
  6
CONTINUOUS
 10
1377.004162
 20
863.086052
 30
0.0
 40
100.0
  1
機器名称
  0
TEXT
  5
7AF5
  8
4
  6
CONTINUOUS
 10
1372.516212
 20
643.29031299999986
 30
0.0
 40
100.0
  1
機器型番
  0
TEXT
  5
7AF6
  8
4
  6
CONTINUOUS
 10
2355.3574910000002
 20
845.14353800000015
 30
0.0
 40
100.0
  1
ミツヤ多翼送風機
  0
TEXT
  5
7AF7
  8
4
  6
CONTINUOUS
 10
2373.3089909999999
 20
634.31916899999999
 30
0.0
 40
100.0
  1
MF#3-4
  0
TEXT
  5
7AF9
  8
4
  6
CONTINUOUS
 10
1715.4612799999991
 20
4766.8576830000002
 30
0.0
 40
108.0
  1
天井吊ベット
  0
TEXT
  5
7AFA
  8
4
  6
CONTINUOUS
 10
632.33518700000002
 20
5067.7619520000007
 30
0.0
 40
144.0
  1
ベルト駆動式片吸込両持多翼ファン
  0
LINE
  5
7AFB
  8
4
  6
CONTINUOUS
 10
500.0
 20
4938.8175090000004
 30
0.0
 11
3700.0
 21
4938.8175090000004
 31
0.0
  0
LINE
  5
7AFC
  8
4
  6
CONTINUOUS
 10
500.0
 20
5338.8175090000004
 30
0.0
 11
3700.0
 21
5338.8175090000004
 31
0.0
  0
LINE
  5
7AFD
  8
4
  6
CONTINUOUS
 10
1300.0
 20
1000.0
 30
0.0
 11
3700.0
 21
1000.0
 31
0.0
  0
LINE
  5
7AFE
  8
4
  6
CONTINUOUS
 10
500.0
 20
5338.8175090000004
 30
0.0
 11
500.0
 21
4938.8175090000004
 31
0.0
  0
TEXT
  5
7AFF
  8
4
  6
CONTINUOUS
 10
749.63339099999985
 20
4764.6389549999994
 30
0.0
 40
108.0
  1
右回転右横向
  0
TEXT
  5
7B00
  8
4
  6
CONTINUOUS
 10
2937.9391179999998
 20
5412.122163
 30
0.0
 40
112.0
  1
No.
  0
TEXT
  5
7B01
  8
4
  6
CONTINUOUS
 10
2622.5921250000001
 20
4766.8576830000002
 30
0.0
 40
108.0
  1
縮尺：1/20
  0
LINE
  5
7B02
  8
4
  6
CONTINUOUS
 10
3700.0
 20
5338.8175090000004
 30
0.0
 11
3700.0
 21
4938.8175090000004
 31
0.0
  0
LINE
  5
7B04
  8
4
  6
CONTINUOUS
 10
2881.234845
 20
5362.5271659999999
 30
0.0
 11
2881.234845
 21
5573.3045229999998
 31
0.0
  0
LINE
  5
7B05
  8
4
  6
CONTINUOUS
 10
2881.234845
 20
5573.3045229999998
 30
0.0
 11
3700.0
 21
5573.3045229999998
 31
0.0
  0
LINE
  5
7B06
  8
4
  6
CONTINUOUS
 10
3700.0
 20
5573.3045229999998
 30
0.0
 11
3700.0
 21
5362.5271659999999
 31
0.0
  0
LINE
  5
7B07
  8
4
  6
CONTINUOUS
 10
3700.0
 20
5362.5271659999999
 30
0.0
 11
2881.234845
 21
5362.5271659999999
 31
0.0
  0
LINE
  5
7B0C
  8
1
  6
CONTINUOUS
 10
1783.874163
 20
2039.2972309999991
 30
0.0
 11
1783.874163
 21
2709.297231
 31
0.0
  0
LINE
  5
7B0D
  8
1
  6
CONTINUOUS
 10
1783.874163
 20
2709.297231
 30
0.0
 11
1543.874163
 21
2784.297231
 31
0.0
  0
LINE
  5
7B0E
  8
1
  6
CONTINUOUS
 10
1543.874163
 20
2784.297231
 30
0.0
 11
783.87416299999995
 21
2274.2972309999991
 31
0.0
  0
LINE
  5
7B0F
  8
1
  6
CONTINUOUS
 10
783.87416299999995
 20
2274.2972309999991
 30
0.0
 11
783.87416299999995
 21
2039.2972309999991
 31
0.0
  0
DIMENSION
  5
7B23
  8
3
  6
CONTINUOUS
  2
*D1
 10
2054.6105830000001
 20
2376.297231
 30
0.0
 11
2054.6105830000001
 21
2579.7266180000001
 31
0.0
 70
   128
 13
1913.374163
 23
2856.297231
 33
0.0
 14
1913.374163
 24
2376.297231
 34
0.0
 50
90.0
1001
ACAD
1000
DSTYLE
1002
{
1070
   287
1070
     3
1070
    40
1040
20.0
1070
   143
1040
0.039
1070
   172
1070
     1
1070
   271
1070
     0
1070
   279
1070
     0
1070
   288
1070
     1
1002
}
  0
DIMENSION
  5
7B30
  8
3
  6
CONTINUOUS
  2
*D2
 10
2191.5831699999999
 20
2394.297231
 30
0.0
 11
2191.583169999999
 21
2579.7266180000001
 31
0.0
 70
   128
 13
1913.374163
 23
2856.297231
 33
0.0
 14
2018.448576
 24
2394.297231
 34
0.0
 50
90.0
1001
ACAD
1000
DSTYLE
1002
{
1070
   287
1070
     3
1070
    40
1040
20.0
1070
   143
1040
0.039
1070
   172
1070
     1
1070
   271
1070
     0
1070
   279
1070
     0
1070
   288
1070
     1
1002
}
  0
DIMENSION
  5
7B3C
  8
3
  6
CONTINUOUS
  2
*D3
 10
2191.583169999999
 20
1959.2972309999991
 30
0.0
 11
2141.583169999999
 21
2176.797231
 31
0.0
 70
     0
 13
2018.448576
 23
2394.297231
 33
0.0
 14
1858.374162999999
 24
1959.2972309999991
 34
0.0
 50
90.0
1001
ACAD
1000
DSTYLE
1002
{
1070
   287
1070
     4
1070
    40
1040
20.0
1070
    75
1070
     1
1070
   143
1040
0.039
1070
   172
1070
     1
1070
   271
1070
     0
1070
   279
1070
     1
1070
   288
1070
     1
1002
}
  0
DIMENSION
  5
7B4C
  8
3
  6
CONTINUOUS
  2
*D4
 10
2191.1306890000001
 20
1919.2972309999991
 30
0.0
 11
2191.1306890000001
 21
1770.7258024285709
 31
0.0
 70
   128
 13
1858.374162999999
 23
1959.2972309999991
 33
0.0
 14
1858.374162999999
 24
1919.2972309999991
 34
0.0
 50
90.0
1001
ACAD
1000
DSTYLE
1002
{
1070
   287
1070
     3
1070
    40
1040
20.0
1070
   143
1040
0.039
1070
   172
1070
     1
1070
   271
1070
     0
1070
   279
1070
     0
1070
   288
1070
     1
1002
}
  0
DIMENSION
  5
7B59
  8
3
  6
CONTINUOUS
  2
*D5
 10
2325.3826519999998
 20
1919.2972309999991
 30
0.0
 11
2325.3826519999989
 21
2419.2970070000001
 31
0.0
 70
   128
 13
1913.374163
 23
2873.297231
 33
0.0
 14
1858.374162999999
 24
1919.2972309999991
 34
0.0
 50
90.0
1001
ACAD
1000
DSTYLE
1002
{
1070
   287
1070
     3
1070
    40
1040
20.0
1070
   143
1040
0.039
1070
   172
1070
     1
1070
   271
1070
     0
1070
   279
1070
     0
1070
   288
1070
     1
1002
}
  0
DIMENSION
  5
7B73
  8
3
  6
CONTINUOUS
  2
*D6
 10
1558.374163
 20
2968.207453999999
 30
0.0
 11
1723.9870900000001
 21
2968.207453999999
 31
0.0
 70
   128
 13
1913.374163
 23
2873.297231
 33
0.0
 14
1558.374163
 24
2935.7609089911261
 34
0.0
1001
ACAD
1000
DSTYLE
1002
{
1070
   287
1070
     3
1070
    40
1040
20.0
1070
   143
1040
0.039
1070
   172
1070
     1
1070
   271
1070
     0
1070
   279
1070
     0
1070
   288
1070
     1
1002
}
  0
DIMENSION
  5
7B7F
  8
3
  6
CONTINUOUS
  2
*D7
 10
1148.374163
 20
2968.207453999999
 30
0.0
 11
1353.374163
 21
3018.2074539999999
 31
0.0
 70
     0
 13
1558.374163
 23
2924.009564928002
 33
0.0
 14
1148.374163
 24
2749.2972309999991
 34
0.0
1001
ACAD
1000
DSTYLE
1002
{
1070
   287
1070
     4
1070
    40
1040
20.0
1070
    75
1070
     1
1070
   143
1040
0.039
1070
   172
1070
     1
1070
   271
1070
     0
1070
   279
1070
     1
1070
   288
1070
     1
1002
}
  0
DIMENSION
  5
7B8C
  8
3
  6
CONTINUOUS
  2
*D8
 10
1558.374163
 20
1795.3899759999999
 30
0.0
 11
1166.6503250000001
 21
1795.3899759999999
 31
0.0
 70
   128
 13
738.37416299999995
 23
1919.2972309999991
 33
0.0
 14
1558.374163
 24
1836.4284818100421
 34
0.0
1001
ACAD
1000
DSTYLE
1002
{
1070
   287
1070
     3
1070
    40
1040
20.0
1070
   143
1040
0.039
1070
   172
1070
     1
1070
   271
1070
     0
1070
   279
1070
     0
1070
   288
1070
     1
1002
}
  0
DIMENSION
  5
7BE6
  8
3
  6
CONTINUOUS
  2
*D9
 10
3052.0992950336931
 20
2933.615471999999
 30
0.0
 11
3219.0290880336938
 21
2933.615471999999
 31
0.0
 70
   128
 13
3412.0992950336931
 23
2883.297231
 33
0.0
 14
3052.0992950336931
 24
2883.297231
 34
0.0
1001
ACAD
1000
DSTYLE
1002
{
1070
   287
1070
     3
1070
    40
1040
20.0
1070
   143
1040
0.039
1070
   172
1070
     1
1070
   271
1070
     0
1070
   279
1070
     0
1070
   288
1070
     1
1002
}
  0
DIMENSION
  5
7BF4
  8
3
  6
CONTINUOUS
  2
*D10
 10
3232.0992950336931
 20
1791.7341349999999
 30
0.0
 11
3044.2709550336931
 21
1791.7341349999999
 31
0.0
 70
   128
 13
2846.099295033694
 23
1919.2972309999991
 33
0.0
 14
3232.0992950336931
 24
1817.3941053809699
 34
0.0
1001
ACAD
1000
DSTYLE
1002
{
1070
   287
1070
     3
1070
    40
1040
20.0
1070
   143
1040
0.039
1070
   172
1070
     1
1070
   271
1070
     0
1070
   279
1070
     0
1070
   288
1070
     1
1002
}
  0
DIMENSION
  5
7C00
  8
3
  6
CONTINUOUS
  2
*D11
 10
3536.0992950336931
 20
1791.7341349999999
 30
0.0
 11
3384.099295033694
 21
1841.7341349999999
 31
0.0
 70
     0
 13
3232.0992950336931
 23
1817.3941053809699
 33
0.0
 14
3536.0992950336931
 24
1919.2972309999991
 34
0.0
1001
ACAD
1000
DSTYLE
1002
{
1070
   287
1070
     4
1070
    40
1040
20.0
1070
    75
1070
     1
1070
   143
1040
0.039
1070
   172
1070
     1
1070
   271
1070
     0
1070
   279
1070
     1
1070
   288
1070
     1
1002
}
  0
LINE
  5
7C17
  8
1
  6
CONTINUOUS
 10
3413.099295033694
 20
2644.297231
 30
0.0
 11
3413.099295033694
 21
2144.297231
 31
0.0
  0
DIMENSION
  5
7C26
  8
3
  6
CONTINUOUS
  2
*D12
 10
3587.438155033693
 20
2144.297231
 30
0.0
 11
3587.438155033693
 21
2381.548871
 31
0.0
 70
   128
 13
3413.099295033694
 23
2644.297231
 33
0.0
 14
3413.099295033694
 24
2144.297231
 34
0.0
 50
90.0
1001
ACAD
1000
DSTYLE
1002
{
1070
   287
1070
     3
1070
     3
1000
φ<>
1070
    40
1040
20.0
1070
   143
1040
0.039
1070
   172
1070
     1
1070
   271
1070
     0
1070
   279
1070
     0
1070
   288
1070
     1
1002
}
  0
DIMENSION
  5
7C35
  8
3
  6
CONTINUOUS
  2
*D13
 10
3232.0992950336931
 20
3056.2969320000002
 30
0.0
 11
3322.5992950336931
 21
3111.8545739928009
 31
0.0
 70
   128
 13
3413.099295033694
 23
2644.297231
 33
0.0
 14
3232.0992950336931
 24
3010.999061
 34
0.0
1001
ACAD
1000
DSTYLE
1002
{
1070
   288
1070
     1
1070
   172
1070
     1
1070
    40
1040
20.0
1070
   271
1070
     0
1070
   143
1040
0.039
1002
}
  0
DIMENSION
  5
7C41
  8
3
  6
CONTINUOUS
  2
*D14
 10
2862.099295033694
 20
3056.2969320000002
 30
0.0
 11
3047.0992950336931
 21
3156.2969320000002
 31
0.0
 70
     0
  1
MAX\P430
 13
3232.0992950336931
 23
3010.999061
 33
0.0
 14
2862.099295033694
 24
2784.297231
 34
0.0
1001
ACAD
1000
DSTYLE
1002
{
1070
   287
1070
     4
1070
    40
1040
20.0
1070
    75
1070
     1
1070
   143
1040
0.039
1070
   172
1070
     1
1070
   271
1070
     0
1070
   279
1070
     1
1070
   288
1070
     1
1002
}
  0
DIMENSION
  5
7C4E
  8
3
  6
CONTINUOUS
  2
*D15
 10
1858.374162999999
 20
4410.7736369999993
 30
0.0
 11
1242.221415
 21
4410.7736369999993
 31
0.0
 70
   128
 13
738.37416299999995
 23
4301.4272309999997
 33
0.0
 14
1858.374162999999
 24
4301.4272309999997
 34
0.0
1001
ACAD
1000
DSTYLE
1002
{
1070
   287
1070
     3
1070
    40
1040
20.0
1070
   143
1040
0.039
1070
   172
1070
     1
1070
   271
1070
     0
1070
   279
1070
     0
1070
   288
1070
     1
1002
}
  0
DIMENSION
  5
7C5B
  8
3
  6
CONTINUOUS
  2
*D16
 10
2120.735287
 20
3611.4272310000001
 30
0.0
 11
2120.735287
 21
3992.8873799999992
 31
0.0
 70
   128
 13
1858.374162999999
 23
4301.4272309999997
 33
0.0
 14
1858.374162999999
 24
3611.4272310000001
 34
0.0
 50
90.0
1001
ACAD
1000
DSTYLE
1002
{
1070
   287
1070
     3
1070
    40
1040
20.0
1070
   143
1040
0.039
1070
   172
1070
     1
1070
   271
1070
     0
1070
   279
1070
     0
1070
   288
1070
     1
1002
}
  0
DIMENSION
  5
7C6C
  8
3
  6
CONTINUOUS
  2
*D17
 10
1858.374162999999
 20
1795.3899759999999
 30
0.0
 11
1708.374163
 21
1845.3899759999999
 31
0.0
 70
     0
 13
1558.374163
 23
1839.09728888569
 33
0.0
 14
1858.374162999999
 24
1919.2972309999991
 34
0.0
1001
ACAD
1000
DSTYLE
1002
{
1070
   287
1070
     4
1070
    40
1040
20.0
1070
    75
1070
     1
1070
   143
1040
0.039
1070
   172
1070
     1
1070
   271
1070
     0
1070
   279
1070
     1
1070
   288
1070
     1
1002
}
  0
DIMENSION
  5
7D58
  8
3
  2
*D18
 10
738.37416300000007
 20
3092.8932627656359
 30
0.0
 11
1360.7639256886539
 21
3092.8932627656359
 31
0.0
 70
   128
 13
1913.374163
 23
2873.297231
 33
0.0
 14
738.37416299999995
 24
2039.2972309999991
 34
0.0
1001
ACAD
1000
DSTYLE
1002
{
1070
   287
1070
     3
1070
    40
1040
20.0
1070
   143
1040
0.039
1070
   172
1070
     1
1070
   271
1070
     0
1070
   279
1070
     0
1070
   288
1070
     1
1002
}
  0
ENDSEC
  0
EOF
