  0
SECTION
  2
HEADER
  9
$ACADVER
  1
AC1009
  9
$INSBASE
 10
0.0
 20
0.0
 30
0.0
  9
$EXTMIN
 10
500.0
 20
600.0
 30
0.0
  9
$EXTMAX
 10
3700.0
 20
5573.3045229999998
 30
0.0
  9
$LIMMIN
 10
0.0
 20
0.0
  9
$LIMMAX
 10
297.0
 20
210.0
  9
$ORTHOMODE
 70
     0
  9
$REGENMODE
 70
     1
  9
$FILLMODE
 70
     0
  9
$QTEXTMODE
 70
     0
  9
$MIRRTEXT
 70
     1
  9
$DRAGMODE
 70
     2
  9
$LTSCALE
 40
100.0
  9
$OSMODE
 70
    37
  9
$ATTMODE
 70
     1
  9
$TEXTSIZE
 40
180.0
  9
$TRACEWID
 40
0.05
  9
$TEXTSTYLE
  7
STANDARD
  9
$CLAYER
  8
3
  9
$CELTYPE
  6
BYLAYER
  9
$CECOLOR
 62
   256
  9
$DIMSCALE
 40
20.0
  9
$DIMASZ
 40
2.0
  9
$DIMEXO
 40
0.5
  9
$DIMDLI
 40
10.0
  9
$DIMRND
 40
0.0
  9
$DIMDLE
 40
0.0
  9
$DIMEXE
 40
1.0
  9
$DIMTP
 40
1.0
  9
$DIMTM
 40
1.0
  9
$DIMTXT
 40
3.0
  9
$DIMCEN
 40
0.0
  9
$DIMTSZ
 40
0.0
  9
$DIMTOL
 70
     0
  9
$DIMLIM
 70
     0
  9
$DIMTIH
 70
     0
  9
$DIMTOH
 70
     0
  9
$DIMSE1
 70
     0
  9
$DIMSE2
 70
     0
  9
$DIMTAD
 70
     1
  9
$DIMZIN
 70
     8
  9
$DIMBLK
  1

  9
$DIMASO
 70
     1
  9
$DIMSHO
 70
     1
  9
$DIMPOST
  1

  9
$DIMAPOST
  1

  9
$DIMALT
 70
     0
  9
$DIMALTD
 70
     2
  9
$DIMALTF
 40
0.039
  9
$DIMLFAC
 40
1.0
  9
$DIMTOFL
 70
     1
  9
$DIMTVP
 40
0.0
  9
$DIMTIX
 70
     0
  9
$DIMSOXD
 70
     0
  9
$DIMSAH
 70
     1
  9
$DIMBLK1
  1
OPEN
  9
$DIMBLK2
  1
OPEN
  9
$DIMSTYLE
  2
IGA
  9
$DIMCLRD
 70
     0
  9
$DIMCLRE
 70
     0
  9
$DIMCLRT
 70
     0
  9
$DIMTFAC
 40
10.0
  9
$DIMGAP
 40
1.0
  9
$LUNITS
 70
     2
  9
$LUPREC
 70
     3
  9
$SKETCHINC
 40
0.1
  9
$FILLETRAD
 40
50.0
  9
$AUNITS
 70
     0
  9
$AUPREC
 70
     0
  9
$MENU
  1
acad
  9
$ELEVATION
 40
0.0
  9
$PELEVATION
 40
0.0
  9
$THICKNESS
 40
0.0
  9
$LIMCHECK
 70
     0
  9
$BLIPMODE
 70
     0
  9
$CHAMFERA
 40
0.5
  9
$CHAMFERB
 40
0.5
  9
$SKPOLY
 70
     0
  9
$TDCREATE
 40
2450731.6098280088
  9
$TDUPDATE
 40
2454953.7667127769
  9
$TDINDWG
 40
0.0040072569
  9
$TDUSRTIMER
 40
0.0040072569
  9
$USRTIMER
 70
     1
  9
$ANGBASE
 50
0.0
  9
$ANGDIR
 70
     0
  9
$PDMODE
 70
     0
  9
$PDSIZE
 40
0.0
  9
$PLINEWID
 40
0.0
  9
$COORDS
 70
     1
  9
$SPLFRAME
 70
     0
  9
$SPLINETYPE
 70
     6
  9
$SPLINESEGS
 70
     8
  9
$ATTDIA
 70
     0
  9
$ATTREQ
 70
     1
  9
$HANDLING
 70
 10241
  9
$HANDSEED
  5
7F1A
  9
$SURFTAB1
 70
     6
  9
$SURFTAB2
 70
     6
  9
$SURFTYPE
 70
     6
  9
$SURFU
 70
     6
  9
$SURFV
 70
     6
  9
$UCSNAME
  2

  9
$UCSORG
 10
0.0
 20
0.0
 30
0.0
  9
$UCSXDIR
 10
1.0
 20
0.0
 30
0.0
  9
$UCSYDIR
 10
0.0
 20
1.0
 30
0.0
  9
$PUCSNAME
  2

  9
$PUCSORG
 10
0.0
 20
0.0
 30
0.0
  9
$PUCSXDIR
 10
1.0
 20
0.0
 30
0.0
  9
$PUCSYDIR
 10
0.0
 20
1.0
 30
0.0
  9
$USERI1
 70
     0
  9
$USERI2
 70
     0
  9
$USERI3
 70
     0
  9
$USERI4
 70
     0
  9
$USERI5
 70
     0
  9
$USERR1
 40
0.0
  9
$USERR2
 40
0.0
  9
$USERR3
 40
0.0
  9
$USERR4
 40
0.0
  9
$USERR5
 40
0.0
  9
$WORLDVIEW
 70
     1
  9
$SHADEDGE
 70
     3
  9
$SHADEDIF
 70
    70
  9
$TILEMODE
 70
     1
  9
$MAXACTVP
 70
    16
  9
$PLIMCHECK
 70
     0
  9
$PEXTMIN
 10
1.0000000000000000E+020
 20
1.0000000000000000E+020
 30
1.0000000000000000E+020
  9
$PEXTMAX
 10
-1.0000000000000000E+020
 20
-1.0000000000000000E+020
 30
-1.0000000000000000E+020
  9
$PLIMMIN
 10
0.0
 20
0.0
  9
$PLIMMAX
 10
12.0
 20
9.0
  9
$UNITMODE
 70
     0
  9
$VISRETAIN
 70
     0
  9
$PLINEGEN
 70
     0
  9
$PSLTSCALE
 70
     1
  0
ENDSEC
  0
SECTION
  2
TABLES
  0
TABLE
  2
VPORT
 70
     2
  0
VPORT
  2
*ACTIVE
 70
     0
 10
0.0
 20
0.0
 11
1.0
 21
1.0
 12
6292.1124769529506
 22
3086.6374998146398
 13
0.0
 23
0.0
 14
10.0
 24
10.0
 15
10.0
 25
10.0
 16
0.0
 26
0.0
 36
1.0
 17
0.0
 27
0.0
 37
0.0
 40
5011.4968576296578
 41
3.1666666666666661
 42
50.0
 43
0.0
 44
0.0
 50
0.0
 51
0.0
 71
     0
 72
   100
 73
     1
 74
     0
 75
     0
 76
     0
 77
     0
 78
     0
  0
ENDTAB
  0
TABLE
  2
LTYPE
 70
     2
  0
LTYPE
  2
CONTINUOUS
 70
     0
  3
Solid line
 72
    65
 73
     0
 40
0.0
  0
LTYPE
  2
CENTER
 70
     0
  3
____ _ ____ _ ____ _ ____ _ ____ _ ____ _ ____ 
 72
    65
 73
     4
 40
2.0
 49
1.25
 49
-0.25
 49
0.25
 49
-0.25
  0
ENDTAB
  0
TABLE
  2
LAYER
 70
     6
  0
LAYER
  2
0
 70
     0
 62
     7
  6
CONTINUOUS
  0
LAYER
  2
3
 70
     0
 62
     2
  6
CONTINUOUS
  0
LAYER
  2
2
 70
     0
 62
     3
  6
CENTER
  0
LAYER
  2
1
 70
     0
 62
     4
  6
CONTINUOUS
  0
LAYER
  2
4
 70
     0
 62
     7
  6
CONTINUOUS
  0
LAYER
  2
DEFPOINTS
 70
     0
 62
     7
  6
CONTINUOUS
  0
ENDTAB
  0
TABLE
  2
STYLE
 70
     1
  0
STYLE
  2
STANDARD
 70
     0
 40
0.0
 41
1.0
 50
0.0
 71
     0
 42
180.0
  3
simplex.shx
  4
extfont.shx
  0
ENDTAB
  0
TABLE
  2
VIEW
 70
     0
  0
ENDTAB
  0
TABLE
  2
UCS
 70
     0
  0
ENDTAB
  0
TABLE
  2
APPID
 70
     1
  0
APPID
  2
ACAD
 70
     0
  0
ENDTAB
  0
TABLE
  2
DIMSTYLE
 70
     1
  0
DIMSTYLE
  2
IGA
 70
     0
  3

  4

  5

  6
OPEN
  7
OPEN
 40
2.0
 41
2.0
 42
0.5
 43
10.0
 44
1.0
 45
0.0
 46
0.0
 47
1.0
 48
1.0
140
3.0
141
0.0
142
0.0
143
0.03937
144
1.0
145
0.0
146
10.0
147
1.0
 71
     0
 72
     0
 73
     0
 74
     0
 75
     0
 76
     0
 77
     1
 78
     8
170
     0
171
     2
172
     0
173
     1
174
     0
175
     0
176
     0
177
     0
178
     0
  0
ENDTAB
  0
ENDSEC
  0
SECTION
  2
BLOCKS
  0
BLOCK
  8
0
  2
$MODEL_SPACE
 70
     0
 10
0.0
 20
0.0
 30
0.0
  3
$MODEL_SPACE
  1

  0
ENDBLK
  5
1B
  8
0
  0
BLOCK
 67
     1
  8
0
  2
$PAPER_SPACE
 70
     0
 10
0.0
 20
0.0
 30
0.0
  3
$PAPER_SPACE
  1

  0
ENDBLK
  5
18
 67
     1
  8
0
  0
BLOCK
  8
0
  2
_OPEN
 70
     0
 10
0.0
 20
0.0
 30
0.0
  3
_OPEN
  1

  0
LINE
  5
7BBE
  8
0
  6
BYBLOCK
 62
     0
 10
-1.0
 20
0.166667
 30
0.0
 11
0.0
 21
0.0
 31
0.0
  0
LINE
  5
7BBF
  8
0
  6
BYBLOCK
 62
     0
 10
0.0
 20
0.0
 30
0.0
 11
-1.0
 21
-0.166667
 31
0.0
  0
LINE
  5
7BC0
  8
0
  6
BYBLOCK
 62
     0
 10
0.0
 20
0.0
 30
0.0
 11
-1.0
 21
0.0
 31
0.0
  0
ENDBLK
  5
7BC1
  8
0
  0
BLOCK
  8
0
  2
*D1
 70
     1
 10
0.0
 20
0.0
 30
0.0
  3
*D1
  1

  0
LINE
  5
7E70
  8
3
  6
CONTINUOUS
 62
     0
 10
1352.262825
 20
2698.40769
 30
0.0
 11
1352.262825
 21
2821.5294909999998
 31
0.0
  0
LINE
  5
7E71
  8
3
  6
CONTINUOUS
 62
     0
 10
1832.262825
 20
2698.40769
 30
0.0
 11
1832.262825
 21
2821.5294909999998
 31
0.0
  0
LINE
  5
7E72
  8
3
  6
CONTINUOUS
 62
     0
 10
1392.262825
 20
2801.5294909999998
 30
0.0
 11
1792.2628249999991
 21
2801.5294909999998
 31
0.0
  0
INSERT
  5
7E73
  8
3
  6
CONTINUOUS
 62
     0
  2
_OPEN
 10
1352.262825
 20
2801.5294909999998
 30
0.0
 41
40.0
 42
40.0
 43
40.0
 50
180.0
  0
INSERT
  5
7E74
  8
3
  6
CONTINUOUS
 62
     0
  2
_OPEN
 10
1832.262825
 20
2801.5294909999998
 30
0.0
 41
40.0
 42
40.0
 43
40.0
  0
TEXT
  8
3
  40
60
  5
7F08
  62
0
  72
0
  71
0
 10
1440.55
 20
2745.33
 30
0.000000
  1
480
  0
POINT
  5
7E76
  8
DEFPOINTS
  6
CONTINUOUS
 62
     0
 10
1352.262825
 20
2688.40769
 30
0.0
  0
POINT
  5
7E77
  8
DEFPOINTS
  6
CONTINUOUS
 62
     0
 10
1832.262825
 20
2688.40769
 30
0.0
  0
POINT
  5
7E78
  8
DEFPOINTS
  6
CONTINUOUS
 62
     0
 10
1832.262825
 20
2801.5294909999998
 30
0.0
  0
ENDBLK
  5
7D5C
  8
0
  0
BLOCK
  8
0
  2
*D2
 70
     1
 10
0.0
 20
0.0
 30
0.0
  3
*D2
  1

  0
LINE
  5
7E79
  8
3
  6
CONTINUOUS
 62
     0
 10
1832.262825
 20
2698.40769
 30
0.0
 11
1832.262825
 21
2941.536885
 31
0.0
  0
LINE
  5
7E7A
  8
3
  6
CONTINUOUS
 62
     0
 10
1370.262825
 20
2854.043326999999
 30
0.0
 11
1370.262825
 21
2941.536885
 31
0.0
  0
LINE
  5
7E7B
  8
3
  6
CONTINUOUS
 62
     0
 10
1792.2628249999991
 20
2921.536885
 30
0.0
 11
1410.262825
 21
2921.536885
 31
0.0
  0
INSERT
  5
7E7C
  8
3
  6
CONTINUOUS
 62
     0
  2
_OPEN
 10
1832.262825
 20
2921.536885
 30
0.0
 41
40.0
 42
40.0
 43
40.0
  0
INSERT
  5
7E7D
  8
3
  6
CONTINUOUS
 62
     0
  2
_OPEN
 10
1370.262825
 20
2921.536885
 30
0.0
 41
40.0
 42
40.0
 43
40.0
 50
180.0
  0
TEXT
  8
3
  40
60
  5
7F09
  62
0
  72
0
  71
0
 10
1433.27
 20
2865.34
 30
0.000000
  1
462
  0
POINT
  5
7E7F
  8
DEFPOINTS
  6
CONTINUOUS
 62
     0
 10
1832.262825
 20
2688.40769
 30
0.0
  0
POINT
  5
7E80
  8
DEFPOINTS
  6
CONTINUOUS
 62
     0
 10
1370.262825
 20
2844.043326999999
 30
0.0
  0
POINT
  5
7E81
  8
DEFPOINTS
  6
CONTINUOUS
 62
     0
 10
1370.262825
 20
2921.536885
 30
0.0
  0
ENDBLK
  5
7D51
  8
0
  0
BLOCK
  8
0
  2
*D3
 70
     1
 10
0.0
 20
0.0
 30
0.0
  3
*D3
  1

  0
LINE
  5
7E82
  8
3
  6
CONTINUOUS
 62
     0
 10
1015.262825
 20
2653.40769
 30
0.0
 11
1015.262825
 21
2941.536885
 31
0.0
  0
LINE
  5
7E83
  8
3
  6
CONTINUOUS
 62
     0
 10
1330.262825
 20
2921.536885
 30
0.0
 11
1055.262825
 21
2921.536885
 31
0.0
  0
INSERT
  5
7E84
  8
3
  6
CONTINUOUS
 62
     0
  2
_OPEN
 10
1370.262825
 20
2921.536885
 30
0.0
 41
40.0
 42
40.0
 43
40.0
  0
INSERT
  5
7E85
  8
3
  6
CONTINUOUS
 62
     0
  2
_OPEN
 10
1015.262825
 20
2921.536885
 30
0.0
 41
40.0
 42
40.0
 43
40.0
 50
180.0
  0
TEXT
  8
3
  40
60
  5
7F0A
  62
0
  72
0
  71
0
 10
1072.76
 20
2865.34
 30
0.000000
  1
355
  0
POINT
  5
7E87
  8
DEFPOINTS
  6
CONTINUOUS
 62
     0
 10
1370.262825
 20
2844.043326999999
 30
0.0
  0
POINT
  5
7E88
  8
DEFPOINTS
  6
CONTINUOUS
 62
     0
 10
1015.262825
 20
2643.40769
 30
0.0
  0
POINT
  5
7E89
  8
DEFPOINTS
  6
CONTINUOUS
 62
     0
 10
1015.262825
 20
2921.536885
 30
0.0
  0
ENDBLK
  5
7D66
  8
0
  0
BLOCK
  8
0
  2
*D4
 70
     1
 10
0.0
 20
0.0
 30
0.0
  3
*D4
  1

  0
LINE
  5
7E8A
  8
3
  6
CONTINUOUS
 62
     0
 10
1325.262825
 20
2688.40769
 30
0.0
 11
861.57125800000051
 21
2688.40769
 31
0.0
  0
LINE
  5
7E8B
  8
3
  6
CONTINUOUS
 62
     0
 10
893.00957093937541
 20
2333.40769
 30
0.0
 11
861.57125800000051
 21
2333.40769
 31
0.0
  0
LINE
  5
7E8C
  8
3
  6
CONTINUOUS
 62
     0
 10
881.5712580000004
 20
2648.40769
 30
0.0
 11
881.5712580000004
 21
2373.40769
 31
0.0
  0
INSERT
  5
7E8D
  8
3
  6
CONTINUOUS
 62
     0
  2
_OPEN
 10
881.5712580000004
 20
2688.40769
 30
0.0
 41
40.0
 42
40.0
 43
40.0
 50
90.0
  0
INSERT
  5
7E8E
  8
3
  6
CONTINUOUS
 62
     0
  2
_OPEN
 10
881.5712580000004
 20
2333.40769
 30
0.0
 41
40.0
 42
40.0
 43
40.0
 50
270.0
  0
TEXT
  8
3
  40
60
  5
7F0B
  62
0
  72
0
  71
0
 10
711.571
 20
2396.62
 30
0.000000
  1
355
  0
POINT
  5
7E90
  8
DEFPOINTS
  6
CONTINUOUS
 62
     0
 10
1335.262825
 20
2688.40769
 30
0.0
  0
POINT
  5
7E91
  8
DEFPOINTS
  6
CONTINUOUS
 62
     0
 10
903.00957093937529
 20
2333.40769
 30
0.0
  0
POINT
  5
7E92
  8
DEFPOINTS
  6
CONTINUOUS
 62
     0
 10
881.5712580000004
 20
2333.40769
 30
0.0
  0
ENDBLK
  5
7DC9
  8
0
  0
BLOCK
  8
0
  2
*D5
 70
     1
 10
0.0
 20
0.0
 30
0.0
  3
*D5
  1

  0
LINE
  5
7E93
  8
3
  6
CONTINUOUS
 62
     0
 10
1060.262825
 20
1843.4076899999991
 30
0.0
 11
861.57125799999994
 21
1843.4076899999991
 31
0.0
  0
LINE
  5
7E94
  8
3
  6
CONTINUOUS
 62
     0
 10
881.57125800000006
 20
2293.4076899999991
 30
0.0
 11
881.57125800000006
 21
1883.40769
 31
0.0
  0
INSERT
  5
7E95
  8
3
  6
CONTINUOUS
 62
     0
  2
_OPEN
 10
881.57125800000006
 20
2333.40769
 30
0.0
 41
40.0
 42
40.0
 43
40.0
 50
90.0
  0
INSERT
  5
7E96
  8
3
  6
CONTINUOUS
 62
     0
  2
_OPEN
 10
881.57125800000006
 20
1843.4076899999991
 30
0.0
 41
40.0
 42
40.0
 43
40.0
 50
270.0
  0
TEXT
  8
3
  40
60
  5
7F0C
  62
0
  72
0
  71
0
 10
711.571
 20
1982.21
 30
0.000000
  1
490
  0
POINT
  5
7E98
  8
DEFPOINTS
  6
CONTINUOUS
 62
     0
 10
903.00957093937529
 20
2333.40769
 30
0.0
  0
POINT
  5
7E99
  8
DEFPOINTS
  6
CONTINUOUS
 62
     0
 10
1070.262825
 20
1843.4076899999991
 30
0.0
  0
POINT
  5
7E9A
  8
DEFPOINTS
  6
CONTINUOUS
 62
     0
 10
881.57125800000006
 20
1843.4076899999991
 30
0.0
  0
ENDBLK
  5
7DD3
  8
0
  0
BLOCK
  8
0
  2
*D6
 70
     1
 10
0.0
 20
0.0
 30
0.0
  3
*D6
  1

  0
LINE
  5
7E9B
  8
3
  6
CONTINUOUS
 62
     0
 10
1060.262825
 20
1843.4076899999991
 30
0.0
 11
860.69371000000035
 21
1843.4076899999991
 31
0.0
  0
LINE
  5
7E9C
  8
3
  6
CONTINUOUS
 62
     0
 10
1060.262825
 20
1803.40769
 30
0.0
 11
860.69371000000035
 21
1803.40769
 31
0.0
  0
LINE
  5
7E9D
  8
3
  6
CONTINUOUS
 62
     0
 10
880.69371000000035
 20
1883.40769
 30
0.0
 11
880.69371000000035
 21
1923.4076899999991
 31
0.0
  0
LINE
  5
7E9E
  8
3
  6
CONTINUOUS
 62
     0
 10
880.69371000000024
 20
1763.4076899999991
 30
0.0
 11
880.69371000000024
 21
1586.2648328571429
 31
0.0
  0
LINE
  5
7E9F
  8
3
  6
CONTINUOUS
 62
     0
 10
880.69371000000035
 20
1843.4076899999991
 30
0.0
 11
880.69371000000035
 21
1803.40769
 31
0.0
  0
INSERT
  5
7EA0
  8
3
  6
CONTINUOUS
 62
     0
  2
_OPEN
 10
880.69371000000035
 20
1843.4076899999991
 30
0.0
 41
40.0
 42
40.0
 43
40.0
 50
270.0
  0
INSERT
  5
7EA1
  8
3
  6
CONTINUOUS
 62
     0
  2
_OPEN
 10
880.69371000000035
 20
1803.40769
 30
0.0
 41
40.0
 42
40.0
 43
40.0
 50
90.0
  0
TEXT
  8
3
  40
60
  5
7F0D
  62
0
  72
0
  71
0
 10
710.694
 20
1548.64
 30
0.000000
  1
40
  0
POINT
  5
7EA3
  8
DEFPOINTS
  6
CONTINUOUS
 62
     0
 10
1070.262825
 20
1843.4076899999991
 30
0.0
  0
POINT
  5
7EA4
  8
DEFPOINTS
  6
CONTINUOUS
 62
     0
 10
1070.262825
 20
1803.40769
 30
0.0
  0
POINT
  5
7EA5
  8
DEFPOINTS
  6
CONTINUOUS
 62
     0
 10
880.69371000000035
 20
1803.40769
 30
0.0
  0
ENDBLK
  5
7E03
  8
0
  0
BLOCK
  8
0
  2
*D7
 70
     1
 10
0.0
 20
0.0
 30
0.0
  3
*D7
  1

  0
LINE
  5
7EA6
  8
3
  6
CONTINUOUS
 62
     0
 10
1315.262825
 20
2688.40769
 30
0.0
 11
706.94606700000043
 21
2688.40769
 31
0.0
  0
LINE
  5
7EA7
  8
3
  6
CONTINUOUS
 62
     0
 10
1060.262825
 20
1803.40769
 30
0.0
 11
706.94606700000031
 21
1803.40769
 31
0.0
  0
LINE
  5
7EA8
  8
3
  6
CONTINUOUS
 62
     0
 10
726.94606700000043
 20
2648.40769
 30
0.0
 11
726.94606700000031
 21
1843.4076899999991
 31
0.0
  0
INSERT
  5
7EA9
  8
3
  6
CONTINUOUS
 62
     0
  2
_OPEN
 10
726.94606700000043
 20
2688.40769
 30
0.0
 41
40.0
 42
40.0
 43
40.0
 50
90.0
  0
INSERT
  5
7EAA
  8
3
  6
CONTINUOUS
 62
     0
  2
_OPEN
 10
726.94606700000031
 20
1803.40769
 30
0.0
 41
40.0
 42
40.0
 43
40.0
 50
270.0
  0
TEXT
  8
3
  40
60
  5
7F0E
  62
0
  72
0
  71
0
 10
556.946
 20
2156.61
 30
0.000000
  1
885
  0
POINT
  5
7EAC
  8
DEFPOINTS
  6
CONTINUOUS
 62
     0
 10
1325.262825
 20
2688.40769
 30
0.0
  0
POINT
  5
7EAD
  8
DEFPOINTS
  6
CONTINUOUS
 62
     0
 10
1070.262825
 20
1803.40769
 30
0.0
  0
POINT
  5
7EAE
  8
DEFPOINTS
  6
CONTINUOUS
 62
     0
 10
726.94606700000031
 20
1803.40769
 30
0.0
  0
ENDBLK
  5
7C4F
  8
0
  0
BLOCK
  8
0
  2
*D8
 70
     1
 10
0.0
 20
0.0
 30
0.0
  3
*D8
  1

  0
LINE
  5
7EAF
  8
3
  6
CONTINUOUS
 62
     0
 10
1070.262825
 20
1793.4076899999991
 30
0.0
 11
1070.262825
 21
1647.747102
 31
0.0
  0
LINE
  5
7EB0
  8
3
  6
CONTINUOUS
 62
     0
 10
1370.262825
 20
1668.9676019999999
 30
0.0
 11
1370.262825
 21
1687.747102
 31
0.0
  0
LINE
  5
7EB1
  8
3
  6
CONTINUOUS
 62
     0
 10
1030.262825
 20
1667.747102
 30
0.0
 11
990.26282500000013
 21
1667.747102
 31
0.0
  0
LINE
  5
7EB2
  8
3
  6
CONTINUOUS
 62
     0
 10
1410.262825
 20
1667.747102
 30
0.0
 11
1450.262825
 21
1667.747102
 31
0.0
  0
LINE
  5
7EB3
  8
3
  6
CONTINUOUS
 62
     0
 10
1070.262825
 20
1667.747102
 30
0.0
 11
1370.262825
 21
1667.747102
 31
0.0
  0
INSERT
  5
7EB4
  8
3
  6
CONTINUOUS
 62
     0
  2
_OPEN
 10
1070.262825
 20
1667.747102
 30
0.0
 41
40.0
 42
40.0
 43
40.0
  0
INSERT
  5
7EB5
  8
3
  6
CONTINUOUS
 62
     0
  2
_OPEN
 10
1370.262825
 20
1667.747102
 30
0.0
 41
40.0
 42
40.0
 43
40.0
 50
180.0
  0
TEXT
  8
3
  40
60
  5
7F0F
  62
0
  72
0
  71
0
 10
1113.12
 20
1611.55
 30
0.000000
  1
300
  0
POINT
  5
7EB7
  8
DEFPOINTS
  6
CONTINUOUS
 62
     0
 10
1070.262825
 20
1803.40769
 30
0.0
  0
POINT
  5
7EB8
  8
DEFPOINTS
  6
CONTINUOUS
 62
     0
 10
1370.262825
 20
1658.967601999999
 30
0.0
  0
POINT
  5
7EB9
  8
DEFPOINTS
  6
CONTINUOUS
 62
     0
 10
1370.262825
 20
1667.747102
 30
0.0
  0
ENDBLK
  5
7D25
  8
0
  0
BLOCK
  8
0
  2
*D9
 70
     1
 10
0.0
 20
0.0
 30
0.0
  3
*D9
  1

  0
LINE
  5
7EBA
  8
3
  6
CONTINUOUS
 62
     0
 10
2190.2628249999998
 20
1793.4076899999991
 30
0.0
 11
2190.2628249999998
 21
1647.747102
 31
0.0
  0
LINE
  5
7EBB
  8
3
  6
CONTINUOUS
 62
     0
 10
1410.262825
 20
1667.747102
 30
0.0
 11
2150.2628249999989
 21
1667.747102
 31
0.0
  0
INSERT
  5
7EBC
  8
3
  6
CONTINUOUS
 62
     0
  2
_OPEN
 10
1370.262825
 20
1667.747102
 30
0.0
 41
40.0
 42
40.0
 43
40.0
 50
180.0
  0
INSERT
  5
7EBD
  8
3
  6
CONTINUOUS
 62
     0
  2
_OPEN
 10
2190.2628249999998
 20
1667.747102
 30
0.0
 41
40.0
 42
40.0
 43
40.0
  0
TEXT
  8
3
  40
60
  5
7F10
  62
0
  72
0
  71
0
 10
1660.26
 20
1611.55
 30
0.000000
  1
820
  0
POINT
  5
7EBF
  8
DEFPOINTS
  6
CONTINUOUS
 62
     0
 10
1370.262825
 20
1658.967601999999
 30
0.0
  0
POINT
  5
7EC0
  8
DEFPOINTS
  6
CONTINUOUS
 62
     0
 10
2190.2628249999998
 20
1803.40769
 30
0.0
  0
POINT
  5
7EC1
  8
DEFPOINTS
  6
CONTINUOUS
 62
     0
 10
2190.2628249999998
 20
1667.747102
 30
0.0
  0
ENDBLK
  5
7D1A
  8
0
  0
BLOCK
  8
0
  2
*D10
 70
     1
 10
0.0
 20
0.0
 30
0.0
  3
*D10
  1

  0
LINE
  5
7EC2
  8
3
  6
CONTINUOUS
 62
     0
 10
3266.4319809999988
 20
2698.40769
 30
0.0
 11
3266.4319809999988
 21
2758.3108491804201
 31
0.0
  0
LINE
  5
7EC3
  8
3
  6
CONTINUOUS
 62
     0
 10
2906.4319809999988
 20
2698.40769
 30
0.0
 11
2906.4319809999988
 21
2758.3108491804201
 31
0.0
  0
LINE
  5
7EC4
  8
3
  6
CONTINUOUS
 62
     0
 10
3226.4319809999988
 20
2738.3108491804201
 30
0.0
 11
2946.4319809999988
 21
2738.3108491804201
 31
0.0
  0
INSERT
  5
7EC5
  8
3
  6
CONTINUOUS
 62
     0
  2
_OPEN
 10
3266.4319809999988
 20
2738.3108491804201
 30
0.0
 41
40.0
 42
40.0
 43
40.0
  0
INSERT
  5
7EC6
  8
3
  6
CONTINUOUS
 62
     0
  2
_OPEN
 10
2906.4319809999988
 20
2738.3108491804201
 30
0.0
 41
40.0
 42
40.0
 43
40.0
 50
180.0
  0
TEXT
  8
3
  40
60
  5
7F11
  62
0
  72
0
  71
0
 10
2947.59
 20
2682.11
 30
0.000000
  1
360
  0
POINT
  5
7EC8
  8
DEFPOINTS
  6
CONTINUOUS
 62
     0
 10
3266.4319809999988
 20
2688.40769
 30
0.0
  0
POINT
  5
7EC9
  8
DEFPOINTS
  6
CONTINUOUS
 62
     0
 10
2906.4319809999988
 20
2688.40769
 30
0.0
  0
POINT
  5
7ECA
  8
DEFPOINTS
  6
CONTINUOUS
 62
     0
 10
2906.4319809999988
 20
2738.3108491804201
 30
0.0
  0
ENDBLK
  5
7E19
  8
0
  0
BLOCK
  8
0
  2
*D11
 70
     1
 10
0.0
 20
0.0
 30
0.0
  3
*D11
  1

  0
LINE
  5
7ECB
  8
3
  6
CONTINUOUS
 62
     0
 10
2700.4319809999988
 20
1793.4076899999991
 30
0.0
 11
2700.4319809999988
 21
1623.3756860000001
 31
0.0
  0
LINE
  5
7ECC
  8
3
  6
CONTINUOUS
 62
     0
 10
3086.4319810000002
 20
1676.6217034765079
 30
0.0
 11
3086.4319810000002
 21
1623.3756860000001
 31
0.0
  0
LINE
  5
7ECD
  8
3
  6
CONTINUOUS
 62
     0
 10
2740.4319809999988
 20
1643.375685999999
 30
0.0
 11
3046.4319810000002
 21
1643.375685999999
 31
0.0
  0
INSERT
  5
7ECE
  8
3
  6
CONTINUOUS
 62
     0
  2
_OPEN
 10
2700.4319809999988
 20
1643.375685999999
 30
0.0
 41
40.0
 42
40.0
 43
40.0
 50
180.0
  0
INSERT
  5
7ECF
  8
3
  6
CONTINUOUS
 62
     0
  2
_OPEN
 10
3086.4319810000002
 20
1643.375685999999
 30
0.0
 41
40.0
 42
40.0
 43
40.0
  0
TEXT
  8
3
  40
60
  5
7F12
  62
0
  72
0
  71
0
 10
2769.22
 20
1587.18
 30
0.000000
  1
386
  0
POINT
  5
7ED1
  8
DEFPOINTS
  6
CONTINUOUS
 62
     0
 10
2700.4319809999988
 20
1803.40769
 30
0.0
  0
POINT
  5
7ED2
  8
DEFPOINTS
  6
CONTINUOUS
 62
     0
 10
3086.4319810000002
 20
1686.6217034765079
 30
0.0
  0
POINT
  5
7ED3
  8
DEFPOINTS
  6
CONTINUOUS
 62
     0
 10
3086.4319810000002
 20
1643.375685999999
 30
0.0
  0
ENDBLK
  5
7E4D
  8
0
  0
BLOCK
  8
0
  2
*D12
 70
     1
 10
0.0
 20
0.0
 30
0.0
  3
*D12
  1

  0
LINE
  5
7ED4
  8
3
  6
CONTINUOUS
 62
     0
 10
3390.4319810000002
 20
1793.4076899999991
 30
0.0
 11
3390.4319810000002
 21
1623.3756860000001
 31
0.0
  0
LINE
  5
7ED5
  8
3
  6
CONTINUOUS
 62
     0
 10
3126.4319809999988
 20
1643.375685999999
 30
0.0
 11
3350.4319810000002
 21
1643.375685999999
 31
0.0
  0
INSERT
  5
7ED6
  8
3
  6
CONTINUOUS
 62
     0
  2
_OPEN
 10
3086.4319810000002
 20
1643.375685999999
 30
0.0
 41
40.0
 42
40.0
 43
40.0
 50
180.0
  0
INSERT
  5
7ED7
  8
3
  6
CONTINUOUS
 62
     0
  2
_OPEN
 10
3390.4319810000002
 20
1643.375685999999
 30
0.0
 41
40.0
 42
40.0
 43
40.0
  0
TEXT
  8
3
  40
60
  5
7F13
  62
0
  72
0
  71
0
 10
3118.43
 20
1587.18
 30
0.000000
  1
304
  0
POINT
  5
7ED9
  8
DEFPOINTS
  6
CONTINUOUS
 62
     0
 10
3086.4319810000002
 20
1684.5717102399431
 30
0.0
  0
POINT
  5
7EDA
  8
DEFPOINTS
  6
CONTINUOUS
 62
     0
 10
3390.4319810000002
 20
1803.40769
 30
0.0
  0
POINT
  5
7EDB
  8
DEFPOINTS
  6
CONTINUOUS
 62
     0
 10
3390.4319810000002
 20
1643.375685999999
 30
0.0
  0
ENDBLK
  5
7E42
  8
0
  0
BLOCK
  8
0
  2
*D13
 70
     1
 10
0.0
 20
0.0
 30
0.0
  3
*D13
  1

  0
LINE
  5
7E1B
  8
0
  6
BYBLOCK
 62
     0
 10
3267.4319810000002
 20
2593.40769
 30
0.0
 11
3267.4319810000002
 21
2901.4715000000001
 31
0.0
  0
LINE
  5
7E1C
  8
0
  6
BYBLOCK
 62
     0
 10
3086.4319810000002
 20
2844.7230827925791
 30
0.0
 11
3086.4319810000002
 21
2901.4715000000001
 31
0.0
  0
LINE
  5
7E1D
  8
0
  6
BYBLOCK
 62
     0
 10
3227.4319809999988
 20
2881.4715000000001
 30
0.0
 11
3126.4319809999988
 21
2881.4715000000001
 31
0.0
  0
TEXT
  5
7E1E
  8
3
 62
     0
 10
3118.3605524285708
 20
2916.259870204256
 30
0.0
 40
60.0
  1
181
  0
INSERT
  5
7E1F
  8
0
  6
BYBLOCK
 62
     0
  2
_OPEN
 10
3267.4319810000002
 20
2881.4715000000001
 30
0.0
 41
40.0
 42
40.0
 43
40.0
  0
INSERT
  5
7E20
  8
0
  6
BYBLOCK
 62
     0
  2
_OPEN
 10
3086.4319810000002
 20
2881.4715000000001
 30
0.0
 41
40.0
 42
40.0
 43
40.0
 50
180.0
  0
POINT
  5
7E21
  8
DEFPOINTS
  6
BYBLOCK
 62
     0
 10
3267.4319810000002
 20
2583.40769
 30
0.0
  0
POINT
  5
7E22
  8
DEFPOINTS
  6
BYBLOCK
 62
     0
 10
3086.4319810000002
 20
2834.7230827925791
 30
0.0
  0
POINT
  5
7E23
  8
DEFPOINTS
  6
BYBLOCK
 62
     0
 10
3086.4319810000002
 20
2881.4715000000001
 30
0.0
  0
ENDBLK
  5
7E24
  8
0
  0
BLOCK
  8
0
  2
*D14
 70
     1
 10
0.0
 20
0.0
 30
0.0
  3
*D14
  1

  0
LINE
  5
7EDC
  8
3
  6
CONTINUOUS
 62
     0
 10
2716.4319809999988
 20
2678.40769
 30
0.0
 11
2716.4319809999988
 21
2901.4715000000001
 31
0.0
  0
LINE
  5
7EDD
  8
3
  6
CONTINUOUS
 62
     0
 10
3046.4319810000002
 20
2881.4715000000001
 30
0.0
 11
2756.4319809999988
 21
2881.4715000000001
 31
0.0
  0
INSERT
  5
7EDE
  8
3
  6
CONTINUOUS
 62
     0
  2
_OPEN
 10
3086.4319810000002
 20
2881.4715000000001
 30
0.0
 41
40.0
 42
40.0
 43
40.0
  0
INSERT
  5
7EDF
  8
3
  6
CONTINUOUS
 62
     0
  2
_OPEN
 10
2716.4319809999988
 20
2881.4715000000001
 30
0.0
 41
40.0
 42
40.0
 43
40.0
 50
180.0
  0
TEXT
  8
3
  40
60
  5
7F14
  62
0
  72
0
  71
0
 10
2781.43
 20
2875.27
 30
0.000000
  1
MAX
  0
TEXT
  8
3
  40
60
  5
7F15
  62
0
  72
0
  71
0
 10
2781.43
 20
2797.27
 30
0.000000
  1
430
  0
POINT
  5
7EE1
  8
DEFPOINTS
  6
CONTINUOUS
 62
     0
 10
3086.4319810000002
 20
2834.7230827925791
 30
0.0
  0
POINT
  5
7EE2
  8
DEFPOINTS
  6
CONTINUOUS
 62
     0
 10
2716.4319809999988
 20
2668.40769
 30
0.0
  0
POINT
  5
7EE3
  8
DEFPOINTS
  6
CONTINUOUS
 62
     0
 10
2716.4319809999988
 20
2881.4715000000001
 30
0.0
  0
ENDBLK
  5
7E38
  8
0
  0
BLOCK
  8
0
  2
*D15
 70
     1
 10
0.0
 20
0.0
 30
0.0
  3
*D15
  1

  0
LINE
  5
7EE4
  8
3
  6
CONTINUOUS
 62
     0
 10
3277.4319809999988
 20
2583.40769
 30
0.0
 11
3447.9676590000008
 21
2583.40769
 31
0.0
  0
LINE
  5
7EE5
  8
3
  6
CONTINUOUS
 62
     0
 10
3277.4319809999988
 20
2083.40769
 30
0.0
 11
3447.9676590000008
 21
2083.40769
 31
0.0
  0
LINE
  5
7EE6
  8
3
  6
CONTINUOUS
 62
     0
 10
3427.9676589999999
 20
2543.40769
 30
0.0
 11
3427.9676589999999
 21
2123.40769
 31
0.0
  0
INSERT
  5
7EE7
  8
3
  6
CONTINUOUS
 62
     0
  2
_OPEN
 10
3427.9676589999999
 20
2583.40769
 30
0.0
 41
40.0
 42
40.0
 43
40.0
 50
90.0
  0
INSERT
  5
7EE8
  8
3
  6
CONTINUOUS
 62
     0
  2
_OPEN
 10
3427.9676589999999
 20
2083.40769
 30
0.0
 41
40.0
 42
40.0
 43
40.0
 50
270.0
  0
TEXT
  8
3
  40
60
  5
7F16
  62
0
  72
0
  71
0
 10
3257.97
 20
2225.70
 30
0.000000
  1
φ500
  0
POINT
  5
7EEA
  8
DEFPOINTS
  6
CONTINUOUS
 62
     0
 10
3267.4319810000002
 20
2583.40769
 30
0.0
  0
POINT
  5
7EEB
  8
DEFPOINTS
  6
CONTINUOUS
 62
     0
 10
3267.4319810000002
 20
2083.40769
 30
0.0
  0
POINT
  5
7EEC
  8
DEFPOINTS
  6
CONTINUOUS
 62
     0
 10
3427.9676589999999
 20
2083.40769
 30
0.0
  0
ENDBLK
  5
7E0E
  8
0
  0
BLOCK
  8
0
  2
*D16
 70
     1
 10
0.0
 20
0.0
 30
0.0
  3
*D16
  1

  0
LINE
  5
7EED
  8
3
  6
CONTINUOUS
 62
     0
 10
1070.262825
 20
4199.8076899999987
 30
0.0
 11
1070.262825
 21
4301.8959450000002
 31
0.0
  0
LINE
  5
7EEE
  8
3
  6
CONTINUOUS
 62
     0
 10
2190.2628249999998
 20
4199.8076899999987
 30
0.0
 11
2190.2628249999998
 21
4301.8959450000002
 31
0.0
  0
LINE
  5
7EEF
  8
3
  6
CONTINUOUS
 62
     0
 10
1110.262825
 20
4281.8959450000002
 30
0.0
 11
2150.2628249999989
 21
4281.8959450000002
 31
0.0
  0
INSERT
  5
7EF0
  8
3
  6
CONTINUOUS
 62
     0
  2
_OPEN
 10
1070.262825
 20
4281.8959450000002
 30
0.0
 41
40.0
 42
40.0
 43
40.0
 50
180.0
  0
INSERT
  5
7EF1
  8
3
  6
CONTINUOUS
 62
     0
  2
_OPEN
 10
2190.2628249999998
 20
4281.8959450000002
 30
0.0
 41
40.0
 42
40.0
 43
40.0
  0
TEXT
  8
3
  40
60
  5
7F17
  62
0
  72
0
  71
0
 10
1476.95
 20
4225.70
 30
0.000000
  1
1120
  0
POINT
  5
7EF3
  8
DEFPOINTS
  6
CONTINUOUS
 62
     0
 10
1070.262825
 20
4189.8076899999996
 30
0.0
  0
POINT
  5
7EF4
  8
DEFPOINTS
  6
CONTINUOUS
 62
     0
 10
2190.2628249999998
 20
4189.8076899999996
 30
0.0
  0
POINT
  5
7EF5
  8
DEFPOINTS
  6
CONTINUOUS
 62
     0
 10
2190.2628249999998
 20
4281.8959450000002
 30
0.0
  0
ENDBLK
  5
7D7C
  8
0
  0
BLOCK
  8
0
  2
*D17
 70
     1
 10
0.0
 20
0.0
 30
0.0
  3
*D17
  1

  0
LINE
  5
7EF6
  8
3
  6
CONTINUOUS
 62
     0
 10
2200.2628249999989
 20
4189.8076899999996
 30
0.0
 11
2380.360498
 21
4189.8076899999996
 31
0.0
  0
LINE
  5
7EF7
  8
3
  6
CONTINUOUS
 62
     0
 10
2200.2628249999989
 20
3499.8076899999992
 30
0.0
 11
2380.360498
 21
3499.8076899999992
 31
0.0
  0
LINE
  5
7EF8
  8
3
  6
CONTINUOUS
 62
     0
 10
2360.360498
 20
4149.8076899999987
 30
0.0
 11
2360.360498
 21
3539.8076899999992
 31
0.0
  0
INSERT
  5
7EF9
  8
3
  6
CONTINUOUS
 62
     0
  2
_OPEN
 10
2360.360498
 20
4189.8076899999996
 30
0.0
 41
40.0
 42
40.0
 43
40.0
 50
90.0
  0
INSERT
  5
7EFA
  8
3
  6
CONTINUOUS
 62
     0
  2
_OPEN
 10
2360.360498
 20
3499.8076899999992
 30
0.0
 41
40.0
 42
40.0
 43
40.0
 50
270.0
  0
TEXT
  8
3
  40
60
  5
7F18
  62
0
  72
0
  71
0
 10
2190.36
 20
3762.85
 30
0.000000
  1
690
  0
POINT
  5
7EFC
  8
DEFPOINTS
  6
CONTINUOUS
 62
     0
 10
2190.2628249999998
 20
4189.8076899999996
 30
0.0
  0
POINT
  5
7EFD
  8
DEFPOINTS
  6
CONTINUOUS
 62
     0
 10
2190.2628249999998
 20
3499.8076899999992
 30
0.0
  0
POINT
  5
7EFE
  8
DEFPOINTS
  6
CONTINUOUS
 62
     0
 10
2360.360498
 20
3499.8076899999992
 30
0.0
  0
ENDBLK
  5
7D71
  8
0
  0
BLOCK
  8
0
  2
*D18
 70
     1
 10
0.0
 20
0.0
 30
0.0
  3
*D18
  1

  0
LINE
  5
7EFF
  8
3
 62
     0
 10
1015.262825
 20
2653.40769
 30
0.0
 11
1015.262825
 21
3067.9544657673482
 31
0.0
  0
LINE
  5
7F00
  8
3
 62
     0
 10
2190.2628249999998
 20
1933.40769
 30
0.0
 11
2190.2628249999998
 21
3067.9544657673482
 31
0.0
  0
LINE
  5
7F01
  8
3
 62
     0
 10
1055.262825
 20
3047.9544657673482
 30
0.0
 11
2150.2628249999989
 21
3047.9544657673482
 31
0.0
  0
INSERT
  5
7F02
  8
3
 62
     0
  2
_OPEN
 10
1015.262825
 20
3047.9544657673482
 30
0.0
 41
40.0
 42
40.0
 43
40.0
 50
180.0
  0
INSERT
  5
7F03
  8
3
 62
     0
  2
_OPEN
 10
2190.2628249999998
 20
3047.9544657673482
 30
0.0
 41
40.0
 42
40.0
 43
40.0
  0
TEXT
  8
3
  40
60
  5
7F19
  62
0
  72
0
  71
0
 10
1504.90
 20
2991.75
 30
0.000000
  1
1175
  0
POINT
  5
7F05
  8
DEFPOINTS
 62
     0
 10
1015.262825
 20
2643.40769
 30
0.0
  0
POINT
  5
7F06
  8
DEFPOINTS
 62
     0
 10
2190.2628249999998
 20
1923.4076899999991
 30
0.0
  0
POINT
  5
7F07
  8
DEFPOINTS
 62
     0
 10
2190.2628249999998
 20
3047.9544657673482
 30
0.0
  0
ENDBLK
  5
7DDF
  8
0
  0
ENDSEC
  0
SECTION
  2
ENTITIES
  0
LINE
  5
7ACD
  8
1
  6
CONTINUOUS
 10
2100.2628249999989
 20
1973.4076899999991
 30
0.0
 11
1840.2628249999991
 21
1973.4076899999991
 31
0.0
  0
ARC
  5
7ACE
  8
1
  6
CONTINUOUS
 10
1970.262825
 20
2105.40769
 30
0.0
 40
122.0
 50
324.60000000000002
 51
215.39999999999989
  0
LINE
  5
7ACF
  8
1
  6
CONTINUOUS
 10
2190.2628249999998
 20
1843.4076899999991
 30
0.0
 11
1070.262825
 21
1843.4076899999991
 31
0.0
  0
LINE
  5
7AD0
  8
1
  6
CONTINUOUS
 10
2190.2628249999998
 20
1923.4076899999991
 30
0.0
 11
1015.262825
 21
1923.4076899999991
 31
0.0
  0
LINE
  5
7AD1
  8
1
  6
CONTINUOUS
 10
2190.2628249999998
 20
4109.8076899999987
 30
0.0
 11
1070.262825
 21
4109.8076899999987
 31
0.0
  0
LINE
  5
7AD2
  8
1
  6
CONTINUOUS
 10
2122.2628249999989
 20
3686.0476899999999
 30
0.0
 11
1878.262825
 21
3686.0476899999999
 31
0.0
  0
LINE
  5
7AD3
  8
1
  6
CONTINUOUS
 10
2122.2628249999989
 20
4036.0476899999999
 30
0.0
 11
1878.262825
 21
4036.0476899999999
 31
0.0
  0
LINE
  5
7AD4
  8
1
  6
CONTINUOUS
 10
1981.2628249999991
 20
3661.8076899999992
 30
0.0
 11
1389.262825
 21
3661.8076899999992
 31
0.0
  0
LINE
  5
7AD5
  8
1
  6
CONTINUOUS
 10
2050.2628249999989
 20
3545.8076899999992
 30
0.0
 11
1950.262825
 21
3545.8076899999992
 31
0.0
  0
LINE
  5
7AD6
  8
1
  6
CONTINUOUS
 10
1950.262825
 20
3605.8076899999992
 30
0.0
 11
2050.2628249999989
 21
3605.8076899999992
 31
0.0
  0
CIRCLE
  5
7AD7
  8
1
  6
CONTINUOUS
 10
1970.262825
 20
2105.40769
 30
0.0
 40
60.0
  0
LINE
  5
7AD8
  8
2
  6
CENTER
 10
1910.262825
 20
2105.40769
 30
0.0
 11
2030.262825
 21
2105.40769
 31
0.0
  0
LINE
  5
7AE0
  8
1
  6
CONTINUOUS
 10
1423.1928250000001
 20
2441.1076899999989
 30
0.0
 11
1996.7228250000001
 21
2159.2576899999999
 31
0.0
  0
LINE
  5
7AE1
  8
1
  6
CONTINUOUS
 10
1144.762825
 20
3515.8076899999992
 30
0.0
 11
2144.7628249999989
 21
3515.8076899999992
 31
0.0
  0
LINE
  5
7AE2
  8
1
  6
CONTINUOUS
 10
2144.7628249999989
 20
3635.8076900000001
 30
0.0
 11
1144.762825
 21
3635.8076900000001
 31
0.0
  0
LINE
  5
7AE3
  8
2
  6
CENTER
 10
3318.7619199999999
 20
2333.40769
 30
0.0
 11
2622.6758129999998
 21
2333.40769
 31
0.0
  0
CIRCLE
  5
7AE4
  8
1
  6
CONTINUOUS
 10
1370.262825
 20
2333.40769
 30
0.0
 40
120.0
  0
LINE
  5
7AE5
  8
1
  6
CONTINUOUS
 10
1335.262825
 20
2688.40769
 30
0.0
 11
1849.262825
 21
2688.40769
 31
0.0
  0
LINE
  5
7AE6
  8
1
  6
CONTINUOUS
 10
1352.262825
 20
2663.40769
 30
0.0
 11
1832.1928250000001
 21
2663.40769
 31
0.0
  0
ARC
  5
7AE7
  8
1
  6
CONTINUOUS
 10
1397.262825
 20
2306.4076899999991
 30
0.0
 40
380.98000000000002
 50
171.53
 51
265.16000000000003
  0
LINE
  5
7AE8
  8
1
  6
CONTINUOUS
 10
1725.262825
 20
2643.40769
 30
0.0
 11
1015.262825
 21
2643.40769
 31
0.0
  0
CIRCLE
  5
7AE9
  8
1
  6
CONTINUOUS
 10
1370.262825
 20
2333.40769
 30
0.0
 40
275.0
  0
LINE
  5
7AEA
  8
1
  6
CONTINUOUS
 10
1954.2828249999991
 20
2047.5776900000001
 30
0.0
 11
1338.312825
 21
2217.737689999999
 31
0.0
  0
CIRCLE
  5
7AEB
  8
1
  6
CONTINUOUS
 10
1370.262825
 20
2333.40769
 30
0.0
 40
250.0
  0
LINE
  5
7AEC
  8
1
  6
CONTINUOUS
 10
1015.262825
 20
2643.40769
 30
0.0
 11
1015.262825
 21
1923.4076899999991
 31
0.0
  0
LINE
  5
7AED
  8
1
  6
CONTINUOUS
 10
1110.262825
 20
1843.4076899999991
 30
0.0
 11
1110.262825
 21
1803.40769
 31
0.0
  0
LINE
  5
7AEE
  8
1
  6
CONTINUOUS
 10
1070.262825
 20
1803.40769
 30
0.0
 11
1110.262825
 21
1803.40769
 31
0.0
  0
LINE
  5
7AEF
  8
1
  6
CONTINUOUS
 10
1070.262825
 20
1923.4076899999991
 30
0.0
 11
1070.262825
 21
1803.40769
 31
0.0
  0
ARC
  5
7AF0
  8
1
  6
CONTINUOUS
 10
1359.133816
 20
2302.9465460000001
 30
0.0
 40
343.89392400000003
 50
91.140279000000007
 51
170.02361200000001
  0
LINE
  5
7AF1
  8
1
  6
CONTINUOUS
 10
1352.262825
 20
2646.7776899999999
 30
0.0
 11
1352.262825
 21
2688.40769
 31
0.0
  0
ARC
  5
7AF2
  8
1
  6
CONTINUOUS
 10
1400.726242
 20
2356.4873189999998
 30
0.0
 40
431.17249299999992
 50
265.26344499999999
 51
356.87946599999998
  0
ARC
  5
7AF3
  8
1
  6
CONTINUOUS
 10
1400.726242
 20
2356.4873189999998
 30
0.0
 40
431.17249299999992
 50
265.26344499999999
 51
356.87946599999998
  0
LINE
  5
7AF4
  8
1
  6
CONTINUOUS
 10
1725.262825
 20
2643.40769
 30
0.0
 11
1725.262825
 21
1923.4076899999991
 31
0.0
  0
ARC
  5
7AF5
  8
1
  6
CONTINUOUS
 10
1400.726242
 20
2371.1373189999999
 30
0.0
 40
431.17249299999992
 50
265.26344499999999
 51
356.87946599999998
  0
LINE
  5
7AF6
  8
1
  6
CONTINUOUS
 10
1840.2628249999991
 20
1973.4076899999991
 30
0.0
 11
1890.2628249999991
 21
1973.4076899999991
 31
0.0
  0
LINE
  5
7AF7
  8
1
  6
CONTINUOUS
 10
1840.2628249999991
 20
1923.4076899999991
 30
0.0
 11
1840.2628249999991
 21
1973.4076899999991
 31
0.0
  0
LINE
  5
7AF8
  8
1
  6
CONTINUOUS
 10
1840.2628249999991
 20
1973.4076899999991
 30
0.0
 11
1870.822825
 21
2034.7376899999999
 31
0.0
  0
LINE
  5
7AF9
  8
2
  6
CENTER
 10
1370.262825
 20
1658.967601999999
 30
0.0
 11
1370.262825
 21
2844.043326999999
 31
0.0
  0
LINE
  5
7AFA
  8
1
  6
CONTINUOUS
 10
1832.262825
 20
2688.40769
 30
0.0
 11
1831.2628249999991
 21
2333.027689999999
 31
0.0
  0
LINE
  5
7AFB
  8
1
  6
CONTINUOUS
 10
1859.262825
 20
3703.8076900000001
 30
0.0
 11
1015.262825
 21
3703.8076900000001
 31
0.0
  0
LINE
  5
7AFC
  8
1
  6
CONTINUOUS
 10
1859.262825
 20
4067.8076900000001
 30
0.0
 11
1015.262825
 21
4067.8076900000001
 31
0.0
  0
LINE
  5
7AFD
  8
1
  6
CONTINUOUS
 10
1325.262825
 20
3703.8076900000001
 30
0.0
 11
1859.262825
 21
4067.8076900000001
 31
0.0
  0
LINE
  5
7AFE
  8
1
  6
CONTINUOUS
 10
1859.262825
 20
3703.8076900000001
 30
0.0
 11
1325.262825
 21
4067.8076900000001
 31
0.0
  0
LINE
  5
7AFF
  8
1
  6
CONTINUOUS
 10
1490.262825
 20
3545.8076899999992
 30
0.0
 11
1250.262825
 21
3545.8076899999992
 31
0.0
  0
LINE
  5
7B00
  8
1
  6
CONTINUOUS
 10
1250.262825
 20
3605.8076899999992
 30
0.0
 11
1490.262825
 21
3605.8076899999992
 31
0.0
  0
LINE
  5
7B01
  8
1
  6
CONTINUOUS
 10
1015.262825
 20
3703.8076900000001
 30
0.0
 11
1015.262825
 21
4067.8076900000001
 31
0.0
  0
LINE
  5
7B02
  8
1
  6
CONTINUOUS
 10
1325.262825
 20
3703.8076900000001
 30
0.0
 11
1325.262825
 21
4067.8076900000001
 31
0.0
  0
LINE
  5
7B03
  8
1
  6
CONTINUOUS
 10
1110.262825
 20
3499.8076899999992
 30
0.0
 11
1110.262825
 21
3661.8076899999992
 31
0.0
  0
LINE
  5
7B04
  8
1
  6
CONTINUOUS
 10
1070.262825
 20
3703.8076900000001
 30
0.0
 11
1070.262825
 21
3499.8076899999992
 31
0.0
  0
LINE
  5
7B05
  8
1
  6
CONTINUOUS
 10
1250.262825
 20
3545.8076899999992
 30
0.0
 11
1250.262825
 21
3605.8076899999992
 31
0.0
  0
LINE
  5
7B06
  8
1
  6
CONTINUOUS
 10
1144.762825
 20
3635.8076900000001
 30
0.0
 11
1144.762825
 21
3515.8076899999992
 31
0.0
  0
LINE
  5
7B07
  8
1
  6
CONTINUOUS
 10
1110.262825
 20
3499.8076899999992
 30
0.0
 11
1070.262825
 21
3499.8076899999992
 31
0.0
  0
LINE
  5
7B08
  8
1
  6
CONTINUOUS
 10
1351.262825
 20
3661.8076899999992
 30
0.0
 11
1070.262825
 21
3661.8076899999992
 31
0.0
  0
LINE
  5
7B09
  8
1
  6
CONTINUOUS
 10
1351.262825
 20
3605.8076899999992
 30
0.0
 11
1351.262825
 21
3703.8076900000001
 31
0.0
  0
LINE
  5
7B0A
  8
1
  6
CONTINUOUS
 10
1110.262825
 20
4189.8076899999996
 30
0.0
 11
1070.262825
 21
4189.8076899999996
 31
0.0
  0
LINE
  5
7B0B
  8
1
  6
CONTINUOUS
 10
1110.262825
 20
4189.8076899999996
 30
0.0
 11
1110.262825
 21
4109.8076899999987
 31
0.0
  0
LINE
  5
7B0C
  8
1
  6
CONTINUOUS
 10
1070.262825
 20
4189.8076899999996
 30
0.0
 11
1070.262825
 21
4067.8076900000001
 31
0.0
  0
LINE
  5
7B0D
  8
1
  6
CONTINUOUS
 10
1859.262825
 20
4067.8076900000001
 30
0.0
 11
1859.262825
 21
3703.8076900000001
 31
0.0
  0
LINE
  5
7B0E
  8
1
  6
CONTINUOUS
 10
1878.262825
 20
3686.0476899999999
 30
0.0
 11
1878.262825
 21
4036.0476899999999
 31
0.0
  0
LINE
  5
7B0F
  8
1
  6
CONTINUOUS
 10
1490.262825
 20
3545.8076899999992
 30
0.0
 11
1490.262825
 21
3605.8076899999992
 31
0.0
  0
LINE
  5
7B10
  8
1
  6
CONTINUOUS
 10
1389.262825
 20
3605.8076899999992
 30
0.0
 11
1389.262825
 21
3703.8076900000001
 31
0.0
  0
LINE
  5
7B11
  8
1
  6
CONTINUOUS
 10
1950.262825
 20
3545.8076899999992
 30
0.0
 11
1950.262825
 21
3605.8076899999992
 31
0.0
  0
LINE
  5
7B12
  8
1
  6
CONTINUOUS
 10
2806.4319809999988
 20
2453.40769
 30
0.0
 11
2746.4319810000002
 21
2453.40769
 31
0.0
  0
LINE
  5
7B13
  8
1
  6
CONTINUOUS
 10
2746.4319810000002
 20
2213.4076899999991
 30
0.0
 11
2806.4319809999988
 21
2213.4076899999991
 31
0.0
  0
LINE
  5
7B14
  8
1
  6
CONTINUOUS
 10
2700.4319809999988
 20
1803.40769
 30
0.0
 11
3390.4319810000002
 21
1803.40769
 31
0.0
  0
LINE
  5
7B15
  8
1
  6
CONTINUOUS
 10
2700.4319809999988
 20
1843.4076899999991
 30
0.0
 11
3390.4319810000002
 21
1843.4076899999991
 31
0.0
  0
LINE
  5
7B16
  8
1
  6
CONTINUOUS
 10
2806.4319809999988
 20
2155.40769
 30
0.0
 11
2746.4319810000002
 21
2155.40769
 31
0.0
  0
LINE
  5
7B17
  8
1
  6
CONTINUOUS
 10
2746.4319810000002
 20
2055.40769
 30
0.0
 11
2806.4319809999988
 21
2055.40769
 31
0.0
  0
LINE
  5
7B18
  8
1
  6
CONTINUOUS
 10
2716.4319809999988
 20
2668.40769
 30
0.0
 11
2836.4319810000002
 21
2668.40769
 31
0.0
  0
LINE
  5
7B19
  8
1
  6
CONTINUOUS
 10
2836.4319810000002
 20
1923.4076899999991
 30
0.0
 11
2716.4319809999988
 21
1923.4076899999991
 31
0.0
  0
LINE
  5
7B28
  8
1
  6
CONTINUOUS
 10
2100.2628249999989
 20
1973.4076899999991
 30
0.0
 11
2069.7028249999989
 21
2034.7376899999999
 31
0.0
  0
LINE
  5
7B29
  8
1
  6
CONTINUOUS
 10
2100.2628249999989
 20
1923.4076899999991
 30
0.0
 11
2100.2628249999989
 21
1973.4076899999991
 31
0.0
  0
LINE
  5
7B2A
  8
1
  6
CONTINUOUS
 10
2100.2628249999989
 20
1973.4076899999991
 30
0.0
 11
2050.2628249999989
 21
1973.4076899999991
 31
0.0
  0
LINE
  5
7B2B
  8
2
  6
CENTER
 10
1970.262825
 20
2045.4076899999991
 30
0.0
 11
1970.262825
 21
2165.4076899999991
 31
0.0
  0
LINE
  5
7B2C
  8
1
  6
CONTINUOUS
 10
2190.2628249999998
 20
1803.40769
 30
0.0
 11
2150.2628249999989
 21
1803.40769
 31
0.0
  0
LINE
  5
7B2D
  8
1
  6
CONTINUOUS
 10
2150.2628249999989
 20
1843.4076899999991
 30
0.0
 11
2150.2628249999989
 21
1803.40769
 31
0.0
  0
LINE
  5
7B2E
  8
1
  6
CONTINUOUS
 10
2190.2628249999998
 20
1923.4076899999991
 30
0.0
 11
2190.2628249999998
 21
1803.40769
 31
0.0
  0
LINE
  5
7B49
  8
1
  6
CONTINUOUS
 10
2716.4319809999988
 20
1923.4076899999991
 30
0.0
 11
2716.4319809999988
 21
2668.40769
 31
0.0
  0
LINE
  5
7B4D
  8
1
  6
CONTINUOUS
 10
2700.4319809999988
 20
1843.4076899999991
 30
0.0
 11
2700.4319809999988
 21
1803.40769
 31
0.0
  0
LINE
  5
7B4E
  8
1
  6
CONTINUOUS
 10
2746.4319810000002
 20
2155.40769
 30
0.0
 11
2746.4319810000002
 21
2055.40769
 31
0.0
  0
LINE
  5
7B4F
  8
1
  6
CONTINUOUS
 10
2746.4319810000002
 20
2453.40769
 30
0.0
 11
2746.4319810000002
 21
2213.4076899999991
 31
0.0
  0
LINE
  5
7B50
  8
1
  6
CONTINUOUS
 10
2906.4319809999988
 20
2688.40769
 30
0.0
 11
2906.4319809999988
 21
1923.4076899999991
 31
0.0
  0
LINE
  5
7B51
  8
1
  6
CONTINUOUS
 10
3266.4319809999988
 20
2688.40769
 30
0.0
 11
3266.4319809999988
 21
1923.4076899999991
 31
0.0
  0
LINE
  5
7B52
  8
1
  6
CONTINUOUS
 10
2836.4319810000002
 20
2668.40769
 30
0.0
 11
2836.4319810000002
 21
1923.4076899999991
 31
0.0
  0
LINE
  5
7B53
  8
1
  6
CONTINUOUS
 10
2862.4319810000002
 20
1923.4076899999991
 30
0.0
 11
3310.4319810000002
 21
1923.4076899999991
 31
0.0
  0
LINE
  5
7B54
  8
1
  6
CONTINUOUS
 10
2862.4319810000002
 20
1843.4076899999991
 30
0.0
 11
3310.4319810000002
 21
1843.4076899999991
 31
0.0
  0
LINE
  5
7B55
  8
1
  6
CONTINUOUS
 10
2862.4319810000002
 20
1923.4076899999991
 30
0.0
 11
2862.4319810000002
 21
1843.4076899999991
 31
0.0
  0
LINE
  5
7B56
  8
1
  6
CONTINUOUS
 10
2806.4319809999988
 20
2124.4076899999991
 30
0.0
 11
2906.4319809999988
 21
2124.4076899999991
 31
0.0
  0
LINE
  5
7B57
  8
1
  6
CONTINUOUS
 10
2806.4319809999988
 20
2086.40769
 30
0.0
 11
2906.4319809999988
 21
2086.40769
 31
0.0
  0
LINE
  5
7B58
  8
1
  6
CONTINUOUS
 10
2806.4319809999988
 20
2055.40769
 30
0.0
 11
2806.4319809999988
 21
2155.40769
 31
0.0
  0
LINE
  5
7B59
  8
1
  6
CONTINUOUS
 10
3310.4319810000002
 20
1923.4076899999991
 30
0.0
 11
3310.4319810000002
 21
1843.4076899999991
 31
0.0
  0
LINE
  5
7B5A
  8
1
  6
CONTINUOUS
 10
2906.4319809999988
 20
2663.40769
 30
0.0
 11
3266.4319809999988
 21
2663.40769
 31
0.0
  0
LINE
  5
7B5B
  8
1
  6
CONTINUOUS
 10
3291.4319809999988
 20
2688.40769
 30
0.0
 11
2881.4319810000002
 21
2688.40769
 31
0.0
  0
LINE
  5
7B5C
  8
1
  6
CONTINUOUS
 10
2806.4319809999988
 20
2213.4076899999991
 30
0.0
 11
2806.4319809999988
 21
2453.40769
 31
0.0
  0
LINE
  5
7B5D
  8
1
  6
CONTINUOUS
 10
2806.4319809999988
 20
2314.40769
 30
0.0
 11
2906.4319809999988
 21
2314.40769
 31
0.0
  0
LINE
  5
7B5E
  8
1
  6
CONTINUOUS
 10
2806.4319809999988
 20
2352.40769
 30
0.0
 11
2906.4319809999988
 21
2352.40769
 31
0.0
  0
LINE
  5
7B5F
  8
1
  6
CONTINUOUS
 10
3390.4319810000002
 20
1843.4076899999991
 30
0.0
 11
3390.4319810000002
 21
1803.40769
 31
0.0
  0
LINE
  5
7B68
  8
1
  6
CONTINUOUS
 10
2190.2628249999998
 20
4189.8076899999996
 30
0.0
 11
2190.2628249999998
 21
3499.8076899999992
 31
0.0
  0
LINE
  5
7B69
  8
1
  6
CONTINUOUS
 10
2122.2628249999989
 20
3686.0476899999999
 30
0.0
 11
2122.2628249999989
 21
4036.0476899999999
 31
0.0
  0
LINE
  5
7B6A
  8
1
  6
CONTINUOUS
 10
2150.2628249999989
 20
3499.8076899999992
 30
0.0
 11
2150.2628249999989
 21
3661.8076899999992
 31
0.0
  0
LINE
  5
7B6B
  8
1
  6
CONTINUOUS
 10
2050.2628249999989
 20
3605.8076899999992
 30
0.0
 11
2050.2628249999989
 21
3545.8076899999992
 31
0.0
  0
LINE
  5
7B6C
  8
1
  6
CONTINUOUS
 10
2144.7628249999989
 20
3515.8076899999992
 30
0.0
 11
2144.7628249999989
 21
3635.8076900000001
 31
0.0
  0
LINE
  5
7B6D
  8
1
  6
CONTINUOUS
 10
2150.2628249999989
 20
3499.8076899999992
 30
0.0
 11
2190.2628249999998
 21
3499.8076899999992
 31
0.0
  0
LINE
  5
7B6E
  8
1
  6
CONTINUOUS
 10
2190.2628249999998
 20
3661.8076899999992
 30
0.0
 11
2019.262825
 21
3661.8076899999992
 31
0.0
  0
LINE
  5
7B6F
  8
1
  6
CONTINUOUS
 10
2019.262825
 20
3605.8076899999992
 30
0.0
 11
2019.262825
 21
3686.0476899999999
 31
0.0
  0
LINE
  5
7B70
  8
1
  6
CONTINUOUS
 10
1981.2628249999991
 20
3605.8076899999992
 30
0.0
 11
1981.2628249999991
 21
3686.0476899999999
 31
0.0
  0
LINE
  5
7B71
  8
1
  6
CONTINUOUS
 10
2150.2628249999989
 20
4189.8076899999996
 30
0.0
 11
2190.2628249999998
 21
4189.8076899999996
 31
0.0
  0
LINE
  5
7B72
  8
1
  6
CONTINUOUS
 10
2150.2628249999989
 20
4189.8076899999996
 30
0.0
 11
2150.2628249999989
 21
4109.8076899999987
 31
0.0
  0
LINE
  5
7B95
  8
2
  6
CENTER
 10
959.91096999999991
 20
3885.8076900000001
 30
0.0
 11
2233.9850670000001
 21
3885.8076900000001
 31
0.0
  0
LINE
  5
7B96
  8
2
  6
CENTER
 10
3086.4319810000002
 20
2735.5749420000002
 30
0.0
 11
3086.4319810000002
 21
1643.5758559999999
 31
0.0
  0
LINE
  5
7B97
  8
2
  6
CENTER
 10
1370.262825
 20
3459.4665600892599
 30
0.0
 11
1370.262825
 21
4159.8427492050341
 31
0.0
  0
LINE
  5
7B98
  8
2
  6
CENTER
 10
1991.734167948307
 20
2333.40769
 30
0.0
 11
914.9097190239263
 21
2333.40769
 31
0.0
  0
LINE
  5
7B99
  8
4
  6
CONTINUOUS
 10
3700.0
 20
1000.0
 30
0.0
 11
3700.0
 21
600.0
 31
0.0
  0
LINE
  5
7B9A
  8
4
  6
CONTINUOUS
 10
2300.0
 20
1000.0
 30
0.0
 11
2300.0
 21
600.0
 31
0.0
  0
LINE
  5
7B9B
  8
4
  6
CONTINUOUS
 10
1300.0
 20
1000.0
 30
0.0
 11
1300.0
 21
600.0
 31
0.0
  0
LINE
  5
7B9E
  8
4
  6
CONTINUOUS
 10
1300.0
 20
600.0
 30
0.0
 11
3700.0
 21
600.0
 31
0.0
  0
LINE
  5
7B9F
  8
4
  6
CONTINUOUS
 10
1300.0
 20
800.0
 30
0.0
 11
3700.0
 21
800.0
 31
0.0
  0
TEXT
  5
7BA0
  8
4
  6
CONTINUOUS
 10
1377.004162
 20
863.086052
 30
0.0
 40
100.0
  1
機器名称
  0
TEXT
  5
7BA1
  8
4
  6
CONTINUOUS
 10
1372.516212
 20
643.29031299999986
 30
0.0
 40
100.0
  1
機器型番
  0
TEXT
  5
7BA2
  8
4
  6
CONTINUOUS
 10
2355.3574910000002
 20
845.14353800000015
 30
0.0
 40
100.0
  1
ミツヤ多翼送風機
  0
TEXT
  5
7BA3
  8
4
  6
CONTINUOUS
 10
2373.3089909999999
 20
634.31916899999999
 30
0.0
 40
100.0
  1
MF#3-4
  0
TEXT
  5
7BA5
  8
4
  6
CONTINUOUS
 10
1656.6424030000001
 20
4766.8576830000002
 30
0.0
 40
108.0
  1
天井吊ベット
  0
TEXT
  5
7BA6
  8
4
  6
CONTINUOUS
 10
632.33518700000002
 20
5067.7619520000007
 30
0.0
 40
144.0
  1
ベルト駆動式片吸込両持多翼ファン
  0
LINE
  5
7BA7
  8
4
  6
CONTINUOUS
 10
500.0
 20
4938.8175090000004
 30
0.0
 11
3700.0
 21
4938.8175090000004
 31
0.0
  0
LINE
  5
7BA8
  8
4
  6
CONTINUOUS
 10
500.0
 20
5338.8175090000004
 30
0.0
 11
3700.0
 21
5338.8175090000004
 31
0.0
  0
LINE
  5
7BA9
  8
4
  6
CONTINUOUS
 10
1300.0
 20
1000.0
 30
0.0
 11
3700.0
 21
1000.0
 31
0.0
  0
LINE
  5
7BAA
  8
4
  6
CONTINUOUS
 10
500.0
 20
5338.8175090000004
 30
0.0
 11
500.0
 21
4938.8175090000004
 31
0.0
  0
TEXT
  5
7BAB
  8
4
  6
CONTINUOUS
 10
784.92473799999993
 20
4764.6389549999994
 30
0.0
 40
108.0
  1
左回転上向
  0
TEXT
  5
7BAC
  8
4
  6
CONTINUOUS
 10
2937.9391179999998
 20
5412.122163
 30
0.0
 40
112.0
  1
No.
  0
TEXT
  5
7BAD
  8
4
  6
CONTINUOUS
 10
2622.5921250000001
 20
4766.8576830000002
 30
0.0
 40
108.0
  1
縮尺：1/20
  0
LINE
  5
7BAE
  8
4
  6
CONTINUOUS
 10
3700.0
 20
5338.8175090000004
 30
0.0
 11
3700.0
 21
4938.8175090000004
 31
0.0
  0
LINE
  5
7BB0
  8
4
  6
CONTINUOUS
 10
2881.234845
 20
5362.5271659999999
 30
0.0
 11
2881.234845
 21
5573.3045229999998
 31
0.0
  0
LINE
  5
7BB1
  8
4
  6
CONTINUOUS
 10
2881.234845
 20
5573.3045229999998
 30
0.0
 11
3700.0
 21
5573.3045229999998
 31
0.0
  0
LINE
  5
7BB2
  8
4
  6
CONTINUOUS
 10
3700.0
 20
5573.3045229999998
 30
0.0
 11
3700.0
 21
5362.5271659999999
 31
0.0
  0
LINE
  5
7BB3
  8
4
  6
CONTINUOUS
 10
3700.0
 20
5362.5271659999999
 30
0.0
 11
2881.234845
 21
5362.5271659999999
 31
0.0
  0
LINE
  5
7BB8
  8
1
  6
CONTINUOUS
 10
1144.762825
 20
1923.4076899999991
 30
0.0
 11
1144.762825
 21
2593.40769
 31
0.0
  0
LINE
  5
7BB9
  8
1
  6
CONTINUOUS
 10
1144.762825
 20
2593.40769
 30
0.0
 11
1394.762825
 21
2668.40769
 31
0.0
  0
LINE
  5
7BBA
  8
1
  6
CONTINUOUS
 10
1394.762825
 20
2668.40769
 30
0.0
 11
2144.7628249999989
 21
2158.40769
 31
0.0
  0
LINE
  5
7BBB
  8
1
  6
CONTINUOUS
 10
2144.7628249999989
 20
2158.40769
 30
0.0
 11
2144.7628249999989
 21
1923.4076899999991
 31
0.0
  0
DIMENSION
  5
7BCF
  8
3
  6
CONTINUOUS
  2
*D1
 10
1832.262825
 20
2801.5294909999998
 30
0.0
 11
1560.5497580000001
 21
2801.5294909999998
 31
0.0
 70
   128
 13
1352.262825
 23
2688.40769
 33
0.0
 14
1832.262825
 24
2688.40769
 34
0.0
1001
ACAD
1000
DSTYLE
1002
{
1070
   287
1070
     3
1070
    40
1040
20.0
1070
   143
1040
0.039
1070
   172
1070
     1
1070
   271
1070
     0
1070
   279
1070
     0
1070
   288
1070
     1
1002
}
  0
DIMENSION
  5
7BDC
  8
3
  6
CONTINUOUS
  2
*D2
 10
1370.262825
 20
2921.536885
 30
0.0
 11
1553.26938
 21
2921.536885
 31
0.0
 70
   128
 13
1832.262825
 23
2688.40769
 33
0.0
 14
1370.262825
 24
2844.043326999999
 34
0.0
1001
ACAD
1000
DSTYLE
1002
{
1070
   287
1070
     3
1070
    40
1040
20.0
1070
   143
1040
0.039
1070
   172
1070
     1
1070
   271
1070
     0
1070
   279
1070
     0
1070
   288
1070
     1
1002
}
  0
DIMENSION
  5
7BE8
  8
3
  6
CONTINUOUS
  2
*D3
 10
1015.262825
 20
2921.536885
 30
0.0
 11
1192.7628249999991
 21
2971.536885
 31
0.0
 70
     0
 13
1370.262825
 23
2844.043326999999
 33
0.0
 14
1015.262825
 24
2643.40769
 34
0.0
1001
ACAD
1000
DSTYLE
1002
{
1070
   287
1070
     4
1070
    40
1040
20.0
1070
    75
1070
     1
1070
   143
1040
0.039
1070
   172
1070
     1
1070
   271
1070
     0
1070
   279
1070
     1
1070
   288
1070
     1
1002
}
  0
DIMENSION
  5
7BF5
  8
3
  6
CONTINUOUS
  2
*D4
 10
881.5712580000004
 20
2333.40769
 30
0.0
 11
881.57125800000006
 21
2502.8209299999999
 31
0.0
 70
   128
 13
1335.262825
 23
2688.40769
 33
0.0
 14
903.00957093937529
 24
2333.40769
 34
0.0
 50
90.0
1001
ACAD
1000
DSTYLE
1002
{
1070
   287
1070
     3
1070
    40
1040
20.0
1070
   143
1040
0.039
1070
   172
1070
     1
1070
   271
1070
     0
1070
   279
1070
     0
1070
   288
1070
     1
1002
}
  0
DIMENSION
  5
7C01
  8
3
  6
CONTINUOUS
  2
*D5
 10
881.57125800000006
 20
1843.4076899999991
 30
0.0
 11
831.57125799999972
 21
2088.4076899999991
 31
0.0
 70
     0
 13
903.00957093937529
 23
2333.40769
 33
0.0
 14
1070.262825
 24
1843.4076899999991
 34
0.0
 50
90.0
1001
ACAD
1000
DSTYLE
1002
{
1070
   287
1070
     4
1070
    40
1040
20.0
1070
    75
1070
     1
1070
   143
1040
0.039
1070
   172
1070
     1
1070
   271
1070
     0
1070
   279
1070
     1
1070
   288
1070
     1
1002
}
  0
DIMENSION
  5
7C11
  8
3
  6
CONTINUOUS
  2
*D6
 10
880.69371000000035
 20
1803.40769
 30
0.0
 11
880.69371000000001
 21
1654.8362614285711
 31
0.0
 70
   128
 13
1070.262825
 23
1843.4076899999991
 33
0.0
 14
1070.262825
 24
1803.40769
 34
0.0
 50
90.0
1001
ACAD
1000
DSTYLE
1002
{
1070
   287
1070
     3
1070
    40
1040
20.0
1070
   143
1040
0.039
1070
   172
1070
     1
1070
   271
1070
     0
1070
   279
1070
     0
1070
   288
1070
     1
1002
}
  0
DIMENSION
  5
7C1E
  8
3
  6
CONTINUOUS
  2
*D7
 10
726.94606700000031
 20
1803.40769
 30
0.0
 11
726.94606699999986
 21
2262.8061269999998
 31
0.0
 70
   128
 13
1325.262825
 23
2688.40769
 33
0.0
 14
1070.262825
 24
1803.40769
 34
0.0
 50
90.0
1001
ACAD
1000
DSTYLE
1002
{
1070
   287
1070
     3
1070
    40
1040
20.0
1070
   143
1040
0.039
1070
   172
1070
     1
1070
   271
1070
     0
1070
   279
1070
     0
1070
   288
1070
     1
1002
}
  0
DIMENSION
  5
7C2B
  8
3
  6
CONTINUOUS
  2
*D8
 10
1370.262825
 20
1667.747102
 30
0.0
 11
1233.119968
 21
1667.747102
 31
0.0
 70
   128
 13
1070.262825
 23
1803.40769
 33
0.0
 14
1370.262825
 24
1658.967601999999
 34
0.0
1001
ACAD
1000
DSTYLE
1002
{
1070
   287
1070
     3
1070
    40
1040
20.0
1070
   143
1040
0.039
1070
   172
1070
     1
1070
   271
1070
     0
1070
   279
1070
     0
1070
   288
1070
     1
1002
}
  0
DIMENSION
  5
7C37
  8
3
  6
CONTINUOUS
  2
*D9
 10
2190.2628249999998
 20
1667.747102
 30
0.0
 11
1780.2628249999991
 21
1717.747102
 31
0.0
 70
     0
 13
1370.262825
 23
1658.967601999999
 33
0.0
 14
2190.2628249999998
 24
1803.40769
 34
0.0
1001
ACAD
1000
DSTYLE
1002
{
1070
   287
1070
     4
1070
    40
1040
20.0
1070
    75
1070
     1
1070
   143
1040
0.039
1070
   172
1070
     1
1070
   271
1070
     0
1070
   279
1070
     1
1070
   288
1070
     1
1002
}
  0
DIMENSION
  5
7C44
  8
3
  6
CONTINUOUS
  2
*D10
 10
2906.4319809999988
 20
2738.3108491804201
 30
0.0
 11
3067.588757999999
 21
2738.3108491804201
 31
0.0
 70
   128
 13
3266.4319809999988
 23
2688.40769
 33
0.0
 14
2906.4319809999988
 24
2688.40769
 34
0.0
1001
ACAD
1000
DSTYLE
1002
{
1070
   287
1070
     3
1070
    40
1040
20.0
1070
   143
1040
0.039
1070
   172
1070
     1
1070
   271
1070
     0
1070
   279
1070
     0
1070
   288
1070
     1
1002
}
  0
DIMENSION
  5
7C88
  8
3
  6
CONTINUOUS
  2
*D11
 10
3086.4319810000002
 20
1643.375685999999
 30
0.0
 11
2889.2194209999998
 21
1643.375685999999
 31
0.0
 70
   128
 13
2700.4319809999988
 23
1803.40769
 33
0.0
 14
3086.4319810000002
 24
1686.6217034765079
 34
0.0
1001
ACAD
1000
DSTYLE
1002
{
1070
   287
1070
     3
1070
    40
1040
20.0
1070
   143
1040
0.039
1070
   172
1070
     1
1070
   271
1070
     0
1070
   279
1070
     0
1070
   288
1070
     1
1002
}
  0
DIMENSION
  5
7C94
  8
3
  6
CONTINUOUS
  2
*D12
 10
3390.4319810000002
 20
1643.375685999999
 30
0.0
 11
3238.4319810000002
 21
1693.375685999999
 31
0.0
 70
     0
 13
3086.4319810000002
 23
1684.5717102399431
 33
0.0
 14
3390.4319810000002
 24
1803.40769
 34
0.0
1001
ACAD
1000
DSTYLE
1002
{
1070
   287
1070
     4
1070
    40
1040
20.0
1070
    75
1070
     1
1070
   143
1040
0.039
1070
   172
1070
     1
1070
   271
1070
     0
1070
   279
1070
     1
1070
   288
1070
     1
1002
}
  0
LINE
  5
7CAC
  8
1
  6
CONTINUOUS
 10
3267.4319810000002
 20
2583.40769
 30
0.0
 11
3267.4319810000002
 21
2083.40769
 31
0.0
  0
DIMENSION
  5
7CBD
  8
3
  6
CONTINUOUS
  2
*D13
 10
3086.4319810000002
 20
2881.4715000000001
 30
0.0
 11
3176.9319810000002
 21
2946.259870204256
 31
0.0
 70
   128
 13
3267.4319810000002
 23
2583.40769
 33
0.0
 14
3086.4319810000002
 24
2834.7230827925791
 34
0.0
1001
ACAD
1000
DSTYLE
1002
{
1070
   288
1070
     1
1070
   172
1070
     1
1070
    40
1040
20.0
1070
   271
1070
     0
1070
   143
1040
0.039
1002
}
  0
DIMENSION
  5
7CC9
  8
3
  6
CONTINUOUS
  2
*D14
 10
2716.4319809999988
 20
2881.4715000000001
 30
0.0
 11
2901.4319809999988
 21
2981.4715000000001
 31
0.0
 70
     0
  1
MAX\P430
 13
3086.4319810000002
 23
2834.7230827925791
 33
0.0
 14
2716.4319809999988
 24
2668.40769
 34
0.0
1001
ACAD
1000
DSTYLE
1002
{
1070
   287
1070
     4
1070
    40
1040
20.0
1070
    75
1070
     1
1070
   143
1040
0.039
1070
   172
1070
     1
1070
   271
1070
     0
1070
   279
1070
     1
1070
   288
1070
     1
1002
}
  0
DIMENSION
  5
7CD6
  8
3
  6
CONTINUOUS
  2
*D15
 10
3427.9676589999999
 20
2083.40769
 30
0.0
 11
3427.9676589999999
 21
2331.9012989999992
 31
0.0
 70
   128
 13
3267.4319810000002
 23
2583.40769
 33
0.0
 14
3267.4319810000002
 24
2083.40769
 34
0.0
 50
90.0
1001
ACAD
1000
DSTYLE
1002
{
1070
   287
1070
     3
1070
     3
1000
φ<>
1070
    40
1040
20.0
1070
   143
1040
0.039
1070
   172
1070
     1
1070
   271
1070
     0
1070
   279
1070
     0
1070
   288
1070
     1
1002
}
  0
DIMENSION
  5
7CE3
  8
3
  6
CONTINUOUS
  2
*D16
 10
2190.2628249999998
 20
4281.8959450000002
 30
0.0
 11
1596.9516699999999
 21
4281.8959450000002
 31
0.0
 70
   128
 13
1070.262825
 23
4189.8076899999996
 33
0.0
 14
2190.2628249999998
 24
4189.8076899999996
 34
0.0
1001
ACAD
1000
DSTYLE
1002
{
1070
   287
1070
     3
1070
    40
1040
20.0
1070
   143
1040
0.039
1070
   172
1070
     1
1070
   271
1070
     0
1070
   279
1070
     0
1070
   288
1070
     1
1002
}
  0
DIMENSION
  5
7CF0
  8
3
  6
CONTINUOUS
  2
*D17
 10
2360.360498
 20
3499.8076899999992
 30
0.0
 11
2360.3604979999991
 21
3869.0488519999999
 31
0.0
 70
   128
 13
2190.2628249999998
 23
4189.8076899999996
 33
0.0
 14
2190.2628249999998
 24
3499.8076899999992
 34
0.0
 50
90.0
1001
ACAD
1000
DSTYLE
1002
{
1070
   287
1070
     3
1070
    40
1040
20.0
1070
   143
1040
0.039
1070
   172
1070
     1
1070
   271
1070
     0
1070
   279
1070
     0
1070
   288
1070
     1
1002
}
  0
DIMENSION
  5
7DE0
  8
3
  2
*D18
 10
2190.2628249999998
 20
3047.9544657673482
 30
0.0
 11
1624.898615435558
 21
3047.9544657673482
 31
0.0
 70
   128
 13
1015.262825
 23
2643.40769
 33
0.0
 14
2190.2628249999998
 24
1923.4076899999991
 34
0.0
1001
ACAD
1000
DSTYLE
1002
{
1070
   287
1070
     3
1070
    40
1040
20.0
1070
   143
1040
0.039
1070
   172
1070
     1
1070
   271
1070
     0
1070
   279
1070
     0
1070
   288
1070
     1
1002
}
  0
ENDSEC
  0
EOF
