  0
SECTION
  2
HEADER
  9
$ACADVER
  1
AC1009
  9
$INSBASE
 10
0.0
 20
0.0
 30
0.0
  9
$EXTMIN
 10
500.0
 20
600.0
 30
0.0
  9
$EXTMAX
 10
3700.0
 20
5573.3045229999998
 30
0.0
  9
$LIMMIN
 10
0.0
 20
0.0
  9
$LIMMAX
 10
297.0
 20
210.0
  9
$ORTHOMODE
 70
     0
  9
$REGENMODE
 70
     1
  9
$FILLMODE
 70
     0
  9
$QTEXTMODE
 70
     0
  9
$MIRRTEXT
 70
     1
  9
$DRAGMODE
 70
     2
  9
$LTSCALE
 40
100.0
  9
$OSMODE
 70
    37
  9
$ATTMODE
 70
     1
  9
$TEXTSIZE
 40
180.0
  9
$TRACEWID
 40
0.05
  9
$TEXTSTYLE
  7
STANDARD
  9
$CLAYER
  8
3
  9
$CELTYPE
  6
BYLAYER
  9
$CECOLOR
 62
   256
  9
$DIMSCALE
 40
20.0
  9
$DIMASZ
 40
2.0
  9
$DIMEXO
 40
0.5
  9
$DIMDLI
 40
10.0
  9
$DIMRND
 40
0.0
  9
$DIMDLE
 40
0.0
  9
$DIMEXE
 40
1.0
  9
$DIMTP
 40
1.0
  9
$DIMTM
 40
1.0
  9
$DIMTXT
 40
3.0
  9
$DIMCEN
 40
0.0
  9
$DIMTSZ
 40
0.0
  9
$DIMTOL
 70
     0
  9
$DIMLIM
 70
     0
  9
$DIMTIH
 70
     0
  9
$DIMTOH
 70
     0
  9
$DIMSE1
 70
     0
  9
$DIMSE2
 70
     0
  9
$DIMTAD
 70
     1
  9
$DIMZIN
 70
     8
  9
$DIMBLK
  1

  9
$DIMASO
 70
     1
  9
$DIMSHO
 70
     1
  9
$DIMPOST
  1

  9
$DIMAPOST
  1

  9
$DIMALT
 70
     0
  9
$DIMALTD
 70
     2
  9
$DIMALTF
 40
0.039
  9
$DIMLFAC
 40
1.0
  9
$DIMTOFL
 70
     1
  9
$DIMTVP
 40
0.0
  9
$DIMTIX
 70
     0
  9
$DIMSOXD
 70
     0
  9
$DIMSAH
 70
     1
  9
$DIMBLK1
  1
OPEN
  9
$DIMBLK2
  1
OPEN
  9
$DIMSTYLE
  2
IGA
  9
$DIMCLRD
 70
     0
  9
$DIMCLRE
 70
     0
  9
$DIMCLRT
 70
     0
  9
$DIMTFAC
 40
10.0
  9
$DIMGAP
 40
1.0
  9
$LUNITS
 70
     2
  9
$LUPREC
 70
     3
  9
$SKETCHINC
 40
0.1
  9
$FILLETRAD
 40
50.0
  9
$AUNITS
 70
     0
  9
$AUPREC
 70
     0
  9
$MENU
  1
acad
  9
$ELEVATION
 40
0.0
  9
$PELEVATION
 40
0.0
  9
$THICKNESS
 40
0.0
  9
$LIMCHECK
 70
     0
  9
$BLIPMODE
 70
     0
  9
$CHAMFERA
 40
0.5
  9
$CHAMFERB
 40
0.5
  9
$SKPOLY
 70
     0
  9
$TDCREATE
 40
2450731.5682174759
  9
$TDUPDATE
 40
2454953.7666624989
  9
$TDINDWG
 40
0.0107267824
  9
$TDUSRTIMER
 40
0.0107267824
  9
$USRTIMER
 70
     1
  9
$ANGBASE
 50
0.0
  9
$ANGDIR
 70
     0
  9
$PDMODE
 70
     0
  9
$PDSIZE
 40
0.0
  9
$PLINEWID
 40
0.0
  9
$COORDS
 70
     1
  9
$SPLFRAME
 70
     0
  9
$SPLINETYPE
 70
     6
  9
$SPLINESEGS
 70
     8
  9
$ATTDIA
 70
     0
  9
$ATTREQ
 70
     1
  9
$HANDLING
 70
 10241
  9
$HANDSEED
  5
7EFA
  9
$SURFTAB1
 70
     6
  9
$SURFTAB2
 70
     6
  9
$SURFTYPE
 70
     6
  9
$SURFU
 70
     6
  9
$SURFV
 70
     6
  9
$UCSNAME
  2

  9
$UCSORG
 10
0.0
 20
0.0
 30
0.0
  9
$UCSXDIR
 10
1.0
 20
0.0
 30
0.0
  9
$UCSYDIR
 10
0.0
 20
1.0
 30
0.0
  9
$PUCSNAME
  2

  9
$PUCSORG
 10
0.0
 20
0.0
 30
0.0
  9
$PUCSXDIR
 10
1.0
 20
0.0
 30
0.0
  9
$PUCSYDIR
 10
0.0
 20
1.0
 30
0.0
  9
$USERI1
 70
     0
  9
$USERI2
 70
     0
  9
$USERI3
 70
     0
  9
$USERI4
 70
     0
  9
$USERI5
 70
     0
  9
$USERR1
 40
0.0
  9
$USERR2
 40
0.0
  9
$USERR3
 40
0.0
  9
$USERR4
 40
0.0
  9
$USERR5
 40
0.0
  9
$WORLDVIEW
 70
     1
  9
$SHADEDGE
 70
     3
  9
$SHADEDIF
 70
    70
  9
$TILEMODE
 70
     1
  9
$MAXACTVP
 70
    16
  9
$PLIMCHECK
 70
     0
  9
$PEXTMIN
 10
1.0000000000000000E+020
 20
1.0000000000000000E+020
 30
1.0000000000000000E+020
  9
$PEXTMAX
 10
-1.0000000000000000E+020
 20
-1.0000000000000000E+020
 30
-1.0000000000000000E+020
  9
$PLIMMIN
 10
0.0
 20
0.0
  9
$PLIMMAX
 10
12.0
 20
9.0
  9
$UNITMODE
 70
     0
  9
$VISRETAIN
 70
     0
  9
$PLINEGEN
 70
     0
  9
$PSLTSCALE
 70
     1
  0
ENDSEC
  0
SECTION
  2
TABLES
  0
TABLE
  2
VPORT
 70
     2
  0
VPORT
  2
*ACTIVE
 70
     0
 10
0.0
 20
0.0
 11
1.0
 21
1.0
 12
6292.1124769529506
 22
3086.6374998146398
 13
0.0
 23
0.0
 14
10.0
 24
10.0
 15
10.0
 25
10.0
 16
0.0
 26
0.0
 36
1.0
 17
0.0
 27
0.0
 37
0.0
 40
5011.4968576296578
 41
3.1666666666666661
 42
50.0
 43
0.0
 44
0.0
 50
0.0
 51
0.0
 71
     0
 72
   100
 73
     1
 74
     0
 75
     0
 76
     0
 77
     0
 78
     0
  0
ENDTAB
  0
TABLE
  2
LTYPE
 70
     2
  0
LTYPE
  2
CONTINUOUS
 70
     0
  3
Solid line
 72
    65
 73
     0
 40
0.0
  0
LTYPE
  2
CENTER
 70
     0
  3
____ _ ____ _ ____ _ ____ _ ____ _ ____ _ ____ 
 72
    65
 73
     4
 40
2.0
 49
1.25
 49
-0.25
 49
0.25
 49
-0.25
  0
ENDTAB
  0
TABLE
  2
LAYER
 70
     6
  0
LAYER
  2
0
 70
     0
 62
     7
  6
CONTINUOUS
  0
LAYER
  2
3
 70
     0
 62
     2
  6
CONTINUOUS
  0
LAYER
  2
2
 70
     0
 62
     3
  6
CENTER
  0
LAYER
  2
1
 70
     0
 62
     4
  6
CONTINUOUS
  0
LAYER
  2
4
 70
     0
 62
     7
  6
CONTINUOUS
  0
LAYER
  2
DEFPOINTS
 70
     0
 62
     7
  6
CONTINUOUS
  0
ENDTAB
  0
TABLE
  2
STYLE
 70
     1
  0
STYLE
  2
STANDARD
 70
     0
 40
0.0
 41
1.0
 50
0.0
 71
     0
 42
180.0
  3
simplex.shx
  4
extfont.shx
  0
ENDTAB
  0
TABLE
  2
VIEW
 70
     0
  0
ENDTAB
  0
TABLE
  2
UCS
 70
     0
  0
ENDTAB
  0
TABLE
  2
APPID
 70
     1
  0
APPID
  2
ACAD
 70
     0
  0
ENDTAB
  0
TABLE
  2
DIMSTYLE
 70
     1
  0
DIMSTYLE
  2
IGA
 70
     0
  3

  4

  5

  6
OPEN
  7
OPEN
 40
2.0
 41
2.0
 42
0.5
 43
10.0
 44
1.0
 45
0.0
 46
0.0
 47
1.0
 48
1.0
140
3.0
141
0.0
142
0.0
143
0.03937
144
1.0
145
0.0
146
10.0
147
1.0
 71
     0
 72
     0
 73
     0
 74
     0
 75
     0
 76
     0
 77
     1
 78
     8
170
     0
171
     2
172
     0
173
     1
174
     0
175
     0
176
     0
177
     0
178
     0
  0
ENDTAB
  0
ENDSEC
  0
SECTION
  2
BLOCKS
  0
BLOCK
  8
0
  2
$MODEL_SPACE
 70
     0
 10
0.0
 20
0.0
 30
0.0
  3
$MODEL_SPACE
  1

  0
ENDBLK
  5
1B
  8
0
  0
BLOCK
 67
     1
  8
0
  2
$PAPER_SPACE
 70
     0
 10
0.0
 20
0.0
 30
0.0
  3
$PAPER_SPACE
  1

  0
ENDBLK
  5
18
 67
     1
  8
0
  0
BLOCK
  8
0
  2
_OPEN
 70
     0
 10
0.0
 20
0.0
 30
0.0
  3
_OPEN
  1

  0
LINE
  5
7BB8
  8
0
  6
BYBLOCK
 62
     0
 10
-1.0
 20
0.166667
 30
0.0
 11
0.0
 21
0.0
 31
0.0
  0
LINE
  5
7BB9
  8
0
  6
BYBLOCK
 62
     0
 10
0.0
 20
0.0
 30
0.0
 11
-1.0
 21
-0.166667
 31
0.0
  0
LINE
  5
7BBA
  8
0
  6
BYBLOCK
 62
     0
 10
0.0
 20
0.0
 30
0.0
 11
-1.0
 21
0.0
 31
0.0
  0
ENDBLK
  5
7BBB
  8
0
  0
BLOCK
  8
0
  2
*D1
 70
     1
 10
0.0
 20
0.0
 30
0.0
  3
*D1
  1

  0
LINE
  5
7E50
  8
3
  6
CONTINUOUS
 62
     0
 10
1125.9503539999989
 20
2645.9477859999988
 30
0.0
 11
1038.0458819999999
 21
2645.9477859999988
 31
0.0
  0
LINE
  5
7E51
  8
3
  6
CONTINUOUS
 62
     0
 10
1125.9503539999989
 20
2165.9477859999988
 30
0.0
 11
1038.0458819999999
 21
2165.9477859999988
 31
0.0
  0
LINE
  5
7E52
  8
3
  6
CONTINUOUS
 62
     0
 10
1058.0458819999999
 20
2605.9477859999988
 30
0.0
 11
1058.0458819999999
 21
2205.9477859999988
 31
0.0
  0
INSERT
  5
7E53
  8
3
  6
CONTINUOUS
 62
     0
  2
_OPEN
 10
1058.0458819999999
 20
2645.9477859999988
 30
0.0
 41
40.0
 42
40.0
 43
40.0
 50
90.0
  0
INSERT
  5
7E54
  8
3
  6
CONTINUOUS
 62
     0
  2
_OPEN
 10
1058.0458819999999
 20
2165.9477859999988
 30
0.0
 41
40.0
 42
40.0
 43
40.0
 50
270.0
  0
TEXT
  8
3
  40
60
  5
7EE8
  62
0
  72
0
  71
0
 10
888.046
 20
2274.42
 30
0.000000
  1
480
  0
POINT
  5
7E56
  8
DEFPOINTS
  6
CONTINUOUS
 62
     0
 10
1135.9503539999989
 20
2645.9477859999988
 30
0.0
  0
POINT
  5
7E57
  8
DEFPOINTS
  6
CONTINUOUS
 62
     0
 10
1135.9503539999989
 20
2165.9477859999988
 30
0.0
  0
POINT
  5
7E58
  8
DEFPOINTS
  6
CONTINUOUS
 62
     0
 10
1058.0458819999999
 20
2165.9477859999988
 30
0.0
  0
ENDBLK
  5
7C47
  8
0
  0
BLOCK
  8
0
  2
*D2
 70
     1
 10
0.0
 20
0.0
 30
0.0
  3
*D2
  1

  0
LINE
  5
7E59
  8
3
  6
CONTINUOUS
 62
     0
 10
1125.9503539999989
 20
2645.9477859999988
 30
0.0
 11
915.61956100000043
 21
2645.9477860000002
 31
0.0
  0
LINE
  5
7E5A
  8
3
  6
CONTINUOUS
 62
     0
 10
911.71654999999998
 20
2183.9477860000002
 30
0.0
 11
955.61956100000032
 21
2183.9477860000002
 31
0.0
  0
LINE
  5
7E5B
  8
3
  6
CONTINUOUS
 62
     0
 10
935.61956100000032
 20
2605.9477860000002
 30
0.0
 11
935.61956100000032
 21
2223.9477859999988
 31
0.0
  0
INSERT
  5
7E5C
  8
3
  6
CONTINUOUS
 62
     0
  2
_OPEN
 10
935.61956100000032
 20
2645.9477860000002
 30
0.0
 41
40.0
 42
40.0
 43
40.0
 50
90.0
  0
INSERT
  5
7E5D
  8
3
  6
CONTINUOUS
 62
     0
  2
_OPEN
 10
935.61956100000032
 20
2183.9477860000002
 30
0.0
 41
40.0
 42
40.0
 43
40.0
 50
270.0
  0
TEXT
  8
3
  40
60
  5
7EE9
  62
0
  72
0
  71
0
 10
765.620
 20
2269.53
 30
0.000000
  1
462
  0
POINT
  5
7E5F
  8
DEFPOINTS
  6
CONTINUOUS
 62
     0
 10
1135.9503539999989
 20
2645.9477859999988
 30
0.0
  0
POINT
  5
7E60
  8
DEFPOINTS
  6
CONTINUOUS
 62
     0
 10
901.71654999999998
 20
2183.9477860000002
 30
0.0
  0
POINT
  5
7E61
  8
DEFPOINTS
  6
CONTINUOUS
 62
     0
 10
935.61956100000032
 20
2183.9477860000002
 30
0.0
  0
ENDBLK
  5
7C5D
  8
0
  0
BLOCK
  8
0
  2
*D3
 70
     1
 10
0.0
 20
0.0
 30
0.0
  3
*D3
  1

  0
LINE
  5
7E62
  8
3
  6
CONTINUOUS
 62
     0
 10
1180.9503539999989
 20
1748.947786
 30
0.0
 11
915.61956099999986
 21
1748.947786
 31
0.0
  0
LINE
  5
7E63
  8
3
  6
CONTINUOUS
 62
     0
 10
935.61956099999998
 20
2143.9477859999988
 30
0.0
 11
935.61956099999998
 21
1788.947786
 31
0.0
  0
INSERT
  5
7E64
  8
3
  6
CONTINUOUS
 62
     0
  2
_OPEN
 10
935.61956099999998
 20
2183.9477860000002
 30
0.0
 41
40.0
 42
40.0
 43
40.0
 50
90.0
  0
INSERT
  5
7E65
  8
3
  6
CONTINUOUS
 62
     0
  2
_OPEN
 10
935.61956099999998
 20
1748.947786
 30
0.0
 41
40.0
 42
40.0
 43
40.0
 50
270.0
  0
TEXT
  8
3
  40
60
  5
7EEA
  62
0
  72
0
  71
0
 10
765.620
 20
1860.25
 30
0.000000
  1
435
  0
POINT
  5
7E67
  8
DEFPOINTS
  6
CONTINUOUS
 62
     0
 10
901.71654999999998
 20
2183.9477860000002
 30
0.0
  0
POINT
  5
7E68
  8
DEFPOINTS
  6
CONTINUOUS
 62
     0
 10
1190.9503539999989
 20
1748.947786
 30
0.0
  0
POINT
  5
7E69
  8
DEFPOINTS
  6
CONTINUOUS
 62
     0
 10
935.61956099999998
 20
1748.947786
 30
0.0
  0
ENDBLK
  5
7BE1
  8
0
  0
BLOCK
  8
0
  2
*D4
 70
     1
 10
0.0
 20
0.0
 30
0.0
  3
*D4
  1

  0
LINE
  5
7E6A
  8
3
  6
CONTINUOUS
 62
     0
 10
1180.9503539999989
 20
1748.947786
 30
0.0
 11
915.25829100000033
 21
1748.947786
 31
0.0
  0
LINE
  5
7E6B
  8
3
  6
CONTINUOUS
 62
     0
 10
1180.9503539999989
 20
1708.947785999999
 30
0.0
 11
915.25829100000033
 21
1708.947785999999
 31
0.0
  0
LINE
  5
7E6C
  8
3
  6
CONTINUOUS
 62
     0
 10
935.25829100000021
 20
1788.947786
 30
0.0
 11
935.25829100000044
 21
1828.947786
 31
0.0
  0
LINE
  5
7E6D
  8
3
  6
CONTINUOUS
 62
     0
 10
935.25829100000021
 20
1668.947786
 30
0.0
 11
935.25829100000021
 21
1491.8049288571431
 31
0.0
  0
LINE
  5
7E6E
  8
3
  6
CONTINUOUS
 62
     0
 10
935.25829100000021
 20
1748.947786
 30
0.0
 11
935.25829100000021
 21
1708.947785999999
 31
0.0
  0
INSERT
  5
7E6F
  8
3
  6
CONTINUOUS
 62
     0
  2
_OPEN
 10
935.25829100000021
 20
1748.947786
 30
0.0
 41
40.0
 42
40.0
 43
40.0
 50
270.0
  0
INSERT
  5
7E70
  8
3
  6
CONTINUOUS
 62
     0
  2
_OPEN
 10
935.25829100000021
 20
1708.947785999999
 30
0.0
 41
40.0
 42
40.0
 43
40.0
 50
90.0
  0
TEXT
  8
3
  40
60
  5
7EEB
  62
0
  72
0
  71
0
 10
765.258
 20
1454.18
 30
0.000000
  1
40
  0
POINT
  5
7E72
  8
DEFPOINTS
  6
CONTINUOUS
 62
     0
 10
1190.9503539999989
 20
1748.947786
 30
0.0
  0
POINT
  5
7E73
  8
DEFPOINTS
  6
CONTINUOUS
 62
     0
 10
1190.9503539999989
 20
1708.947785999999
 30
0.0
  0
POINT
  5
7E74
  8
DEFPOINTS
  6
CONTINUOUS
 62
     0
 10
935.25829100000021
 20
1708.947785999999
 30
0.0
  0
ENDBLK
  5
7E18
  8
0
  0
BLOCK
  8
0
  2
*D5
 70
     1
 10
0.0
 20
0.0
 30
0.0
  3
*D5
  1

  0
LINE
  5
7E75
  8
3
  6
CONTINUOUS
 62
     0
 10
1135.9503539999989
 20
2672.9477859999988
 30
0.0
 11
1135.9503539999989
 21
2811.5678149999999
 31
0.0
  0
LINE
  5
7E76
  8
3
  6
CONTINUOUS
 62
     0
 10
1490.9503539999989
 20
2801.3082939999999
 30
0.0
 11
1490.9503539999989
 21
2811.5678149999999
 31
0.0
  0
LINE
  5
7E77
  8
3
  6
CONTINUOUS
 62
     0
 10
1095.9503539999989
 20
2791.5678149999999
 30
0.0
 11
1055.9503539999989
 21
2791.5678149999999
 31
0.0
  0
LINE
  5
7E78
  8
3
  6
CONTINUOUS
 62
     0
 10
1530.9503539999989
 20
2791.5678149999999
 30
0.0
 11
1570.9503539999989
 21
2791.5678149999999
 31
0.0
  0
LINE
  5
7E79
  8
3
  6
CONTINUOUS
 62
     0
 10
1135.9503539999989
 20
2791.5678149999999
 30
0.0
 11
1490.9503539999989
 21
2791.5678149999999
 31
0.0
  0
INSERT
  5
7E7A
  8
3
  6
CONTINUOUS
 62
     0
  2
_OPEN
 10
1135.9503539999989
 20
2791.5678149999999
 30
0.0
 41
40.0
 42
40.0
 43
40.0
  0
INSERT
  5
7E7B
  8
3
  6
CONTINUOUS
 62
     0
  2
_OPEN
 10
1490.9503539999989
 20
2791.5678149999999
 30
0.0
 41
40.0
 42
40.0
 43
40.0
 50
180.0
  0
TEXT
  8
3
  40
60
  5
7EEC
  62
0
  72
0
  71
0
 10
1153.09
 20
2735.37
 30
0.000000
  1
355
  0
POINT
  5
7E7D
  8
DEFPOINTS
  6
CONTINUOUS
 62
     0
 10
1135.9503539999989
 20
2662.9477860000002
 30
0.0
  0
POINT
  5
7E7E
  8
DEFPOINTS
  6
CONTINUOUS
 62
     0
 10
1490.9503539999989
 20
2791.3082939999999
 30
0.0
  0
POINT
  5
7E7F
  8
DEFPOINTS
  6
CONTINUOUS
 62
     0
 10
1490.9503539999989
 20
2791.5678149999999
 30
0.0
  0
ENDBLK
  5
7C68
  8
0
  0
BLOCK
  8
0
  2
*D6
 70
     1
 10
0.0
 20
0.0
 30
0.0
  3
*D6
  1

  0
LINE
  5
7E80
  8
3
  6
CONTINUOUS
 62
     0
 10
1900.9503539999989
 20
2548.9477859999988
 30
0.0
 11
1900.9503539999989
 21
2811.5678149999999
 31
0.0
  0
LINE
  5
7E81
  8
3
  6
CONTINUOUS
 62
     0
 10
1530.9503539999989
 20
2791.5678149999999
 30
0.0
 11
1860.9503539999989
 21
2791.5678149999999
 31
0.0
  0
INSERT
  5
7E82
  8
3
  6
CONTINUOUS
 62
     0
  2
_OPEN
 10
1490.9503539999989
 20
2791.5678149999999
 30
0.0
 41
40.0
 42
40.0
 43
40.0
 50
180.0
  0
INSERT
  5
7E83
  8
3
  6
CONTINUOUS
 62
     0
  2
_OPEN
 10
1900.9503539999989
 20
2791.5678149999999
 30
0.0
 41
40.0
 42
40.0
 43
40.0
  0
TEXT
  8
3
  40
60
  5
7EED
  62
0
  72
0
  71
0
 10
1575.95
 20
2735.37
 30
0.000000
  1
410
  0
POINT
  5
7E85
  8
DEFPOINTS
  6
CONTINUOUS
 62
     0
 10
1490.9503539999989
 20
2791.3082939999999
 30
0.0
  0
POINT
  5
7E86
  8
DEFPOINTS
  6
CONTINUOUS
 62
     0
 10
1900.9503539999989
 20
2538.9477860000002
 30
0.0
  0
POINT
  5
7E87
  8
DEFPOINTS
  6
CONTINUOUS
 62
     0
 10
1900.9503539999989
 20
2791.5678149999999
 30
0.0
  0
ENDBLK
  5
7C0A
  8
0
  0
BLOCK
  8
0
  2
*D7
 70
     1
 10
0.0
 20
0.0
 30
0.0
  3
*D7
  1

  0
LINE
  5
7E88
  8
3
  6
CONTINUOUS
 62
     0
 10
1190.9503539999989
 20
1698.947786
 30
0.0
 11
1190.9503539999989
 21
1547.234571
 31
0.0
  0
LINE
  5
7E89
  8
3
  6
CONTINUOUS
 62
     0
 10
1490.9503539999989
 20
1623.3853228348919
 30
0.0
 11
1490.9503539999989
 21
1547.234571
 31
0.0
  0
LINE
  5
7E8A
  8
3
  6
CONTINUOUS
 62
     0
 10
1230.9503539999989
 20
1567.234571
 30
0.0
 11
1450.9503539999989
 21
1567.234571
 31
0.0
  0
INSERT
  5
7E8B
  8
3
  6
CONTINUOUS
 62
     0
  2
_OPEN
 10
1190.9503539999989
 20
1567.234571
 30
0.0
 41
40.0
 42
40.0
 43
40.0
 50
180.0
  0
INSERT
  5
7E8C
  8
3
  6
CONTINUOUS
 62
     0
  2
_OPEN
 10
1490.9503539999989
 20
1567.234571
 30
0.0
 41
40.0
 42
40.0
 43
40.0
  0
TEXT
  8
3
  40
60
  5
7EEE
  62
0
  72
0
  71
0
 10
1233.81
 20
1511.03
 30
0.000000
  1
300
  0
POINT
  5
7E8E
  8
DEFPOINTS
  6
CONTINUOUS
 62
     0
 10
1190.9503539999989
 20
1708.947785999999
 30
0.0
  0
POINT
  5
7E8F
  8
DEFPOINTS
  6
CONTINUOUS
 62
     0
 10
1490.9503539999989
 20
1633.385322834891
 30
0.0
  0
POINT
  5
7E90
  8
DEFPOINTS
  6
CONTINUOUS
 62
     0
 10
1490.9503539999989
 20
1567.234571
 30
0.0
  0
ENDBLK
  5
7E2D
  8
0
  0
BLOCK
  8
0
  2
*D8
 70
     1
 10
0.0
 20
0.0
 30
0.0
  3
*D8
  1

  0
LINE
  5
7E91
  8
3
  6
CONTINUOUS
 62
     0
 10
2310.9503540000001
 20
1698.947786
 30
0.0
 11
2310.9503540000001
 21
1547.234571
 31
0.0
  0
LINE
  5
7E92
  8
3
  6
CONTINUOUS
 62
     0
 10
1530.9503539999989
 20
1567.234571
 30
0.0
 11
2270.9503540000001
 21
1567.234571
 31
0.0
  0
INSERT
  5
7E93
  8
3
  6
CONTINUOUS
 62
     0
  2
_OPEN
 10
1490.9503539999989
 20
1567.234571
 30
0.0
 41
40.0
 42
40.0
 43
40.0
 50
180.0
  0
INSERT
  5
7E94
  8
3
  6
CONTINUOUS
 62
     0
  2
_OPEN
 10
2310.9503540000001
 20
1567.234571
 30
0.0
 41
40.0
 42
40.0
 43
40.0
  0
TEXT
  8
3
  40
60
  5
7EEF
  62
0
  72
0
  71
0
 10
1780.95
 20
1511.03
 30
0.000000
  1
820
  0
POINT
  5
7E96
  8
DEFPOINTS
  6
CONTINUOUS
 62
     0
 10
1490.9503539999989
 20
1633.385322834891
 30
0.0
  0
POINT
  5
7E97
  8
DEFPOINTS
  6
CONTINUOUS
 62
     0
 10
2310.9503540000001
 20
1708.947785999999
 30
0.0
  0
POINT
  5
7E98
  8
DEFPOINTS
  6
CONTINUOUS
 62
     0
 10
2310.9503540000001
 20
1567.234571
 30
0.0
  0
ENDBLK
  5
7E22
  8
0
  0
BLOCK
  8
0
  2
*D9
 70
     1
 10
0.0
 20
0.0
 30
0.0
  3
*D9
  1

  0
LINE
  5
7E99
  8
3
  6
CONTINUOUS
 62
     0
 10
1125.9503539999989
 20
2672.9477859999988
 30
0.0
 11
792.40782600000045
 21
2672.9477860000002
 31
0.0
  0
LINE
  5
7E9A
  8
3
  6
CONTINUOUS
 62
     0
 10
1180.9503539999989
 20
1708.947785999999
 30
0.0
 11
792.40782600000023
 21
1708.947785999999
 31
0.0
  0
LINE
  5
7E9B
  8
3
  6
CONTINUOUS
 62
     0
 10
812.40782600000045
 20
2632.9477860000002
 30
0.0
 11
812.40782600000023
 21
1748.947786
 31
0.0
  0
INSERT
  5
7E9C
  8
3
  6
CONTINUOUS
 62
     0
  2
_OPEN
 10
812.40782600000045
 20
2672.9477860000002
 30
0.0
 41
40.0
 42
40.0
 43
40.0
 50
90.0
  0
INSERT
  5
7E9D
  8
3
  6
CONTINUOUS
 62
     0
  2
_OPEN
 10
812.40782600000023
 20
1708.947785999999
 30
0.0
 41
40.0
 42
40.0
 43
40.0
 50
270.0
  0
TEXT
  8
3
  40
60
  5
7EF0
  62
0
  72
0
  71
0
 10
642.408
 20
2112.98
 30
0.000000
  1
964
  0
POINT
  5
7E9F
  8
DEFPOINTS
  6
CONTINUOUS
 62
     0
 10
1135.9503539999989
 20
2672.9477859999988
 30
0.0
  0
POINT
  5
7EA0
  8
DEFPOINTS
  6
CONTINUOUS
 62
     0
 10
1190.9503539999989
 20
1708.947785999999
 30
0.0
  0
POINT
  5
7EA1
  8
DEFPOINTS
  6
CONTINUOUS
 62
     0
 10
812.40782600000023
 20
1708.947785999999
 30
0.0
  0
ENDBLK
  5
7D32
  8
0
  0
BLOCK
  8
0
  2
*D10
 70
     1
 10
0.0
 20
0.0
 30
0.0
  3
*D10
  1

  0
LINE
  5
7EA2
  8
3
  6
CONTINUOUS
 62
     0
 10
2715.2073059999989
 20
1698.947786
 30
0.0
 11
2715.2073059999989
 21
1541.679983127201
 31
0.0
  0
LINE
  5
7EA3
  8
3
  6
CONTINUOUS
 62
     0
 10
3101.2073059999998
 20
1591.0635806396999
 30
0.0
 11
3101.2073059999998
 21
1541.679983127201
 31
0.0
  0
LINE
  5
7EA4
  8
3
  6
CONTINUOUS
 62
     0
 10
2755.2073059999989
 20
1561.6799831272001
 30
0.0
 11
3061.2073059999998
 21
1561.6799831272001
 31
0.0
  0
INSERT
  5
7EA5
  8
3
  6
CONTINUOUS
 62
     0
  2
_OPEN
 10
2715.2073059999989
 20
1561.6799831272001
 30
0.0
 41
40.0
 42
40.0
 43
40.0
 50
180.0
  0
INSERT
  5
7EA6
  8
3
  6
CONTINUOUS
 62
     0
  2
_OPEN
 10
3101.2073059999998
 20
1561.6799831272001
 30
0.0
 41
40.0
 42
40.0
 43
40.0
  0
TEXT
  8
3
  40
60
  5
7EF1
  62
0
  72
0
  71
0
 10
2784.23
 20
1505.48
 30
0.000000
  1
386
  0
POINT
  5
7EA8
  8
DEFPOINTS
  6
CONTINUOUS
 62
     0
 10
2715.2073059999989
 20
1708.947785999999
 30
0.0
  0
POINT
  5
7EA9
  8
DEFPOINTS
  6
CONTINUOUS
 62
     0
 10
3101.2073059999998
 20
1601.0635806396999
 30
0.0
  0
POINT
  5
7EAA
  8
DEFPOINTS
  6
CONTINUOUS
 62
     0
 10
3101.2073059999998
 20
1561.6799831272001
 30
0.0
  0
ENDBLK
  5
7DDE
  8
0
  0
BLOCK
  8
0
  2
*D11
 70
     1
 10
0.0
 20
0.0
 30
0.0
  3
*D11
  1

  0
LINE
  5
7EAB
  8
3
  6
CONTINUOUS
 62
     0
 10
3405.2073059999998
 20
1698.947786
 30
0.0
 11
3405.2073059999998
 21
1541.679983127201
 31
0.0
  0
LINE
  5
7EAC
  8
3
  6
CONTINUOUS
 62
     0
 10
3141.2073059999998
 20
1561.6799831272001
 30
0.0
 11
3365.2073059999998
 21
1561.6799831272001
 31
0.0
  0
INSERT
  5
7EAD
  8
3
  6
CONTINUOUS
 62
     0
  2
_OPEN
 10
3101.2073059999998
 20
1561.6799831272001
 30
0.0
 41
40.0
 42
40.0
 43
40.0
 50
180.0
  0
INSERT
  5
7EAE
  8
3
  6
CONTINUOUS
 62
     0
  2
_OPEN
 10
3405.2073059999998
 20
1561.6799831272001
 30
0.0
 41
40.0
 42
40.0
 43
40.0
  0
TEXT
  8
3
  40
60
  5
7EF2
  62
0
  72
0
  71
0
 10
3133.21
 20
1505.48
 30
0.000000
  1
304
  0
POINT
  5
7EB0
  8
DEFPOINTS
  6
CONTINUOUS
 62
     0
 10
3101.2073059999998
 20
1594.976704885288
 30
0.0
  0
POINT
  5
7EB1
  8
DEFPOINTS
  6
CONTINUOUS
 62
     0
 10
3405.2073059999998
 20
1708.947785999999
 30
0.0
  0
POINT
  5
7EB2
  8
DEFPOINTS
  6
CONTINUOUS
 62
     0
 10
3405.2073059999998
 20
1561.6799831272001
 30
0.0
  0
ENDBLK
  5
7DC8
  8
0
  0
BLOCK
  8
0
  2
*D12
 70
     1
 10
0.0
 20
0.0
 30
0.0
  3
*D12
  1

  0
LINE
  5
7EB3
  8
3
  6
CONTINUOUS
 62
     0
 10
3281.2073059999989
 20
2682.9477859999988
 30
0.0
 11
3281.2073059999989
 21
2764.117909999999
 31
0.0
  0
LINE
  5
7EB4
  8
3
  6
CONTINUOUS
 62
     0
 10
2921.2073059999989
 20
2682.9477859999988
 30
0.0
 11
2921.2073059999989
 21
2764.117909999999
 31
0.0
  0
LINE
  5
7EB5
  8
3
  6
CONTINUOUS
 62
     0
 10
3241.2073059999989
 20
2744.117909999999
 30
0.0
 11
2961.2073059999998
 21
2744.117909999999
 31
0.0
  0
INSERT
  5
7EB6
  8
3
  6
CONTINUOUS
 62
     0
  2
_OPEN
 10
3281.2073059999989
 20
2744.117909999999
 30
0.0
 41
40.0
 42
40.0
 43
40.0
  0
INSERT
  5
7EB7
  8
3
  6
CONTINUOUS
 62
     0
  2
_OPEN
 10
2921.2073059999989
 20
2744.117909999999
 30
0.0
 41
40.0
 42
40.0
 43
40.0
 50
180.0
  0
TEXT
  8
3
  40
60
  5
7EF3
  62
0
  72
0
  71
0
 10
2970.32
 20
2687.92
 30
0.000000
  1
360
  0
POINT
  5
7EB9
  8
DEFPOINTS
  6
CONTINUOUS
 62
     0
 10
3281.2073059999989
 20
2672.9477859999988
 30
0.0
  0
POINT
  5
7EBA
  8
DEFPOINTS
  6
CONTINUOUS
 62
     0
 10
2921.2073059999989
 20
2672.9477859999988
 30
0.0
  0
POINT
  5
7EBB
  8
DEFPOINTS
  6
CONTINUOUS
 62
     0
 10
2921.2073059999989
 20
2744.117909999999
 30
0.0
  0
ENDBLK
  5
7D7D
  8
0
  0
BLOCK
  8
0
  2
*D13
 70
     1
 10
0.0
 20
0.0
 30
0.0
  3
*D13
  1

  0
LINE
  5
7EBC
  8
3
  6
CONTINUOUS
 62
     0
 10
3292.2073059999989
 20
2433.9477860000002
 30
0.0
 11
3467.807589
 21
2433.9477860000002
 31
0.0
  0
LINE
  5
7EBD
  8
3
  6
CONTINUOUS
 62
     0
 10
3292.2073059999989
 20
1933.947786
 30
0.0
 11
3467.807589
 21
1933.947786
 31
0.0
  0
LINE
  5
7EBE
  8
3
  6
CONTINUOUS
 62
     0
 10
3447.807589
 20
2393.9477859999988
 30
0.0
 11
3447.807589
 21
1973.947786
 31
0.0
  0
INSERT
  5
7EBF
  8
3
  6
CONTINUOUS
 62
     0
  2
_OPEN
 10
3447.807589
 20
2433.9477860000002
 30
0.0
 41
40.0
 42
40.0
 43
40.0
 50
90.0
  0
INSERT
  5
7EC0
  8
3
  6
CONTINUOUS
 62
     0
  2
_OPEN
 10
3447.807589
 20
1933.947786
 30
0.0
 41
40.0
 42
40.0
 43
40.0
 50
270.0
  0
TEXT
  8
3
  40
60
  5
7EF4
  62
0
  72
0
  71
0
 10
3277.81
 20
2083.63
 30
0.000000
  1
φ500
  0
POINT
  5
7EC2
  8
DEFPOINTS
  6
CONTINUOUS
 62
     0
 10
3282.2073059999998
 20
2433.9477860000002
 30
0.0
  0
POINT
  5
7EC3
  8
DEFPOINTS
  6
CONTINUOUS
 62
     0
 10
3282.2073059999998
 20
1933.947786
 30
0.0
  0
POINT
  5
7EC4
  8
DEFPOINTS
  6
CONTINUOUS
 62
     0
 10
3447.807589
 20
1933.947786
 30
0.0
  0
ENDBLK
  5
7DA9
  8
0
  0
BLOCK
  8
0
  2
*D14
 70
     1
 10
0.0
 20
0.0
 30
0.0
  3
*D14
  1

  0
LINE
  5
7D95
  8
0
  6
BYBLOCK
 62
     0
 10
3282.2073059999998
 20
2443.9477859999988
 30
0.0
 11
3282.2073059999998
 21
2889.8431049999999
 31
0.0
  0
LINE
  5
7D96
  8
0
  6
BYBLOCK
 62
     0
 10
3101.2073059999998
 20
2853.4093600000001
 30
0.0
 11
3101.2073059999998
 21
2889.8431049999999
 31
0.0
  0
LINE
  5
7D97
  8
0
  6
BYBLOCK
 62
     0
 10
3242.2073059999989
 20
2869.8431049999999
 30
0.0
 11
3141.2073059999998
 21
2869.8431049999999
 31
0.0
  0
TEXT
  5
7D98
  8
3
 62
     0
 10
3133.1358774285709
 20
2902.2423003782551
 30
0.0
 40
60.0
  1
181
  0
INSERT
  5
7D99
  8
0
  6
BYBLOCK
 62
     0
  2
_OPEN
 10
3282.2073059999998
 20
2869.8431049999999
 30
0.0
 41
40.0
 42
40.0
 43
40.0
  0
INSERT
  5
7D9A
  8
0
  6
BYBLOCK
 62
     0
  2
_OPEN
 10
3101.2073059999998
 20
2869.8431049999999
 30
0.0
 41
40.0
 42
40.0
 43
40.0
 50
180.0
  0
POINT
  5
7D9B
  8
DEFPOINTS
  6
BYBLOCK
 62
     0
 10
3282.2073059999998
 20
2433.9477860000002
 30
0.0
  0
POINT
  5
7D9C
  8
DEFPOINTS
  6
BYBLOCK
 62
     0
 10
3101.2073059999998
 20
2843.4093600000001
 30
0.0
  0
POINT
  5
7D9D
  8
DEFPOINTS
  6
BYBLOCK
 62
     0
 10
3101.2073059999998
 20
2869.8431049999999
 30
0.0
  0
ENDBLK
  5
7D9E
  8
0
  0
BLOCK
  8
0
  2
*D15
 70
     1
 10
0.0
 20
0.0
 30
0.0
  3
*D15
  1

  0
LINE
  5
7EC5
  8
3
  6
CONTINUOUS
 62
     0
 10
2731.2073059999989
 20
2583.9477859999988
 30
0.0
 11
2731.2073059999989
 21
2889.8431049999999
 31
0.0
  0
LINE
  5
7EC6
  8
3
  6
CONTINUOUS
 62
     0
 10
3061.2073059999998
 20
2869.8431049999999
 30
0.0
 11
2771.2073059999989
 21
2869.8431049999999
 31
0.0
  0
INSERT
  5
7EC7
  8
3
  6
CONTINUOUS
 62
     0
  2
_OPEN
 10
3101.2073059999998
 20
2869.8431049999999
 30
0.0
 41
40.0
 42
40.0
 43
40.0
  0
INSERT
  5
7EC8
  8
3
  6
CONTINUOUS
 62
     0
  2
_OPEN
 10
2731.2073059999989
 20
2869.8431049999999
 30
0.0
 41
40.0
 42
40.0
 43
40.0
 50
180.0
  0
TEXT
  8
3
  40
60
  5
7EF5
  62
0
  72
0
  71
0
 10
2796.21
 20
2863.64
 30
0.000000
  1
MAX
  0
TEXT
  8
3
  40
60
  5
7EF6
  62
0
  72
0
  71
0
 10
2796.21
 20
2785.64
 30
0.000000
  1
430
  0
POINT
  5
7ECA
  8
DEFPOINTS
  6
CONTINUOUS
 62
     0
 10
3101.2073059999998
 20
2843.4093600000001
 30
0.0
  0
POINT
  5
7ECB
  8
DEFPOINTS
  6
CONTINUOUS
 62
     0
 10
2731.2073059999989
 20
2573.9477859999988
 30
0.0
  0
POINT
  5
7ECC
  8
DEFPOINTS
  6
CONTINUOUS
 62
     0
 10
2731.2073059999989
 20
2869.8431049999999
 30
0.0
  0
ENDBLK
  5
7DE8
  8
0
  0
BLOCK
  8
0
  2
*D16
 70
     1
 10
0.0
 20
0.0
 30
0.0
  3
*D16
  1

  0
LINE
  5
7ECD
  8
3
  6
CONTINUOUS
 62
     0
 10
1190.9503539999989
 20
4101.0777859999998
 30
0.0
 11
1190.9503539999989
 21
4222.9386060000006
 31
0.0
  0
LINE
  5
7ECE
  8
3
  6
CONTINUOUS
 62
     0
 10
2310.9503540000001
 20
4101.0777859999998
 30
0.0
 11
2310.9503540000001
 21
4222.9386060000006
 31
0.0
  0
LINE
  5
7ECF
  8
3
  6
CONTINUOUS
 62
     0
 10
1230.9503539999989
 20
4202.9386059999997
 30
0.0
 11
2270.9503540000001
 21
4202.9386059999997
 31
0.0
  0
INSERT
  5
7ED0
  8
3
  6
CONTINUOUS
 62
     0
  2
_OPEN
 10
1190.9503539999989
 20
4202.9386059999997
 30
0.0
 41
40.0
 42
40.0
 43
40.0
 50
180.0
  0
INSERT
  5
7ED1
  8
3
  6
CONTINUOUS
 62
     0
  2
_OPEN
 10
2310.9503540000001
 20
4202.9386059999997
 30
0.0
 41
40.0
 42
40.0
 43
40.0
  0
TEXT
  8
3
  40
60
  5
7EF7
  62
0
  72
0
  71
0
 10
1628.53
 20
4146.74
 30
0.000000
  1
1120
  0
POINT
  5
7ED3
  8
DEFPOINTS
  6
CONTINUOUS
 62
     0
 10
1190.9503539999989
 20
4091.0777859999989
 30
0.0
  0
POINT
  5
7ED4
  8
DEFPOINTS
  6
CONTINUOUS
 62
     0
 10
2310.9503540000001
 20
4091.0777859999989
 30
0.0
  0
POINT
  5
7ED5
  8
DEFPOINTS
  6
CONTINUOUS
 62
     0
 10
2310.9503540000001
 20
4202.9386059999997
 30
0.0
  0
ENDBLK
  5
7D52
  8
0
  0
BLOCK
  8
0
  2
*D17
 70
     1
 10
0.0
 20
0.0
 30
0.0
  3
*D17
  1

  0
LINE
  5
7ED6
  8
3
  6
CONTINUOUS
 62
     0
 10
2320.9503540000001
 20
4091.0777859999989
 30
0.0
 11
2533.8410730000001
 21
4091.0777859999989
 31
0.0
  0
LINE
  5
7ED7
  8
3
  6
CONTINUOUS
 62
     0
 10
2320.9503540000001
 20
3401.0777859999998
 30
0.0
 11
2533.8410730000001
 21
3401.0777859999998
 31
0.0
  0
LINE
  5
7ED8
  8
3
  6
CONTINUOUS
 62
     0
 10
2513.8410730000001
 20
4051.0777859999989
 30
0.0
 11
2513.8410730000001
 21
3441.0777859999989
 31
0.0
  0
INSERT
  5
7ED9
  8
3
  6
CONTINUOUS
 62
     0
  2
_OPEN
 10
2513.8410730000001
 20
4091.0777859999989
 30
0.0
 41
40.0
 42
40.0
 43
40.0
 50
90.0
  0
INSERT
  5
7EDA
  8
3
  6
CONTINUOUS
 62
     0
  2
_OPEN
 10
2513.8410730000001
 20
3401.0777859999998
 30
0.0
 41
40.0
 42
40.0
 43
40.0
 50
270.0
  0
TEXT
  8
3
  40
60
  5
7EF8
  62
0
  72
0
  71
0
 10
2343.84
 20
3661.81
 30
0.000000
  1
690
  0
POINT
  5
7EDC
  8
DEFPOINTS
  6
CONTINUOUS
 62
     0
 10
2310.9503540000001
 20
4091.0777859999989
 30
0.0
  0
POINT
  5
7EDD
  8
DEFPOINTS
  6
CONTINUOUS
 62
     0
 10
2310.9503540000001
 20
3401.0777859999998
 30
0.0
  0
POINT
  5
7EDE
  8
DEFPOINTS
  6
CONTINUOUS
 62
     0
 10
2513.8410730000001
 20
3401.0777859999998
 30
0.0
  0
ENDBLK
  5
7D5D
  8
0
  0
BLOCK
  8
0
  2
*D18
 70
     1
 10
0.0
 20
0.0
 30
0.0
  3
*D18
  1

  0
LINE
  5
7EDF
  8
3
 62
     0
 10
1135.9503539999989
 20
2672.9477859999988
 30
0.0
 11
1135.9503539999989
 21
2935.5178009306069
 31
0.0
  0
LINE
  5
7EE0
  8
3
 62
     0
 10
2310.9503540000001
 20
1778.947786
 30
0.0
 11
2310.9503540000001
 21
2935.5178009306069
 31
0.0
  0
LINE
  5
7EE1
  8
3
 62
     0
 10
1175.9503540000001
 20
2915.5178009306069
 30
0.0
 11
2270.9503540000001
 21
2915.5178009306069
 31
0.0
  0
INSERT
  5
7EE2
  8
3
 62
     0
  2
_OPEN
 10
1135.9503539999989
 20
2915.5178009306069
 30
0.0
 41
40.0
 42
40.0
 43
40.0
 50
180.0
  0
INSERT
  5
7EE3
  8
3
 62
     0
  2
_OPEN
 10
2310.9503540000001
 20
2915.5178009306069
 30
0.0
 41
40.0
 42
40.0
 43
40.0
  0
TEXT
  8
3
  40
60
  5
7EF9
  62
0
  72
0
  71
0
 10
1615.07
 20
2859.32
 30
0.000000
  1
1175
  0
POINT
  5
7EE5
  8
DEFPOINTS
 62
     0
 10
1135.9503539999989
 20
2662.9477860000002
 30
0.0
  0
POINT
  5
7EE6
  8
DEFPOINTS
 62
     0
 10
2310.9503540000001
 20
1768.947786
 30
0.0
  0
POINT
  5
7EE7
  8
DEFPOINTS
 62
     0
 10
2310.9503540000001
 20
2915.5178009306069
 30
0.0
  0
ENDBLK
  5
7E0B
  8
0
  0
ENDSEC
  0
SECTION
  2
ENTITIES
  0
LINE
  5
7ACA
  8
1
  6
CONTINUOUS
 10
2310.9503540000001
 20
1828.947786
 30
0.0
 11
1180.9503539999989
 21
1828.947786
 31
0.0
  0
LINE
  5
7ACB
  8
1
  6
CONTINUOUS
 10
2310.9503540000001
 20
1748.947786
 30
0.0
 11
1190.9503539999989
 21
1748.947786
 31
0.0
  0
ARC
  5
7ACC
  8
1
  6
CONTINUOUS
 10
1467.870725
 20
2214.4112030000001
 30
0.0
 40
431.17249299999992
 50
355.26344499999999
 51
86.879466000000008
  0
ARC
  5
7ACD
  8
1
  6
CONTINUOUS
 10
1517.9503539999989
 20
2210.9477859999988
 30
0.0
 40
380.98000000000002
 50
261.52999999999992
 51
355.16000000000003
  0
LINE
  5
7ACE
  8
1
  6
CONTINUOUS
 10
1900.9503539999989
 20
2538.9477860000002
 30
0.0
 11
1180.9503539999989
 21
2538.9477860000002
 31
0.0
  0
CIRCLE
  5
7ACF
  8
1
  6
CONTINUOUS
 10
1490.9503539999989
 20
2183.9477860000002
 30
0.0
 40
275.0
  0
LINE
  5
7AD7
  8
1
  6
CONTINUOUS
 10
1535.1203539999999
 20
2295.5177859999999
 30
0.0
 11
2113.0403540000002
 21
2066.7377860000001
 31
0.0
  0
LINE
  5
7AD8
  8
1
  6
CONTINUOUS
 10
2079.9403539999998
 20
1951.967785999999
 30
0.0
 11
1468.9403539999989
 21
2065.9877860000001
 31
0.0
  0
LINE
  5
7AD9
  8
1
  6
CONTINUOUS
 10
1177.5803539999999
 20
2165.9477859999988
 30
0.0
 11
1135.9503539999989
 21
2165.9477859999988
 31
0.0
  0
LINE
  5
7ADA
  8
1
  6
CONTINUOUS
 10
1135.9503539999989
 20
2645.9477859999988
 30
0.0
 11
1491.3303539999999
 21
2644.9477859999988
 31
0.0
  0
ARC
  5
7ADB
  8
1
  6
CONTINUOUS
 10
1521.411497999999
 20
2172.818777
 30
0.0
 40
343.89392400000003
 50
181.14027899999991
 51
260.02361200000001
  0
LINE
  5
7ADC
  8
1
  6
CONTINUOUS
 10
1135.9503539999989
 20
2662.9477860000002
 30
0.0
 11
1135.9503539999989
 21
2148.9477859999988
 31
0.0
  0
LINE
  5
7ADD
  8
1
  6
CONTINUOUS
 10
1180.9503539999989
 20
2538.9477860000002
 30
0.0
 11
1180.9503539999989
 21
1828.947786
 31
0.0
  0
LINE
  5
7ADE
  8
2
  6
CENTER
 10
1490.9503539999989
 20
4051.7559969999988
 30
0.0
 11
1490.9503539999989
 21
3352.1705809999999
 31
0.0
  0
CIRCLE
  5
7ADF
  8
1
  6
CONTINUOUS
 10
1490.9503539999989
 20
2183.9477860000002
 30
0.0
 40
120.0
  0
CIRCLE
  5
7AE0
  8
1
  6
CONTINUOUS
 10
1490.9503539999989
 20
2183.9477860000002
 30
0.0
 40
250.0
  0
LINE
  5
7AE1
  8
1
  6
CONTINUOUS
 10
1190.9503539999989
 20
1708.947785999999
 30
0.0
 11
1230.9503539999989
 21
1708.947785999999
 31
0.0
  0
LINE
  5
7AE2
  8
1
  6
CONTINUOUS
 10
1230.9503539999989
 20
1748.947786
 30
0.0
 11
1230.9503539999989
 21
1708.947785999999
 31
0.0
  0
LINE
  5
7AE3
  8
1
  6
CONTINUOUS
 10
1190.9503539999989
 20
1828.947786
 30
0.0
 11
1190.9503539999989
 21
1708.947785999999
 31
0.0
  0
LINE
  5
7AE4
  8
2
  6
CENTER
 10
3335.1753720000002
 20
2183.9477860000002
 30
0.0
 11
2612.7789269999989
 21
2183.9477860000002
 31
0.0
  0
LINE
  5
7AE5
  8
1
  6
CONTINUOUS
 10
1160.9503539999989
 20
2165.9477859999988
 30
0.0
 11
1160.9503539999989
 21
2645.877786
 31
0.0
  0
LINE
  5
7AF3
  8
1
  6
CONTINUOUS
 10
1900.9503539999989
 20
2538.9477860000002
 30
0.0
 11
1900.9503539999989
 21
1828.947786
 31
0.0
  0
ARC
  5
7AF4
  8
1
  6
CONTINUOUS
 10
2094.2303539999998
 20
2010.947786
 30
0.0
 40
122.0
 50
324.60000000000002
 51
215.39999999999989
  0
CIRCLE
  5
7AF5
  8
1
  6
CONTINUOUS
 10
2090.9503539999992
 20
2010.947786
 30
0.0
 40
60.0
  0
LINE
  5
7AF6
  8
2
  6
CENTER
 10
2150.9503540000001
 20
2010.947786
 30
0.0
 11
2030.9503539999989
 21
2010.947786
 31
0.0
  0
LINE
  5
7AF7
  8
1
  6
CONTINUOUS
 10
2224.2303539999989
 20
1878.947786
 30
0.0
 11
1964.2303539999989
 21
1878.947786
 31
0.0
  0
LINE
  5
7AF8
  8
1
  6
CONTINUOUS
 10
1964.2303539999989
 20
1878.947786
 30
0.0
 11
2014.2303539999989
 21
1878.947786
 31
0.0
  0
LINE
  5
7AF9
  8
1
  6
CONTINUOUS
 10
1964.2303539999989
 20
1828.947786
 30
0.0
 11
1964.2303539999989
 21
1878.947786
 31
0.0
  0
LINE
  5
7AFA
  8
1
  6
CONTINUOUS
 10
1964.2303539999989
 20
1878.947786
 30
0.0
 11
1994.790354
 21
1940.2677859999999
 31
0.0
  0
LINE
  5
7AFB
  8
1
  6
CONTINUOUS
 10
2224.2303539999989
 20
1878.947786
 30
0.0
 11
2193.6803540000001
 21
1940.2677859999999
 31
0.0
  0
LINE
  5
7AFC
  8
1
  6
CONTINUOUS
 10
2224.2303539999989
 20
1878.947786
 30
0.0
 11
2174.2303539999998
 21
1878.947786
 31
0.0
  0
LINE
  5
7AFD
  8
2
  6
CENTER
 10
2090.9503539999992
 20
1950.947786
 30
0.0
 11
2090.9503539999992
 21
2070.9477859999988
 31
0.0
  0
LINE
  5
7AFE
  8
1
  6
CONTINUOUS
 10
2270.9503540000001
 20
1748.947786
 30
0.0
 11
2270.9503540000001
 21
1708.947785999999
 31
0.0
  0
LINE
  5
7AFF
  8
1
  6
CONTINUOUS
 10
2310.9503540000001
 20
1708.947785999999
 30
0.0
 11
2270.9503540000001
 21
1708.947785999999
 31
0.0
  0
LINE
  5
7B00
  8
1
  6
CONTINUOUS
 10
2310.9503540000001
 20
1828.947786
 30
0.0
 11
2310.9503540000001
 21
1708.947785999999
 31
0.0
  0
LINE
  5
7B01
  8
1
  6
CONTINUOUS
 10
2224.2303539999989
 20
1828.947786
 30
0.0
 11
2224.2303539999989
 21
1878.947786
 31
0.0
  0
LINE
  5
7B20
  8
1
  6
CONTINUOUS
 10
2921.2073059999989
 20
2138.9477859999988
 30
0.0
 11
3281.2073059999989
 21
2672.9477859999988
 31
0.0
  0
LINE
  5
7B21
  8
1
  6
CONTINUOUS
 10
3281.2073059999989
 20
2138.9477859999988
 30
0.0
 11
2921.2073059999989
 21
2672.9477859999988
 31
0.0
  0
LINE
  5
7B22
  8
1
  6
CONTINUOUS
 10
3281.2073059999989
 20
2672.9477859999988
 30
0.0
 11
2921.2073059999989
 21
2672.9477859999988
 31
0.0
  0
LINE
  5
7B23
  8
1
  6
CONTINUOUS
 10
2921.2073059999989
 20
2138.9477859999988
 30
0.0
 11
3281.2073059999989
 21
2138.9477859999988
 31
0.0
  0
LINE
  5
7B24
  8
1
  6
CONTINUOUS
 10
2877.2073059999989
 20
1748.947786
 30
0.0
 11
3325.2073059999998
 21
1748.947786
 31
0.0
  0
LINE
  5
7B25
  8
1
  6
CONTINUOUS
 10
2877.2073059999989
 20
1828.947786
 30
0.0
 11
3325.2073059999998
 21
1828.947786
 31
0.0
  0
LINE
  5
7B26
  8
1
  6
CONTINUOUS
 10
2715.2073059999989
 20
1748.947786
 30
0.0
 11
3405.2073059999998
 21
1748.947786
 31
0.0
  0
LINE
  5
7B27
  8
1
  6
CONTINUOUS
 10
2715.2073059999989
 20
1708.947785999999
 30
0.0
 11
3405.2073059999998
 21
1708.947785999999
 31
0.0
  0
LINE
  5
7B28
  8
1
  6
CONTINUOUS
 10
2877.2073059999989
 20
1748.947786
 30
0.0
 11
3325.2073059999998
 21
1748.947786
 31
0.0
  0
LINE
  5
7B29
  8
1
  6
CONTINUOUS
 10
2821.2073059999989
 20
2063.9477859999988
 30
0.0
 11
2821.2073059999989
 21
2303.9477859999988
 31
0.0
  0
LINE
  5
7B2A
  8
1
  6
CONTINUOUS
 10
2921.2073059999989
 20
2672.9477859999988
 30
0.0
 11
2921.2073059999989
 21
1828.947786
 31
0.0
  0
LINE
  5
7B2B
  8
1
  6
CONTINUOUS
 10
2761.2073059999998
 20
2303.9477859999988
 30
0.0
 11
2761.2073059999998
 21
2063.9477859999988
 31
0.0
  0
LINE
  5
7B2C
  8
1
  6
CONTINUOUS
 10
2731.2073059999989
 20
1828.947786
 30
0.0
 11
2731.2073059999989
 21
2573.9477859999988
 31
0.0
  0
LINE
  5
7B2D
  8
1
  6
CONTINUOUS
 10
2851.2073059999998
 20
2573.9477859999988
 30
0.0
 11
2851.2073059999998
 21
1828.947786
 31
0.0
  0
LINE
  5
7B2E
  8
1
  6
CONTINUOUS
 10
2851.2073059999998
 20
1828.947786
 30
0.0
 11
2731.2073059999989
 21
1828.947786
 31
0.0
  0
LINE
  5
7B2F
  8
1
  6
CONTINUOUS
 10
2715.2073059999989
 20
1748.947786
 30
0.0
 11
2715.2073059999989
 21
1708.947785999999
 31
0.0
  0
LINE
  5
7B30
  8
1
  6
CONTINUOUS
 10
2821.2073059999989
 20
1991.947786
 30
0.0
 11
2921.2073059999989
 21
1991.947786
 31
0.0
  0
LINE
  5
7B31
  8
1
  6
CONTINUOUS
 10
2821.2073059999989
 20
2029.947786
 30
0.0
 11
2921.2073059999989
 21
2029.947786
 31
0.0
  0
LINE
  5
7B32
  8
1
  6
CONTINUOUS
 10
2821.2073059999989
 20
2063.9477859999988
 30
0.0
 11
2761.2073059999998
 21
2063.9477859999988
 31
0.0
  0
LINE
  5
7B33
  8
1
  6
CONTINUOUS
 10
2877.2073059999989
 20
1828.947786
 30
0.0
 11
2877.2073059999989
 21
1748.947786
 31
0.0
  0
LINE
  5
7B34
  8
1
  6
CONTINUOUS
 10
2761.2073059999998
 20
1960.947786
 30
0.0
 11
2821.2073059999989
 21
1960.947786
 31
0.0
  0
LINE
  5
7B35
  8
1
  6
CONTINUOUS
 10
2821.2073059999989
 20
2060.9477859999988
 30
0.0
 11
2761.2073059999998
 21
2060.9477859999988
 31
0.0
  0
LINE
  5
7B36
  8
1
  6
CONTINUOUS
 10
2761.2073059999998
 20
2060.9477859999988
 30
0.0
 11
2761.2073059999998
 21
1960.947786
 31
0.0
  0
LINE
  5
7B37
  8
1
  6
CONTINUOUS
 10
2821.2073059999989
 20
1960.947786
 30
0.0
 11
2821.2073059999989
 21
2060.9477859999988
 31
0.0
  0
LINE
  5
7B38
  8
1
  6
CONTINUOUS
 10
2731.2073059999989
 20
2573.9477859999988
 30
0.0
 11
2851.2073059999998
 21
2573.9477859999988
 31
0.0
  0
LINE
  5
7B39
  8
1
  6
CONTINUOUS
 10
2821.2073059999989
 20
2164.9477859999988
 30
0.0
 11
2921.2073059999989
 21
2164.9477859999988
 31
0.0
  0
LINE
  5
7B3A
  8
1
  6
CONTINUOUS
 10
2821.2073059999989
 20
2202.9477859999988
 30
0.0
 11
2921.2073059999989
 21
2202.9477859999988
 31
0.0
  0
LINE
  5
7B3B
  8
1
  6
CONTINUOUS
 10
2821.2073059999989
 20
2303.9477859999988
 30
0.0
 11
2761.2073059999998
 21
2303.9477859999988
 31
0.0
  0
LINE
  5
7B3C
  8
1
  6
CONTINUOUS
 10
3281.2073059999989
 20
2672.9477859999988
 30
0.0
 11
3281.2073059999989
 21
1828.947786
 31
0.0
  0
LINE
  5
7B3D
  8
1
  6
CONTINUOUS
 10
3325.2073059999998
 20
1828.947786
 30
0.0
 11
3325.2073059999998
 21
1748.947786
 31
0.0
  0
LINE
  5
7B3E
  8
1
  6
CONTINUOUS
 10
3405.2073059999998
 20
1748.947786
 30
0.0
 11
3405.2073059999998
 21
1708.947785999999
 31
0.0
  0
LINE
  5
7B3F
  8
1
  6
CONTINUOUS
 10
2071.9503540000001
 20
3563.0777859999998
 30
0.0
 11
1509.9503539999989
 21
3563.0777859999998
 31
0.0
  0
LINE
  5
7B40
  8
1
  6
CONTINUOUS
 10
2310.9503540000001
 20
4011.0777859999998
 30
0.0
 11
1190.9503539999989
 21
4011.0777859999998
 31
0.0
  0
LINE
  5
7B41
  8
1
  6
CONTINUOUS
 10
1899.1403539999999
 20
3969.0777859999989
 30
0.0
 11
1135.9503539999989
 21
3969.0777859999989
 31
0.0
  0
LINE
  5
7B42
  8
1
  6
CONTINUOUS
 10
1899.1403539999999
 20
3605.0777859999989
 30
0.0
 11
1135.9503539999989
 21
3605.0777859999989
 31
0.0
  0
LINE
  5
7B43
  8
1
  6
CONTINUOUS
 10
1265.4503539999989
 20
3417.0777859999998
 30
0.0
 11
2265.4503539999992
 21
3417.0777859999998
 31
0.0
  0
LINE
  5
7B44
  8
1
  6
CONTINUOUS
 10
2265.4503539999992
 20
3537.0777859999989
 30
0.0
 11
1265.4503539999989
 21
3537.0777859999989
 31
0.0
  0
LINE
  5
7B45
  8
1
  6
CONTINUOUS
 10
1135.9503539999989
 20
3580.0777859999989
 30
0.0
 11
1135.9503539999989
 21
3994.0777859999998
 31
0.0
  0
LINE
  5
7B46
  8
1
  6
CONTINUOUS
 10
1160.9503539999989
 20
3605.0777859999989
 30
0.0
 11
1160.9503539999989
 21
3969.0777859999989
 31
0.0
  0
LINE
  5
7B47
  8
1
  6
CONTINUOUS
 10
1370.9503539999989
 20
3507.0777859999989
 30
0.0
 11
1610.9503539999989
 21
3507.0777859999989
 31
0.0
  0
LINE
  5
7B48
  8
1
  6
CONTINUOUS
 10
1471.9503539999989
 20
3563.0777859999998
 30
0.0
 11
1190.9503539999989
 21
3563.0777859999998
 31
0.0
  0
LINE
  5
7B49
  8
1
  6
CONTINUOUS
 10
1610.9503539999989
 20
3444.7477859999999
 30
0.0
 11
1370.9503539999989
 21
3444.7477859999999
 31
0.0
  0
LINE
  5
7B4A
  8
1
  6
CONTINUOUS
 10
1230.9503539999989
 20
3401.0777859999998
 30
0.0
 11
1230.9503539999989
 21
3563.0777859999998
 31
0.0
  0
LINE
  5
7B4B
  8
1
  6
CONTINUOUS
 10
1370.9503539999989
 20
3444.7477859999999
 30
0.0
 11
1370.9503539999989
 21
3507.0777859999989
 31
0.0
  0
LINE
  5
7B4C
  8
1
  6
CONTINUOUS
 10
1190.9503539999989
 20
3605.0777859999989
 30
0.0
 11
1190.9503539999989
 21
3401.0777859999998
 31
0.0
  0
LINE
  5
7B4D
  8
1
  6
CONTINUOUS
 10
1265.4503539999989
 20
3537.0777859999989
 30
0.0
 11
1265.4503539999989
 21
3417.0777859999998
 31
0.0
  0
LINE
  5
7B4E
  8
1
  6
CONTINUOUS
 10
1230.9503539999989
 20
3401.0777859999998
 30
0.0
 11
1190.9503539999989
 21
3401.0777859999998
 31
0.0
  0
LINE
  5
7B4F
  8
1
  6
CONTINUOUS
 10
1610.9503539999989
 20
3444.7477859999999
 30
0.0
 11
1610.9503539999989
 21
3507.0777859999989
 31
0.0
  0
LINE
  5
7B50
  8
1
  6
CONTINUOUS
 10
1509.9503539999989
 20
3507.0777859999989
 30
0.0
 11
1509.9503539999989
 21
3605.0777859999989
 31
0.0
  0
LINE
  5
7B51
  8
1
  6
CONTINUOUS
 10
1471.9503539999989
 20
3507.0777859999989
 30
0.0
 11
1471.9503539999989
 21
3605.0777859999989
 31
0.0
  0
LINE
  5
7B52
  8
1
  6
CONTINUOUS
 10
1230.9503539999989
 20
4091.0777859999989
 30
0.0
 11
1230.9503539999989
 21
4011.0777859999998
 31
0.0
  0
LINE
  5
7B53
  8
1
  6
CONTINUOUS
 10
1230.9503539999989
 20
4091.0777859999989
 30
0.0
 11
1190.9503539999989
 21
4091.0777859999989
 31
0.0
  0
LINE
  5
7B54
  8
1
  6
CONTINUOUS
 10
1190.9503539999989
 20
4091.0777859999989
 30
0.0
 11
1190.9503539999989
 21
3969.0777859999989
 31
0.0
  0
LINE
  5
7B5B
  8
1
  6
CONTINUOUS
 10
2212.9503540000001
 20
3587.3177859999992
 30
0.0
 11
2212.9503540000001
 21
3937.3177859999992
 31
0.0
  0
LINE
  5
7B5C
  8
1
  6
CONTINUOUS
 10
1968.9503540000001
 20
3587.3177859999992
 30
0.0
 11
1968.9503540000001
 21
3937.3177859999992
 31
0.0
  0
LINE
  5
7B5D
  8
1
  6
CONTINUOUS
 10
2310.9503540000001
 20
4091.0777859999989
 30
0.0
 11
2310.9503540000001
 21
3401.0777859999998
 31
0.0
  0
LINE
  5
7B5E
  8
1
  6
CONTINUOUS
 10
1899.1403539999999
 20
3605.0777859999989
 30
0.0
 11
1899.1403539999999
 21
3969.0777859999989
 31
0.0
  0
LINE
  5
7B5F
  8
1
  6
CONTINUOUS
 10
2212.9503540000001
 20
3587.3177859999992
 30
0.0
 11
1968.9503540000001
 21
3587.3177859999992
 31
0.0
  0
LINE
  5
7B60
  8
1
  6
CONTINUOUS
 10
2040.9503540000001
 20
3507.0777859999989
 30
0.0
 11
2140.9503540000001
 21
3507.0777859999989
 31
0.0
  0
LINE
  5
7B61
  8
1
  6
CONTINUOUS
 10
2140.9503540000001
 20
3444.7477859999999
 30
0.0
 11
2040.9503540000001
 21
3444.7477859999999
 31
0.0
  0
LINE
  5
7B62
  8
1
  6
CONTINUOUS
 10
2040.9503540000001
 20
3444.7477859999999
 30
0.0
 11
2040.9503540000001
 21
3507.0777859999989
 31
0.0
  0
LINE
  5
7B63
  8
1
  6
CONTINUOUS
 10
2270.9503540000001
 20
3401.0777859999998
 30
0.0
 11
2270.9503540000001
 21
3563.0777859999998
 31
0.0
  0
LINE
  5
7B64
  8
1
  6
CONTINUOUS
 10
2140.9503540000001
 20
3507.0777859999989
 30
0.0
 11
2140.9503540000001
 21
3444.7477859999999
 31
0.0
  0
LINE
  5
7B65
  8
1
  6
CONTINUOUS
 10
2265.4503539999992
 20
3417.0777859999998
 30
0.0
 11
2265.4503539999992
 21
3537.0777859999989
 31
0.0
  0
LINE
  5
7B66
  8
1
  6
CONTINUOUS
 10
2270.9503540000001
 20
3401.0777859999998
 30
0.0
 11
2310.9503540000001
 21
3401.0777859999998
 31
0.0
  0
LINE
  5
7B67
  8
1
  6
CONTINUOUS
 10
2310.9503540000001
 20
3563.0777859999998
 30
0.0
 11
2109.9503539999992
 21
3563.0777859999998
 31
0.0
  0
LINE
  5
7B68
  8
1
  6
CONTINUOUS
 10
2071.9503540000001
 20
3507.0777859999989
 30
0.0
 11
2071.9503540000001
 21
3587.3177859999992
 31
0.0
  0
LINE
  5
7B69
  8
1
  6
CONTINUOUS
 10
2109.9503539999992
 20
3507.0777859999989
 30
0.0
 11
2109.9503539999992
 21
3587.3177859999992
 31
0.0
  0
LINE
  5
7B6A
  8
1
  6
CONTINUOUS
 10
2212.9503540000001
 20
3937.3177859999992
 30
0.0
 11
1968.9503540000001
 21
3937.3177859999992
 31
0.0
  0
LINE
  5
7B6B
  8
1
  6
CONTINUOUS
 10
2270.9503540000001
 20
4091.0777859999989
 30
0.0
 11
2270.9503540000001
 21
4011.0777859999998
 31
0.0
  0
LINE
  5
7B6C
  8
1
  6
CONTINUOUS
 10
2270.9503540000001
 20
4091.0777859999989
 30
0.0
 11
2310.9503540000001
 21
4091.0777859999989
 31
0.0
  0
LINE
  5
7B8F
  8
2
  6
CENTER
 10
2380.250094
 20
3787.0777859999989
 30
0.0
 11
1067.8399850000001
 21
3787.0777859999989
 31
0.0
  0
LINE
  5
7B90
  8
2
  6
CENTER
 10
3101.2073059999998
 20
2731.7808489999989
 30
0.0
 11
3101.2073059999998
 21
1555.456995127201
 31
0.0
  0
LINE
  5
7B91
  8
2
  6
CENTER
 10
1490.9503539999989
 20
2791.3082939999999
 30
0.0
 11
1490.9503539999989
 21
1633.385322834891
 31
0.0
  0
LINE
  5
7B92
  8
2
  6
CENTER
 10
2328.3948489999989
 20
2183.9477860000002
 30
0.0
 11
901.71654999999998
 21
2183.9477860000002
 31
0.0
  0
LINE
  5
7B93
  8
4
  6
CONTINUOUS
 10
3700.0
 20
1000.0
 30
0.0
 11
3700.0
 21
600.0
 31
0.0
  0
LINE
  5
7B94
  8
4
  6
CONTINUOUS
 10
2300.0
 20
1000.0
 30
0.0
 11
2300.0
 21
600.0
 31
0.0
  0
LINE
  5
7B95
  8
4
  6
CONTINUOUS
 10
1300.0
 20
1000.0
 30
0.0
 11
1300.0
 21
600.0
 31
0.0
  0
LINE
  5
7B98
  8
4
  6
CONTINUOUS
 10
1300.0
 20
600.0
 30
0.0
 11
3700.0
 21
600.0
 31
0.0
  0
LINE
  5
7B99
  8
4
  6
CONTINUOUS
 10
1300.0
 20
800.0
 30
0.0
 11
3700.0
 21
800.0
 31
0.0
  0
TEXT
  5
7B9A
  8
4
  6
CONTINUOUS
 10
1377.004162
 20
863.086052
 30
0.0
 40
100.0
  1
機器名称
  0
TEXT
  5
7B9B
  8
4
  6
CONTINUOUS
 10
1372.516212
 20
643.29031299999986
 30
0.0
 40
100.0
  1
機器型番
  0
TEXT
  5
7B9C
  8
4
  6
CONTINUOUS
 10
2355.3574910000002
 20
845.14353800000015
 30
0.0
 40
100.0
  1
ミツヤ多翼送風機
  0
TEXT
  5
7B9D
  8
4
  6
CONTINUOUS
 10
2373.3089909999999
 20
634.31916899999999
 30
0.0
 40
100.0
  1
MF#3-4
  0
TEXT
  5
7B9F
  8
4
  6
CONTINUOUS
 10
1708.3989750000001
 20
4766.8576830000002
 30
0.0
 40
108.0
  1
天井吊ベット
  0
TEXT
  5
7BA0
  8
4
  6
CONTINUOUS
 10
632.33518700000002
 20
5067.7619520000007
 30
0.0
 40
144.0
  1
ベルト駆動式片吸込両持多翼ファン
  0
LINE
  5
7BA1
  8
4
  6
CONTINUOUS
 10
500.0
 20
4938.8175090000004
 30
0.0
 11
3700.0
 21
4938.8175090000004
 31
0.0
  0
LINE
  5
7BA2
  8
4
  6
CONTINUOUS
 10
500.0
 20
5338.8175090000004
 30
0.0
 11
3700.0
 21
5338.8175090000004
 31
0.0
  0
LINE
  5
7BA3
  8
4
  6
CONTINUOUS
 10
1300.0
 20
1000.0
 30
0.0
 11
3700.0
 21
1000.0
 31
0.0
  0
LINE
  5
7BA4
  8
4
  6
CONTINUOUS
 10
500.0
 20
5338.8175090000004
 30
0.0
 11
500.0
 21
4938.8175090000004
 31
0.0
  0
TEXT
  5
7BA5
  8
4
  6
CONTINUOUS
 10
735.50871199999995
 20
4764.6389549999994
 30
0.0
 40
108.0
  1
左回転左横向
  0
TEXT
  5
7BA6
  8
4
  6
CONTINUOUS
 10
2937.9391179999998
 20
5412.122163
 30
0.0
 40
112.0
  1
No.
  0
TEXT
  5
7BA7
  8
4
  6
CONTINUOUS
 10
2622.5921250000001
 20
4766.8576830000002
 30
0.0
 40
108.0
  1
縮尺：1/20
  0
LINE
  5
7BA8
  8
4
  6
CONTINUOUS
 10
3700.0
 20
5338.8175090000004
 30
0.0
 11
3700.0
 21
4938.8175090000004
 31
0.0
  0
LINE
  5
7BAA
  8
4
  6
CONTINUOUS
 10
2881.234845
 20
5362.5271659999999
 30
0.0
 11
2881.234845
 21
5573.3045229999998
 31
0.0
  0
LINE
  5
7BAB
  8
4
  6
CONTINUOUS
 10
2881.234845
 20
5573.3045229999998
 30
0.0
 11
3700.0
 21
5573.3045229999998
 31
0.0
  0
LINE
  5
7BAC
  8
4
  6
CONTINUOUS
 10
3700.0
 20
5573.3045229999998
 30
0.0
 11
3700.0
 21
5362.5271659999999
 31
0.0
  0
LINE
  5
7BAD
  8
4
  6
CONTINUOUS
 10
3700.0
 20
5362.5271659999999
 30
0.0
 11
2881.234845
 21
5362.5271659999999
 31
0.0
  0
LINE
  5
7BB2
  8
1
  6
CONTINUOUS
 10
1265.4503539999989
 20
1828.947786
 30
0.0
 11
1265.4503539999989
 21
2498.9477860000002
 31
0.0
  0
LINE
  5
7BB3
  8
1
  6
CONTINUOUS
 10
1265.4503539999989
 20
2498.9477860000002
 30
0.0
 11
1505.4503539999989
 21
2573.9477859999988
 31
0.0
  0
LINE
  5
7BB4
  8
1
  6
CONTINUOUS
 10
1505.4503539999989
 20
2573.9477859999988
 30
0.0
 11
2265.4503539999992
 21
2063.9477859999988
 31
0.0
  0
LINE
  5
7BB5
  8
1
  6
CONTINUOUS
 10
2265.4503539999992
 20
2063.9477859999988
 30
0.0
 11
2265.4503539999992
 21
1828.947786
 31
0.0
  0
DIMENSION
  5
7BC9
  8
3
  6
CONTINUOUS
  2
*D1
 10
1058.0458819999999
 20
2165.9477859999988
 30
0.0
 11
1058.0458819999999
 21
2380.6225460000001
 31
0.0
 70
   128
 13
1135.9503539999989
 23
2645.9477859999988
 33
0.0
 14
1135.9503539999989
 24
2165.9477859999988
 34
0.0
 50
90.0
1001
ACAD
1000
DSTYLE
1002
{
1070
   287
1070
     3
1070
    40
1040
20.0
1070
   143
1040
0.039
1070
   172
1070
     1
1070
   271
1070
     0
1070
   279
1070
     0
1070
   288
1070
     1
1002
}
  0
DIMENSION
  5
7BD6
  8
3
  6
CONTINUOUS
  2
*D2
 10
935.61956100000032
 20
2183.9477860000002
 30
0.0
 11
935.61956099999998
 21
2375.7303379999989
 31
0.0
 70
   128
 13
1135.9503539999989
 23
2645.9477859999988
 33
0.0
 14
901.71654999999998
 24
2183.9477860000002
 34
0.0
 50
90.0
1001
ACAD
1000
DSTYLE
1002
{
1070
   287
1070
     3
1070
    40
1040
20.0
1070
   143
1040
0.039
1070
   172
1070
     1
1070
   271
1070
     0
1070
   279
1070
     0
1070
   288
1070
     1
1002
}
  0
DIMENSION
  5
7BE2
  8
3
  6
CONTINUOUS
  2
*D3
 10
935.61956099999998
 20
1748.947786
 30
0.0
 11
885.61956099999975
 21
1966.447786
 31
0.0
 70
     0
 13
901.71654999999998
 23
2183.9477860000002
 33
0.0
 14
1190.9503539999989
 24
1748.947786
 34
0.0
 50
90.0
1001
ACAD
1000
DSTYLE
1002
{
1070
   287
1070
     4
1070
    40
1040
20.0
1070
    75
1070
     1
1070
   143
1040
0.039
1070
   172
1070
     1
1070
   271
1070
     0
1070
   279
1070
     1
1070
   288
1070
     1
1002
}
  0
DIMENSION
  5
7BF2
  8
3
  6
CONTINUOUS
  2
*D4
 10
935.25829100000021
 20
1708.947785999999
 30
0.0
 11
935.25829099999999
 21
1560.3763574285711
 31
0.0
 70
   128
 13
1190.9503539999989
 23
1748.947786
 33
0.0
 14
1190.9503539999989
 24
1708.947785999999
 34
0.0
 50
90.0
1001
ACAD
1000
DSTYLE
1002
{
1070
   287
1070
     3
1070
    40
1040
20.0
1070
   143
1040
0.039
1070
   172
1070
     1
1070
   271
1070
     0
1070
   279
1070
     0
1070
   288
1070
     1
1002
}
  0
DIMENSION
  5
7BFF
  8
3
  6
CONTINUOUS
  2
*D5
 10
1490.9503539999989
 20
2791.5678149999999
 30
0.0
 11
1273.093210999999
 21
2791.5678149999999
 31
0.0
 70
   128
 13
1135.9503539999989
 23
2662.9477860000002
 33
0.0
 14
1490.9503539999989
 24
2791.3082939999999
 34
0.0
1001
ACAD
1000
DSTYLE
1002
{
1070
   287
1070
     3
1070
    40
1040
20.0
1070
   143
1040
0.039
1070
   172
1070
     1
1070
   271
1070
     0
1070
   279
1070
     0
1070
   288
1070
     1
1002
}
  0
DIMENSION
  5
7C0B
  8
3
  6
CONTINUOUS
  2
*D6
 10
1900.9503539999989
 20
2791.5678149999999
 30
0.0
 11
1695.9503540000001
 21
2841.567814999999
 31
0.0
 70
     0
 13
1490.9503539999989
 23
2791.3082939999999
 33
0.0
 14
1900.9503539999989
 24
2538.9477860000002
 34
0.0
1001
ACAD
1000
DSTYLE
1002
{
1070
   287
1070
     4
1070
    40
1040
20.0
1070
    75
1070
     1
1070
   143
1040
0.039
1070
   172
1070
     1
1070
   271
1070
     0
1070
   279
1070
     1
1070
   288
1070
     1
1002
}
  0
DIMENSION
  5
7C18
  8
3
  6
CONTINUOUS
  2
*D7
 10
1490.9503539999989
 20
1567.234571
 30
0.0
 11
1353.807496857142
 21
1567.234571
 31
0.0
 70
   128
 13
1190.9503539999989
 23
1708.947785999999
 33
0.0
 14
1490.9503539999989
 24
1633.385322834891
 34
0.0
1001
ACAD
1000
DSTYLE
1002
{
1070
   287
1070
     3
1070
    40
1040
20.0
1070
   143
1040
0.039
1070
   172
1070
     1
1070
   271
1070
     0
1070
   279
1070
     0
1070
   288
1070
     1
1002
}
  0
DIMENSION
  5
7C24
  8
3
  6
CONTINUOUS
  2
*D8
 10
2310.9503540000001
 20
1567.234571
 30
0.0
 11
1900.9503540000001
 21
1617.234571
 31
0.0
 70
     0
 13
1490.9503539999989
 23
1633.385322834891
 33
0.0
 14
2310.9503540000001
 24
1708.947785999999
 34
0.0
1001
ACAD
1000
DSTYLE
1002
{
1070
   287
1070
     4
1070
    40
1040
20.0
1070
    75
1070
     1
1070
   143
1040
0.039
1070
   172
1070
     1
1070
   271
1070
     0
1070
   279
1070
     1
1070
   288
1070
     1
1002
}
  0
DIMENSION
  5
7C31
  8
3
  6
CONTINUOUS
  2
*D9
 10
812.40782600000023
 20
1708.947785999999
 30
0.0
 11
812.407826
 21
2219.1797580000002
 31
0.0
 70
   128
 13
1135.9503539999989
 23
2672.9477859999988
 33
0.0
 14
1190.9503539999989
 24
1708.947785999999
 34
0.0
 50
90.0
1001
ACAD
1000
DSTYLE
1002
{
1070
   287
1070
     3
1070
    40
1040
20.0
1070
   143
1040
0.039
1070
   172
1070
     1
1070
   271
1070
     0
1070
   279
1070
     0
1070
   288
1070
     1
1002
}
  0
DIMENSION
  5
7C75
  8
3
  6
CONTINUOUS
  2
*D10
 10
3101.2073059999998
 20
1561.6799831272001
 30
0.0
 11
2904.2347380000001
 21
1561.6799831272001
 31
0.0
 70
   128
 13
2715.2073059999989
 23
1708.947785999999
 33
0.0
 14
3101.2073059999998
 24
1601.0635806396999
 34
0.0
1001
ACAD
1000
DSTYLE
1002
{
1070
   287
1070
     3
1070
    40
1040
20.0
1070
   143
1040
0.039
1070
   172
1070
     1
1070
   271
1070
     0
1070
   279
1070
     0
1070
   288
1070
     1
1002
}
  0
DIMENSION
  5
7C81
  8
3
  6
CONTINUOUS
  2
*D11
 10
3405.2073059999998
 20
1561.6799831272001
 30
0.0
 11
3253.2073059999998
 21
1611.679983127201
 31
0.0
 70
     0
 13
3101.2073059999998
 23
1594.976704885288
 33
0.0
 14
3405.2073059999998
 24
1708.947785999999
 34
0.0
1001
ACAD
1000
DSTYLE
1002
{
1070
   287
1070
     4
1070
    40
1040
20.0
1070
    75
1070
     1
1070
   143
1040
0.039
1070
   172
1070
     1
1070
   271
1070
     0
1070
   279
1070
     1
1070
   288
1070
     1
1002
}
  0
DIMENSION
  5
7C8E
  8
3
  6
CONTINUOUS
  2
*D12
 10
2921.2073059999989
 20
2744.117909999999
 30
0.0
 11
3090.3227310000002
 21
2744.117909999999
 31
0.0
 70
   128
 13
3281.2073059999989
 23
2672.9477859999988
 33
0.0
 14
2921.2073059999989
 24
2672.9477859999988
 34
0.0
1001
ACAD
1000
DSTYLE
1002
{
1070
   287
1070
     3
1070
    40
1040
20.0
1070
   143
1040
0.039
1070
   172
1070
     1
1070
   271
1070
     0
1070
   279
1070
     0
1070
   288
1070
     1
1002
}
  0
LINE
  5
7CA5
  8
1
  6
CONTINUOUS
 10
3282.2073059999998
 20
2433.9477860000002
 30
0.0
 11
3282.2073059999998
 21
1933.947786
 31
0.0
  0
DIMENSION
  5
7CB4
  8
3
  6
CONTINUOUS
  2
*D13
 10
3447.807589
 20
1933.947786
 30
0.0
 11
3447.8075889999991
 21
2189.8265219999998
 31
0.0
 70
   128
 13
3282.2073059999998
 23
2433.9477860000002
 33
0.0
 14
3282.2073059999998
 24
1933.947786
 34
0.0
 50
90.0
1001
ACAD
1000
DSTYLE
1002
{
1070
   287
1070
     3
1070
     3
1000
φ<>
1070
    40
1040
20.0
1070
   143
1040
0.039
1070
   172
1070
     1
1070
   271
1070
     0
1070
   279
1070
     0
1070
   288
1070
     1
1002
}
  0
DIMENSION
  5
7CE1
  8
3
  6
CONTINUOUS
  2
*D14
 10
3101.2073059999998
 20
2869.8431049999999
 30
0.0
 11
3191.7073059999998
 21
2932.2423003782551
 31
0.0
 70
   128
 13
3282.2073059999998
 23
2433.9477860000002
 33
0.0
 14
3101.2073059999998
 24
2843.4093600000001
 34
0.0
1001
ACAD
1000
DSTYLE
1002
{
1070
   288
1070
     1
1070
   172
1070
     1
1070
    40
1040
20.0
1070
   271
1070
     0
1070
   143
1040
0.039
1002
}
  0
DIMENSION
  5
7CED
  8
3
  6
CONTINUOUS
  2
*D15
 10
2731.2073059999989
 20
2869.8431049999999
 30
0.0
 11
2916.2073059999998
 21
2969.8431049999999
 31
0.0
 70
     0
  1
MAX\P430
 13
3101.2073059999998
 23
2843.4093600000001
 33
0.0
 14
2731.2073059999989
 24
2573.9477859999988
 34
0.0
1001
ACAD
1000
DSTYLE
1002
{
1070
   287
1070
     4
1070
    40
1040
20.0
1070
    75
1070
     1
1070
   143
1040
0.039
1070
   172
1070
     1
1070
   271
1070
     0
1070
   279
1070
     1
1070
   288
1070
     1
1002
}
  0
DIMENSION
  5
7CFA
  8
3
  6
CONTINUOUS
  2
*D16
 10
2310.9503540000001
 20
4202.9386059999997
 30
0.0
 11
1748.5303120000001
 21
4202.9386059999997
 31
0.0
 70
   128
 13
1190.9503539999989
 23
4091.0777859999989
 33
0.0
 14
2310.9503540000001
 24
4091.0777859999989
 34
0.0
1001
ACAD
1000
DSTYLE
1002
{
1070
   287
1070
     3
1070
    40
1040
20.0
1070
   143
1040
0.039
1070
   172
1070
     1
1070
   271
1070
     0
1070
   279
1070
     0
1070
   288
1070
     1
1002
}
  0
DIMENSION
  5
7D07
  8
3
  6
CONTINUOUS
  2
*D17
 10
2513.8410730000001
 20
3401.0777859999998
 30
0.0
 11
2513.8410730000001
 21
3768.0080579999999
 31
0.0
 70
   128
 13
2310.9503540000001
 23
4091.0777859999989
 33
0.0
 14
2310.9503540000001
 24
3401.0777859999998
 34
0.0
 50
90.0
1001
ACAD
1000
DSTYLE
1002
{
1070
   287
1070
     3
1070
    40
1040
20.0
1070
   143
1040
0.039
1070
   172
1070
     1
1070
   271
1070
     0
1070
   279
1070
     0
1070
   288
1070
     1
1002
}
  0
DIMENSION
  5
7DF5
  8
3
  2
*D18
 10
2310.9503540000001
 20
2915.5178009306069
 30
0.0
 11
1735.0699554046801
 21
2915.5178009306069
 31
0.0
 70
   128
 13
1135.9503539999989
 23
2662.9477860000002
 33
0.0
 14
2310.9503540000001
 24
1768.947786
 34
0.0
1001
ACAD
1000
DSTYLE
1002
{
1070
   287
1070
     3
1070
    40
1040
20.0
1070
   143
1040
0.039
1070
   172
1070
     1
1070
   271
1070
     0
1070
   279
1070
     0
1070
   288
1070
     1
1002
}
  0
ENDSEC
  0
EOF
