  0
SECTION
  2
HEADER
  9
$ACADVER
  1
AC1009
  9
$INSBASE
 10
0.0
 20
0.0
 30
0.0
  9
$EXTMIN
 10
0.0
 20
0.0
 30
0.0
  9
$EXTMAX
 10
4200.0
 20
5900.0
 30
0.0
  9
$LIMMIN
 10
0.0
 20
0.0
  9
$LIMMAX
 10
297.0
 20
210.0
  9
$ORTHOMODE
 70
     0
  9
$REGENMODE
 70
     1
  9
$FILLMODE
 70
     0
  9
$QTEXTMODE
 70
     0
  9
$MIRRTEXT
 70
     1
  9
$DRAGMODE
 70
     2
  9
$LTSCALE
 40
100.0
  9
$OSMODE
 70
    37
  9
$ATTMODE
 70
     1
  9
$TEXTSIZE
 40
180.0
  9
$TRACEWID
 40
0.05
  9
$TEXTSTYLE
  7
STANDARD
  9
$CLAYER
  8
1
  9
$CELTYPE
  6
BYLAYER
  9
$CECOLOR
 62
   256
  9
$DIMSCALE
 40
20.0
  9
$DIMASZ
 40
2.0
  9
$DIMEXO
 40
0.5
  9
$DIMDLI
 40
10.0
  9
$DIMRND
 40
0.0
  9
$DIMDLE
 40
0.0
  9
$DIMEXE
 40
1.0
  9
$DIMTP
 40
1.0
  9
$DIMTM
 40
1.0
  9
$DIMTXT
 40
3.0
  9
$DIMCEN
 40
0.0
  9
$DIMTSZ
 40
0.0
  9
$DIMTOL
 70
     0
  9
$DIMLIM
 70
     0
  9
$DIMTIH
 70
     0
  9
$DIMTOH
 70
     0
  9
$DIMSE1
 70
     0
  9
$DIMSE2
 70
     0
  9
$DIMTAD
 70
     1
  9
$DIMZIN
 70
     8
  9
$DIMBLK
  1

  9
$DIMASO
 70
     1
  9
$DIMSHO
 70
     1
  9
$DIMPOST
  1

  9
$DIMAPOST
  1

  9
$DIMALT
 70
     0
  9
$DIMALTD
 70
     2
  9
$DIMALTF
 40
0.039
  9
$DIMLFAC
 40
1.0
  9
$DIMTOFL
 70
     1
  9
$DIMTVP
 40
0.0
  9
$DIMTIX
 70
     0
  9
$DIMSOXD
 70
     0
  9
$DIMSAH
 70
     1
  9
$DIMBLK1
  1
OPEN
  9
$DIMBLK2
  1
OPEN
  9
$DIMSTYLE
  2
IGA
  9
$DIMCLRD
 70
     0
  9
$DIMCLRE
 70
     0
  9
$DIMCLRT
 70
     0
  9
$DIMTFAC
 40
10.0
  9
$DIMGAP
 40
1.0
  9
$LUNITS
 70
     2
  9
$LUPREC
 70
     3
  9
$SKETCHINC
 40
0.1
  9
$FILLETRAD
 40
50.0
  9
$AUNITS
 70
     0
  9
$AUPREC
 70
     0
  9
$MENU
  1
acad
  9
$ELEVATION
 40
0.0
  9
$PELEVATION
 40
0.0
  9
$THICKNESS
 40
0.0
  9
$LIMCHECK
 70
     0
  9
$BLIPMODE
 70
     0
  9
$CHAMFERA
 40
0.0
  9
$CHAMFERB
 40
0.0
  9
$SKPOLY
 70
     0
  9
$TDCREATE
 40
2451019.6417248831
  9
$TDUPDATE
 40
2454953.7548963651
  9
$TDINDWG
 40
0.0605296991
  9
$TDUSRTIMER
 40
0.0605296991
  9
$USRTIMER
 70
     1
  9
$ANGBASE
 50
0.0
  9
$ANGDIR
 70
     0
  9
$PDMODE
 70
     0
  9
$PDSIZE
 40
0.0
  9
$PLINEWID
 40
0.0
  9
$COORDS
 70
     1
  9
$SPLFRAME
 70
     0
  9
$SPLINETYPE
 70
     6
  9
$SPLINESEGS
 70
     8
  9
$ATTDIA
 70
     0
  9
$ATTREQ
 70
     1
  9
$HANDLING
 70
 10241
  9
$HANDSEED
  5
8651
  9
$SURFTAB1
 70
     6
  9
$SURFTAB2
 70
     6
  9
$SURFTYPE
 70
     6
  9
$SURFU
 70
     6
  9
$SURFV
 70
     6
  9
$UCSNAME
  2

  9
$UCSORG
 10
0.0
 20
0.0
 30
0.0
  9
$UCSXDIR
 10
1.0
 20
0.0
 30
0.0
  9
$UCSYDIR
 10
0.0
 20
1.0
 30
0.0
  9
$PUCSNAME
  2

  9
$PUCSORG
 10
0.0
 20
0.0
 30
0.0
  9
$PUCSXDIR
 10
1.0
 20
0.0
 30
0.0
  9
$PUCSYDIR
 10
0.0
 20
1.0
 30
0.0
  9
$USERI1
 70
     0
  9
$USERI2
 70
     0
  9
$USERI3
 70
     0
  9
$USERI4
 70
     0
  9
$USERI5
 70
     0
  9
$USERR1
 40
0.0
  9
$USERR2
 40
0.0
  9
$USERR3
 40
0.0
  9
$USERR4
 40
0.0
  9
$USERR5
 40
0.0
  9
$WORLDVIEW
 70
     1
  9
$SHADEDGE
 70
     3
  9
$SHADEDIF
 70
    70
  9
$TILEMODE
 70
     1
  9
$MAXACTVP
 70
    16
  9
$PLIMCHECK
 70
     0
  9
$PEXTMIN
 10
1.0000000000000000E+020
 20
1.0000000000000000E+020
 30
1.0000000000000000E+020
  9
$PEXTMAX
 10
-1.0000000000000000E+020
 20
-1.0000000000000000E+020
 30
-1.0000000000000000E+020
  9
$PLIMMIN
 10
0.0
 20
0.0
  9
$PLIMMAX
 10
12.0
 20
9.0
  9
$UNITMODE
 70
     0
  9
$VISRETAIN
 70
     0
  9
$PLINEGEN
 70
     0
  9
$PSLTSCALE
 70
     1
  0
ENDSEC
  0
SECTION
  2
TABLES
  0
TABLE
  2
VPORT
 70
     2
  0
VPORT
  2
*ACTIVE
 70
     0
 10
0.0
 20
0.0
 11
1.0
 21
1.0
 12
7073.2199177027342
 22
2950.0000137370062
 13
0.0
 23
0.0
 14
10.0
 24
10.0
 15
10.0
 25
10.0
 16
0.0
 26
0.0
 36
1.0
 17
0.0
 27
0.0
 37
0.0
 40
5945.22976603387
 41
3.1666666666666661
 42
50.0
 43
0.0
 44
0.0
 50
0.0
 51
0.0
 71
     0
 72
   100
 73
     1
 74
     0
 75
     0
 76
     0
 77
     0
 78
     0
  0
ENDTAB
  0
TABLE
  2
LTYPE
 70
     2
  0
LTYPE
  2
CONTINUOUS
 70
     0
  3
Solid line
 72
    65
 73
     0
 40
0.0
  0
LTYPE
  2
CENTER
 70
     0
  3
____ _ ____ _ ____ _ ____ _ ____ _ ____ _ ____ 
 72
    65
 73
     4
 40
2.0
 49
1.25
 49
-0.25
 49
0.25
 49
-0.25
  0
ENDTAB
  0
TABLE
  2
LAYER
 70
     6
  0
LAYER
  2
0
 70
     0
 62
     7
  6
CONTINUOUS
  0
LAYER
  2
3
 70
     0
 62
     2
  6
CONTINUOUS
  0
LAYER
  2
2
 70
     0
 62
     3
  6
CENTER
  0
LAYER
  2
1
 70
     0
 62
     4
  6
CONTINUOUS
  0
LAYER
  2
4
 70
     0
 62
     7
  6
CONTINUOUS
  0
LAYER
  2
DEFPOINTS
 70
     0
 62
     7
  6
CONTINUOUS
  0
ENDTAB
  0
TABLE
  2
STYLE
 70
     1
  0
STYLE
  2
STANDARD
 70
     0
 40
0.0
 41
1.0
 50
0.0
 71
     0
 42
180.0
  3
simplex.shx
  4
extfont.shx
  0
ENDTAB
  0
TABLE
  2
VIEW
 70
     0
  0
ENDTAB
  0
TABLE
  2
UCS
 70
     0
  0
ENDTAB
  0
TABLE
  2
APPID
 70
     1
  0
APPID
  2
ACAD
 70
     0
  0
ENDTAB
  0
TABLE
  2
DIMSTYLE
 70
     1
  0
DIMSTYLE
  2
IGA
 70
     0
  3

  4

  5

  6
OPEN
  7
OPEN
 40
2.0
 41
2.0
 42
0.5
 43
10.0
 44
1.0
 45
0.0
 46
0.0
 47
1.0
 48
1.0
140
3.0
141
0.0
142
0.0
143
0.03937
144
1.0
145
0.0
146
10.0
147
1.0
 71
     0
 72
     0
 73
     0
 74
     0
 75
     0
 76
     0
 77
     1
 78
     8
170
     0
171
     2
172
     0
173
     1
174
     0
175
     0
176
     0
177
     0
178
     0
  0
ENDTAB
  0
ENDSEC
  0
SECTION
  2
BLOCKS
  0
BLOCK
  8
0
  2
$MODEL_SPACE
 70
     0
 10
0.0
 20
0.0
 30
0.0
  3
$MODEL_SPACE
  1

  0
ENDBLK
  5
1B
  8
0
  0
BLOCK
 67
     1
  8
0
  2
$PAPER_SPACE
 70
     0
 10
0.0
 20
0.0
 30
0.0
  3
$PAPER_SPACE
  1

  0
ENDBLK
  5
18
 67
     1
  8
0
  0
BLOCK
  8
0
  2
_OPEN
 70
     0
 10
0.0
 20
0.0
 30
0.0
  3
_OPEN
  1

  0
LINE
  5
7A06
  8
0
  6
BYBLOCK
 62
     0
 10
-1.0
 20
0.1666666666666666
 30
0.0
 11
0.0
 21
0.0
 31
0.0
  0
LINE
  5
7A07
  8
0
  6
BYBLOCK
 62
     0
 10
0.0
 20
0.0
 30
0.0
 11
-1.0
 21
-0.1666666666666666
 31
0.0
  0
LINE
  5
7A08
  8
0
  6
BYBLOCK
 62
     0
 10
0.0
 20
0.0
 30
0.0
 11
-1.0
 21
0.0
 31
0.0
  0
ENDBLK
  5
7A0A
  8
0
  0
BLOCK
  8
0
  2
*D1
 70
     1
 10
0.0
 20
0.0
 30
0.0
  3
*D1
  1

  0
LINE
  5
8584
  8
3
 62
     0
 10
1466.9449913972239
 20
2540.3683472427251
 30
0.0
 11
1466.9449913972239
 21
2642.7100376931239
 31
0.0
  0
LINE
  5
8585
  8
3
 62
     0
 10
1901.9929822050831
 20
2150.5704625218318
 30
0.0
 11
1901.9929822050831
 21
2642.7100376931239
 31
0.0
  0
LINE
  5
8586
  8
3
 62
     0
 10
1506.944991397223
 20
2622.7100376931239
 30
0.0
 11
1861.9929822050831
 21
2622.7100376931239
 31
0.0
  0
INSERT
  5
8587
  8
3
 62
     0
  2
_OPEN
 10
1466.9449913972239
 20
2622.7100376931239
 30
0.0
 41
40.0
 42
40.0
 43
40.0
 50
180.0
  0
INSERT
  5
8588
  8
3
 62
     0
  2
_OPEN
 10
1901.9929822050831
 20
2622.7100376931239
 30
0.0
 41
40.0
 42
40.0
 43
40.0
  0
TEXT
  8
3
  40
60
  5
863D
  62
0
  72
0
  71
0
 10
1564.47
 20
2566.51
 30
0.000000
  1
435
  0
POINT
  5
858A
  8
DEFPOINTS
 62
     0
 10
1466.9449913972239
 20
2530.3683472427251
 30
0.0
  0
POINT
  5
858B
  8
DEFPOINTS
 62
     0
 10
1901.9929822050831
 20
2140.5704625218318
 30
0.0
  0
POINT
  5
858C
  8
DEFPOINTS
 62
     0
 10
1901.9929822050831
 20
2622.7100376931239
 30
0.0
  0
ENDBLK
  5
83CE
  8
0
  0
BLOCK
  8
0
  2
*D2
 70
     1
 10
0.0
 20
0.0
 30
0.0
  3
*D2
  1

  0
LINE
  5
858D
  8
3
 62
     0
 10
1096.944991397223
 20
1565.570462521832
 30
0.0
 11
806.78791467432245
 21
1565.570462521832
 31
0.0
  0
LINE
  5
858E
  8
3
 62
     0
 10
1013.798498080979
 20
2103.5704625218318
 30
0.0
 11
806.78791467432245
 21
2103.5704625218318
 31
0.0
  0
LINE
  5
858F
  8
3
 62
     0
 10
826.78791467432245
 20
1605.570462521832
 30
0.0
 11
826.78791467432256
 21
2063.5704625218318
 31
0.0
  0
INSERT
  5
8590
  8
3
 62
     0
  2
_OPEN
 10
826.78791467432245
 20
1565.570462521832
 30
0.0
 41
40.0
 42
40.0
 43
40.0
 50
270.0
  0
INSERT
  5
8591
  8
3
 62
     0
  2
_OPEN
 10
826.78791467432256
 20
2103.5704625218318
 30
0.0
 41
40.0
 42
40.0
 43
40.0
 50
90.0
  0
TEXT
  8
3
  40
60
  5
863E
  62
0
  72
0
  71
0
 10
656.788
 20
1728.37
 30
0.000000
  1
538
  0
POINT
  5
8593
  8
DEFPOINTS
 62
     0
 10
1106.944991397223
 20
1565.570462521832
 30
0.0
  0
POINT
  5
8594
  8
DEFPOINTS
 62
     0
 10
1023.798498080979
 20
2103.5704625218318
 30
0.0
  0
POINT
  5
8595
  8
DEFPOINTS
 62
     0
 10
826.78791467432256
 20
2103.5704625218318
 30
0.0
  0
ENDBLK
  5
8394
  8
0
  0
BLOCK
  8
0
  2
*D3
 70
     1
 10
0.0
 20
0.0
 30
0.0
  3
*D3
  1

  0
LINE
  5
8596
  8
3
 62
     0
 10
1096.944991397223
 20
1565.570462521832
 30
0.0
 11
944.93975613280497
 21
1565.570462521832
 31
0.0
  0
LINE
  5
8597
  8
3
 62
     0
 10
1096.944991397223
 20
2077.5704625218318
 30
0.0
 11
944.93975613280509
 21
2077.5704625218318
 31
0.0
  0
LINE
  5
8598
  8
3
 62
     0
 10
964.93975613280486
 20
1605.570462521832
 30
0.0
 11
964.93975613280509
 21
2037.570462521832
 31
0.0
  0
INSERT
  5
8599
  8
3
 62
     0
  2
_OPEN
 10
964.93975613280486
 20
1565.570462521832
 30
0.0
 41
40.0
 42
40.0
 43
40.0
 50
270.0
  0
INSERT
  5
859A
  8
3
 62
     0
  2
_OPEN
 10
964.93975613280509
 20
2077.5704625218318
 30
0.0
 41
40.0
 42
40.0
 43
40.0
 50
90.0
  0
TEXT
  8
3
  40
60
  5
863F
  62
0
  72
0
  71
0
 10
794.940
 20
1715.37
 30
0.000000
  1
512
  0
POINT
  5
859C
  8
DEFPOINTS
 62
     0
 10
1106.944991397223
 20
1565.570462521832
 30
0.0
  0
POINT
  5
859D
  8
DEFPOINTS
 62
     0
 10
1106.944991397223
 20
2077.5704625218318
 30
0.0
  0
POINT
  5
859E
  8
DEFPOINTS
 62
     0
 10
964.93975613280509
 20
2077.5704625218318
 30
0.0
  0
ENDBLK
  5
8389
  8
0
  0
BLOCK
  8
0
  2
*D4
 70
     1
 10
0.0
 20
0.0
 30
0.0
  3
*D4
  1

  0
LINE
  5
859F
  8
3
 62
     0
 10
2296.944991397223
 20
1293.570462521832
 30
0.0
 11
2296.944991397223
 21
1131.2272668971791
 31
0.0
  0
LINE
  5
85A0
  8
3
 62
     0
 10
1466.9449913972239
 20
1261.039191034632
 30
0.0
 11
1466.9449913972239
 21
1131.2272668971791
 31
0.0
  0
LINE
  5
85A1
  8
3
 62
     0
 10
2256.944991397223
 20
1151.2272668971791
 30
0.0
 11
1506.944991397223
 21
1151.2272668971791
 31
0.0
  0
INSERT
  5
85A2
  8
3
 62
     0
  2
_OPEN
 10
2296.944991397223
 20
1151.2272668971791
 30
0.0
 41
40.0
 42
40.0
 43
40.0
  0
INSERT
  5
85A3
  8
3
 62
     0
  2
_OPEN
 10
1466.9449913972239
 20
1151.2272668971791
 30
0.0
 41
40.0
 42
40.0
 43
40.0
 50
180.0
  0
TEXT
  8
3
  40
60
  5
8640
  62
0
  72
0
  71
0
 10
1761.94
 20
1095.03
 30
0.000000
  1
830
  0
POINT
  5
85A5
  8
DEFPOINTS
 62
     0
 10
2296.944991397223
 20
1303.570462521832
 30
0.0
  0
POINT
  5
85A6
  8
DEFPOINTS
 62
     0
 10
1466.9449913972239
 20
1271.039191034632
 30
0.0
  0
POINT
  5
85A7
  8
DEFPOINTS
 62
     0
 10
1466.9449913972239
 20
1151.2272668971791
 30
0.0
  0
ENDBLK
  5
82DF
  8
0
  0
BLOCK
  8
0
  2
*D5
 70
     1
 10
0.0
 20
0.0
 30
0.0
  3
*D5
  1

  0
LINE
  5
8332
  8
0
  6
BYBLOCK
 62
     0
 10
6288.6755005680861
 20
1345.9996900083229
 30
0.0
 11
6288.6755005680861
 21
1216.18776587087
 31
0.0
  0
LINE
  5
8333
  8
0
  6
BYBLOCK
 62
     0
 10
6038.6755005680861
 20
1378.5309614955229
 30
0.0
 11
6038.6755005680861
 21
1216.18776587087
 31
0.0
  0
LINE
  5
8334
  8
0
  6
BYBLOCK
 62
     0
 10
6248.6755005680861
 20
1236.18776587087
 30
0.0
 11
6078.6755005680861
 21
1236.18776587087
 31
0.0
  0
TEXT
  5
8335
  8
1
 62
     0
 10
6086.5326434252293
 20
1255.3580331526221
 30
0.0
 40
60.0
  1
250
  0
INSERT
  5
8336
  8
0
  6
BYBLOCK
 62
     0
  2
_OPEN
 10
6288.6755005680861
 20
1236.18776587087
 30
0.0
 41
40.0
 42
40.0
 43
40.0
  0
INSERT
  5
8337
  8
0
  6
BYBLOCK
 62
     0
  2
_OPEN
 10
6038.6755005680861
 20
1236.18776587087
 30
0.0
 41
40.0
 42
40.0
 43
40.0
 50
180.0
  0
POINT
  5
8338
  8
DEFPOINTS
  6
BYBLOCK
 62
     0
 10
6288.6755005680861
 20
1355.9996900083229
 30
0.0
  0
POINT
  5
8339
  8
DEFPOINTS
  6
BYBLOCK
 62
     0
 10
6038.6755005680861
 20
1388.5309614955229
 30
0.0
  0
POINT
  5
833A
  8
DEFPOINTS
  6
BYBLOCK
 62
     0
 10
6038.6755005680861
 20
1236.18776587087
 30
0.0
  0
ENDBLK
  5
833B
  8
0
  0
BLOCK
  8
0
  2
*D6
 70
     1
 10
0.0
 20
0.0
 30
0.0
  3
*D6
  1

  0
LINE
  5
85A8
  8
3
 62
     0
 10
1716.9449913972239
 20
4293.0053821373576
 30
0.0
 11
1716.9449913972239
 21
4446.2901333430718
 31
0.0
  0
LINE
  5
85A9
  8
3
 62
     0
 10
2296.944991397223
 20
3853.0053821373581
 30
0.0
 11
2296.944991397223
 21
4446.2901333430718
 31
0.0
  0
LINE
  5
85AA
  8
3
 62
     0
 10
1756.944991397223
 20
4426.2901333430718
 30
0.0
 11
2256.944991397223
 21
4426.2901333430718
 31
0.0
  0
INSERT
  5
85AB
  8
3
 62
     0
  2
_OPEN
 10
1716.9449913972239
 20
4426.2901333430718
 30
0.0
 41
40.0
 42
40.0
 43
40.0
 50
180.0
  0
INSERT
  5
85AC
  8
3
 62
     0
  2
_OPEN
 10
2296.944991397223
 20
4426.2901333430718
 30
0.0
 41
40.0
 42
40.0
 43
40.0
  0
TEXT
  8
3
  40
60
  5
8641
  62
0
  72
0
  71
0
 10
1886.94
 20
4370.09
 30
0.000000
  1
580
  0
POINT
  5
85AE
  8
DEFPOINTS
 62
     0
 10
1716.9449913972239
 20
4283.0053821373594
 30
0.0
  0
POINT
  5
85AF
  8
DEFPOINTS
 62
     0
 10
2296.944991397223
 20
3843.0053821373581
 30
0.0
  0
POINT
  5
85B0
  8
DEFPOINTS
 62
     0
 10
2296.944991397223
 20
4426.2901333430718
 30
0.0
  0
ENDBLK
  5
8351
  8
0
  0
BLOCK
  8
0
  2
*D7
 70
     1
 10
0.0
 20
0.0
 30
0.0
  3
*D7
  1

  0
LINE
  5
85B1
  8
3
 62
     0
 10
1216.9449913972239
 20
3273.0053821373581
 30
0.0
 11
1216.9449913972239
 21
2946.1871296374011
 31
0.0
  0
LINE
  5
85B2
  8
3
 62
     0
 10
2296.944991397223
 20
3273.0053821373581
 30
0.0
 11
2296.944991397223
 21
2946.1871296374011
 31
0.0
  0
LINE
  5
85B3
  8
3
 62
     0
 10
1256.944991397223
 20
2966.1871296374002
 30
0.0
 11
2256.944991397223
 21
2966.1871296374002
 31
0.0
  0
INSERT
  5
85B4
  8
3
 62
     0
  2
_OPEN
 10
1216.9449913972239
 20
2966.1871296374002
 30
0.0
 41
40.0
 42
40.0
 43
40.0
 50
180.0
  0
INSERT
  5
85B5
  8
3
 62
     0
  2
_OPEN
 10
2296.944991397223
 20
2966.1871296374002
 30
0.0
 41
40.0
 42
40.0
 43
40.0
  0
TEXT
  8
3
  40
60
  5
8642
  62
0
  72
0
  71
0
 10
1636.94
 20
2909.99
 30
0.000000
  1
1080
  0
POINT
  5
85B7
  8
DEFPOINTS
 62
     0
 10
1216.9449913972239
 20
3283.0053821373581
 30
0.0
  0
POINT
  5
85B8
  8
DEFPOINTS
 62
     0
 10
2296.944991397223
 20
3283.0053821373581
 30
0.0
  0
POINT
  5
85B9
  8
DEFPOINTS
 62
     0
 10
2296.944991397223
 20
2966.1871296374002
 30
0.0
  0
ENDBLK
  5
82C9
  8
0
  0
BLOCK
  8
0
  2
*D8
 70
     1
 10
0.0
 20
0.0
 30
0.0
  3
*D8
  1

  0
LINE
  5
85BA
  8
3
 62
     0
 10
2306.944991397223
 20
3843.0053821373581
 30
0.0
 11
2503.5795759559778
 21
3843.0053821373581
 31
0.0
  0
LINE
  5
85BB
  8
3
 62
     0
 10
2306.944991397223
 20
3283.0053821373581
 30
0.0
 11
2503.5795759559778
 21
3283.0053821373581
 31
0.0
  0
LINE
  5
85BC
  8
3
 62
     0
 10
2483.5795759559778
 20
3803.0053821373581
 30
0.0
 11
2483.5795759559778
 21
3323.0053821373581
 31
0.0
  0
INSERT
  5
85BD
  8
3
 62
     0
  2
_OPEN
 10
2483.5795759559778
 20
3843.0053821373581
 30
0.0
 41
40.0
 42
40.0
 43
40.0
 50
90.0
  0
INSERT
  5
85BE
  8
3
 62
     0
  2
_OPEN
 10
2483.5795759559778
 20
3283.0053821373581
 30
0.0
 41
40.0
 42
40.0
 43
40.0
 50
270.0
  0
TEXT
  8
3
  40
60
  5
8643
  62
0
  72
0
  71
0
 10
2313.58
 20
3456.81
 30
0.000000
  1
560
  0
POINT
  5
85C0
  8
DEFPOINTS
 62
     0
 10
2296.944991397223
 20
3843.0053821373581
 30
0.0
  0
POINT
  5
85C1
  8
DEFPOINTS
 62
     0
 10
2296.944991397223
 20
3283.0053821373581
 30
0.0
  0
POINT
  5
85C2
  8
DEFPOINTS
 62
     0
 10
2483.5795759559778
 20
3283.0053821373581
 30
0.0
  0
ENDBLK
  5
835C
  8
0
  0
BLOCK
  8
0
  2
*D9
 70
     1
 10
0.0
 20
0.0
 30
0.0
  3
*D9
  1

  0
LINE
  5
85C3
  8
3
 62
     0
 10
1206.944991397223
 20
3283.0053821373581
 30
0.0
 11
892.12725960871899
 21
3283.005382137359
 31
0.0
  0
LINE
  5
85C4
  8
3
 62
     0
 10
1206.944991397223
 20
4283.0053821373594
 30
0.0
 11
892.12725960871921
 21
4283.0053821373594
 31
0.0
  0
LINE
  5
85C5
  8
3
 62
     0
 10
912.12725960871887
 20
3323.0053821373581
 30
0.0
 11
912.12725960871933
 21
4243.0053821373576
 31
0.0
  0
INSERT
  5
85C6
  8
3
 62
     0
  2
_OPEN
 10
912.12725960871887
 20
3283.005382137359
 30
0.0
 41
40.0
 42
40.0
 43
40.0
 50
270.0
  0
INSERT
  5
85C7
  8
3
 62
     0
  2
_OPEN
 10
912.12725960871933
 20
4283.0053821373594
 30
0.0
 41
40.0
 42
40.0
 43
40.0
 50
90.0
  0
TEXT
  8
3
  40
60
  5
8644
  62
0
  72
0
  71
0
 10
742.127
 20
3676.81
 30
0.000000
  1
1000
  0
POINT
  5
85C9
  8
DEFPOINTS
 62
     0
 10
1216.9449913972239
 20
3283.0053821373581
 30
0.0
  0
POINT
  5
85CA
  8
DEFPOINTS
 62
     0
 10
1216.9449913972239
 20
4283.0053821373594
 30
0.0
  0
POINT
  5
85CB
  8
DEFPOINTS
 62
     0
 10
912.12725960871933
 20
4283.0053821373594
 30
0.0
  0
ENDBLK
  5
8367
  8
0
  0
BLOCK
  8
0
  2
*D10
 70
     1
 10
0.0
 20
0.0
 30
0.0
  3
*D10
  1

  0
LINE
  5
85CC
  8
3
 62
     0
 10
1106.944991397223
 20
2108.6583577807842
 30
0.0
 11
1106.944991397223
 21
2642.7100376931239
 31
0.0
  0
LINE
  5
85CD
  8
3
 62
     0
 10
1466.9449913972239
 20
2540.3683472427251
 30
0.0
 11
1466.9449913972239
 21
2642.7100376931239
 31
0.0
  0
LINE
  5
85CE
  8
3
 62
     0
 10
1146.944991397223
 20
2622.7100376931239
 30
0.0
 11
1426.9449913972239
 21
2622.7100376931239
 31
0.0
  0
INSERT
  5
85CF
  8
3
 62
     0
  2
_OPEN
 10
1106.944991397223
 20
2622.7100376931239
 30
0.0
 41
40.0
 42
40.0
 43
40.0
 50
180.0
  0
INSERT
  5
85D0
  8
3
 62
     0
  2
_OPEN
 10
1466.9449913972239
 20
2622.7100376931239
 30
0.0
 41
40.0
 42
40.0
 43
40.0
  0
TEXT
  8
3
  40
60
  5
8645
  62
0
  72
0
  71
0
 10
1166.94
 20
2566.51
 30
0.000000
  1
360
  0
POINT
  5
85D2
  8
DEFPOINTS
 62
     0
 10
1106.944991397223
 20
2098.6583577807842
 30
0.0
  0
POINT
  5
85D3
  8
DEFPOINTS
 62
     0
 10
1466.9449913972239
 20
2530.3683472427251
 30
0.0
  0
POINT
  5
85D4
  8
DEFPOINTS
 62
     0
 10
1466.9449913972239
 20
2622.7100376931239
 30
0.0
  0
ENDBLK
  5
83B8
  8
0
  0
BLOCK
  8
0
  2
*D11
 70
     1
 10
0.0
 20
0.0
 30
0.0
  3
*D11
  1

  0
LINE
  5
85D5
  8
3
 62
     0
 10
1216.9449913972239
 20
4293.0053821373576
 30
0.0
 11
1216.9449913972239
 21
4446.2901333430718
 31
0.0
  0
LINE
  5
85D6
  8
3
 62
     0
 10
1716.9449913972239
 20
4293.0053821373576
 30
0.0
 11
1716.9449913972239
 21
4446.2901333430718
 31
0.0
  0
LINE
  5
85D7
  8
3
 62
     0
 10
1256.944991397223
 20
4426.2901333430718
 30
0.0
 11
1676.944991397223
 21
4426.2901333430718
 31
0.0
  0
INSERT
  5
85D8
  8
3
 62
     0
  2
_OPEN
 10
1216.9449913972239
 20
4426.2901333430718
 30
0.0
 41
40.0
 42
40.0
 43
40.0
 50
180.0
  0
INSERT
  5
85D9
  8
3
 62
     0
  2
_OPEN
 10
1716.9449913972239
 20
4426.2901333430718
 30
0.0
 41
40.0
 42
40.0
 43
40.0
  0
TEXT
  8
3
  40
60
  5
8646
  62
0
  72
0
  71
0
 10
1346.94
 20
4370.09
 30
0.000000
  1
500
  0
POINT
  5
85DB
  8
DEFPOINTS
 62
     0
 10
1216.9449913972239
 20
4283.0053821373594
 30
0.0
  0
POINT
  5
85DC
  8
DEFPOINTS
 62
     0
 10
1716.9449913972239
 20
4283.0053821373594
 30
0.0
  0
POINT
  5
85DD
  8
DEFPOINTS
 62
     0
 10
1716.9449913972239
 20
4426.2901333430718
 30
0.0
  0
ENDBLK
  5
8372
  8
0
  0
BLOCK
  8
0
  2
*D12
 70
     1
 10
0.0
 20
0.0
 30
0.0
  3
*D12
  1

  0
LINE
  5
84E5
  8
0
  6
BYBLOCK
 62
     0
 10
3406.0486675706529
 20
2705.7794243709
 30
0.0
 11
3406.0486675706529
 21
2755.4612448513699
 31
0.0
  0
LINE
  5
84E6
  8
0
  6
BYBLOCK
 62
     0
 10
3598.048667570652
 20
2388.5704625218318
 30
0.0
 11
3598.048667570652
 21
2755.4612448513699
 31
0.0
  0
LINE
  5
84E7
  8
0
  6
BYBLOCK
 62
     0
 10
3446.048667570652
 20
2735.4612448513699
 30
0.0
 11
3558.048667570652
 21
2735.4612448513699
 31
0.0
  0
TEXT
  5
84E8
  8
1
 62
     0
 10
3430.62009614208
 20
2765.2635465378512
 30
0.0
 40
60.0
  1
192
  0
INSERT
  5
84E9
  8
0
  6
BYBLOCK
 62
     0
  2
_OPEN
 10
3406.0486675706529
 20
2735.4612448513699
 30
0.0
 41
40.0
 42
40.0
 43
40.0
 50
180.0
  0
INSERT
  5
84EA
  8
0
  6
BYBLOCK
 62
     0
  2
_OPEN
 10
3598.048667570652
 20
2735.4612448513699
 30
0.0
 41
40.0
 42
40.0
 43
40.0
  0
POINT
  5
84EB
  8
DEFPOINTS
  6
BYBLOCK
 62
     0
 10
3406.0486675706529
 20
2695.7794243709
 30
0.0
  0
POINT
  5
84EC
  8
DEFPOINTS
  6
BYBLOCK
 62
     0
 10
3598.048667570652
 20
2378.5704625218318
 30
0.0
  0
POINT
  5
84ED
  8
DEFPOINTS
  6
BYBLOCK
 62
     0
 10
3598.048667570652
 20
2735.4612448513699
 30
0.0
  0
ENDBLK
  5
84EE
  8
0
  0
BLOCK
  8
0
  2
*D13
 70
     1
 10
0.0
 20
0.0
 30
0.0
  3
*D13
  1

  0
LINE
  5
85DE
  8
3
 62
     0
 10
2551.0486675706502
 20
2263.5704625218318
 30
0.0
 11
2551.0486675706502
 21
2755.4612448513699
 31
0.0
  0
LINE
  5
85DF
  8
3
 62
     0
 10
3406.0486675706529
 20
2705.7794243709
 30
0.0
 11
3406.0486675706529
 21
2755.4612448513699
 31
0.0
  0
LINE
  5
85E0
  8
3
 62
     0
 10
2591.0486675706502
 20
2735.4612448513699
 30
0.0
 11
3366.048667570652
 21
2735.4612448513699
 31
0.0
  0
INSERT
  5
85E1
  8
3
 62
     0
  2
_OPEN
 10
2551.0486675706502
 20
2735.4612448513699
 30
0.0
 41
40.0
 42
40.0
 43
40.0
 50
180.0
  0
INSERT
  5
85E2
  8
3
 62
     0
  2
_OPEN
 10
3406.0486675706529
 20
2735.4612448513699
 30
0.0
 41
40.0
 42
40.0
 43
40.0
  0
TEXT
  8
3
  40
60
  5
8647
  62
0
  72
0
  71
0
 10
2858.55
 20
2729.26
 30
0.000000
  1
MAX
  0
TEXT
  8
3
  40
60
  5
8648
  62
0
  72
0
  71
0
 10
2858.55
 20
2651.26
 30
0.000000
  1
930
  0
POINT
  5
85E4
  8
DEFPOINTS
 62
     0
 10
2551.0486675706502
 20
2253.5704625218309
 30
0.0
  0
POINT
  5
85E5
  8
DEFPOINTS
 62
     0
 10
3406.0486675706529
 20
2695.7794243709
 30
0.0
  0
POINT
  5
85E6
  8
DEFPOINTS
 62
     0
 10
3406.0486675706529
 20
2735.4612448513699
 30
0.0
  0
ENDBLK
  5
84D7
  8
0
  0
BLOCK
  8
0
  2
*D14
 70
     1
 10
0.0
 20
0.0
 30
0.0
  3
*D14
  1

  0
LINE
  5
85E7
  8
3
 62
     0
 10
2636.048667570652
 20
1293.570462521832
 30
0.0
 11
2636.048667570652
 21
1126.9734253570689
 31
0.0
  0
LINE
  5
85E8
  8
3
 62
     0
 10
3406.0486675706529
 20
1261.0391910346329
 30
0.0
 11
3406.0486675706529
 21
1126.9734253570689
 31
0.0
  0
LINE
  5
85E9
  8
3
 62
     0
 10
2676.048667570652
 20
1146.9734253570689
 30
0.0
 11
3366.048667570652
 21
1146.9734253570689
 31
0.0
  0
INSERT
  5
85EA
  8
3
 62
     0
  2
_OPEN
 10
2636.048667570652
 20
1146.9734253570689
 30
0.0
 41
40.0
 42
40.0
 43
40.0
 50
180.0
  0
INSERT
  5
85EB
  8
3
 62
     0
  2
_OPEN
 10
3406.0486675706529
 20
1146.9734253570689
 30
0.0
 41
40.0
 42
40.0
 43
40.0
  0
TEXT
  8
3
  40
60
  5
8649
  62
0
  72
0
  71
0
 10
2901.05
 20
1090.77
 30
0.000000
  1
770
  0
POINT
  5
85ED
  8
DEFPOINTS
 62
     0
 10
2636.048667570652
 20
1303.570462521832
 30
0.0
  0
POINT
  5
85EE
  8
DEFPOINTS
 62
     0
 10
3406.0486675706529
 20
1271.0391910346329
 30
0.0
  0
POINT
  5
85EF
  8
DEFPOINTS
 62
     0
 10
3406.0486675706529
 20
1146.9734253570689
 30
0.0
  0
ENDBLK
  5
80B8
  8
0
  0
BLOCK
  8
0
  2
*D15
 70
     1
 10
0.0
 20
0.0
 30
0.0
  3
*D15
  1

  0
LINE
  5
85FA
  8
3
 62
     0
 10
3633.048667570652
 20
2353.5704625218318
 30
0.0
 11
3818.1294419902438
 21
2353.5704625218318
 31
0.0
  0
LINE
  5
85FB
  8
3
 62
     0
 10
3633.048667570652
 20
1853.570462521832
 30
0.0
 11
3818.1294419902438
 21
1853.570462521832
 31
0.0
  0
LINE
  5
85FC
  8
3
 62
     0
 10
3798.1294419902438
 20
2313.5704625218318
 30
0.0
 11
3798.1294419902438
 21
1893.570462521832
 31
0.0
  0
INSERT
  5
85FD
  8
3
 62
     0
  2
_OPEN
 10
3798.1294419902438
 20
2353.5704625218318
 30
0.0
 41
40.0
 42
40.0
 43
40.0
 50
90.0
  0
INSERT
  5
85FE
  8
3
 62
     0
  2
_OPEN
 10
3798.1294419902438
 20
1853.570462521832
 30
0.0
 41
40.0
 42
40.0
 43
40.0
 50
270.0
  0
TEXT
  8
3
  40
60
  5
864A
  62
0
  72
0
  71
0
 10
3628.13
 20
1997.37
 30
0.000000
  1
φ500
  0
POINT
  5
8600
  8
DEFPOINTS
 62
     0
 10
3623.048667570652
 20
2353.5704625218318
 30
0.0
  0
POINT
  5
8601
  8
DEFPOINTS
 62
     0
 10
3623.048667570652
 20
1853.570462521832
 30
0.0
  0
POINT
  5
8602
  8
DEFPOINTS
 62
     0
 10
3798.1294419902438
 20
1853.570462521832
 30
0.0
  0
ENDBLK
  5
8243
  8
0
  0
BLOCK
  8
0
  2
*D16
 70
     1
 10
0.0
 20
0.0
 30
0.0
  3
*D16
  1

  0
LINE
  5
81B6
  8
0
  6
BYBLOCK
 62
     0
 10
3522.5155854576942
 20
1357.6367765335449
 30
0.0
 11
3522.5155854576942
 21
1223.5710108559811
 31
0.0
  0
LINE
  5
81B7
  8
0
  6
BYBLOCK
 62
     0
 10
3752.5155854576942
 20
1390.168048020744
 30
0.0
 11
3752.5155854576942
 21
1223.5710108559811
 31
0.0
  0
LINE
  5
81B8
  8
0
  6
BYBLOCK
 62
     0
 10
3562.5155854576942
 20
1243.5710108559811
 30
0.0
 11
3712.5155854576942
 21
1243.5710108559811
 31
0.0
  0
TEXT
  5
81B9
  8
1
 62
     0
 10
3560.372728314836
 20
1262.289782331587
 30
0.0
 40
60.0
  1
230
  0
INSERT
  5
81BA
  8
0
  6
BYBLOCK
 62
     0
  2
_OPEN
 10
3522.5155854576942
 20
1243.5710108559811
 30
0.0
 41
40.0
 42
40.0
 43
40.0
 50
180.0
  0
INSERT
  5
81BB
  8
0
  6
BYBLOCK
 62
     0
  2
_OPEN
 10
3752.5155854576942
 20
1243.5710108559811
 30
0.0
 41
40.0
 42
40.0
 43
40.0
  0
POINT
  5
81BC
  8
DEFPOINTS
  6
BYBLOCK
 62
     0
 10
3522.5155854576942
 20
1367.6367765335449
 30
0.0
  0
POINT
  5
81BD
  8
DEFPOINTS
  6
BYBLOCK
 62
     0
 10
3752.5155854576942
 20
1400.168048020744
 30
0.0
  0
POINT
  5
81BE
  8
DEFPOINTS
  6
BYBLOCK
 62
     0
 10
3752.5155854576942
 20
1243.5710108559811
 30
0.0
  0
ENDBLK
  5
81BF
  8
0
  0
BLOCK
  8
0
  2
*D17
 70
     1
 10
0.0
 20
0.0
 30
0.0
  3
*D17
  1

  0
LINE
  5
8603
  8
3
 62
     0
 10
3218.5486675706529
 20
2474.5704625218318
 30
0.0
 11
3218.5486675706529
 21
2623.9998715490342
 31
0.0
  0
LINE
  5
8604
  8
3
 62
     0
 10
3593.5486675706529
 20
2474.5704625218318
 30
0.0
 11
3593.5486675706529
 21
2623.9998715490342
 31
0.0
  0
LINE
  5
8605
  8
3
 62
     0
 10
3258.548667570652
 20
2603.9998715490342
 30
0.0
 11
3553.548667570652
 21
2603.9998715490342
 31
0.0
  0
INSERT
  5
8606
  8
3
 62
     0
  2
_OPEN
 10
3218.5486675706529
 20
2603.9998715490342
 30
0.0
 41
40.0
 42
40.0
 43
40.0
 50
180.0
  0
INSERT
  5
8607
  8
3
 62
     0
  2
_OPEN
 10
3593.5486675706529
 20
2603.9998715490342
 30
0.0
 41
40.0
 42
40.0
 43
40.0
  0
TEXT
  8
3
  40
60
  5
864B
  62
0
  72
0
  71
0
 10
3286.05
 20
2547.80
 30
0.000000
  1
375
  0
POINT
  5
8609
  8
DEFPOINTS
 62
     0
 10
3218.5486675706529
 20
2464.5704625218318
 30
0.0
  0
POINT
  5
860A
  8
DEFPOINTS
 62
     0
 10
3593.5486675706529
 20
2464.5704625218318
 30
0.0
  0
POINT
  5
860B
  8
DEFPOINTS
 62
     0
 10
3593.5486675706529
 20
2603.9998715490342
 30
0.0
  0
ENDBLK
  5
8517
  8
0
  0
BLOCK
  8
0
  2
_DOT
 70
     0
 10
0.0
 20
0.0
 30
0.0
  3
_DOT
  1

  0
LINE
  5
8234
  8
0
  6
BYBLOCK
 62
     0
 10
0.0
 20
0.0
 30
0.0
 11
-1.0
 21
-0.0000000000000284
 31
0.0
  0
POLYLINE
  5
8235
  8
0
  6
BYBLOCK
 62
     0
 66
     1
 10
0.0
 20
0.0
 30
0.0
 70
     1
 40
0.1666666666666666
 41
0.1666666666666666
  0
VERTEX
  5
860C
  8
0
  6
BYBLOCK
 62
     0
 10
-0.0833333333333286
 20
-0.0000000000000284
 30
0.0
 42
1.0
  0
VERTEX
  5
860D
  8
0
  6
BYBLOCK
 62
     0
 10
0.0833333333333286
 20
-0.0000000000000284
 30
0.0
 42
1.0
  0
SEQEND
  5
860E
  8
0
  6
BYBLOCK
 62
     0
  0
ENDBLK
  5
81F4
  8
0
  0
BLOCK
  8
0
  2
*D19
 70
     1
 10
0.0
 20
0.0
 30
0.0
  3
*D19
  1

  0
LINE
  5
860F
  8
3
 62
     0
 10
1106.944991397223
 20
2108.6583577807851
 30
0.0
 11
1106.944991397223
 21
2758.6389402333989
 31
0.0
  0
LINE
  5
8610
  8
3
 62
     0
 10
2296.944991397223
 20
1483.570462521832
 30
0.0
 11
2296.944991397223
 21
2758.6389402333989
 31
0.0
  0
LINE
  5
8611
  8
3
 62
     0
 10
1146.944991397223
 20
2738.6389402333989
 30
0.0
 11
2256.944991397223
 21
2738.6389402333989
 31
0.0
  0
INSERT
  5
8612
  8
3
 62
     0
  2
_OPEN
 10
1106.944991397223
 20
2738.6389402333989
 30
0.0
 41
40.0
 42
40.0
 43
40.0
 50
180.0
  0
INSERT
  5
8613
  8
3
 62
     0
  2
_OPEN
 10
2296.944991397223
 20
2738.6389402333989
 30
0.0
 41
40.0
 42
40.0
 43
40.0
  0
TEXT
  8
3
  40
60
  5
864C
  62
0
  72
0
  71
0
 10
1575.21
 20
2682.44
 30
0.000000
  1
1190
  0
POINT
  5
8615
  8
DEFPOINTS
 62
     0
 10
1106.944991397223
 20
2098.6583577807851
 30
0.0
  0
POINT
  5
8616
  8
DEFPOINTS
 62
     0
 10
2296.944991397223
 20
1473.570462521832
 30
0.0
  0
POINT
  5
8617
  8
DEFPOINTS
 62
     0
 10
2296.944991397223
 20
2738.6389402333989
 30
0.0
  0
ENDBLK
  5
83C3
  8
0
  0
BLOCK
  8
0
  2
L-30-3
 70
     0
 10
0.0
 20
0.0
 30
0.0
  3
L-30-3
  1

  0
LINE
  5
8293
  8
0
 10
115.2488417492448
 20
98.116970357453638
 30
0.0
 11
145.2488417492448
 21
98.116970357453638
 31
0.0
  0
LINE
  5
8294
  8
0
 10
115.2488417492448
 20
98.116970357453638
 30
0.0
 11
115.2488417492448
 21
128.1169703574536
 31
0.0
  0
LINE
  5
8295
  8
0
 10
145.2488417492448
 20
98.116970357453638
 30
0.0
 11
145.2488417492448
 21
99.116970357453638
 31
0.0
  0
LINE
  5
8296
  8
0
 10
115.2488417492448
 20
128.1169703574536
 30
0.0
 11
116.2488417492448
 21
128.1169703574536
 31
0.0
  0
LINE
  5
8297
  8
0
 10
122.2488417492448
 20
101.1169703574536
 30
0.0
 11
143.2488417492448
 21
101.1169703574536
 31
0.0
  0
LINE
  5
8298
  8
0
 10
118.2488417492448
 20
105.1169703574536
 30
0.0
 11
118.2488417492448
 21
126.1169703574536
 31
0.0
  0
ARC
  5
8299
  8
0
 10
143.2488417492448
 20
99.116970357453638
 30
0.0
 40
2.0
 50
0.0
 51
90.0
  0
ARC
  5
829A
  8
0
 10
116.2488417492448
 20
126.1169703574536
 30
0.0
 40
2.0
 50
0.0
 51
90.0
  0
ARC
  5
829B
  8
0
 10
122.2488417492448
 20
105.1169703574536
 30
0.0
 40
4.0
 50
180.0
 51
270.0
  0
ENDBLK
  5
829D
  8
0
  0
BLOCK
  8
0
  2
*D21
 70
     1
 10
0.0
 20
0.0
 30
0.0
  3
*D21
  1

  0
LINE
  5
8618
  8
3
 62
     0
 10
1493.944991397223
 20
2464.6184533296928
 30
0.0
 11
687.34472598600075
 21
2464.6184533296928
 31
0.0
  0
LINE
  5
8619
  8
3
 62
     0
 10
1013.798498080979
 20
2103.5704625218318
 30
0.0
 11
687.34472598600075
 21
2103.5704625218318
 31
0.0
  0
LINE
  5
861A
  8
3
 62
     0
 10
707.34472598600075
 20
2424.6184533296928
 30
0.0
 11
707.34472598600075
 21
2143.5704625218318
 31
0.0
  0
INSERT
  5
861B
  8
3
 62
     0
  2
_OPEN
 10
707.34472598600075
 20
2464.6184533296928
 30
0.0
 41
40.0
 42
40.0
 43
40.0
 50
90.0
  0
INSERT
  5
861C
  8
3
 62
     0
  2
_OPEN
 10
707.34472598600075
 20
2103.5704625218318
 30
0.0
 41
40.0
 42
40.0
 43
40.0
 50
270.0
  0
TEXT
  8
3
  40
60
  5
864D
  62
0
  72
0
  71
0
 10
537.345
 20
2169.30
 30
0.000000
  1
361
  0
POINT
  5
861E
  8
DEFPOINTS
 62
     0
 10
1503.9449913972239
 20
2464.6184533296928
 30
0.0
  0
POINT
  5
861F
  8
DEFPOINTS
 62
     0
 10
1023.798498080979
 20
2103.5704625218318
 30
0.0
  0
POINT
  5
8620
  8
DEFPOINTS
 62
     0
 10
707.34472598600075
 20
2103.5704625218318
 30
0.0
  0
ENDBLK
  5
83F0
  8
0
  0
BLOCK
  8
0
  2
*D22
 70
     1
 10
0.0
 20
0.0
 30
0.0
  3
*D22
  1

  0
LINE
  5
8621
  8
3
 62
     0
 10
1206.944991397223
 20
1473.570462521832
 30
0.0
 11
687.34472598600041
 21
1473.570462521832
 31
0.0
  0
LINE
  5
8622
  8
3
 62
     0
 10
707.34472598600053
 20
2063.5704625218318
 30
0.0
 11
707.34472598600041
 21
1513.570462521832
 31
0.0
  0
INSERT
  5
8623
  8
3
 62
     0
  2
_OPEN
 10
707.34472598600053
 20
2103.5704625218318
 30
0.0
 41
40.0
 42
40.0
 43
40.0
 50
90.0
  0
INSERT
  5
8624
  8
3
 62
     0
  2
_OPEN
 10
707.34472598600041
 20
1473.570462521832
 30
0.0
 41
40.0
 42
40.0
 43
40.0
 50
270.0
  0
TEXT
  8
3
  40
60
  5
864E
  62
0
  72
0
  71
0
 10
537.345
 20
1682.37
 30
0.000000
  1
630
  0
POINT
  5
8626
  8
DEFPOINTS
 62
     0
 10
1023.798498080979
 20
2103.5704625218318
 30
0.0
  0
POINT
  5
8627
  8
DEFPOINTS
 62
     0
 10
1216.9449913972239
 20
1473.570462521832
 30
0.0
  0
POINT
  5
8628
  8
DEFPOINTS
 62
     0
 10
707.34472598600041
 20
1473.570462521832
 30
0.0
  0
ENDBLK
  5
840A
  8
0
  0
BLOCK
  8
0
  2
*D23
 70
     1
 10
0.0
 20
0.0
 30
0.0
  3
*D23
  1

  0
LINE
  5
854E
  8
0
  6
BYBLOCK
 62
     0
 10
1020.597913330369
 20
1378.570462521832
 30
0.0
 11
500.9976479191464
 21
1378.570462521832
 31
0.0
  0
LINE
  5
854F
  8
0
  6
BYBLOCK
 62
     0
 10
520.9976479191464
 20
1513.570462521832
 30
0.0
 11
520.9976479191464
 21
1553.570462521832
 31
0.0
  0
LINE
  5
8550
  8
0
  6
BYBLOCK
 62
     0
 10
520.9976479191464
 20
1338.570462521832
 30
0.0
 11
520.9976479191464
 21
1298.570462521832
 31
0.0
  0
TEXT
  5
8551
  8
1
 62
     0
 10
445.28336220486068
 20
1338.9276053789749
 30
0.0
 40
60.0
  1
(95)
 50
90.0
  0
LINE
  5
8552
  8
0
  6
BYBLOCK
 62
     0
 10
520.9976479191464
 20
1473.570462521832
 30
0.0
 11
520.9976479191464
 21
1378.570462521832
 31
0.0
  0
INSERT
  5
8553
  8
0
  6
BYBLOCK
 62
     0
  2
_OPEN
 10
520.9976479191464
 20
1473.570462521832
 30
0.0
 41
40.0
 42
40.0
 43
40.0
 50
270.0
  0
INSERT
  5
8554
  8
0
  6
BYBLOCK
 62
     0
  2
_DOT
 10
520.9976479191464
 20
1378.570462521832
 30
0.0
 41
40.0
 42
40.0
 43
40.0
 50
90.0
  0
POINT
  5
8555
  8
DEFPOINTS
  6
BYBLOCK
 62
     0
 10
1030.597913330369
 20
1473.570462521832
 30
0.0
  0
POINT
  5
8556
  8
DEFPOINTS
  6
BYBLOCK
 62
     0
 10
1030.597913330369
 20
1378.570462521832
 30
0.0
  0
POINT
  5
8557
  8
DEFPOINTS
  6
BYBLOCK
 62
     0
 10
520.9976479191464
 20
1378.570462521832
 30
0.0
  0
ENDBLK
  5
8558
  8
0
  0
BLOCK
  8
0
  2
*D24
 70
     1
 10
0.0
 20
0.0
 30
0.0
  3
*D24
  1

  0
LINE
  5
8629
  8
3
 62
     0
 10
1206.944991397223
 20
1378.570462521832
 30
0.0
 11
687.34472598600041
 21
1378.570462521832
 31
0.0
  0
LINE
  5
862A
  8
3
 62
     0
 10
1206.944991397223
 20
1303.570462521832
 30
0.0
 11
687.34472598600041
 21
1303.570462521832
 31
0.0
  0
LINE
  5
862B
  8
3
 62
     0
 10
707.34472598600041
 20
1418.570462521832
 30
0.0
 11
707.34472598600041
 21
1458.570462521832
 31
0.0
  0
LINE
  5
862C
  8
3
 62
     0
 10
707.3447259860003
 20
1263.570462521832
 30
0.0
 11
707.3447259860003
 21
1086.427605378974
 31
0.0
  0
LINE
  5
862D
  8
3
 62
     0
 10
707.34472598600041
 20
1378.570462521832
 30
0.0
 11
707.34472598600041
 21
1303.570462521832
 31
0.0
  0
INSERT
  5
862E
  8
3
 62
     0
  2
_DOT
 10
707.34472598600041
 20
1378.570462521832
 30
0.0
 41
40.0
 42
40.0
 43
40.0
 50
270.0
  0
INSERT
  5
862F
  8
3
 62
     0
  2
_OPEN
 10
707.34472598600041
 20
1303.570462521832
 30
0.0
 41
40.0
 42
40.0
 43
40.0
 50
90.0
  0
TEXT
  8
3
  40
60
  5
864F
  62
0
  72
0
  71
0
 10
537.345
 20
1048.80
 30
0.000000
  1
75
  0
POINT
  5
8631
  8
DEFPOINTS
 62
     0
 10
1216.9449913972239
 20
1378.570462521832
 30
0.0
  0
POINT
  5
8632
  8
DEFPOINTS
 62
     0
 10
1216.9449913972239
 20
1303.570462521832
 30
0.0
  0
POINT
  5
8633
  8
DEFPOINTS
 62
     0
 10
707.34472598600041
 20
1303.570462521832
 30
0.0
  0
ENDBLK
  5
854C
  8
0
  0
BLOCK
  8
0
  2
*D25
 70
     1
 10
0.0
 20
0.0
 30
0.0
  3
*D25
  1

  0
LINE
  5
8634
  8
3
 62
     0
 10
1493.944991397223
 20
2464.6184533296928
 30
0.0
 11
489.9022842132913
 21
2464.6184533296928
 31
0.0
  0
LINE
  5
8635
  8
3
 62
     0
 10
1206.944991397223
 20
1303.570462521832
 30
0.0
 11
489.90228421329101
 21
1303.570462521832
 31
0.0
  0
LINE
  5
8636
  8
3
 62
     0
 10
509.90228421329118
 20
2424.6184533296928
 30
0.0
 11
509.9022842132909
 21
1343.570462521832
 31
0.0
  0
INSERT
  5
8637
  8
3
 62
     0
  2
_OPEN
 10
509.9022842132913
 20
2464.6184533296928
 30
0.0
 41
40.0
 42
40.0
 43
40.0
 50
90.0
  0
INSERT
  5
8638
  8
3
 62
     0
  2
_OPEN
 10
509.9022842132909
 20
1303.570462521832
 30
0.0
 41
40.0
 42
40.0
 43
40.0
 50
270.0
  0
TEXT
  8
3
  40
60
  5
8650
  62
0
  72
0
  71
0
 10
339.902
 20
1774.74
 30
0.000000
  1
1161
  0
POINT
  5
863A
  8
DEFPOINTS
 62
     0
 10
1503.9449913972239
 20
2464.6184533296928
 30
0.0
  0
POINT
  5
863B
  8
DEFPOINTS
 62
     0
 10
1216.9449913972239
 20
1303.570462521832
 30
0.0
  0
POINT
  5
863C
  8
DEFPOINTS
 62
     0
 10
509.9022842132909
 20
1303.570462521832
 30
0.0
  0
ENDBLK
  5
853F
  8
0
  0
ENDSEC
  0
SECTION
  2
ENTITIES
  0
DIMENSION
  5
7CA6
  8
3
  2
*D1
 10
1901.9929822050831
 20
2622.7100376931239
 30
0.0
 11
1684.4689868011531
 21
2672.7100376931239
 31
0.0
 70
     0
 13
1466.9449913972239
 23
2530.3683472427251
 33
0.0
 14
1901.9929822050831
 24
2140.5704625218318
 34
0.0
1001
ACAD
1000
DSTYLE
1002
{
1070
   287
1070
     3
1070
    40
1040
20.0
1070
   143
1040
0.039
1070
   172
1070
     1
1070
   271
1070
     0
1070
   279
1070
     0
1070
   288
1070
     1
1002
}
  0
DIMENSION
  5
7CA8
  8
3
  2
*D2
 10
826.78791467432256
 20
2103.5704625218318
 30
0.0
 11
776.78791467432222
 21
1834.570462521832
 31
0.0
 70
     0
 13
1106.944991397223
 23
1565.570462521832
 33
0.0
 14
1023.798498080979
 24
2103.5704625218318
 34
0.0
 50
270.0
1001
ACAD
1000
DSTYLE
1002
{
1070
   287
1070
     3
1070
    40
1040
20.0
1070
   143
1040
0.039
1070
   172
1070
     1
1070
   271
1070
     0
1070
   279
1070
     0
1070
   288
1070
     1
1002
}
  0
DIMENSION
  5
7CA9
  8
3
  2
*D3
 10
964.93975613280509
 20
2077.5704625218318
 30
0.0
 11
914.93975613280475
 21
1821.570462521832
 31
0.0
 70
     0
 13
1106.944991397223
 23
1565.570462521832
 33
0.0
 14
1106.944991397223
 24
2077.5704625218318
 34
0.0
 50
270.0
1001
ACAD
1000
DSTYLE
1002
{
1070
   287
1070
     3
1070
    40
1040
20.0
1070
   143
1040
0.039
1070
   172
1070
     1
1070
   271
1070
     0
1070
   279
1070
     0
1070
   288
1070
     1
1002
}
  0
LINE
  5
7CAA
  8
1
 10
1106.944991397223
 20
1565.570462521832
 30
0.0
 11
1106.944991397223
 21
2077.5704625218309
 31
0.0
  0
LINE
  5
7CAB
  8
1
 10
1106.944991397223
 20
2087.5704625218318
 30
0.0
 11
1106.944991397223
 21
1555.5380690011871
 31
0.0
  0
LINE
  5
7CAC
  8
1
 10
1106.944991397223
 20
2095.1427577173522
 30
0.0
 11
1106.944991397223
 21
1546.83241698699
 31
0.0
  0
LINE
  5
7CAD
  8
1
 10
1109.944991397223
 20
1544.4240615088761
 30
0.0
 11
1109.944991397223
 21
2096.8425545953628
 31
0.0
  0
LINE
  5
7CAE
  8
1
 10
1136.9206668140141
 20
1565.524933687243
 30
0.0
 11
1136.944991397223
 21
2077.5704625218318
 31
0.0
  0
ARC
  5
7CB0
  8
1
 10
1429.944991397223
 20
2066.5704625218318
 30
0.0
 40
473.44799080786078
 50
274.4822403704249
 51
0.0
  0
LINE
  5
7CB1
  8
2
 10
1466.9449913972239
 20
1192.6434608238139
 30
0.0
 11
1466.9449913972239
 21
2530.3683472427251
 31
0.0
  0
DIMENSION
  5
7CB6
  8
3
  2
*D4
 10
1466.9449913972239
 20
1151.2272668971791
 30
0.0
 11
1881.944991397223
 21
1201.2272668971791
 31
0.0
 70
     0
 13
2296.944991397223
 23
1303.570462521832
 33
0.0
 14
1466.9449913972239
 24
1271.039191034632
 34
0.0
1001
ACAD
1000
DSTYLE
1002
{
1070
   287
1070
     3
1070
    40
1040
20.0
1070
   143
1040
0.039
1070
   172
1070
     1
1070
   271
1070
     0
1070
   279
1070
     0
1070
   288
1070
     1
1002
}
  0
LINE
  5
7CB8
  8
1
 10
1216.9449913972239
 20
1548.570462521832
 30
0.0
 11
2296.944991397223
 21
1548.570462521832
 31
0.0
  0
LINE
  5
7CB9
  8
1
 10
1216.9449913972239
 20
1473.570462521832
 30
0.0
 11
2296.944991397223
 21
1473.570462521832
 31
0.0
  0
LINE
  5
7CBA
  8
2
 10
2042.3866687457
 20
2103.5704625218318
 30
0.0
 11
1023.798498080979
 21
2103.5704625218318
 31
0.0
  0
ARC
  5
7CBB
  8
1
 10
1503.9449913972239
 20
2066.5704625218318
 30
0.0
 40
398.04799080786057
 50
0.0
 51
95.042451069170937
  0
LINE
  5
7CBC
  8
1
 10
1216.9449913972239
 20
1378.570462521832
 30
0.0
 11
2296.944991397223
 21
1378.570462521832
 31
0.0
  0
LINE
  5
7CBD
  8
1
 10
1216.9449913972239
 20
1303.570462521832
 30
0.0
 11
2296.944991397223
 21
1303.570462521832
 31
0.0
  0
ARC
  5
7CBE
  8
1
 10
2136.944991397223
 20
1730.5701625218319
 30
0.0
 40
150.0
 50
240.89457576491941
 51
60.89457576491936
  0
LINE
  5
7CBF
  8
2
 10
2136.944991397223
 20
1619.205162521831
 30
0.0
 11
2136.944991397223
 21
1856.153162521832
 31
0.0
  0
ARC
  5
7CC1
  8
1
 10
2136.944991397223
 20
1730.5701625218319
 30
0.0
 40
121.5
 50
0.0
 51
243.81509999999989
  0
CIRCLE
  5
7CC2
  8
1
 10
2136.944991397223
 20
1730.5701625218319
 30
0.0
 40
76.200000000000003
  0
LINE
  5
7CC3
  8
1
 10
2296.944991397223
 20
1378.570462521832
 30
0.0
 11
2296.944991397223
 21
1303.570462521832
 31
0.0
  0
LINE
  5
7CC5
  8
1
 10
2083.2676913972218
 20
1621.5704625218309
 30
0.0
 11
2190.6222913972229
 21
1621.5704625218309
 31
0.0
  0
LINE
  5
7CC6
  8
2
 10
2262.8153913972219
 20
1730.5701625218319
 30
0.0
 11
2011.1123913972231
 21
1730.5701625218319
 31
0.0
  0
LINE
  5
7CC7
  8
1
 10
1986.944991397223
 20
1578.570462521832
 30
0.0
 11
2286.9449913972221
 21
1578.570462521832
 31
0.0
  0
LINE
  5
7CC8
  8
1
 10
2005.4325406285909
 20
1618.570462521832
 30
0.0
 11
2268.457442165854
 21
1618.5704625218309
 31
0.0
  0
LINE
  5
7CC9
  8
1
 10
2279.444991397223
 20
1578.570462521832
 30
0.0
 11
2268.457442165854
 21
1618.570462521832
 31
0.0
  0
LINE
  5
7CCA
  8
1
 10
2296.944991397223
 20
1473.570462521832
 30
0.0
 11
2296.944991397223
 21
1548.570462521832
 31
0.0
  0
LINE
  5
7CCB
  8
1
 10
2286.9449913972221
 20
1548.570462521832
 30
0.0
 11
2286.9449913972221
 21
1578.570462521832
 31
0.0
  0
LINE
  5
7CCC
  8
1
 10
2246.944991397223
 20
1618.5704625218309
 30
0.0
 11
2206.944991397223
 21
1618.5704625218309
 31
0.0
  0
ARC
  5
7CCE
  8
1
 10
2136.944991397223
 20
1730.5701625218319
 30
0.0
 40
121.5
 50
296.24970000000002
 51
0.0
  0
LINE
  5
7CCF
  8
1
 10
2246.944991397223
 20
1618.5704625218309
 30
0.0
 11
2246.944991397223
 21
1628.570462521832
 31
0.0
  0
LINE
  5
7CD0
  8
1
 10
2237.7775913972232
 20
1662.783662521832
 30
0.0
 11
2246.944991397223
 21
1628.570462521832
 31
0.0
  0
LINE
  5
7CD1
  8
1
 10
2206.944991397223
 20
1618.5704625218309
 30
0.0
 11
2206.944991397223
 21
1623.4993625218319
 31
0.0
  0
LINE
  5
7CD2
  8
1
 10
2203.5572913972219
 20
1628.958162521832
 30
0.0
 11
2205.480491397223
 21
1627.0348625218321
 31
0.0
  0
ARC
  5
7CD3
  8
1
 10
2201.9450913972232
 20
1623.4993625218319
 30
0.0
 40
4.9999000000000002
 50
0.0
 51
45.000500000000002
  0
LINE
  5
7CD4
  8
1
 10
1994.444991397223
 20
1578.570462521832
 30
0.0
 11
2005.4325406285909
 21
1618.570462521832
 31
0.0
  0
LINE
  5
7CD5
  8
1
 10
1986.944991397223
 20
1548.570462521832
 30
0.0
 11
1986.944991397223
 21
1578.570462521832
 31
0.0
  0
LINE
  5
7CD6
  8
1
 10
2026.944991397223
 20
1618.5704625218309
 30
0.0
 11
2066.9449913972221
 21
1618.5704625218309
 31
0.0
  0
LINE
  5
7CD7
  8
1
 10
2066.9449913972221
 20
1618.5704625218309
 30
0.0
 11
2066.9449913972221
 21
1623.4993625218319
 31
0.0
  0
ARC
  5
7CD8
  8
1
 10
2071.9448913972219
 20
1623.4993625218319
 30
0.0
 40
4.9999000000000002
 50
134.99950000000001
 51
180.0
  0
LINE
  5
7CD9
  8
1
 10
2070.3326913972228
 20
1628.958162521832
 30
0.0
 11
2068.4094913972231
 21
1627.0348625218321
 31
0.0
  0
LINE
  5
7CDA
  8
1
 10
2026.944991397223
 20
1618.5704625218309
 30
0.0
 11
2026.944991397223
 21
1628.570462521832
 31
0.0
  0
LINE
  5
7CDB
  8
1
 10
2036.1123913972231
 20
1662.783662521832
 30
0.0
 11
2026.944991397223
 21
1628.570462521832
 31
0.0
  0
LINE
  5
7CE0
  8
1
 10
1172.865313004113
 20
2077.5704625218318
 30
0.0
 11
1106.944991397223
 21
2077.5704625218318
 31
0.0
  0
ARC
  5
7CE3
  8
1
 10
1497.9449913972239
 20
2134.5704625218318
 30
0.0
 40
329.7837981443563
 50
95.042451069170937
 51
180.0
  0
LINE
  5
7CE5
  8
1
 10
1688.944991397208
 20
1548.570462521832
 30
0.0
 11
1688.944991397223
 21
2040.370462521832
 31
0.0
  0
LINE
  5
7CE6
  8
1
 10
1244.9449913972239
 20
1548.570462521832
 30
0.0
 11
1244.9449913972239
 21
2040.370462521832
 31
0.0
  0
DIMENSION
  5
7CE7
  8
3
  2
*D5
 10
1216.9449913972239
 20
1151.2272668971791
 30
0.0
 11
1341.9449913972239
 21
1200.397534178931
 31
0.0
 12
-4821.7305091708622
 22
-84.960498973690846
 32
0.0
 70
   128
 13
1466.9449913972239
 23
1271.039191034632
 33
0.0
 14
1216.9449913972239
 24
1303.570462521832
 34
0.0
1001
ACAD
1000
DSTYLE
1002
{
1070
   288
1070
     1
1070
   172
1070
     1
1070
    40
1040
20.0
1070
   271
1070
     0
1070
   143
1040
0.039
1002
}
  0
LINE
  5
7CE8
  8
1
 10
1706.9449913972251
 20
1548.570462521832
 30
0.0
 11
1706.9449913972251
 21
1588.570462521832
 31
0.0
  0
LINE
  5
7CE9
  8
1
 10
1688.9449913972051
 20
1553.570462521832
 30
0.0
 11
1706.9449913972251
 21
1553.570462521832
 31
0.0
  0
LINE
  5
7CEA
  8
1
 10
1688.9449913972071
 20
1588.570462521832
 30
0.0
 11
1706.9449913972251
 21
1588.570462521832
 31
0.0
  0
LINE
  5
7CEB
  8
1
 10
1216.9449913972239
 20
1378.570462521832
 30
0.0
 11
1216.9449913972239
 21
1303.570462521832
 31
0.0
  0
LINE
  5
7CEC
  8
1
 10
1226.9449913972239
 20
1553.570462521832
 30
0.0
 11
1244.9449913972239
 21
1553.570462521832
 31
0.0
  0
LINE
  5
7CED
  8
1
 10
1226.9449913972239
 20
1588.570462521832
 30
0.0
 11
1244.9449913972239
 21
1588.570462521832
 31
0.0
  0
LINE
  5
7CEE
  8
1
 10
1216.9449913972239
 20
1473.570462521832
 30
0.0
 11
1216.9449913972239
 21
1548.570462521832
 31
0.0
  0
LINE
  5
7CEF
  8
1
 10
1226.9449913972239
 20
1548.570462521832
 30
0.0
 11
1226.9449913972239
 21
1588.570462521832
 31
0.0
  0
LINE
  5
7CF0
  8
1
 10
1698.9449913972239
 20
2043.570462521832
 30
0.0
 11
1234.9449913972239
 21
2043.570462521832
 31
0.0
  0
LINE
  5
7CF1
  8
1
 10
1731.944991397223
 20
2040.370462521832
 30
0.0
 11
1201.944991397223
 21
2040.370462521832
 31
0.0
  0
CIRCLE
  5
7CF2
  8
1
 10
1466.9449913972239
 20
2103.5704625218318
 30
0.0
 40
63.5
  0
LINE
  5
7CF3
  8
1
 10
1688.9449913972201
 20
1984.3704625218311
 30
0.0
 11
1896.202602595152
 21
1984.3704625218311
 31
0.0
  0
LINE
  5
7CF4
  8
1
 10
1688.9449913972201
 20
1990.370462521832
 30
0.0
 11
1897.2206701993621
 21
1990.370462521832
 31
0.0
  0
LINE
  5
7CF5
  8
1
 10
1731.944991397223
 20
1990.370462521832
 30
0.0
 11
1731.944991397223
 21
2040.370462521832
 31
0.0
  0
LINE
  5
7CF6
  8
1
 10
1698.9449913972221
 20
2040.370462521832
 30
0.0
 11
1698.9449913972239
 21
2043.5704625218309
 31
0.0
  0
ARC
  5
7CF7
  8
1
 10
1466.9449913972239
 20
2103.5704625218318
 30
0.0
 40
150.0
 50
60.894575764919452
 51
240.89457576491941
  0
ARC
  5
7CFA
  8
1
 10
1435.944991397223
 20
2134.5704625218309
 30
0.0
 40
269.18379814435679
 50
179.99999999999969
 51
192.22499848893369
  0
LINE
  5
7CFB
  8
1
 10
1136.940848985003
 20
1990.370462521832
 30
0.0
 11
1244.9449913972239
 21
1990.370462521832
 31
0.0
  0
LINE
  5
7CFC
  8
1
 10
1136.9405639566389
 20
1984.3704625218311
 30
0.0
 11
1244.9449913972239
 21
1984.3704625218311
 31
0.0
  0
LINE
  5
7CFD
  8
1
 10
1234.9449913972239
 20
2040.370462521832
 30
0.0
 11
1234.9449913972239
 21
2043.570462521832
 31
0.0
  0
LINE
  5
7CFE
  8
1
 10
1201.944991397223
 20
1990.370462521832
 30
0.0
 11
1201.944991397223
 21
2040.370462521832
 31
0.0
  0
DIMENSION
  5
7D02
  8
3
  2
*D6
 10
2296.944991397223
 20
4426.2901333430718
 30
0.0
 11
2006.944991397223
 21
4476.2901333430727
 31
0.0
 70
     0
 13
1716.9449913972239
 23
4283.0053821373594
 33
0.0
 14
2296.944991397223
 24
3843.0053821373581
 34
0.0
1001
ACAD
1000
DSTYLE
1002
{
1070
   287
1070
     3
1070
    40
1040
20.0
1070
   143
1040
0.039
1070
   172
1070
     1
1070
   271
1070
     0
1070
   279
1070
     0
1070
   288
1070
     1
1002
}
  0
LINE
  5
7D03
  8
1
 10
1716.9449913972239
 20
3803.0053821373581
 30
0.0
 11
2296.944991397223
 21
3803.0053821373581
 31
0.0
  0
LINE
  5
7D04
  8
1
 10
1716.9449913972239
 20
3843.0053821373581
 30
0.0
 11
2296.944991397223
 21
3843.0053821373581
 31
0.0
  0
LINE
  5
7D05
  8
1
 10
1698.9449913972239
 20
3323.0053821373572
 30
0.0
 11
2015.9449913972239
 21
3323.0053821373581
 31
0.0
  0
LINE
  5
7D06
  8
1
 10
1543.1449913972219
 20
3228.005382137359
 30
0.0
 11
2073.444991397223
 21
3228.005382137359
 31
0.0
  0
LINE
  5
7D07
  8
1
 10
1543.1449913972219
 20
3278.005382137359
 30
0.0
 11
2073.444991397223
 21
3278.005382137359
 31
0.0
  0
LINE
  5
7D08
  8
1
 10
1316.9449913972239
 20
3198.005382137359
 30
0.0
 11
2286.944991397223
 21
3198.005382137359
 31
0.0
  0
LINE
  5
7D09
  8
1
 10
1316.9449913972239
 20
3320.005382137359
 30
0.0
 11
2286.944991397223
 21
3320.005382137359
 31
0.0
  0
LINE
  5
7D0A
  8
1
 10
1489.444991397223
 20
3283.0053821373572
 30
0.0
 11
2296.944991397223
 21
3283.0053821373581
 31
0.0
  0
LINE
  5
7D0B
  8
2
 10
1067.7893867236889
 20
4053.005382137359
 30
0.0
 11
2048.064817315415
 21
4053.005382137359
 31
0.0
  0
DIMENSION
  5
7D0C
  8
3
  2
*D7
 10
2296.944991397223
 20
2966.1871296374002
 30
0.0
 11
1756.944991397223
 21
3016.1871296374002
 31
0.0
 70
     0
 13
1216.9449913972239
 23
3283.0053821373581
 33
0.0
 14
2296.944991397223
 24
3283.0053821373581
 34
0.0
1001
ACAD
1000
DSTYLE
1002
{
1070
   287
1070
     3
1070
    40
1040
20.0
1070
   143
1040
0.039
1070
   172
1070
     1
1070
   271
1070
     0
1070
   279
1070
     0
1070
   288
1070
     1
1002
}
  0
DIMENSION
  5
7D0D
  8
3
  2
*D8
 10
2483.5795759559778
 20
3283.0053821373581
 30
0.0
 11
2433.5795759559769
 21
3563.0053821373581
 31
0.0
 70
     0
 13
2296.944991397223
 23
3843.0053821373581
 33
0.0
 14
2296.944991397223
 24
3283.0053821373581
 34
0.0
 50
90.0
1001
ACAD
1000
DSTYLE
1002
{
1070
   287
1070
     3
1070
    40
1040
20.0
1070
   143
1040
0.039
1070
   172
1070
     1
1070
   271
1070
     0
1070
   279
1070
     0
1070
   288
1070
     1
1002
}
  0
LINE
  5
7D0E
  8
2
 10
2136.9449913972239
 20
3224.4153821373602
 30
0.0
 11
2136.9449913972239
 21
3614.5311821373589
 31
0.0
  0
LINE
  5
7D0F
  8
1
 10
2015.9449913972239
 20
3304.0053821373599
 30
0.0
 11
2015.9449913972239
 21
3611.005382137359
 31
0.0
  0
LINE
  5
7D10
  8
1
 10
2257.9449913972239
 20
3304.0053821373599
 30
0.0
 11
2257.9449913972239
 21
3611.005382137359
 31
0.0
  0
LINE
  5
7D11
  8
1
 10
2179.4449913972239
 20
3294.0053821373599
 30
0.0
 11
2094.4449913972239
 21
3294.0053821373599
 31
0.0
  0
LINE
  5
7D12
  8
1
 10
2200.4449913972239
 20
3228.0053821373599
 30
0.0
 11
2073.444991397223
 21
3228.005382137359
 31
0.0
  0
LINE
  5
7D13
  8
1
 10
2200.444991397223
 20
3278.0053821373599
 30
0.0
 11
2073.444991397223
 21
3278.005382137359
 31
0.0
  0
LINE
  5
7D14
  8
1
 10
2257.9449913972239
 20
3304.0053821373599
 30
0.0
 11
2015.9449913972239
 21
3304.0053821373599
 31
0.0
  0
LINE
  5
7D15
  8
1
 10
2286.944991397223
 20
3198.005382137359
 30
0.0
 11
2286.944991397223
 21
3320.005382137359
 31
0.0
  0
LINE
  5
7D16
  8
1
 10
2200.4449913972239
 20
3228.0053821373599
 30
0.0
 11
2200.4449913972239
 21
3278.0053821373599
 31
0.0
  0
LINE
  5
7D17
  8
1
 10
2257.9449913972239
 20
3323.0053821373581
 30
0.0
 11
2296.944991397223
 21
3323.0053821373581
 31
0.0
  0
LINE
  5
7D18
  8
1
 10
2296.944991397223
 20
3283.0053821373581
 30
0.0
 11
2296.944991397223
 21
3323.0053821373581
 31
0.0
  0
POINT
  5
7D19
  8
1
 10
2296.944991397223
 20
3283.0053821373581
 30
0.0
  0
POINT
  5
7D1A
  8
1
 10
2296.944991397223
 20
3283.0053821373581
 30
0.0
  0
POINT
  5
7D1B
  8
1
 10
2296.944991397223
 20
3283.0053821373581
 30
0.0
  0
LINE
  5
7D1C
  8
1
 10
2179.4449913972239
 20
3304.0053821373599
 30
0.0
 11
2179.4449913972239
 21
3294.0053821373599
 31
0.0
  0
LINE
  5
7D1D
  8
1
 10
2152.4449913972239
 20
3294.0053821373599
 30
0.0
 11
2152.4449913972239
 21
3288.0053821373599
 31
0.0
  0
LINE
  5
7D1E
  8
1
 10
2150.9449913972239
 20
3288.0053821373599
 30
0.0
 11
2150.9449913972239
 21
3278.0053821373599
 31
0.0
  0
LINE
  5
7D1F
  8
1
 10
2121.444991397223
 20
3288.0053821373599
 30
0.0
 11
2121.444991397223
 21
3294.0053821373599
 31
0.0
  0
LINE
  5
7D20
  8
1
 10
2122.944991397223
 20
3288.0053821373599
 30
0.0
 11
2122.944991397223
 21
3278.0053821373599
 31
0.0
  0
LINE
  5
7D21
  8
1
 10
2152.4449913972239
 20
3288.0053821373599
 30
0.0
 11
2121.444991397223
 21
3288.0053821373599
 31
0.0
  0
LINE
  5
7D22
  8
1
 10
2073.444991397223
 20
3228.005382137359
 30
0.0
 11
2073.444991397223
 21
3278.005382137359
 31
0.0
  0
LINE
  5
7D23
  8
1
 10
2094.4449913972239
 20
3304.0053821373599
 30
0.0
 11
2094.4449913972239
 21
3294.0053821373599
 31
0.0
  0
LINE
  5
7D24
  8
1
 10
2257.9449913972239
 20
3611.005382137359
 30
0.0
 11
2015.9449913972239
 21
3611.005382137359
 31
0.0
  0
LINE
  5
7D25
  8
1
 10
2296.944991397223
 20
3803.0053821373581
 30
0.0
 11
2296.944991397223
 21
3843.0053821373581
 31
0.0
  0
LINE
  5
7D2A
  8
2
 10
1466.9449913972239
 20
3195.522771026167
 30
0.0
 11
1466.9449913972239
 21
3927.8150183416242
 31
0.0
  0
LINE
  5
7D2B
  8
1
 10
1716.9449913972239
 20
3323.0053821373581
 30
0.0
 11
1716.9449913972239
 21
3865.5053821373599
 31
0.0
  0
LINE
  5
7D2C
  8
1
 10
1698.9449913972239
 20
3313.005382137359
 30
0.0
 11
1698.9449913972239
 21
3798.005382137359
 31
0.0
  0
LINE
  5
7D2D
  8
1
 10
1216.9449913972239
 20
3283.0053821373581
 30
0.0
 11
1216.9449913972239
 21
3865.5053821373599
 31
0.0
  0
DIMENSION
  5
7D2E
  8
3
  2
*D9
 10
912.12725960871933
 20
4283.0053821373594
 30
0.0
 11
862.12725960871865
 21
3783.005382137359
 31
0.0
 70
     0
 13
1216.9449913972239
 23
3283.0053821373581
 33
0.0
 14
1216.9449913972239
 24
4283.0053821373594
 34
0.0
 50
90.0
1001
ACAD
1000
DSTYLE
1002
{
1070
   287
1070
     3
1070
    40
1040
20.0
1070
   143
1040
0.039
1070
   172
1070
     1
1070
   271
1070
     0
1070
   279
1070
     0
1070
   288
1070
     1
1002
}
  0
LINE
  5
7D2F
  8
1
 10
1234.9449913972239
 20
3313.005382137359
 30
0.0
 11
1234.944991397223
 21
3798.005382137359
 31
0.0
  0
DIMENSION
  5
7D30
  8
3
  2
*D10
 10
1466.9449913972239
 20
2622.7100376931239
 30
0.0
 11
1286.944991397223
 21
2672.7100376931239
 31
0.0
 70
     0
 13
1106.944991397223
 23
2098.6583577807842
 33
0.0
 14
1466.9449913972239
 24
2530.3683472427251
 34
0.0
1001
ACAD
1000
DSTYLE
1002
{
1070
   287
1070
     3
1070
    40
1040
20.0
1070
   143
1040
0.039
1070
   172
1070
     1
1070
   271
1070
     0
1070
   279
1070
     0
1070
   288
1070
     1
1002
}
  0
LINE
  5
7D32
  8
1
 10
1106.944991397223
 20
1565.570462521832
 30
0.0
 11
1466.9449913972221
 21
1594.570462521832
 31
0.0
  0
LINE
  5
7D37
  8
1
 10
1390.744991397223
 20
3228.005382137359
 30
0.0
 11
1543.1449913972231
 21
3228.005382137359
 31
0.0
  0
LINE
  5
7D3C
  8
1
 10
1390.744991397223
 20
3278.005382137359
 30
0.0
 11
1543.1449913972219
 21
3278.005382137359
 31
0.0
  0
LINE
  5
7D3E
  8
1
 10
1489.4449913972239
 20
3313.005382137359
 30
0.0
 11
1698.9449913972239
 21
3313.005382137359
 31
0.0
  0
LINE
  5
7D3F
  8
1
 10
1543.1449913972219
 20
3228.005382137359
 30
0.0
 11
1543.1449913972219
 21
3278.005382137359
 31
0.0
  0
LINE
  5
7D44
  8
1
 10
1234.9449913972239
 20
3313.005382137359
 30
0.0
 11
1444.444991397223
 21
3313.005382137359
 31
0.0
  0
LINE
  5
7D45
  8
1
 10
1216.9449913972239
 20
3283.0053821373581
 30
0.0
 11
1444.444991397223
 21
3283.0053821373572
 31
0.0
  0
LINE
  5
7D46
  8
1
 10
1390.744991397223
 20
3228.005382137359
 30
0.0
 11
1390.744991397223
 21
3278.005382137359
 31
0.0
  0
LINE
  5
7D49
  8
1
 10
1489.4449913972239
 20
3278.005382137359
 30
0.0
 11
1489.4449913972239
 21
3865.505382137359
 31
0.0
  0
LINE
  5
7D4A
  8
1
 10
1444.444991397223
 20
3278.005382137359
 30
0.0
 11
1444.444991397223
 21
3865.505382137359
 31
0.0
  0
LINE
  5
7D4D
  8
1
 10
1316.9449913972239
 20
3198.005382137359
 30
0.0
 11
1316.9449913972239
 21
3320.005382137359
 31
0.0
  0
LINE
  5
7D4E
  8
1
 10
1216.9449913972239
 20
3323.0053821373581
 30
0.0
 11
1234.9449913972239
 21
3323.0053821373572
 31
0.0
  0
POINT
  5
7D50
  8
1
 10
1106.944991397223
 20
1565.570462521832
 30
0.0
  0
POINT
  5
7D51
  8
1
 10
1106.944991397223
 20
1563.965279558528
 30
0.0
  0
LINE
  5
7D52
  8
1
 10
1109.944991397223
 20
3865.505382137359
 30
0.0
 11
1901.9929822050831
 21
3865.5053821373599
 31
0.0
  0
LINE
  5
7D53
  8
1
 10
1109.944991397223
 20
4240.5053821373604
 30
0.0
 11
1901.9929822050831
 21
4240.5053821373604
 31
0.0
  0
DIMENSION
  5
7D54
  8
3
  2
*D11
 10
1716.9449913972239
 20
4426.2901333430718
 30
0.0
 11
1466.9449913972239
 21
4476.2901333430727
 31
0.0
 70
     0
 13
1216.9449913972239
 23
4283.0053821373594
 33
0.0
 14
1716.9449913972239
 24
4283.0053821373594
 34
0.0
1001
ACAD
1000
DSTYLE
1002
{
1070
   287
1070
     3
1070
    40
1040
20.0
1070
   143
1040
0.039
1070
   172
1070
     1
1070
   271
1070
     0
1070
   279
1070
     0
1070
   288
1070
     1
1002
}
  0
LINE
  5
7D58
  8
1
 10
1234.9449913972239
 20
3798.005382137359
 30
0.0
 11
1444.444991397223
 21
3798.005382137359
 31
0.0
  0
LINE
  5
7D59
  8
1
 10
1216.9449913972239
 20
4283.0053821373594
 30
0.0
 11
1716.9449913972239
 21
4283.0053821373594
 31
0.0
  0
LINE
  5
7D5A
  8
1
 10
1256.944991397223
 20
4243.0053821373613
 30
0.0
 11
1676.944991397223
 21
4243.0053821373576
 31
0.0
  0
LINE
  5
7D5B
  8
1
 10
1901.9929822050831
 20
3865.5053821373599
 30
0.0
 11
1901.9929822050831
 21
4240.5053821373604
 31
0.0
  0
LINE
  5
7D5C
  8
1
 10
1676.944991397223
 20
3798.005382137359
 30
0.0
 11
1676.944991397223
 21
3838.0053821373599
 31
0.0
  0
LINE
  5
7D5D
  8
1
 10
1676.944991397223
 20
3798.005382137359
 30
0.0
 11
1676.944991397223
 21
3865.5053821373599
 31
0.0
  0
LINE
  5
7D5E
  8
1
 10
1716.9449913972239
 20
4240.5053821373604
 30
0.0
 11
1716.9449913972239
 21
4283.0053821373594
 31
0.0
  0
LINE
  5
7D5F
  8
1
 10
1676.944991397223
 20
4240.5053821373604
 30
0.0
 11
1676.944991397223
 21
4283.0053821373594
 31
0.0
  0
LINE
  5
7D60
  8
2
 10
1466.9449913972239
 20
3982.4316259555421
 30
0.0
 11
1466.9449913972239
 21
4292.1256031480934
 31
0.0
  0
LINE
  5
7D64
  8
1
 10
1256.944991397223
 20
3798.005382137359
 30
0.0
 11
1256.944991397223
 21
3824.005382137359
 31
0.0
  0
LINE
  5
7D65
  8
1
 10
1256.944991397223
 20
3798.0053821373599
 30
0.0
 11
1256.944991397223
 21
3865.5053821373599
 31
0.0
  0
LINE
  5
7D66
  8
1
 10
1256.944991397223
 20
4240.5053821373604
 30
0.0
 11
1256.944991397223
 21
4283.0053821373594
 31
0.0
  0
LINE
  5
7D67
  8
1
 10
1216.9449913972239
 20
4240.5053821373604
 30
0.0
 11
1216.9449913972239
 21
4283.0053821373594
 31
0.0
  0
LINE
  5
7D68
  8
1
 10
1109.944991397223
 20
3838.0053821373599
 30
0.0
 11
1109.944991397223
 21
4268.0053821373604
 31
0.0
  0
LINE
  5
7D69
  8
1
 10
1106.944991397223
 20
3838.0053821373599
 30
0.0
 11
1106.944991397223
 21
4268.0053821373604
 31
0.0
  0
LINE
  5
7D6A
  8
1
 10
1106.944991397223
 20
3838.0053821373599
 30
0.0
 11
1109.944991397223
 21
3838.0053821373599
 31
0.0
  0
LINE
  5
7D6B
  8
1
 10
1106.944991397223
 20
4268.0053821373604
 30
0.0
 11
1109.944991397223
 21
4268.0053821373604
 31
0.0
  0
LINE
  5
7D6C
  8
1
 10
3218.5486675706529
 20
1563.663983817703
 30
0.0
 11
3593.5486675706529
 21
2079.663983817703
 31
0.0
  0
LINE
  5
7D6D
  8
1
 10
3593.5486675706529
 20
1563.663983817703
 30
0.0
 11
3218.5486675706529
 21
2079.663983817703
 31
0.0
  0
DIMENSION
  5
7D6E
  8
3
  2
*D12
 10
3598.048667570652
 20
2735.4612448513699
 30
0.0
 11
3502.0486675706529
 21
2795.2635465378512
 31
0.0
 70
   128
 13
3406.0486675706529
 23
2695.7794243709
 33
0.0
 14
3598.048667570652
 24
2378.5704625218318
 34
0.0
1001
ACAD
1000
DSTYLE
1002
{
1070
   288
1070
     1
1070
   172
1070
     1
1070
    40
1040
20.0
1070
   271
1070
     0
1070
   143
1040
0.039
1002
}
  0
DIMENSION
  5
7D6F
  8
3
  2
*D13
 10
3406.0486675706529
 20
2735.4612448513699
 30
0.0
 11
2978.5486675706511
 21
2835.4612448513699
 31
0.0
 70
     0
  1
MAX\P930
 13
2551.0486675706502
 23
2253.5704625218309
 33
0.0
 14
3406.0486675706529
 24
2695.7794243709
 34
0.0
1001
ACAD
1000
DSTYLE
1002
{
1070
   287
1070
     3
1070
    40
1040
20.0
1070
   143
1040
0.039
1070
   172
1070
     1
1070
   271
1070
     0
1070
   279
1070
     0
1070
   288
1070
     1
1002
}
  0
LINE
  5
7D72
  8
1
 10
3621.0486675706529
 20
1538.663983817703
 30
0.0
 11
3621.0486675706529
 21
1850.570462521832
 31
0.0
  0
LINE
  5
7D73
  8
1
 10
3191.048667570652
 20
1538.663983817703
 30
0.0
 11
3191.0486675706511
 21
2081.0704625218309
 31
0.0
  0
LINE
  5
7D74
  8
2
 10
3406.0486675706529
 20
2597.313041633286
 30
0.0
 11
3406.0486675706529
 21
1273.066526743617
 31
0.0
  0
DIMENSION
  5
7D75
  8
3
  2
*D14
 10
3406.0486675706529
 20
1146.9734253570689
 30
0.0
 11
3021.048667570652
 21
1196.9734253570689
 31
0.0
 70
     0
 13
2636.048667570652
 23
1303.570462521832
 33
0.0
 14
3406.0486675706529
 24
1271.0391910346329
 34
0.0
1001
ACAD
1000
DSTYLE
1002
{
1070
   287
1070
     3
1070
    40
1040
20.0
1070
   143
1040
0.039
1070
   172
1070
     1
1070
   271
1070
     0
1070
   279
1070
     0
1070
   288
1070
     1
1002
}
  0
LINE
  5
7D77
  8
1
 10
2631.0486675706511
 20
2081.0704625218318
 30
0.0
 11
3218.5486675706529
 21
2081.0704625218318
 31
0.0
  0
LINE
  5
7D78
  8
1
 10
2636.048667570652
 20
1378.570462521832
 30
0.0
 11
3636.048667570652
 21
1378.570462521832
 31
0.0
  0
LINE
  5
7D79
  8
1
 10
2636.048667570652
 20
1303.570462521832
 30
0.0
 11
3636.048667570652
 21
1303.570462521832
 31
0.0
  0
LINE
  5
7D7A
  8
2
 10
2565.8290941074119
 20
2103.5704625218318
 30
0.0
 11
3679.682763367025
 21
2103.5704625218318
 31
0.0
  0
LINE
  5
7D86
  8
1
 10
2636.048667570652
 20
1473.570462521832
 30
0.0
 11
3636.048667570652
 21
1473.570462521832
 31
0.0
  0
LINE
  5
7D87
  8
1
 10
2636.048667570652
 20
1548.570462521832
 30
0.0
 11
3191.048667570652
 21
1548.570462521832
 31
0.0
  0
LINE
  5
7D88
  8
1
 10
3144.2486675706509
 20
1990.370462521832
 30
0.0
 11
3191.0486675706511
 21
1990.370462521832
 31
0.0
  0
LINE
  5
7D89
  8
1
 10
3151.5486675706511
 20
1984.370462521832
 30
0.0
 11
3191.0486675706511
 21
1984.370462521832
 31
0.0
  0
LINE
  5
7D8B
  8
1
 10
2673.0486675706502
 20
2253.5704625218318
 30
0.0
 11
2673.0486675706502
 21
2196.3215637219291
 31
0.0
  0
LINE
  5
7D8C
  8
1
 10
2551.0486675706502
 20
2253.5704625218318
 30
0.0
 11
2551.0486675706502
 21
1580.5701625218319
 31
0.0
  0
LINE
  5
7D8F
  8
1
 10
2631.0486675706511
 20
1654.3701625218309
 30
0.0
 11
2631.0486675706511
 21
1806.770162521831
 31
0.0
  0
LINE
  5
7D90
  8
1
 10
2581.0486675706502
 20
1654.3701625218309
 30
0.0
 11
2581.0486675706502
 21
1806.770162521831
 31
0.0
  0
LINE
  5
7D91
  8
1
 10
2647.0486675706511
 20
1688.0701625218319
 30
0.0
 11
2647.0486675706511
 21
1773.0701625218319
 31
0.0
  0
LINE
  5
7D92
  8
1
 10
2657.0486675706502
 20
1618.570462521832
 30
0.0
 11
2657.0486675706502
 21
1851.5701625218319
 31
0.0
  0
LINE
  5
7D93
  8
1
 10
3141.0486675706502
 20
2040.370462521832
 30
0.0
 11
3141.0486675706511
 21
1591.1825735747659
 31
0.0
  0
LINE
  5
7D94
  8
1
 10
2676.0486675706511
 20
2040.370462521832
 30
0.0
 11
2676.0486675706511
 21
1851.5701625218319
 31
0.0
  0
LINE
  5
7D96
  8
1
 10
2636.048667570652
 20
1378.570462521832
 30
0.0
 11
2636.048667570652
 21
1303.570462521832
 31
0.0
  0
LINE
  5
7D97
  8
1
 10
2551.0486675706511
 20
1580.5701625218319
 30
0.0
 11
2673.0486675706502
 21
1580.5701625218319
 31
0.0
  0
LINE
  5
7D98
  8
1
 10
2581.0486675706502
 20
1654.3701625218309
 30
0.0
 11
2631.0486675706511
 21
1654.3701625218309
 31
0.0
  0
LINE
  5
7D99
  8
1
 10
2636.048667570652
 20
1548.570462521832
 30
0.0
 11
2636.048667570652
 21
1473.570462521832
 31
0.0
  0
LINE
  5
7D9C
  8
1
 10
2657.0486675706502
 20
1688.0701625218319
 30
0.0
 11
2647.0486675706511
 21
1688.0701625218319
 31
0.0
  0
LINE
  5
7D9D
  8
1
 10
2641.0486675706502
 20
1715.0701625218319
 30
0.0
 11
2641.0486675706502
 21
1746.0701625218319
 31
0.0
  0
LINE
  5
7D9E
  8
1
 10
2647.0486675706511
 20
1715.0701625218319
 30
0.0
 11
2641.0486675706502
 21
1715.0701625218319
 31
0.0
  0
LINE
  5
7D9F
  8
1
 10
2641.0486675706502
 20
1746.0701625218319
 30
0.0
 11
2647.0486675706511
 21
1746.0701625218319
 31
0.0
  0
LINE
  5
7DA0
  8
1
 10
2641.0486675706502
 20
1716.5701625218319
 30
0.0
 11
2631.0486675706511
 21
1716.5701625218319
 31
0.0
  0
LINE
  5
7DA1
  8
1
 10
2641.0486675706502
 20
1744.5701625218319
 30
0.0
 11
2631.0486675706511
 21
1744.5701625218319
 31
0.0
  0
LINE
  5
7DA2
  8
1
 10
3141.0486675706511
 20
1609.352794911797
 30
0.0
 11
3141.0486675706502
 21
1548.570462521832
 31
0.0
  0
LINE
  5
7DA5
  8
1
 10
2666.0486675706511
 20
2040.370462521832
 30
0.0
 11
3151.0486675706511
 21
2040.370462521832
 31
0.0
  0
LINE
  5
7DA6
  8
1
 10
2666.0486675706511
 20
2043.570462521832
 30
0.0
 11
3151.0486675706511
 21
2043.570462521832
 31
0.0
  0
LINE
  5
7DA7
  8
1
 10
2551.0486675706502
 20
2253.5704625218309
 30
0.0
 11
2673.0486675706502
 21
2253.5704625218309
 31
0.0
  0
LINE
  5
7DA8
  8
1
 10
2581.0486675706502
 20
1806.770162521831
 30
0.0
 11
2631.0486675706511
 21
1806.770162521831
 31
0.0
  0
LINE
  5
7DA9
  8
1
 10
2581.0486675706502
 20
2040.0704625218309
 30
0.0
 11
2631.0486675706511
 21
2040.070462521832
 31
0.0
  0
LINE
  5
7DAA
  8
1
 10
2581.0486675706502
 20
2167.0704625218318
 30
0.0
 11
2631.0486675706511
 21
2167.0704625218309
 31
0.0
  0
LINE
  5
7DAB
  8
1
 10
2581.0486675706502
 20
2167.0704625218309
 30
0.0
 11
2581.0486675706502
 21
1806.770162521831
 31
0.0
  0
LINE
  5
7DAC
  8
1
 10
2631.0486675706511
 20
2167.0704625218309
 30
0.0
 11
2631.0486675706529
 21
1806.770162521831
 31
0.0
  0
LINE
  5
7DB8
  8
1
 10
2657.0486675706502
 20
1773.0701625218319
 30
0.0
 11
2647.0486675706511
 21
1773.0701625218319
 31
0.0
  0
LINE
  5
7DBB
  8
1
 10
2657.0486675706502
 20
1851.5701625218319
 30
0.0
 11
2964.0486675706511
 21
1851.5701625218319
 31
0.0
  0
POINT
  5
7DBC
  8
1
 10
2666.0486675706511
 20
2043.570462521832
 30
0.0
  0
LINE
  5
7DBD
  8
1
 10
2666.0486675706511
 20
2043.570462521832
 30
0.0
 11
2666.0486675706511
 21
2040.370462521832
 31
0.0
  0
POLYLINE
  5
7DDB
  8
1
 66
     1
 10
0.0
 20
0.0
 30
0.0
 70
     1
  0
VERTEX
  5
85F0
  8
1
 10
3141.0486675706502
 20
1990.370462521832
 30
0.0
  0
VERTEX
  5
85F1
  8
1
 10
3191.0486675706511
 20
1990.370462521832
 30
0.0
  0
VERTEX
  5
85F2
  8
1
 10
3191.0486675706511
 20
1991.870462521832
 30
0.0
 42
0.4142135623730942
  0
VERTEX
  5
85F3
  8
1
 10
3186.5486675706502
 20
1996.370462521832
 30
0.0
  0
VERTEX
  5
85F4
  8
1
 10
3153.5486675706502
 20
1996.370462521832
 30
0.0
 42
-0.4142135623730951
  0
VERTEX
  5
85F5
  8
1
 10
3147.0486675706511
 20
2002.870462521832
 30
0.0
  0
VERTEX
  5
85F6
  8
1
 10
3147.0486675706511
 20
2035.870462521832
 30
0.0
 42
0.4142135623730951
  0
VERTEX
  5
85F7
  8
1
 10
3142.5486675706502
 20
2040.370462521832
 30
0.0
  0
VERTEX
  5
85F8
  8
1
 10
3141.0486675706502
 20
2040.370462521832
 30
0.0
  0
SEQEND
  5
85F9
  8
1
  0
LINE
  5
7DE6
  8
1
 10
3151.5486675706511
 20
1990.370462521832
 30
0.0
 11
3151.5486675706511
 21
1984.370462521832
 31
0.0
  0
LINE
  5
7DE9
  8
1
 10
3151.0486675706511
 20
2043.570462521832
 30
0.0
 11
3151.0486675706511
 21
2040.370462521832
 31
0.0
  0
LINE
  5
7DF3
  8
1
 10
2631.0486675706511
 20
2126.0704625218341
 30
0.0
 11
3216.0486675706529
 21
2126.0704625218318
 31
0.0
  0
DIMENSION
  5
7DF6
  8
3
  2
*D15
 10
3798.1294419902438
 20
1853.570462521832
 30
0.0
 11
3748.1294419902438
 21
2103.5704625218318
 31
0.0
 70
     0
 13
3623.048667570652
 23
2353.5704625218318
 33
0.0
 14
3623.048667570652
 24
1853.570462521832
 34
0.0
 50
90.0
1001
ACAD
1000
DSTYLE
1002
{
1070
   287
1070
     3
1070
     3
1000
φ<>
1070
    40
1040
20.0
1070
   143
1040
0.039
1070
   172
1070
     1
1070
   271
1070
     0
1070
   279
1070
     0
1070
   288
1070
     1
1002
}
  0
LINE
  5
7DF8
  8
1
 10
3623.048667570652
 20
2109.5704625218318
 30
0.0
 11
3623.048667570652
 21
2353.5704625218318
 31
0.0
  0
LINE
  5
7DF9
  8
1
 10
3598.048667570652
 20
2353.5704625218318
 30
0.0
 11
3598.048667570652
 21
2109.5704625218318
 31
0.0
  0
DIMENSION
  5
7DFE
  8
3
  2
*D16
 10
3636.048667570652
 20
1146.9734253570689
 30
0.0
 11
3521.048667570652
 21
1195.6921968326751
 31
0.0
 12
-116.4669178870426
 22
-96.597585498911926
 32
0.0
 70
   128
 13
3406.0486675706529
 23
1271.0391910346329
 33
0.0
 14
3636.048667570652
 24
1303.570462521832
 34
0.0
1001
ACAD
1000
DSTYLE
1002
{
1070
   288
1070
     1
1070
   172
1070
     1
1070
    40
1040
20.0
1070
   271
1070
     0
1070
   143
1040
0.039
1002
}
  0
LINE
  5
7DFF
  8
1
 10
3218.5486675706529
 20
2464.5704625218318
 30
0.0
 11
3593.5486675706529
 21
2464.5704625218318
 31
0.0
  0
LINE
  5
7E01
  8
1
 10
3636.048667570652
 20
1378.570462521832
 30
0.0
 11
3636.048667570652
 21
1303.570462521832
 31
0.0
  0
LINE
  5
7E02
  8
1
 10
3636.048667570652
 20
1548.570462521832
 30
0.0
 11
3636.048667570652
 21
1473.570462521832
 31
0.0
  0
LINE
  5
7E0F
  8
1
 10
3598.048667570652
 20
2378.5704625218318
 30
0.0
 11
3596.548667570652
 21
2378.5704625218318
 31
0.0
  0
LINE
  5
7E10
  8
1
 10
3598.048667570652
 20
2378.5704625218318
 30
0.0
 11
3598.048667570652
 21
2353.5704625218318
 31
0.0
  0
LINE
  5
7E11
  8
1
 10
3599.048667570652
 20
2378.5704625218318
 30
0.0
 11
3598.048667570652
 21
2378.5704625218318
 31
0.0
  0
ARC
  5
7E12
  8
1
 10
3599.048667570652
 20
2376.5704625218318
 30
0.0
 40
2.0
 50
0.0
 51
90.0
  0
LINE
  5
7E13
  8
1
 10
3601.048667570652
 20
2360.5704625218318
 30
0.0
 11
3601.048667570652
 21
2376.5704625218318
 31
0.0
  0
ARC
  5
7E14
  8
1
 10
3605.048667570652
 20
2360.5704625218318
 30
0.0
 40
4.0
 50
180.0
 51
270.0
  0
LINE
  5
7E15
  8
1
 10
3621.0486675706529
 20
2356.5704625218318
 30
0.0
 11
3605.048667570652
 21
2356.5704625218318
 31
0.0
  0
ARC
  5
7E16
  8
1
 10
3621.0486675706529
 20
2354.5704625218318
 30
0.0
 40
2.0
 50
0.0
 51
90.0
  0
LINE
  5
7E17
  8
1
 10
3623.048667570652
 20
2353.5704625218318
 30
0.0
 11
3623.048667570652
 21
2354.5704625218318
 31
0.0
  0
LINE
  5
7E18
  8
1
 10
3598.048667570652
 20
2353.5704625218318
 30
0.0
 11
3623.048667570652
 21
2353.5704625218318
 31
0.0
  0
LINE
  5
7E19
  8
1
 10
3218.5486675706529
 20
2079.663983817703
 30
0.0
 11
3593.5486675706529
 21
2079.663983817703
 31
0.0
  0
LINE
  5
7E1A
  8
1
 10
3623.048667570652
 20
1853.570462521832
 30
0.0
 11
3623.048667570652
 21
2109.5704625218318
 31
0.0
  0
LINE
  5
7E1B
  8
1
 10
3598.048667570652
 20
2109.5704625218318
 30
0.0
 11
3598.048667570652
 21
2104.663983817702
 31
0.0
  0
LINE
  5
7E1F
  8
1
 10
3191.048667570652
 20
1538.663983817703
 30
0.0
 11
3621.0486675706502
 21
1538.663983817703
 31
0.0
  0
DIMENSION
  5
7E23
  8
3
  2
*D17
 10
3593.5486675706529
 20
2603.9998715490342
 30
0.0
 11
3406.0486675706529
 21
2653.9998715490342
 31
0.0
 70
     0
 13
3218.5486675706529
 23
2464.5704625218318
 33
0.0
 14
3593.5486675706529
 24
2464.5704625218318
 34
0.0
1001
ACAD
1000
DSTYLE
1002
{
1070
   287
1070
     3
1070
    40
1040
20.0
1070
   143
1040
0.039
1070
   172
1070
     1
1070
   271
1070
     0
1070
   279
1070
     0
1070
   288
1070
     1
1002
}
  0
LINE
  5
7E24
  8
1
 10
3218.5486675706529
 20
1563.663983817703
 30
0.0
 11
3593.5486675706529
 21
1563.663983817703
 31
0.0
  0
LINE
  5
8018
  8
4
 10
3700.0
 20
1000.0
 30
0.0
 11
3700.0
 21
600.0
 31
0.0
  0
LINE
  5
8019
  8
4
 10
2300.0
 20
1000.0
 30
0.0
 11
2300.0
 21
600.0
 31
0.0
  0
LINE
  5
801A
  8
4
 10
1300.0
 20
1000.0
 30
0.0
 11
1300.0
 21
600.0
 31
0.0
  0
LINE
  5
801D
  8
4
 10
1300.0
 20
600.0
 30
0.0
 11
3700.0
 21
600.0
 31
0.0
  0
LINE
  5
801E
  8
4
 10
1300.0
 20
800.0
 30
0.0
 11
3700.0
 21
800.0
 31
0.0
  0
TEXT
  5
801F
  8
4
 10
1377.0041616938031
 20
863.08605173322564
 30
0.0
 40
100.0
  1
機器名称
  0
TEXT
  5
8020
  8
4
 10
1372.516212049595
 20
643.29031346402189
 30
0.0
 40
100.0
  1
機器型番
  0
TEXT
  5
8021
  8
4
 10
2319.3176373393071
 20
844.3746047138942
 30
0.0
 40
90.0
  1
ミツヤ多翼送風機
  0
TEXT
  5
8022
  8
4
 10
2373.3089911709608
 20
634.31916855988675
 30
0.0
 40
100.0
  1
MF#3-1
  0
TEXT
  5
8024
  8
4
 10
1528.4391079134689
 20
4766.8576826650306
 30
0.0
 40
107.9999999999999
  1
床置防振ベット
  0
TEXT
  5
8025
  8
4
 10
632.33518665889278
 20
5067.7619523985959
 30
0.0
 40
144.0
  1
遠心式片吸込片持多翼ファン
  0
LINE
  5
8026
  8
4
 10
500.0
 20
4938.8175085296089
 30
0.0
 11
3700.0
 21
4938.8175085296089
 31
0.0
  0
LINE
  5
8027
  8
4
 10
500.0
 20
5338.8175085296098
 30
0.0
 11
3700.0
 21
5338.8175085296098
 31
0.0
  0
LINE
  5
8028
  8
4
 10
1300.0
 20
1000.0
 30
0.0
 11
3700.0
 21
1000.0
 31
0.0
  0
LINE
  5
8029
  8
4
 10
500.0
 20
5338.8175085296098
 30
0.0
 11
500.0
 21
4938.8175085296089
 31
0.0
  0
TEXT
  5
802A
  8
4
 10
656.72144342806484
 20
4764.638955092687
 30
0.0
 40
107.9999999999999
  1
右回転左横向
  0
TEXT
  5
802B
  8
4
 10
2937.9391184985789
 20
5412.1221629906177
 30
0.0
 40
112.0
  1
No.
  0
TEXT
  5
802C
  8
4
 10
2622.5921252000262
 20
4766.8576826650306
 30
0.0
 40
107.9999999999999
  1
縮尺：1/20
  0
LINE
  5
802D
  8
4
 10
3700.0
 20
5338.8175085296098
 30
0.0
 11
3700.0
 21
4938.8175085296089
 31
0.0
  0
LINE
  5
802E
  8
4
 10
4200.0
 20
5900.0
 30
0.0
 11
4200.0
 21
5900.0
 31
0.0
  0
LINE
  5
802F
  8
4
 10
2881.2348447197292
 20
5362.5271662508021
 30
0.0
 11
2881.2348447197292
 21
5573.3045230995049
 31
0.0
  0
LINE
  5
8030
  8
4
 10
2881.2348447197292
 20
5573.3045230995049
 30
0.0
 11
3700.0
 21
5573.3045230995049
 31
0.0
  0
LINE
  5
8031
  8
4
 10
3700.0
 20
5573.3045230995049
 30
0.0
 11
3700.0
 21
5362.5271662508021
 31
0.0
  0
LINE
  5
8032
  8
4
 10
3700.0
 20
5362.5271662508021
 30
0.0
 11
2881.2348447197292
 21
5362.5271662508021
 31
0.0
  0
LINE
  5
8033
  8
4
 10
0.0
 20
0.0
 30
0.0
 11
0.0
 21
5900.0
 31
0.0
  0
LINE
  5
8034
  8
4
 10
0.0
 20
5900.0
 30
0.0
 11
4200.0
 21
5900.0
 31
0.0
  0
LINE
  5
8035
  8
4
 10
4200.0
 20
5900.0
 30
0.0
 11
4200.0
 21
0.0
 31
0.0
  0
LINE
  5
8036
  8
4
 10
4200.0
 20
0.0
 30
0.0
 11
0.0
 21
0.0
 31
0.0
  0
DIMENSION
  5
8266
  8
3
  2
*D19
 10
2296.944991397223
 20
2738.6389402333989
 30
0.0
 11
1695.2057173703249
 21
2738.6389402333989
 31
0.0
 70
   128
 13
1106.944991397223
 23
2098.6583577807851
 33
0.0
 14
2296.944991397223
 24
1473.570462521832
 34
0.0
1001
ACAD
1000
DSTYLE
1002
{
1070
   287
1070
     3
1070
    40
1040
20.0
1070
   143
1040
0.039
1070
   172
1070
     1
1070
   271
1070
     0
1070
   279
1070
     0
1070
   288
1070
     1
1002
}
  0
INSERT
  5
829E
  8
1
  2
L-30-3
 10
1008.8280210397691
 20
1680.819304271077
 30
0.0
 50
270.0
  0
INSERT
  5
829F
  8
1
  2
L-30-3
 10
991.69614964797802
 20
1979.4534921643781
 30
0.0
  0
DIMENSION
  5
83F1
  8
3
  2
*D21
 10
707.34472598600075
 20
2103.5704625218318
 30
0.0
 11
707.34472598600041
 21
2275.4968972881252
 31
0.0
 70
   128
 13
1503.9449913972239
 23
2464.6184533296928
 33
0.0
 14
1023.798498080979
 24
2103.5704625218318
 34
0.0
 50
90.0
1001
ACAD
1000
DSTYLE
1002
{
1070
   287
1070
     3
1070
    40
1040
20.0
1070
   143
1040
0.039
1070
   172
1070
     1
1070
   271
1070
     0
1070
   279
1070
     0
1070
   288
1070
     1
1002
}
  0
DIMENSION
  5
840B
  8
3
  2
*D22
 10
707.34472598600041
 20
1473.570462521832
 30
0.0
 11
657.34472598600007
 21
1788.570462521832
 31
0.0
 70
     0
 13
1023.798498080979
 23
2103.5704625218318
 33
0.0
 14
1216.9449913972239
 24
1473.570462521832
 34
0.0
 50
90.0
1001
ACAD
1000
DSTYLE
1002
{
1070
   287
1070
     4
1070
    40
1040
20.0
1070
    75
1070
     1
1070
   143
1040
0.039
1070
   172
1070
     1
1070
   271
1070
     0
1070
   279
1070
     1
1070
   288
1070
     1
1002
}
  0
DIMENSION
  5
841B
  8
3
  2
*D23
 10
707.34472598600041
 20
1378.570462521832
 30
0.0
 11
611.63044027171463
 21
1426.070462521832
 31
0.0
 12
186.34707806685401
 22
0.0
 32
0.0
 70
     0
  1
(<>)
 13
1216.9449913972239
 23
1473.570462521832
 33
0.0
 14
1216.9449913972239
 24
1378.570462521832
 34
0.0
 50
90.0
1001
ACAD
1000
DSTYLE
1002
{
1070
   288
1070
     1
1070
   172
1070
     1
1070
    75
1070
     1
1070
    40
1040
20.0
1070
   271
1070
     0
1070
     7
1000
_DOT
1070
   143
1040
0.039
1002
}
  0
DIMENSION
  5
842B
  8
3
  2
*D24
 10
707.34472598600041
 20
1303.570462521832
 30
0.0
 11
657.34472598600007
 21
1154.9990339504029
 31
0.0
 70
     0
 13
1216.9449913972239
 23
1378.570462521832
 33
0.0
 14
1216.9449913972239
 24
1303.570462521832
 34
0.0
 50
90.0
1001
ACAD
1000
DSTYLE
1002
{
1070
   287
1070
     3
1070
    40
1040
20.0
1070
   143
1040
0.039
1070
   172
1070
     1
1070
   271
1070
     0
1070
   279
1070
     0
1070
   288
1070
     1
1070
     6
1000
DOT
1002
}
  0
LINE
  5
8439
  8
1
 10
1539.907706236085
 20
2234.629389128695
 30
0.0
 11
2209.9077062360848
 21
1861.629089128694
 31
0.0
  0
LINE
  5
843A
  8
1
 10
1393.9822765583619
 20
1972.51153591497
 30
0.0
 11
2063.9822765583608
 21
1599.51123591497
 31
0.0
  0
LINE
  5
843B
  8
1
 10
2172.9023247790101
 20
1797.7528252859031
 30
0.0
 11
1496.909435882046
 21
2159.5560148252248
 31
0.0
  0
LINE
  5
843C
  8
1
 10
1435.1428100172579
 20
2048.6080093426322
 30
0.0
 11
2098.7823737412632
 21
1664.6152187067919
 31
0.0
  0
DIMENSION
  5
8494
  8
3
  2
*D25
 10
509.9022842132909
 20
1303.570462521832
 30
0.0
 11
509.90228421329078
 21
1880.9378832633899
 31
0.0
 70
   128
 13
1503.9449913972239
 23
2464.6184533296928
 33
0.0
 14
1216.9449913972239
 24
1303.570462521832
 34
0.0
 50
90.0
1001
ACAD
1000
DSTYLE
1002
{
1070
   287
1070
     3
1070
    40
1040
20.0
1070
   143
1040
0.039
1070
   172
1070
     1
1070
   271
1070
     0
1070
   279
1070
     0
1070
   288
1070
     1
1002
}
  0
LINE
  5
8498
  8
2
 10
2978.4864467518269
 20
1730.5701625218319
 30
0.0
 11
2574.0422285911382
 21
1730.5701625218319
 31
0.0
  0
LINE
  5
8499
  8
1
 10
2673.0486675706502
 20
1618.570462521832
 30
0.0
 11
2673.0486675706502
 21
1580.5701625218319
 31
0.0
  0
LINE
  5
849A
  8
1
 10
2964.0486675706502
 20
1618.570462521832
 30
0.0
 11
2964.0486675706511
 21
1851.5701625218319
 31
0.0
  0
LINE
  5
849B
  8
1
 10
2676.0486675706511
 20
1618.570462521832
 30
0.0
 11
2676.0486675706511
 21
1548.570462521832
 31
0.0
  0
LINE
  5
84C1
  8
1
 10
3621.0486675706529
 20
1548.570462521832
 30
0.0
 11
3636.048667570652
 21
1548.570462521832
 31
0.0
  0
LINE
  5
84EF
  8
1
 10
2657.0486675706488
 20
1618.570462521832
 30
0.0
 11
2964.0486675706511
 21
1618.570462521832
 31
0.0
  0
LINE
  5
84F0
  8
1
 10
2698.3915108668912
 20
1578.570462521832
 30
0.0
 11
2916.7612306868032
 21
1578.570462521832
 31
0.0
  0
LINE
  5
84F1
  8
1
 10
2698.3915108668912
 20
1618.570462521832
 30
0.0
 11
2698.3915108668912
 21
1548.570462521832
 31
0.0
  0
LINE
  5
84F2
  8
1
 10
2916.7612306868032
 20
1618.570462521832
 30
0.0
 11
2916.7612306868032
 21
1548.570462521832
 31
0.0
  0
LINE
  5
84FB
  8
1
 10
1489.4449913972239
 20
3798.005382137359
 30
0.0
 11
1698.9449913972221
 21
3798.005382137359
 31
0.0
  0
LINE
  5
8500
  8
1
 10
3593.5486675706529
 20
2464.5704625218318
 30
0.0
 11
3593.5486675706529
 21
1563.663983817703
 31
0.0
  0
LINE
  5
8501
  8
1
 10
3218.5486675706529
 20
2464.5704625218318
 30
0.0
 11
3218.5486675706529
 21
1563.663983817703
 31
0.0
  0
LINE
  5
851C
  8
1
 10
3601.048667570652
 20
1846.570462521832
 30
0.0
 11
3601.048667570652
 21
1830.570462521832
 31
0.0
  0
LINE
  5
851D
  8
1
 10
3598.048667570652
 20
1828.570462521832
 30
0.0
 11
3598.048667570652
 21
1853.570462521832
 31
0.0
  0
LINE
  5
851E
  8
1
 10
3598.048667570652
 20
1853.570462521832
 30
0.0
 11
3623.048667570652
 21
1853.570462521832
 31
0.0
  0
LINE
  5
851F
  8
1
 10
3621.0486675706529
 20
1850.570462521832
 30
0.0
 11
3605.048667570652
 21
1850.570462521832
 31
0.0
  0
ARC
  5
8520
  8
1
 10
3605.048667570652
 20
1846.570462521832
 30
0.0
 40
4.0
 50
90.0
 51
180.0
  0
LINE
  5
8521
  8
1
 10
3623.048667570652
 20
1853.570462521832
 30
0.0
 11
3623.048667570652
 21
1852.570462521832
 31
0.0
  0
ARC
  5
8522
  8
1
 10
3621.0486675706529
 20
1852.570462521832
 30
0.0
 40
2.0
 50
270.0
 51
0.0
  0
ARC
  5
8523
  8
1
 10
3599.048667570652
 20
1830.570462521832
 30
0.0
 40
2.0
 50
270.0
 51
0.0
  0
LINE
  5
8524
  8
1
 10
3599.048667570652
 20
1828.570462521832
 30
0.0
 11
3598.048667570652
 21
1828.570462521832
 31
0.0
  0
LINE
  5
8525
  8
1
 10
3598.048667570652
 20
1828.570462521832
 30
0.0
 11
3596.548667570652
 21
1828.570462521832
 31
0.0
  0
LINE
  5
8526
  8
1
 10
3598.048667570652
 20
1853.570462521832
 30
0.0
 11
3598.048667570652
 21
2097.5704625218318
 31
0.0
  0
ENDSEC
  0
EOF
