  0
SECTION
  2
HEADER
  9
$ACADVER
  1
AC1009
  9
$INSBASE
 10
0.0
 20
0.0
 30
0.0
  9
$EXTMIN
 10
0.0
 20
0.0
 30
0.0
  9
$EXTMAX
 10
4200.0
 20
5900.0
 30
0.0
  9
$LIMMIN
 10
0.0
 20
0.0
  9
$LIMMAX
 10
297.0
 20
210.0
  9
$ORTHOMODE
 70
     0
  9
$REGENMODE
 70
     1
  9
$FILLMODE
 70
     0
  9
$QTEXTMODE
 70
     0
  9
$MIRRTEXT
 70
     1
  9
$DRAGMODE
 70
     2
  9
$LTSCALE
 40
100.0
  9
$OSMODE
 70
    37
  9
$ATTMODE
 70
     1
  9
$TEXTSIZE
 40
180.0
  9
$TRACEWID
 40
0.05
  9
$TEXTSTYLE
  7
STANDARD
  9
$CLAYER
  8
3
  9
$CELTYPE
  6
BYLAYER
  9
$CECOLOR
 62
   256
  9
$DIMSCALE
 40
20.0
  9
$DIMASZ
 40
2.0
  9
$DIMEXO
 40
0.5
  9
$DIMDLI
 40
10.0
  9
$DIMRND
 40
0.0
  9
$DIMDLE
 40
0.0
  9
$DIMEXE
 40
1.0
  9
$DIMTP
 40
1.0
  9
$DIMTM
 40
1.0
  9
$DIMTXT
 40
3.0
  9
$DIMCEN
 40
0.0
  9
$DIMTSZ
 40
0.0
  9
$DIMTOL
 70
     0
  9
$DIMLIM
 70
     0
  9
$DIMTIH
 70
     0
  9
$DIMTOH
 70
     0
  9
$DIMSE1
 70
     0
  9
$DIMSE2
 70
     0
  9
$DIMTAD
 70
     1
  9
$DIMZIN
 70
     8
  9
$DIMBLK
  1

  9
$DIMASO
 70
     1
  9
$DIMSHO
 70
     1
  9
$DIMPOST
  1

  9
$DIMAPOST
  1

  9
$DIMALT
 70
     0
  9
$DIMALTD
 70
     2
  9
$DIMALTF
 40
0.039
  9
$DIMLFAC
 40
1.0
  9
$DIMTOFL
 70
     1
  9
$DIMTVP
 40
0.0
  9
$DIMTIX
 70
     0
  9
$DIMSOXD
 70
     0
  9
$DIMSAH
 70
     1
  9
$DIMBLK1
  1
OPEN
  9
$DIMBLK2
  1
OPEN
  9
$DIMSTYLE
  2
IGA
  9
$DIMCLRD
 70
     0
  9
$DIMCLRE
 70
     0
  9
$DIMCLRT
 70
     0
  9
$DIMTFAC
 40
10.0
  9
$DIMGAP
 40
1.0
  9
$LUNITS
 70
     2
  9
$LUPREC
 70
     3
  9
$SKETCHINC
 40
0.1
  9
$FILLETRAD
 40
50.0
  9
$AUNITS
 70
     0
  9
$AUPREC
 70
     0
  9
$MENU
  1
acad
  9
$ELEVATION
 40
0.0
  9
$PELEVATION
 40
0.0
  9
$THICKNESS
 40
0.0
  9
$LIMCHECK
 70
     0
  9
$BLIPMODE
 70
     0
  9
$CHAMFERA
 40
0.5
  9
$CHAMFERB
 40
0.5
  9
$SKPOLY
 70
     0
  9
$TDCREATE
 40
2451019.6507322919
  9
$TDUPDATE
 40
2454953.7545269099
  9
$TDINDWG
 40
0.0110149884
  9
$TDUSRTIMER
 40
0.0110149884
  9
$USRTIMER
 70
     1
  9
$ANGBASE
 50
0.0
  9
$ANGDIR
 70
     0
  9
$PDMODE
 70
     0
  9
$PDSIZE
 40
0.0
  9
$PLINEWID
 40
0.0
  9
$COORDS
 70
     1
  9
$SPLFRAME
 70
     0
  9
$SPLINETYPE
 70
     6
  9
$SPLINESEGS
 70
     8
  9
$ATTDIA
 70
     0
  9
$ATTREQ
 70
     1
  9
$HANDLING
 70
 10241
  9
$HANDSEED
  5
81E6
  9
$SURFTAB1
 70
     6
  9
$SURFTAB2
 70
     6
  9
$SURFTYPE
 70
     6
  9
$SURFU
 70
     6
  9
$SURFV
 70
     6
  9
$UCSNAME
  2

  9
$UCSORG
 10
0.0
 20
0.0
 30
0.0
  9
$UCSXDIR
 10
1.0
 20
0.0
 30
0.0
  9
$UCSYDIR
 10
0.0
 20
1.0
 30
0.0
  9
$PUCSNAME
  2

  9
$PUCSORG
 10
0.0
 20
0.0
 30
0.0
  9
$PUCSXDIR
 10
1.0
 20
0.0
 30
0.0
  9
$PUCSYDIR
 10
0.0
 20
1.0
 30
0.0
  9
$USERI1
 70
     0
  9
$USERI2
 70
     0
  9
$USERI3
 70
     0
  9
$USERI4
 70
     0
  9
$USERI5
 70
     0
  9
$USERR1
 40
0.0
  9
$USERR2
 40
0.0
  9
$USERR3
 40
0.0
  9
$USERR4
 40
0.0
  9
$USERR5
 40
0.0
  9
$WORLDVIEW
 70
     1
  9
$SHADEDGE
 70
     3
  9
$SHADEDIF
 70
    70
  9
$TILEMODE
 70
     1
  9
$MAXACTVP
 70
    16
  9
$PLIMCHECK
 70
     0
  9
$PEXTMIN
 10
1.0000000000000000E+020
 20
1.0000000000000000E+020
 30
1.0000000000000000E+020
  9
$PEXTMAX
 10
-1.0000000000000000E+020
 20
-1.0000000000000000E+020
 30
-1.0000000000000000E+020
  9
$PLIMMIN
 10
0.0
 20
0.0
  9
$PLIMMAX
 10
12.0
 20
9.0
  9
$UNITMODE
 70
     0
  9
$VISRETAIN
 70
     0
  9
$PLINEGEN
 70
     0
  9
$PSLTSCALE
 70
     1
  0
ENDSEC
  0
SECTION
  2
TABLES
  0
TABLE
  2
VPORT
 70
     2
  0
VPORT
  2
*ACTIVE
 70
     0
 10
0.0
 20
0.0
 11
1.0
 21
1.0
 12
7073.2199177027342
 22
2950.0000137370062
 13
0.0
 23
0.0
 14
10.0
 24
10.0
 15
10.0
 25
10.0
 16
0.0
 26
0.0
 36
1.0
 17
0.0
 27
0.0
 37
0.0
 40
5945.22976603387
 41
3.1666666666666661
 42
50.0
 43
0.0
 44
0.0
 50
0.0
 51
0.0
 71
     0
 72
   100
 73
     1
 74
     0
 75
     0
 76
     0
 77
     0
 78
     0
  0
ENDTAB
  0
TABLE
  2
LTYPE
 70
     2
  0
LTYPE
  2
CONTINUOUS
 70
     0
  3
Solid line
 72
    65
 73
     0
 40
0.0
  0
LTYPE
  2
CENTER
 70
     0
  3
____ _ ____ _ ____ _ ____ _ ____ _ ____ _ ____ 
 72
    65
 73
     4
 40
2.0
 49
1.25
 49
-0.25
 49
0.25
 49
-0.25
  0
ENDTAB
  0
TABLE
  2
LAYER
 70
     7
  0
LAYER
  2
0
 70
     0
 62
     7
  6
CONTINUOUS
  0
LAYER
  2
3
 70
     0
 62
     2
  6
CONTINUOUS
  0
LAYER
  2
2
 70
     0
 62
     3
  6
CENTER
  0
LAYER
  2
1
 70
     0
 62
     4
  6
CONTINUOUS
  0
LAYER
  2
4
 70
     0
 62
     7
  6
CONTINUOUS
  0
LAYER
  2
SUNPOU
 70
     0
 62
     2
  6
CONTINUOUS
  0
LAYER
  2
DEFPOINTS
 70
     0
 62
     7
  6
CONTINUOUS
  0
ENDTAB
  0
TABLE
  2
STYLE
 70
     1
  0
STYLE
  2
STANDARD
 70
     0
 40
0.0
 41
1.0
 50
0.0
 71
     0
 42
180.0
  3
simplex.shx
  4
extfont.shx
  0
ENDTAB
  0
TABLE
  2
VIEW
 70
     0
  0
ENDTAB
  0
TABLE
  2
UCS
 70
     0
  0
ENDTAB
  0
TABLE
  2
APPID
 70
     1
  0
APPID
  2
ACAD
 70
     0
  0
ENDTAB
  0
TABLE
  2
DIMSTYLE
 70
     2
  0
DIMSTYLE
  2
IGA
 70
     0
  3

  4

  5

  6
OPEN
  7
OPEN
 40
2.0
 41
2.0
 42
0.5
 43
10.0
 44
1.0
 45
0.0
 46
0.0
 47
1.0
 48
1.0
140
3.0
141
0.0
142
0.0
143
0.03937
144
1.0
145
0.0
146
10.0
147
1.0
 71
     0
 72
     0
 73
     0
 74
     0
 75
     0
 76
     0
 77
     1
 78
     8
170
     0
171
     2
172
     0
173
     1
174
     0
175
     0
176
     0
177
     0
178
     0
  0
DIMSTYLE
  2
DIA1
 70
     0
  3

  4

  5
ARROW
  6

  7

 40
1.0
 41
2.0
 42
1.0
 43
10.0
 44
1.0
 45
0.0
 46
0.0
 47
0.0
 48
0.0
140
2.5
141
0.0
142
0.0
143
25.399999999999999
144
1.0
145
0.0
146
1.0
147
0.09
 71
     0
 72
     0
 73
     0
 74
     0
 75
     0
 76
     0
 77
     1
 78
     8
170
     0
171
     2
172
     1
173
     0
174
     0
175
     0
176
     2
177
     2
178
     2
  0
ENDTAB
  0
ENDSEC
  0
SECTION
  2
BLOCKS
  0
BLOCK
  8
0
  2
$MODEL_SPACE
 70
     0
 10
0.0
 20
0.0
 30
0.0
  3
$MODEL_SPACE
  1

  0
ENDBLK
  5
1B
  8
0
  0
BLOCK
 67
     1
  8
0
  2
$PAPER_SPACE
 70
     0
 10
0.0
 20
0.0
 30
0.0
  3
$PAPER_SPACE
  1

  0
ENDBLK
  5
18
 67
     1
  8
0
  0
BLOCK
  8
0
  2
YA_N
 70
     0
 10
0.0
 20
0.0
 30
0.0
  3
YA_N
  1

  0
ENDBLK
  5
79FE
  8
0
  0
BLOCK
  8
0
  2
ARROW
 70
     0
 10
0.0
 20
0.0
 30
0.0
  3
ARROW
  1

  0
LINE
  5
7A00
  8
0
 10
-0.9999999999999991
 20
0.1666666667000003
 30
0.0
 11
0.0
 21
0.0
 31
0.0
  0
LINE
  5
7A01
  8
0
 10
-0.9999999999999991
 20
0.0
 30
0.0
 11
0.0
 21
0.0
 31
0.0
  0
LINE
  5
7A02
  8
0
 10
-0.9999999999999991
 20
-0.1666666667000003
 30
0.0
 11
0.0
 21
0.0
 31
0.0
  0
ENDBLK
  5
7A04
  8
0
  0
BLOCK
  8
0
  2
_OPEN
 70
     0
 10
0.0
 20
0.0
 30
0.0
  3
_OPEN
  1

  0
LINE
  5
7A06
  8
0
  6
BYBLOCK
 62
     0
 10
-1.0
 20
0.1666666666666666
 30
0.0
 11
0.0
 21
0.0
 31
0.0
  0
LINE
  5
7A07
  8
0
  6
BYBLOCK
 62
     0
 10
0.0
 20
0.0
 30
0.0
 11
-1.0
 21
-0.1666666666666666
 31
0.0
  0
LINE
  5
7A08
  8
0
  6
BYBLOCK
 62
     0
 10
0.0
 20
0.0
 30
0.0
 11
-1.0
 21
0.0
 31
0.0
  0
ENDBLK
  5
7A0A
  8
0
  0
BLOCK
  8
0
  2
L02503
 70
     0
 10
0.0
 20
0.0
 30
0.0
  3
L02503
  1

  0
LINE
  5
7A0C
  8
0
 10
81.202663485604475
 20
85.280529856043884
 30
0.0
 11
106.2026634856044
 21
85.280529856043884
 31
0.0
  0
LINE
  5
7A0D
  8
0
 10
106.2026634856044
 20
85.280529856043884
 30
0.0
 11
106.2026634856044
 21
86.28052985604387
 31
0.0
  0
LINE
  5
7A0E
  8
0
 10
88.202663485604475
 20
88.280529856043856
 30
0.0
 11
104.2026634856044
 21
88.28052985604387
 31
0.0
  0
ARC
  5
7A0F
  8
0
 10
104.2026634856044
 20
86.28052985604387
 30
0.0
 40
2.0
 50
359.9999999999992
 51
89.999999999999588
  0
LINE
  5
7A10
  8
0
 10
81.202663485604475
 20
85.280529856043884
 30
0.0
 11
81.202663485604475
 21
110.2805298560438
 31
0.0
  0
LINE
  5
7A11
  8
0
 10
84.202663485604504
 20
92.280529856043856
 30
0.0
 11
84.202663485604504
 21
108.2805298560438
 31
0.0
  0
LINE
  5
7A12
  8
0
 10
81.202663485604475
 20
110.2805298560438
 30
0.0
 11
82.202663485604475
 21
110.2805298560438
 31
0.0
  0
ARC
  5
7A13
  8
0
 10
82.202663485604475
 20
108.2805298560438
 30
0.0
 40
2.0
 50
0.0
 51
90.00000000000081
  0
ARC
  5
7A14
  8
0
 10
88.202663485604475
 20
92.280529856043856
 30
0.0
 40
4.0
 50
180.0
 51
270.0
  0
ENDBLK
  5
7A16
  8
0
  0
BLOCK
  8
0
  2
*D4
 70
     1
 10
0.0
 20
0.0
 30
0.0
  3
*D4
  1

  0
LINE
  5
80CC
  8
3
 62
     2
 10
2453.7762554624592
 20
2164.6797421827559
 30
0.0
 11
2453.7762554624592
 21
2580.4278103853931
 31
0.0
  0
LINE
  5
80CD
  8
3
 62
     2
 10
3308.7762554624592
 20
2404.3112346064622
 30
0.0
 11
3308.7762554624592
 21
2580.4278103853931
 31
0.0
  0
LINE
  5
80CE
  8
3
 62
     2
 10
2493.7762554624578
 20
2560.4278103853931
 30
0.0
 11
3268.7762554624592
 21
2560.4278103853931
 31
0.0
  0
INSERT
  5
80CF
  8
3
 62
     2
  2
ARROW
 10
2453.7762554624592
 20
2560.4278103853931
 30
0.0
 41
40.0
 42
40.0
 43
40.0
 50
180.0
  0
INSERT
  5
80D0
  8
3
 62
     2
  2
ARROW
 10
3308.7762554624592
 20
2560.4278103853931
 30
0.0
 41
40.0
 42
40.0
 43
40.0
  0
TEXT
  8
3
  40
50
  5
81D0
  62
2
  72
0
  71
0
 10
2781.28
 20
2526.93
 30
0.000000
  1
855
  0
POINT
  5
80D2
  8
DEFPOINTS
 62
     0
 10
2453.7762554624592
 20
2144.6797421827559
 30
0.0
  0
POINT
  5
80D3
  8
DEFPOINTS
 62
     0
 10
3308.7762554624592
 20
2384.3112346064622
 30
0.0
  0
POINT
  5
80D4
  8
DEFPOINTS
 62
     0
 10
3308.7762554624592
 20
2560.4278103853931
 30
0.0
  0
ENDBLK
  5
7F8B
  8
0
  0
BLOCK
  8
0
  2
*D5
 70
     1
 10
0.0
 20
0.0
 30
0.0
  3
*D5
  1

  0
LINE
  5
80D5
  8
3
 62
     2
 10
2538.7762554624592
 20
1351.6797421827559
 30
0.0
 11
2538.7762554624592
 21
1162.7752338568939
 31
0.0
  0
LINE
  5
80D6
  8
3
 62
     2
 10
3308.7762554624592
 20
1323.201855650276
 30
0.0
 11
3308.7762554624592
 21
1162.7752338568939
 31
0.0
  0
LINE
  5
80D7
  8
3
 62
     2
 10
2578.7762554624592
 20
1182.7752338568939
 30
0.0
 11
3268.7762554624592
 21
1182.7752338568939
 31
0.0
  0
INSERT
  5
80D8
  8
3
 62
     2
  2
ARROW
 10
2538.7762554624592
 20
1182.7752338568939
 30
0.0
 41
40.0
 42
40.0
 43
40.0
 50
180.0
  0
INSERT
  5
80D9
  8
3
 62
     2
  2
ARROW
 10
3308.7762554624592
 20
1182.7752338568939
 30
0.0
 41
40.0
 42
40.0
 43
40.0
  0
TEXT
  8
3
  40
50
  5
81D1
  62
2
  72
0
  71
0
 10
2823.78
 20
1149.28
 30
0.000000
  1
770
  0
POINT
  5
80DB
  8
DEFPOINTS
 62
     0
 10
2538.7762554624592
 20
1371.6797421827559
 30
0.0
  0
POINT
  5
80DC
  8
DEFPOINTS
 62
     0
 10
3308.7762554624592
 20
1343.201855650276
 30
0.0
  0
POINT
  5
80DD
  8
DEFPOINTS
 62
     0
 10
3308.7762554624592
 20
1182.7752338568939
 30
0.0
  0
ENDBLK
  5
7F96
  8
0
  0
BLOCK
  8
0
  2
*D6
 70
     1
 10
0.0
 20
0.0
 30
0.0
  3
*D6
  1

  0
LINE
  5
80DE
  8
3
 62
     2
 10
1422.5902873486259
 20
2374.6797421827569
 30
0.0
 11
1422.5902873486259
 21
2462.3586998725432
 31
0.0
  0
LINE
  5
80DF
  8
3
 62
     2
 10
910.59028734862659
 20
2374.6797421827569
 30
0.0
 11
910.59028734862659
 21
2462.3586998725432
 31
0.0
  0
LINE
  5
80E0
  8
3
 62
     2
 10
1382.5902873486259
 20
2442.3586998725432
 30
0.0
 11
950.59028734862648
 21
2442.3586998725432
 31
0.0
  0
INSERT
  5
80E1
  8
3
 62
     2
  2
ARROW
 10
1422.5902873486259
 20
2442.3586998725432
 30
0.0
 41
40.0
 42
40.0
 43
40.0
  0
INSERT
  5
80E2
  8
3
 62
     2
  2
ARROW
 10
910.59028734862659
 20
2442.3586998725432
 30
0.0
 41
40.0
 42
40.0
 43
40.0
 50
180.0
  0
TEXT
  8
3
  40
50
  5
81D2
  62
2
  72
0
  71
0
 10
1066.59
 20
2408.86
 30
0.000000
  1
512
  0
POINT
  5
80E4
  8
DEFPOINTS
 62
     0
 10
1422.5902873486259
 20
2354.6797421827569
 30
0.0
  0
POINT
  5
80E5
  8
DEFPOINTS
 62
     0
 10
910.59028734862659
 20
2354.6797421827569
 30
0.0
  0
POINT
  5
80E6
  8
DEFPOINTS
 62
     0
 10
910.59028734862659
 20
2442.3586998725432
 30
0.0
  0
ENDBLK
  5
7FA1
  8
0
  0
BLOCK
  8
0
  2
*D7
 70
     1
 10
0.0
 20
0.0
 30
0.0
  3
*D7
  1

  0
LINE
  5
80E7
  8
3
 62
     2
 10
910.59028734862659
 20
2374.6797421827569
 30
0.0
 11
910.59028734862659
 21
2568.5162160607319
 31
0.0
  0
LINE
  5
80E8
  8
3
 62
     2
 10
1448.5902873486259
 20
2402.5822650888399
 30
0.0
 11
1448.5902873486259
 21
2568.5162160607319
 31
0.0
  0
LINE
  5
80E9
  8
3
 62
     2
 10
950.59028734862648
 20
2548.5162160607319
 30
0.0
 11
1408.5902873486259
 21
2548.5162160607319
 31
0.0
  0
INSERT
  5
80EA
  8
3
 62
     2
  2
ARROW
 10
910.59028734862659
 20
2548.5162160607319
 30
0.0
 41
40.0
 42
40.0
 43
40.0
 50
180.0
  0
INSERT
  5
80EB
  8
3
 62
     2
  2
ARROW
 10
1448.5902873486259
 20
2548.5162160607319
 30
0.0
 41
40.0
 42
40.0
 43
40.0
  0
TEXT
  8
3
  40
50
  5
81D3
  62
2
  72
0
  71
0
 10
1079.59
 20
2515.02
 30
0.000000
  1
538
  0
POINT
  5
80ED
  8
DEFPOINTS
 62
     0
 10
910.59028734862659
 20
2354.6797421827569
 30
0.0
  0
POINT
  5
80EE
  8
DEFPOINTS
 62
     0
 10
1448.5902873486259
 20
2382.582265088839
 30
0.0
  0
POINT
  5
80EF
  8
DEFPOINTS
 62
     0
 10
1448.5902873486259
 20
2548.5162160607319
 30
0.0
  0
ENDBLK
  5
7FAC
  8
0
  0
BLOCK
  8
0
  2
*D8
 70
     1
 10
0.0
 20
0.0
 30
0.0
  3
*D8
  1

  0
LINE
  5
80F0
  8
3
 62
     2
 10
1809.638278156486
 20
1977.6797421827571
 30
0.0
 11
1809.638278156486
 21
2568.5162160607319
 31
0.0
  0
LINE
  5
80F1
  8
3
 62
     2
 10
1488.5902873486259
 20
2548.5162160607319
 30
0.0
 11
1769.6382781564871
 21
2548.5162160607319
 31
0.0
  0
INSERT
  5
80F2
  8
3
 62
     2
  2
ARROW
 10
1448.5902873486259
 20
2548.5162160607319
 30
0.0
 41
40.0
 42
40.0
 43
40.0
 50
180.0
  0
INSERT
  5
80F3
  8
3
 62
     2
  2
ARROW
 10
1809.638278156486
 20
2548.5162160607319
 30
0.0
 41
40.0
 42
40.0
 43
40.0
  0
TEXT
  8
3
  40
50
  5
81D4
  62
2
  72
0
  71
0
 10
1529.11
 20
2515.02
 30
0.000000
  1
361
  0
POINT
  5
80F5
  8
DEFPOINTS
 62
     0
 10
1448.5902873486259
 20
2382.582265088839
 30
0.0
  0
POINT
  5
80F6
  8
DEFPOINTS
 62
     0
 10
1809.638278156486
 20
1957.6797421827559
 30
0.0
  0
POINT
  5
80F7
  8
DEFPOINTS
 62
     0
 10
1809.638278156486
 20
2548.5162160607319
 30
0.0
  0
ENDBLK
  5
7FB6
  8
0
  0
BLOCK
  8
0
  2
*D9
 70
     1
 10
0.0
 20
0.0
 30
0.0
  3
*D9
  1

  0
LINE
  5
80F8
  8
3
 62
     2
 10
618.59028734862704
 20
1351.6797421827559
 30
0.0
 11
618.59028734862704
 21
1163.1008552622229
 31
0.0
  0
LINE
  5
80F9
  8
3
 62
     2
 10
1408.5902873486259
 20
1183.1008552622229
 30
0.0
 11
658.59028734862704
 21
1183.1008552622229
 31
0.0
  0
INSERT
  5
80FA
  8
3
 62
     2
  2
ARROW
 10
1448.5902873486259
 20
1183.1008552622229
 30
0.0
 41
40.0
 42
40.0
 43
40.0
  0
INSERT
  5
80FB
  8
3
 62
     2
  2
ARROW
 10
618.59028734862704
 20
1183.1008552622229
 30
0.0
 41
40.0
 42
40.0
 43
40.0
 50
180.0
  0
TEXT
  8
3
  40
50
  5
81D5
  62
2
  72
0
  71
0
 10
933.590
 20
1149.60
 30
0.000000
  1
830
  0
POINT
  5
80FD
  8
DEFPOINTS
 62
     0
 10
1448.5902873486259
 20
1343.201855650276
 30
0.0
  0
POINT
  5
80FE
  8
DEFPOINTS
 62
     0
 10
618.59028734862704
 20
1371.6797421827559
 30
0.0
  0
POINT
  5
80FF
  8
DEFPOINTS
 62
     0
 10
618.59028734862704
 20
1183.1008552622229
 30
0.0
  0
ENDBLK
  5
7FCB
  8
0
  0
BLOCK
  8
0
  2
*D10
 70
     1
 10
0.0
 20
0.0
 30
0.0
  3
*D10
  1

  0
LINE
  5
8100
  8
3
 62
     2
 10
1718.5902873486259
 20
1446.6797421827559
 30
0.0
 11
2017.405541058582
 21
1446.6797421827559
 31
0.0
  0
LINE
  5
8101
  8
3
 62
     2
 10
1718.5902873486259
 20
1371.6797421827559
 30
0.0
 11
2017.405541058582
 21
1371.6797421827559
 31
0.0
  0
LINE
  5
8102
  8
3
 62
     2
 10
1997.4055410585829
 20
1486.6797421827559
 30
0.0
 11
1997.4055410585829
 21
1526.6797421827559
 31
0.0
  0
LINE
  5
8103
  8
3
 62
     2
 10
1997.4055410585829
 20
1331.6797421827571
 30
0.0
 11
1997.4055410585829
 21
1150.727361230375
 31
0.0
  0
LINE
  5
8104
  8
3
 62
     2
 10
1997.4055410585829
 20
1446.6797421827559
 30
0.0
 11
1997.4055410585829
 21
1371.6797421827559
 31
0.0
  0
INSERT
  5
8105
  8
3
 62
     2
  2
YA_N
 10
1997.4055410585829
 20
1446.6797421827559
 30
0.0
 41
40.0
 42
40.0
 43
40.0
 50
270.0
  0
INSERT
  5
8106
  8
3
 62
     2
  2
_OPEN
 10
1997.4055410585829
 20
1371.6797421827559
 30
0.0
 41
40.0
 42
40.0
 43
40.0
 50
90.0
  0
TEXT
  8
3
  40
50
  5
81D6
  62
2
  72
0
  71
0
 10
1842.41
 20
1132.70
 30
0.000000
  1
75
  0
POINT
  5
8108
  8
DEFPOINTS
 62
     0
 10
1698.5902873486259
 20
1446.6797421827559
 30
0.0
  0
POINT
  5
8109
  8
DEFPOINTS
 62
     0
 10
1698.5902873486259
 20
1371.6797421827559
 30
0.0
  0
POINT
  5
810A
  8
DEFPOINTS
 62
     0
 10
1997.4055410585829
 20
1371.6797421827559
 30
0.0
  0
ENDBLK
  5
7FD8
  8
0
  0
BLOCK
  8
0
  2
*D11
 70
     1
 10
0.0
 20
0.0
 30
0.0
  3
*D11
  1

  0
LINE
  5
810B
  8
3
 62
     2
 10
1698.5902873486259
 20
1351.6797421827559
 30
0.0
 11
1698.5902873486259
 21
1163.1008552622229
 31
0.0
  0
LINE
  5
810C
  8
3
 62
     2
 10
1448.5902873486259
 20
1323.201855650276
 30
0.0
 11
1448.5902873486259
 21
1163.1008552622229
 31
0.0
  0
LINE
  5
810D
  8
3
 62
     2
 10
1658.5902873486259
 20
1183.1008552622229
 30
0.0
 11
1488.5902873486259
 21
1183.1008552622229
 31
0.0
  0
INSERT
  5
810E
  8
3
 62
     2
  2
ARROW
 10
1698.5902873486259
 20
1183.1008552622229
 30
0.0
 41
40.0
 42
40.0
 43
40.0
  0
INSERT
  5
810F
  8
3
 62
     2
  2
ARROW
 10
1448.5902873486259
 20
1183.1008552622229
 30
0.0
 41
40.0
 42
40.0
 43
40.0
 50
180.0
  0
TEXT
  8
3
  40
50
  5
81D7
  62
2
  72
0
  71
0
 10
1473.59
 20
1149.60
 30
0.000000
  1
250
  0
POINT
  5
8111
  8
DEFPOINTS
 62
     0
 10
1698.5902873486259
 20
1371.6797421827559
 30
0.0
  0
POINT
  5
8112
  8
DEFPOINTS
 62
     0
 10
1448.5902873486259
 20
1343.201855650276
 30
0.0
  0
POINT
  5
8113
  8
DEFPOINTS
 62
     0
 10
1448.5902873486259
 20
1183.1008552622229
 30
0.0
  0
ENDBLK
  5
7FE5
  8
0
  0
BLOCK
  8
0
  2
*D12
 70
     1
 10
0.0
 20
0.0
 30
0.0
  3
*D12
  1

  0
LINE
  5
8114
  8
3
 62
     2
 10
1718.5902873486259
 20
1484.6797421827559
 30
0.0
 11
2017.405541058582
 21
1484.6797421827559
 31
0.0
  0
LINE
  5
8115
  8
3
 62
     2
 10
1997.4055410585829
 20
1954.6797421827559
 30
0.0
 11
1997.4055410585829
 21
1524.6797421827559
 31
0.0
  0
INSERT
  5
8116
  8
3
 62
     2
  2
ARROW
 10
1997.4055410585829
 20
1994.6797421827559
 30
0.0
 41
40.0
 42
40.0
 43
40.0
 50
90.0
  0
INSERT
  5
8117
  8
3
 62
     2
  2
ARROW
 10
1997.4055410585829
 20
1484.6797421827559
 30
0.0
 41
40.0
 42
40.0
 43
40.0
 50
270.0
  0
TEXT
  8
3
  40
50
  5
81D8
  62
2
  72
0
  71
0
 10
1842.41
 20
1651.18
 30
0.000000
  1
510
  0
POINT
  5
8119
  8
DEFPOINTS
 62
     0
 10
1891.736780664871
 20
1994.6797421827559
 30
0.0
  0
POINT
  5
811A
  8
DEFPOINTS
 62
     0
 10
1698.5902873486259
 20
1484.6797421827559
 30
0.0
  0
POINT
  5
811B
  8
DEFPOINTS
 62
     0
 10
1997.4055410585829
 20
1484.6797421827559
 30
0.0
  0
ENDBLK
  5
7FEF
  8
0
  0
BLOCK
  8
0
  2
*D13
 70
     1
 10
0.0
 20
0.0
 30
0.0
  3
*D13
  1

  0
LINE
  5
811C
  8
3
 62
     2
 10
1718.5902873486259
 20
1446.6797421827559
 30
0.0
 11
2017.405541058582
 21
1446.6797421827559
 31
0.0
  0
LINE
  5
811D
  8
3
 62
     2
 10
1997.4055410585829
 20
1524.6797421827559
 30
0.0
 11
1997.4055410585829
 21
1564.6797421827559
 31
0.0
  0
LINE
  5
811E
  8
3
 62
     2
 10
1997.4055410585829
 20
1406.6797421827571
 30
0.0
 11
1997.4055410585829
 21
1366.6797421827571
 31
0.0
  0
LINE
  5
811F
  8
3
 62
     2
 10
1997.4055410585829
 20
1465.6797421827559
 30
0.0
 11
2176.6912553442971
 21
1519.4654564684711
 31
0.0
  0
LINE
  5
8120
  8
3
 62
     2
 10
2176.6912553442971
 20
1519.4654564684711
 30
0.0
 11
2176.6912553442971
 21
1724.703551706566
 31
0.0
  0
TEXT
  8
3
  40
50
  5
81D9
  62
2
  72
0
  71
0
 10
2008.60
 20
1533.58
 30
0.000000
  1
(38)
  0
LINE
  5
8122
  8
3
 62
     2
 10
1997.4055410585829
 20
1484.6797421827559
 30
0.0
 11
1997.4055410585829
 21
1446.6797421827559
 31
0.0
  0
LINE
  5
8123
  8
3
 62
     2
 10
1997.4055410585829
 20
1484.6797421827559
 30
0.0
 11
1997.4055410585829
 21
1446.6797421827559
 31
0.0
  0
INSERT
  5
8124
  8
3
 62
     2
  2
_OPEN
 10
1997.4055410585829
 20
1484.6797421827559
 30
0.0
 41
40.0
 42
40.0
 43
40.0
 50
270.0
  0
INSERT
  5
8125
  8
3
 62
     2
  2
YA_N
 10
1997.4055410585829
 20
1446.6797421827559
 30
0.0
 41
40.0
 42
40.0
 43
40.0
 50
90.0
  0
POINT
  5
8126
  8
DEFPOINTS
 62
     0
 10
1698.5902873486259
 20
1484.6797421827559
 30
0.0
  0
POINT
  5
8127
  8
DEFPOINTS
 62
     0
 10
1698.5902873486259
 20
1446.6797421827559
 30
0.0
  0
POINT
  5
8128
  8
DEFPOINTS
 62
     0
 10
1997.4055410585829
 20
1446.6797421827559
 30
0.0
  0
ENDBLK
  5
7FFD
  8
0
  0
BLOCK
  8
0
  2
*D14
 70
     1
 10
0.0
 20
0.0
 30
0.0
  3
*D14
  1

  0
LINE
  5
8129
  8
3
 62
     2
 10
1469.190287348626
 20
2354.6797421827569
 30
0.0
 11
2017.405541058582
 21
2354.6797421827569
 31
0.0
  0
LINE
  5
812A
  8
3
 62
     2
 10
1911.7367806648699
 20
1994.6797421827559
 30
0.0
 11
2017.405541058582
 21
1994.6797421827559
 31
0.0
  0
LINE
  5
812B
  8
3
 62
     2
 10
1997.4055410585829
 20
2314.6797421827569
 30
0.0
 11
1997.4055410585829
 21
2034.6797421827571
 31
0.0
  0
INSERT
  5
812C
  8
3
 62
     2
  2
ARROW
 10
1997.4055410585829
 20
2354.6797421827569
 30
0.0
 41
40.0
 42
40.0
 43
40.0
 50
90.0
  0
INSERT
  5
812D
  8
3
 62
     2
  2
ARROW
 10
1997.4055410585829
 20
1994.6797421827559
 30
0.0
 41
40.0
 42
40.0
 43
40.0
 50
270.0
  0
TEXT
  8
3
  40
50
  5
81DA
  62
2
  72
0
  71
0
 10
1842.41
 20
2086.18
 30
0.000000
  1
360
  0
POINT
  5
812F
  8
DEFPOINTS
 62
     0
 10
1449.190287348626
 20
2354.6797421827569
 30
0.0
  0
POINT
  5
8130
  8
DEFPOINTS
 62
     0
 10
1891.736780664871
 20
1994.6797421827559
 30
0.0
  0
POINT
  5
8131
  8
DEFPOINTS
 62
     0
 10
1997.4055410585829
 20
1994.6797421827559
 30
0.0
  0
ENDBLK
  5
8008
  8
0
  0
BLOCK
  8
0
  2
*D15
 70
     1
 10
0.0
 20
0.0
 30
0.0
  3
*D15
  1

  0
LINE
  5
8132
  8
3
 62
     2
 10
618.59028734862704
 20
3906.1541628245909
 30
0.0
 11
618.59028734862704
 21
4489.4389140303074
 31
0.0
  0
LINE
  5
8133
  8
3
 62
     2
 10
1158.5902873486259
 20
4469.4389140303056
 30
0.0
 11
658.59028734862704
 21
4469.4389140303056
 31
0.0
  0
INSERT
  5
8134
  8
3
 62
     2
  2
ARROW
 10
1198.5902873486259
 20
4469.4389140303056
 30
0.0
 41
40.0
 42
40.0
 43
40.0
  0
INSERT
  5
8135
  8
3
 62
     2
  2
ARROW
 10
618.59028734862704
 20
4469.4389140303056
 30
0.0
 41
40.0
 42
40.0
 43
40.0
 50
180.0
  0
TEXT
  8
3
  40
50
  5
81DB
  62
2
  72
0
  71
0
 10
808.590
 20
4435.94
 30
0.000000
  1
580
  0
POINT
  5
8137
  8
DEFPOINTS
 62
     0
 10
1198.5902873486259
 20
4326.1541628245923
 30
0.0
  0
POINT
  5
8138
  8
DEFPOINTS
 62
     0
 10
618.59028734862704
 20
3886.1541628245918
 30
0.0
  0
POINT
  5
8139
  8
DEFPOINTS
 62
     0
 10
618.59028734862704
 20
4469.4389140303056
 30
0.0
  0
ENDBLK
  5
8012
  8
0
  0
BLOCK
  8
0
  2
*D16
 70
     1
 10
0.0
 20
0.0
 30
0.0
  3
*D16
  1

  0
LINE
  5
813A
  8
3
 62
     2
 10
1698.5902873486259
 20
3306.1541628245918
 30
0.0
 11
1698.5902873486259
 21
2989.3359103246339
 31
0.0
  0
LINE
  5
813B
  8
3
 62
     2
 10
618.59028734862704
 20
3306.1541628245918
 30
0.0
 11
618.59028734862704
 21
2989.3359103246339
 31
0.0
  0
LINE
  5
813C
  8
3
 62
     2
 10
1658.5902873486259
 20
3009.3359103246339
 30
0.0
 11
658.59028734862704
 21
3009.3359103246339
 31
0.0
  0
INSERT
  5
813D
  8
3
 62
     2
  2
ARROW
 10
1698.5902873486259
 20
3009.3359103246339
 30
0.0
 41
40.0
 42
40.0
 43
40.0
  0
INSERT
  5
813E
  8
3
 62
     2
  2
ARROW
 10
618.59028734862704
 20
3009.3359103246339
 30
0.0
 41
40.0
 42
40.0
 43
40.0
 50
180.0
  0
TEXT
  8
3
  40
50
  5
81DC
  62
2
  72
0
  71
0
 10
1058.59
 20
2975.84
 30
0.000000
  1
1080
  0
POINT
  5
8140
  8
DEFPOINTS
 62
     0
 10
1698.5902873486259
 20
3326.1541628245918
 30
0.0
  0
POINT
  5
8141
  8
DEFPOINTS
 62
     0
 10
618.59028734862704
 20
3326.1541628245918
 30
0.0
  0
POINT
  5
8142
  8
DEFPOINTS
 62
     0
 10
618.59028734862704
 20
3009.3359103246339
 30
0.0
  0
ENDBLK
  5
801D
  8
0
  0
BLOCK
  8
0
  2
*D17
 70
     1
 10
0.0
 20
0.0
 30
0.0
  3
*D17
  1

  0
LINE
  5
8143
  8
3
 62
     2
 10
598.59028734862704
 20
3886.1541628245918
 30
0.0
 11
411.9557027898723
 21
3886.1541628245918
 31
0.0
  0
LINE
  5
8144
  8
3
 62
     2
 10
598.59028734862704
 20
3326.1541628245918
 30
0.0
 11
411.95570278987219
 21
3326.1541628245918
 31
0.0
  0
LINE
  5
8145
  8
3
 62
     2
 10
431.9557027898723
 20
3846.1541628245909
 30
0.0
 11
431.95570278987219
 21
3366.1541628245918
 31
0.0
  0
INSERT
  5
8146
  8
3
 62
     2
  2
ARROW
 10
431.9557027898723
 20
3886.1541628245918
 30
0.0
 41
40.0
 42
40.0
 43
40.0
 50
90.0
  0
INSERT
  5
8147
  8
3
 62
     2
  2
ARROW
 10
431.95570278987219
 20
3326.1541628245918
 30
0.0
 41
40.0
 42
40.0
 43
40.0
 50
270.0
  0
TEXT
  8
3
  40
50
  5
81DD
  62
2
  72
0
  71
0
 10
276.956
 20
3517.65
 30
0.000000
  1
560
  0
POINT
  5
8149
  8
DEFPOINTS
 62
     0
 10
618.59028734862704
 20
3886.1541628245918
 30
0.0
  0
POINT
  5
814A
  8
DEFPOINTS
 62
     0
 10
618.59028734862704
 20
3326.1541628245918
 30
0.0
  0
POINT
  5
814B
  8
DEFPOINTS
 62
     0
 10
431.95570278987219
 20
3326.1541628245918
 30
0.0
  0
ENDBLK
  5
8028
  8
0
  0
BLOCK
  8
0
  2
*D18
 70
     1
 10
0.0
 20
0.0
 30
0.0
  3
*D18
  1

  0
LINE
  5
814C
  8
3
 62
     2
 10
1718.5902873486259
 20
3326.1541628245918
 30
0.0
 11
2023.4080191371299
 21
3326.1541628245918
 31
0.0
  0
LINE
  5
814D
  8
3
 62
     2
 10
1718.5902873486259
 20
4326.1541628245923
 30
0.0
 11
2023.4080191371299
 21
4326.1541628245923
 31
0.0
  0
LINE
  5
814E
  8
3
 62
     2
 10
2003.4080191371299
 20
3366.1541628245918
 30
0.0
 11
2003.4080191371299
 21
4286.1541628245923
 31
0.0
  0
INSERT
  5
814F
  8
3
 62
     2
  2
ARROW
 10
2003.4080191371299
 20
3326.1541628245918
 30
0.0
 41
40.0
 42
40.0
 43
40.0
 50
270.0
  0
INSERT
  5
8150
  8
3
 62
     2
  2
ARROW
 10
2003.4080191371299
 20
4326.1541628245923
 30
0.0
 41
40.0
 42
40.0
 43
40.0
 50
90.0
  0
TEXT
  8
3
  40
50
  5
81DE
  62
2
  72
0
  71
0
 10
1848.41
 20
3737.65
 30
0.000000
  1
1000
  0
POINT
  5
8152
  8
DEFPOINTS
 62
     0
 10
1698.5902873486259
 20
3326.1541628245918
 30
0.0
  0
POINT
  5
8153
  8
DEFPOINTS
 62
     0
 10
1698.5902873486259
 20
4326.1541628245923
 30
0.0
  0
POINT
  5
8154
  8
DEFPOINTS
 62
     0
 10
2003.4080191371299
 20
4326.1541628245923
 30
0.0
  0
ENDBLK
  5
8033
  8
0
  0
BLOCK
  8
0
  2
*D19
 70
     1
 10
0.0
 20
0.0
 30
0.0
  3
*D19
  1

  0
LINE
  5
8155
  8
3
 62
     2
 10
1698.5902873486259
 20
4346.1541628245923
 30
0.0
 11
1698.5902873486259
 21
4489.4389140303074
 31
0.0
  0
LINE
  5
8156
  8
3
 62
     2
 10
1198.5902873486259
 20
4346.1541628245923
 30
0.0
 11
1198.5902873486259
 21
4489.4389140303074
 31
0.0
  0
LINE
  5
8157
  8
3
 62
     2
 10
1658.5902873486259
 20
4469.4389140303056
 30
0.0
 11
1238.5902873486259
 21
4469.4389140303056
 31
0.0
  0
INSERT
  5
8158
  8
3
 62
     2
  2
ARROW
 10
1698.5902873486259
 20
4469.4389140303056
 30
0.0
 41
40.0
 42
40.0
 43
40.0
  0
INSERT
  5
8159
  8
3
 62
     2
  2
ARROW
 10
1198.5902873486259
 20
4469.4389140303056
 30
0.0
 41
40.0
 42
40.0
 43
40.0
 50
180.0
  0
TEXT
  8
3
  40
50
  5
81DF
  62
2
  72
0
  71
0
 10
1348.59
 20
4435.94
 30
0.000000
  1
500
  0
POINT
  5
815B
  8
DEFPOINTS
 62
     0
 10
1698.5902873486259
 20
4326.1541628245923
 30
0.0
  0
POINT
  5
815C
  8
DEFPOINTS
 62
     0
 10
1198.5902873486259
 20
4326.1541628245923
 30
0.0
  0
POINT
  5
815D
  8
DEFPOINTS
 62
     0
 10
1198.5902873486259
 20
4469.4389140303056
 30
0.0
  0
ENDBLK
  5
803E
  8
0
  0
BLOCK
  8
0
  2
*D20
 70
     1
 10
0.0
 20
0.0
 30
0.0
  3
*D20
  1

  0
LINE
  5
815E
  8
3
 62
     2
 10
3308.7762554624592
 20
2404.3112346064622
 30
0.0
 11
3308.7762554624592
 21
2580.4278103853931
 31
0.0
  0
LINE
  5
815F
  8
3
 62
     2
 10
3500.7762554624592
 20
2289.6797421827569
 30
0.0
 11
3500.7762554624592
 21
2580.4278103853931
 31
0.0
  0
LINE
  5
8160
  8
3
 62
     2
 10
3348.7762554624592
 20
2560.4278103853931
 30
0.0
 11
3460.7762554624592
 21
2560.4278103853931
 31
0.0
  0
INSERT
  5
8161
  8
3
 62
     2
  2
ARROW
 10
3308.7762554624592
 20
2560.4278103853931
 30
0.0
 41
40.0
 42
40.0
 43
40.0
 50
180.0
  0
INSERT
  5
8162
  8
3
 62
     2
  2
ARROW
 10
3500.7762554624592
 20
2560.4278103853931
 30
0.0
 41
40.0
 42
40.0
 43
40.0
  0
TEXT
  8
3
  40
50
  5
81E0
  62
2
  72
0
  71
0
 10
3304.78
 20
2526.93
 30
0.000000
  1
192
  0
POINT
  5
8164
  8
DEFPOINTS
 62
     0
 10
3308.7762554624592
 20
2384.3112346064622
 30
0.0
  0
POINT
  5
8165
  8
DEFPOINTS
 62
     0
 10
3500.7762554624592
 20
2269.6797421827569
 30
0.0
  0
POINT
  5
8166
  8
DEFPOINTS
 62
     0
 10
3500.7762554624592
 20
2560.4278103853931
 30
0.0
  0
ENDBLK
  5
804B
  8
0
  0
BLOCK
  8
0
  2
*D21
 70
     1
 10
0.0
 20
0.0
 30
0.0
  3
*D21
  1

  0
LINE
  5
8167
  8
3
 62
     2
 10
3121.2762554624592
 20
2374.6797421827569
 30
0.0
 11
3121.2762554624592
 21
2464.1436902347282
 31
0.0
  0
LINE
  5
8168
  8
3
 62
     2
 10
3496.2762554624592
 20
2374.6797421827569
 30
0.0
 11
3496.2762554624592
 21
2464.1436902347282
 31
0.0
  0
LINE
  5
8169
  8
3
 62
     2
 10
3161.2762554624592
 20
2444.1436902347282
 30
0.0
 11
3456.2762554624592
 21
2444.1436902347282
 31
0.0
  0
INSERT
  5
816A
  8
3
 62
     2
  2
ARROW
 10
3121.2762554624592
 20
2444.1436902347282
 30
0.0
 41
40.0
 42
40.0
 43
40.0
 50
180.0
  0
INSERT
  5
816B
  8
3
 62
     2
  2
ARROW
 10
3496.2762554624592
 20
2444.1436902347282
 30
0.0
 41
40.0
 42
40.0
 43
40.0
  0
TEXT
  8
3
  40
50
  5
81E1
  62
2
  72
0
  71
0
 10
3208.78
 20
2410.64
 30
0.000000
  1
375
  0
POINT
  5
816D
  8
DEFPOINTS
 62
     0
 10
3121.2762554624592
 20
2354.6797421827559
 30
0.0
  0
POINT
  5
816E
  8
DEFPOINTS
 62
     0
 10
3496.2762554624592
 20
2354.6797421827559
 30
0.0
  0
POINT
  5
816F
  8
DEFPOINTS
 62
     0
 10
3496.2762554624592
 20
2444.1436902347282
 30
0.0
  0
ENDBLK
  5
8056
  8
0
  0
BLOCK
  8
0
  2
*D22
 70
     1
 10
0.0
 20
0.0
 30
0.0
  3
*D22
  1

  0
LINE
  5
8170
  8
3
 62
     2
 10
3308.7762554624592
 20
1323.201855650276
 30
0.0
 11
3308.7762554624592
 21
1162.7752338568939
 31
0.0
  0
LINE
  5
8171
  8
3
 62
     2
 10
3538.7762554624578
 20
1351.6797421827559
 30
0.0
 11
3538.7762554624578
 21
1162.7752338568939
 31
0.0
  0
LINE
  5
8172
  8
3
 62
     2
 10
3348.7762554624592
 20
1182.7752338568939
 30
0.0
 11
3498.7762554624592
 21
1182.7752338568939
 31
0.0
  0
INSERT
  5
8173
  8
3
 62
     2
  2
ARROW
 10
3308.7762554624592
 20
1182.7752338568939
 30
0.0
 41
40.0
 42
40.0
 43
40.0
 50
180.0
  0
INSERT
  5
8174
  8
3
 62
     2
  2
ARROW
 10
3538.7762554624578
 20
1182.7752338568939
 30
0.0
 41
40.0
 42
40.0
 43
40.0
  0
TEXT
  8
3
  40
50
  5
81E2
  62
2
  72
0
  71
0
 10
3323.78
 20
1149.28
 30
0.000000
  1
230
  0
POINT
  5
8176
  8
DEFPOINTS
 62
     0
 10
3308.7762554624592
 20
1343.201855650276
 30
0.0
  0
POINT
  5
8177
  8
DEFPOINTS
 62
     0
 10
3538.7762554624578
 20
1371.6797421827559
 30
0.0
  0
POINT
  5
8178
  8
DEFPOINTS
 62
     0
 10
3538.7762554624578
 20
1182.7752338568939
 30
0.0
  0
ENDBLK
  5
8063
  8
0
  0
BLOCK
  8
0
  2
*D23
 70
     1
 10
0.0
 20
0.0
 30
0.0
  3
*D23
  1

  0
LINE
  5
81A1
  8
3
 62
     2
 10
3544.7762554624592
 20
2244.6797421827569
 30
0.0
 11
3734.5503481469082
 21
2244.6797421827569
 31
0.0
  0
LINE
  5
81A2
  8
3
 62
     2
 10
3544.7762554624592
 20
1744.6797421827559
 30
0.0
 11
3734.5503481469082
 21
1744.6797421827559
 31
0.0
  0
LINE
  5
81A3
  8
3
 62
     2
 10
3714.5503481469082
 20
2204.6797421827569
 30
0.0
 11
3714.5503481469082
 21
1784.6797421827559
 31
0.0
  0
INSERT
  5
81A4
  8
3
 62
     2
  2
ARROW
 10
3714.5503481469082
 20
2244.6797421827569
 30
0.0
 41
40.0
 42
40.0
 43
40.0
 50
90.0
  0
INSERT
  5
81A5
  8
3
 62
     2
  2
ARROW
 10
3714.5503481469082
 20
1744.6797421827559
 30
0.0
 41
40.0
 42
40.0
 43
40.0
 50
270.0
  0
TEXT
  8
3
  40
50
  5
81E3
  62
2
  72
0
  71
0
 10
3559.55
 20
1906.18
 30
0.000000
  1
φ500
  0
POINT
  5
81A7
  8
DEFPOINTS
 62
     0
 10
3524.7762554624592
 20
2244.6797421827569
 30
0.0
  0
POINT
  5
81A8
  8
DEFPOINTS
 62
     0
 10
3524.7762554624592
 20
1744.6797421827559
 30
0.0
  0
POINT
  5
81A9
  8
DEFPOINTS
 62
     0
 10
3714.5503481469082
 20
1744.6797421827559
 30
0.0
  0
ENDBLK
  5
806E
  8
0
  0
BLOCK
  8
0
  2
*D24
 70
     1
 10
0.0
 20
0.0
 30
0.0
  3
*D24
  1

  0
LINE
  5
81BE
  8
3
 62
     0
 10
1450.1625825441461
 20
2354.6797421827569
 30
0.0
 11
2242.5714744305801
 21
2354.6797421827569
 31
0.0
  0
LINE
  5
81BF
  8
3
 62
     0
 10
1708.5902873486259
 20
1371.6797421827559
 30
0.0
 11
2242.5714744305801
 21
1371.6797421827559
 31
0.0
  0
LINE
  5
81C0
  8
3
 62
     0
 10
2222.5714744305801
 20
2314.6797421827569
 30
0.0
 11
2222.5714744305801
 21
1411.6797421827559
 31
0.0
  0
INSERT
  5
81C1
  8
3
 62
     0
  2
_OPEN
 10
2222.5714744305801
 20
2354.6797421827569
 30
0.0
 41
40.0
 42
40.0
 43
40.0
 50
90.0
  0
INSERT
  5
81C2
  8
3
 62
     0
  2
_OPEN
 10
2222.5714744305801
 20
1371.6797421827559
 30
0.0
 41
40.0
 42
40.0
 43
40.0
 50
270.0
  0
TEXT
  8
3
  40
60
  5
81E4
  62
0
  72
0
  71
0
 10
2052.57
 20
1756.98
 30
0.000000
  1
983
  0
POINT
  5
81C4
  8
DEFPOINTS
 62
     0
 10
1440.1625825441461
 20
2354.6797421827569
 30
0.0
  0
POINT
  5
81C5
  8
DEFPOINTS
 62
     0
 10
1698.5902873486259
 20
1371.6797421827559
 30
0.0
  0
POINT
  5
81C6
  8
DEFPOINTS
 62
     0
 10
2222.5714744305801
 20
1371.6797421827559
 30
0.0
  0
ENDBLK
  5
809F
  8
0
  0
BLOCK
  8
0
  2
*D25
 70
     1
 10
0.0
 20
0.0
 30
0.0
  3
*D25
  1

  0
LINE
  5
81C7
  8
3
 62
     0
 10
1809.638278156486
 20
1987.6797421827571
 30
0.0
 11
1809.638278156486
 21
2678.1707206863612
 31
0.0
  0
LINE
  5
81C8
  8
3
 62
     0
 10
618.59028734862704
 20
1569.6797421827559
 30
0.0
 11
618.59028734862704
 21
2678.1707206863612
 31
0.0
  0
LINE
  5
81C9
  8
3
 62
     0
 10
1769.6382781564871
 20
2658.1707206863612
 30
0.0
 11
658.59028734862704
 21
2658.1707206863612
 31
0.0
  0
INSERT
  5
81CA
  8
3
 62
     0
  2
_OPEN
 10
1809.638278156486
 20
2658.1707206863612
 30
0.0
 41
40.0
 42
40.0
 43
40.0
  0
INSERT
  5
81CB
  8
3
 62
     0
  2
_OPEN
 10
618.59028734862704
 20
2658.1707206863612
 30
0.0
 41
40.0
 42
40.0
 43
40.0
 50
180.0
  0
TEXT
  8
3
  40
60
  5
81E5
  62
0
  72
0
  71
0
 10
1094.11
 20
2601.97
 30
0.000000
  1
1191
  0
POINT
  5
81CD
  8
DEFPOINTS
 62
     0
 10
1809.638278156486
 20
1977.6797421827571
 30
0.0
  0
POINT
  5
81CE
  8
DEFPOINTS
 62
     0
 10
618.59028734862704
 20
1559.6797421827571
 30
0.0
  0
POINT
  5
81CF
  8
DEFPOINTS
 62
     0
 10
618.59028734862704
 20
2658.1707206863612
 30
0.0
  0
ENDBLK
  5
80AC
  8
0
  0
ENDSEC
  0
SECTION
  2
ENTITIES
  0
DIMENSION
  5
7CD2
  8
3
  2
*D4
 10
3308.7762554624592
 20
2560.4278103853931
 30
0.0
 11
2881.2762554624578
 21
2615.4278103853931
 31
0.0
 70
     0
 13
2453.7762554624592
 23
2144.6797421827559
 33
0.0
 14
3308.7762554624592
 24
2384.3112346064622
 34
0.0
1001
ACAD
1000
DSTYLE
1002
{
1070
   287
1070
     3
1070
    40
1040
20.0
1070
   147
1040
1.5
1070
   173
1070
     1
1070
   272
1070
     4
1070
   279
1070
     0
1070
   284
1070
     0
1070
   285
1070
     0
1070
   286
1070
     0
1070
     6
1000
ARROW
1070
     7
1000
ARROW
1002
}
  0
LINE
  5
7CD3
  8
1
 10
2453.7762554624592
 20
1591.679442182756
 30
0.0
 11
2575.7762554624592
 21
1591.679442182756
 31
0.0
  0
LINE
  5
7CD4
  8
1
 10
2453.7762554624592
 20
2144.6797421827559
 30
0.0
 11
2575.7762554624592
 21
2144.6797421827559
 31
0.0
  0
DIMENSION
  5
7CD5
  8
3
  2
*D5
 10
3308.7762554624592
 20
1182.7752338568939
 30
0.0
 11
2923.7762554624592
 21
1237.7752338568939
 31
0.0
 70
     0
 13
2538.7762554624592
 23
1371.6797421827559
 33
0.0
 14
3308.7762554624592
 24
1343.201855650276
 34
0.0
1001
ACAD
1000
DSTYLE
1002
{
1070
   287
1070
     3
1070
    40
1040
20.0
1070
   147
1040
1.5
1070
   173
1070
     1
1070
   272
1070
     4
1070
   279
1070
     0
1070
   284
1070
     0
1070
   285
1070
     0
1070
   286
1070
     0
1070
     6
1000
ARROW
1070
     7
1000
ARROW
1002
}
  0
LINE
  5
7CD6
  8
1
 10
2533.7762554624592
 20
1972.1797421827571
 30
0.0
 11
2600.6478381005631
 21
1972.1797421827571
 31
0.0
  0
LINE
  5
7CD7
  8
1
 10
2533.7762554624592
 20
2017.1797421827571
 30
0.0
 11
2602.3762554624591
 21
2017.1797421827571
 31
0.0
  0
LINE
  5
7CD8
  8
2
 10
2480.186255462459
 20
1741.679442182756
 30
0.0
 11
2870.3020554624582
 21
1741.679442182756
 31
0.0
  0
LINE
  5
7CD9
  8
1
 10
2575.7762554624592
 20
1642.6797421827559
 30
0.0
 11
2561.7762554624578
 21
1642.6797421827559
 31
0.0
  0
LINE
  5
7CDA
  8
1
 10
2559.7762554624592
 20
1862.679442182756
 30
0.0
 11
2575.7762554624592
 21
1862.679442182756
 31
0.0
  0
LINE
  5
7CDB
  8
1
 10
2538.7762554624592
 20
1446.6797421827559
 30
0.0
 11
3538.7762554624592
 21
1446.6797421827559
 31
0.0
  0
LINE
  5
7CDC
  8
1
 10
2538.7762554624592
 20
1371.6797421827559
 30
0.0
 11
3538.7762554624592
 21
1371.6797421827559
 31
0.0
  0
LINE
  5
7CDD
  8
2
 10
2526.7771989362609
 20
1994.6797421827559
 30
0.0
 11
3582.4103512588322
 21
1994.6797421827559
 31
0.0
  0
LINE
  5
7CDE
  8
1
 10
2568.7762554624592
 20
1931.479742182757
 30
0.0
 11
3053.7762554624592
 21
1931.479742182757
 31
0.0
  0
LINE
  5
7CDF
  8
1
 10
2538.7762554624592
 20
1484.6797421827559
 30
0.0
 11
3538.7762554624592
 21
1484.6797421827559
 31
0.0
  0
LINE
  5
7CE0
  8
1
 10
2538.7762554624592
 20
1559.6797421827571
 30
0.0
 11
3538.7762554624592
 21
1559.6797421827571
 31
0.0
  0
LINE
  5
7CE1
  8
1
 10
2568.7762554624592
 20
1934.6797421827571
 30
0.0
 11
3053.7762554624592
 21
1934.6797421827571
 31
0.0
  0
DIMENSION
  5
7CE2
  8
3
  2
*D6
 10
910.59028734862659
 20
2442.3586998725432
 30
0.0
 11
1166.5902873486259
 21
2497.3586998725441
 31
0.0
 70
     0
 13
1422.5902873486259
 23
2354.6797421827569
 33
0.0
 14
910.59028734862659
 24
2354.6797421827569
 34
0.0
1001
ACAD
1000
DSTYLE
1002
{
1070
   287
1070
     3
1070
    40
1040
20.0
1070
   147
1040
1.5
1070
   173
1070
     1
1070
   272
1070
     4
1070
   279
1070
     0
1070
   284
1070
     0
1070
   285
1070
     0
1070
   286
1070
     0
1070
     6
1000
ARROW
1070
     7
1000
ARROW
1002
}
  0
DIMENSION
  5
7CE3
  8
3
  2
*D7
 10
1448.5902873486259
 20
2548.5162160607319
 30
0.0
 11
1179.5902873486259
 21
2603.5162160607319
 31
0.0
 70
     0
 13
910.59028734862659
 23
2354.6797421827569
 33
0.0
 14
1448.5902873486259
 24
2382.582265088839
 34
0.0
1001
ACAD
1000
DSTYLE
1002
{
1070
   287
1070
     3
1070
    40
1040
20.0
1070
   147
1040
1.5
1070
   173
1070
     1
1070
   272
1070
     4
1070
   279
1070
     0
1070
   284
1070
     0
1070
   285
1070
     0
1070
   286
1070
     0
1070
     6
1000
ARROW
1070
     7
1000
ARROW
1002
}
  0
DIMENSION
  5
7CE4
  8
3
  2
*D8
 10
1809.638278156486
 20
2548.5162160607319
 30
0.0
 11
1629.1142827525559
 21
2603.5162160607319
 31
0.0
 70
     0
 13
1448.5902873486259
 23
2382.582265088839
 33
0.0
 14
1809.638278156486
 24
1957.6797421827559
 34
0.0
1001
ACAD
1000
DSTYLE
1002
{
1070
   287
1070
     4
1070
    40
1040
20.0
1070
    75
1070
     1
1070
   147
1040
1.5
1070
   173
1070
     1
1070
   272
1070
     4
1070
   279
1070
     1
1070
   284
1070
     0
1070
   285
1070
     0
1070
   286
1070
     0
1070
     6
1000
ARROW
1070
     7
1000
ARROW
1002
}
  0
LINE
  5
7CE6
  8
1
 10
910.59028734862659
 20
2354.6797421827569
 30
0.0
 11
1422.590287348625
 21
2354.6797421827569
 31
0.0
  0
LINE
  5
7CE7
  8
1
 10
1432.5902873486259
 20
2354.6797421827569
 30
0.0
 11
900.55789382798139
 21
2354.6797421827569
 31
0.0
  0
LINE
  5
7CE8
  8
1
 10
1440.1625825441461
 20
2354.6797421827569
 30
0.0
 11
891.85224181378396
 21
2354.6797421827569
 31
0.0
  0
LINE
  5
7CE9
  8
1
 10
889.44388633567041
 20
2351.6797421827569
 30
0.0
 11
1441.8623794221569
 21
2351.6797421827569
 31
0.0
  0
LINE
  5
7CEA
  8
1
 10
902.57178271687098
 20
2329.6797421827569
 30
0.0
 11
1425.190287348626
 21
2329.6797421827569
 31
0.0
  0
LINE
  5
7CEB
  8
1
 10
1226.5902873486291
 20
1875.4797421827559
 30
0.0
 11
954.07141362191658
 21
1875.4797421827559
 31
0.0
  0
LINE
  5
7CEC
  8
1
 10
1226.5902873486291
 20
1881.4797421827559
 30
0.0
 11
952.06670817541669
 21
1881.4797421827559
 31
0.0
  0
ARC
  5
7CED
  8
1
 10
1411.5902873486259
 20
2031.6797421827571
 30
0.0
 40
483.44799080786061
 50
184.4835223328557
 51
245.17170113006981
  0
ARC
  5
7CEE
  8
1
 10
1411.5902873486259
 20
2031.6797421827571
 30
0.0
 40
473.44799080786078
 50
184.48224037042479
 51
270.0
  0
LINE
  5
7CEF
  8
1
 10
1472.072542721133
 20
1935.6811516689111
 30
0.0
 11
806.76899379563554
 21
1670.8811335661419
 31
0.0
  0
LINE
  5
7CF0
  8
1
 10
1501.5800618161329
 20
1854.3512568282749
 30
0.0
 11
831.58006181613325
 21
1601.350956828275
 31
0.0
  0
DIMENSION
  5
7CF1
  8
3
  2
*D9
 10
618.59028734862704
 20
1183.1008552622229
 30
0.0
 11
1033.5902873486259
 21
1238.1008552622229
 31
0.0
 70
     0
 13
1448.5902873486259
 23
1343.201855650276
 33
0.0
 14
618.59028734862704
 24
1371.6797421827559
 34
0.0
1001
ACAD
1000
DSTYLE
1002
{
1070
   287
1070
     4
1070
    40
1040
20.0
1070
    75
1070
     1
1070
   147
1040
1.5
1070
   173
1070
     1
1070
   272
1070
     4
1070
   279
1070
     1
1070
   284
1070
     0
1070
   285
1070
     0
1070
   286
1070
     0
1070
     6
1000
ARROW
1070
     7
1000
ARROW
1002
}
  0
LINE
  5
7CF2
  8
1
 10
1698.5902873486259
 20
1559.6797421827571
 30
0.0
 11
618.59028734862704
 21
1559.6797421827571
 31
0.0
  0
LINE
  5
7CF3
  8
1
 10
1698.5902873486259
 20
1484.6797421827559
 30
0.0
 11
618.59028734862704
 21
1484.6797421827559
 31
0.0
  0
LINE
  5
7CF4
  8
2
 10
873.1486100001498
 20
1994.6797421827559
 30
0.0
 11
1891.736780664871
 21
1994.6797421827559
 31
0.0
  0
LINE
  5
7CF5
  8
1
 10
1698.5902873486259
 20
1446.6797421827559
 30
0.0
 11
618.59028734862704
 21
1446.6797421827559
 31
0.0
  0
LINE
  5
7CF6
  8
1
 10
1698.5902873486259
 20
1371.6797421827559
 30
0.0
 11
618.59028734862704
 21
1371.6797421827559
 31
0.0
  0
LINE
  5
7CF7
  8
1
 10
1427.214921658644
 20
2054.4739203409981
 30
0.0
 11
752.93984852064796
 21
1813.432455972646
 31
0.0
  0
LINE
  5
7CF8
  8
1
 10
1395.60051288112
 20
2135.008227537237
 30
0.0
 11
725.60051288112072
 21
1882.007927537237
 31
0.0
  0
LINE
  5
7CF9
  8
2
 10
778.59028734862704
 20
1630.314442182756
 30
0.0
 11
778.59028734862704
 21
1867.2624421827561
 31
0.0
  0
ARC
  5
7CFA
  8
1
 10
778.59028734862704
 20
1741.679442182756
 30
0.0
 40
117.0
 50
293.30549999999988
 51
180.0
  0
ARC
  5
7CFB
  8
1
 10
778.59028734862704
 20
1741.679442182756
 30
0.0
 40
121.5
 50
296.18489999999991
 51
180.0
  0
ARC
  5
7CFC
  8
1
 10
778.59028734862704
 20
1741.679442182756
 30
0.0
 40
150.0
 50
110.6871576406769
 51
290.68715764067701
  0
LINE
  5
7CFD
  8
1
 10
618.59028734862704
 20
1484.6797421827559
 30
0.0
 11
618.59028734862704
 21
1559.6797421827571
 31
0.0
  0
LINE
  5
7CFE
  8
1
 10
618.59028734862704
 20
1446.6797421827559
 30
0.0
 11
618.59028734862704
 21
1371.6797421827559
 31
0.0
  0
LINE
  5
7CFF
  8
1
 10
824.77198734862714
 20
1634.1797421827559
 30
0.0
 11
732.40858734862695
 21
1634.1797421827559
 31
0.0
  0
LINE
  5
7D00
  8
1
 10
832.26758734862676
 20
1632.6797421827559
 30
0.0
 11
724.91298734862676
 21
1632.6797421827559
 31
0.0
  0
LINE
  5
7D01
  8
2
 10
652.71988734862725
 20
1741.679442182756
 30
0.0
 11
904.42288734862723
 21
1741.679442182756
 31
0.0
  0
LINE
  5
7D02
  8
1
 10
928.5902873486275
 20
1589.6797421827571
 30
0.0
 11
628.5902873486275
 21
1589.6797421827571
 31
0.0
  0
LINE
  5
7D03
  8
1
 10
910.10273811725881
 20
1629.6797421827571
 30
0.0
 11
647.07783657999505
 21
1629.6797421827559
 31
0.0
  0
CIRCLE
  5
7D04
  8
1
 10
778.59028734862704
 20
1741.679442182756
 30
0.0
 40
76.200000000000003
  0
ARC
  5
7D05
  8
1
 10
778.59028734862704
 20
1741.679442182756
 30
0.0
 40
117.0
 50
180.0
 51
246.6926
  0
ARC
  5
7D06
  8
1
 10
778.59028734862704
 20
1741.679442182756
 30
0.0
 40
121.5
 50
180.0
 51
243.7502999999999
  0
LINE
  5
7D07
  8
1
 10
677.75768734862675
 20
1673.8929421827561
 30
0.0
 11
668.59028734862704
 21
1639.6797421827559
 31
0.0
  0
LINE
  5
7D08
  8
1
 10
668.59028734862704
 20
1629.6797421827559
 30
0.0
 11
708.59028734862704
 21
1629.6797421827559
 31
0.0
  0
LINE
  5
7D09
  8
1
 10
636.09028734862704
 20
1589.6797421827571
 30
0.0
 11
647.07783657999505
 21
1629.6797421827571
 31
0.0
  0
LINE
  5
7D0A
  8
1
 10
628.5902873486275
 20
1559.6797421827571
 30
0.0
 11
628.5902873486275
 21
1589.6797421827571
 31
0.0
  0
LINE
  5
7D0B
  8
1
 10
668.59028734862704
 20
1629.6797421827559
 30
0.0
 11
668.59028734862704
 21
1639.6797421827559
 31
0.0
  0
LINE
  5
7D0C
  8
1
 10
708.59028734862704
 20
1629.6797421827559
 30
0.0
 11
708.59028734862704
 21
1634.6086421827561
 31
0.0
  0
LINE
  5
7D0D
  8
1
 10
711.97798734862715
 20
1640.0674421827559
 30
0.0
 11
710.05478734862697
 21
1638.144142182756
 31
0.0
  0
ARC
  5
7D0E
  8
1
 10
713.59018734862684
 20
1634.6086421827561
 30
0.0
 40
4.9999000000000002
 50
134.99950000000001
 51
180.0
  0
LINE
  5
7D0F
  8
1
 10
879.42288734862723
 20
1673.8929421827561
 30
0.0
 11
888.59028734862704
 21
1639.6797421827559
 31
0.0
  0
LINE
  5
7D10
  8
1
 10
888.59028734862704
 20
1629.6797421827559
 30
0.0
 11
848.59028734862704
 21
1629.6797421827559
 31
0.0
  0
LINE
  5
7D11
  8
1
 10
848.59028734862704
 20
1629.6797421827559
 30
0.0
 11
848.59028734862704
 21
1634.6086421827561
 31
0.0
  0
ARC
  5
7D12
  8
1
 10
843.59038734862668
 20
1634.6086421827561
 30
0.0
 40
4.9999000000000002
 50
0.0
 51
45.000500000000002
  0
LINE
  5
7D13
  8
1
 10
845.20258734862716
 20
1640.0674421827559
 30
0.0
 11
847.12578734862689
 21
1638.144142182756
 31
0.0
  0
LINE
  5
7D14
  8
1
 10
888.59028734862704
 20
1629.6797421827559
 30
0.0
 11
888.59028734862704
 21
1639.6797421827559
 31
0.0
  0
LINE
  5
7D15
  8
1
 10
921.09028734862704
 20
1589.6797421827571
 30
0.0
 11
910.10273811725881
 21
1629.6797421827571
 31
0.0
  0
LINE
  5
7D16
  8
1
 10
928.5902873486275
 20
1559.6797421827571
 30
0.0
 11
928.5902873486275
 21
1589.6797421827571
 31
0.0
  0
LINE
  5
7D17
  8
1
 10
910.59028734862659
 20
2354.6797421827569
 30
0.0
 11
939.59028734862648
 21
1994.6797421827571
 31
0.0
  0
LINE
  5
7D18
  8
1
 10
902.57178271687053
 20
2329.6797421827569
 30
0.0
 11
929.62171675676734
 21
1993.887457549544
 31
0.0
  0
LINE
  5
7D19
  8
1
 10
908.58380864449737
 20
2354.6797421827559
 30
0.0
 11
937.59674513371635
 21
1994.5191512821109
 31
0.0
  0
INSERT
  5
7D1A
  8
1
  2
L02503
 10
989.88647213010199
 20
2439.9602720388011
 30
0.0
 50
180.0
  0
POINT
  5
7D1B
  8
1
 10
910.69028734862638
 20
2354.6797421827569
 30
0.0
  0
POINT
  5
7D1C
  8
1
 10
909.08510438532312
 20
2354.6797421827569
 30
0.0
  0
DIMENSION
  5
7D1D
  8
3
  2
*D10
 10
1997.4055410585829
 20
1371.6797421827559
 30
0.0
 11
1942.405541058582
 21
1221.203551706566
 31
0.0
 70
     0
 13
1698.5902873486259
 23
1446.6797421827559
 33
0.0
 14
1698.5902873486259
 24
1371.6797421827559
 34
0.0
 50
270.0
1001
ACAD
1000
DSTYLE
1002
{
1070
   287
1070
     3
1070
    40
1040
20.0
1070
   147
1040
1.5
1070
   173
1070
     1
1070
   272
1070
     4
1070
   279
1070
     0
1070
   284
1070
     0
1070
   285
1070
     0
1070
   286
1070
     0
1070
     6
1000
YA_N
1070
     7
1000
OPEN
1002
}
  0
DIMENSION
  5
7D1E
  8
3
  2
*D11
 10
1448.5902873486259
 20
1183.1008552622229
 30
0.0
 11
1573.5902873486259
 21
1238.1008552622229
 31
0.0
 70
     0
 13
1698.5902873486259
 23
1371.6797421827559
 33
0.0
 14
1448.5902873486259
 24
1343.201855650276
 34
0.0
1001
ACAD
1000
DSTYLE
1002
{
1070
   287
1070
     3
1070
    40
1040
20.0
1070
   147
1040
1.5
1070
   173
1070
     1
1070
   272
1070
     4
1070
   279
1070
     0
1070
   284
1070
     0
1070
   285
1070
     0
1070
   286
1070
     0
1070
     6
1000
ARROW
1070
     7
1000
ARROW
1002
}
  0
LINE
  5
7D1F
  8
1
 10
1813.88522539358
 20
1881.4797421827559
 30
0.0
 11
1670.5902873486259
 21
1881.4797421827559
 31
0.0
  0
LINE
  5
7D20
  8
1
 10
1812.702263206482
 20
1875.4797421827559
 30
0.0
 11
1670.5902873486259
 21
1875.4797421827559
 31
0.0
  0
ARC
  5
7D21
  8
1
 10
1411.590287348625
 20
1957.6797421827571
 30
0.0
 40
409.44799080786049
 50
333.13898332374839
 51
5.0424510691709212
  0
DIMENSION
  5
7D22
  8
3
  2
*D12
 10
1997.4055410585829
 20
1484.6797421827559
 30
0.0
 11
1942.405541058582
 21
1739.6797421827571
 31
0.0
 70
     0
 13
1891.736780664871
 23
1994.6797421827559
 33
0.0
 14
1698.5902873486259
 24
1484.6797421827559
 34
0.0
 50
270.0
1001
ACAD
1000
DSTYLE
1002
{
1070
   287
1070
     4
1070
    40
1040
20.0
1070
    75
1070
     1
1070
   147
1040
1.5
1070
   173
1070
     1
1070
   272
1070
     4
1070
   279
1070
     1
1070
   284
1070
     0
1070
   285
1070
     0
1070
   286
1070
     0
1070
     6
1000
ARROW
1070
     7
1000
ARROW
1002
}
  0
DIMENSION
  5
7D23
  8
3
  2
*D13
 10
1997.4055410585829
 20
1446.6797421827559
 30
0.0
 11
2108.5960172490581
 21
1549.4654564684711
 31
0.0
 70
     0
  1
(38)
 13
1698.5902873486259
 23
1484.6797421827559
 33
0.0
 14
1698.5902873486259
 24
1446.6797421827559
 34
0.0
 50
270.0
1001
ACAD
1000
DSTYLE
1002
{
1070
   287
1070
     4
1070
    40
1040
20.0
1070
    75
1070
     1
1070
   147
1040
1.5
1070
   173
1070
     1
1070
   272
1070
     4
1070
   279
1070
     1
1070
   284
1070
     0
1070
   285
1070
     0
1070
   286
1070
     0
1070
     6
1000
OPEN
1070
     7
1000
YA_N
1002
}
  0
ARC
  5
7D24
  8
1
 10
1411.5902873486259
 20
1957.6797421827559
 30
0.0
 40
398.04799080786057
 50
270.0
 51
5.0424510691709212
  0
ARC
  5
7D25
  8
1
 10
1479.590287348625
 20
1963.6797421827571
 30
0.0
 40
341.18379814435662
 50
5.0424510691708431
 51
47.86240683271734
  0
ARC
  5
7D26
  8
1
 10
1479.5902873486259
 20
1963.6797421827559
 30
0.0
 40
329.7837981443563
 50
5.0424510691709212
 51
90.0
  0
DIMENSION
  5
7D27
  8
3
  2
*D14
 10
1997.4055410585829
 20
1994.6797421827559
 30
0.0
 11
1942.405541058582
 21
2174.6797421827569
 31
0.0
 70
     0
 13
1449.190287348626
 23
2354.6797421827569
 33
0.0
 14
1891.736780664871
 24
1994.6797421827559
 34
0.0
 50
270.0
1001
ACAD
1000
DSTYLE
1002
{
1070
   287
1070
     3
1070
    40
1040
20.0
1070
   147
1040
1.5
1070
   173
1070
     1
1070
   272
1070
     4
1070
   279
1070
     0
1070
   284
1070
     0
1070
   285
1070
     0
1070
   286
1070
     0
1070
     6
1000
ARROW
1070
     7
1000
ARROW
1002
}
  0
LINE
  5
7D28
  8
1
 10
1226.5902873486459
 20
1559.6797421827571
 30
0.0
 11
1226.5902873486259
 21
1931.4797421827559
 31
0.0
  0
LINE
  5
7D29
  8
1
 10
1670.5902873486259
 20
1559.6797421827571
 30
0.0
 11
1670.5902873486259
 21
1931.479742182757
 31
0.0
  0
LINE
  5
7D2A
  8
2
 10
1448.5902873486259
 20
1343.201855650276
 30
0.0
 11
1448.5902873486259
 21
2382.582265088839
 31
0.0
  0
LINE
  5
7D2B
  8
1
 10
1208.5902873486259
 20
1559.6797421827571
 30
0.0
 11
1208.5902873486259
 21
1599.6797421827571
 31
0.0
  0
LINE
  5
7D2C
  8
1
 10
1226.5902873486459
 20
1564.6797421827559
 30
0.0
 11
1208.5902873486259
 21
1564.6797421827559
 31
0.0
  0
LINE
  5
7D2D
  8
1
 10
1226.5902873486441
 20
1599.6797421827571
 30
0.0
 11
1208.5902873486259
 21
1599.6797421827571
 31
0.0
  0
LINE
  5
7D2E
  8
1
 10
1698.5902873486259
 20
1484.6797421827559
 30
0.0
 11
1698.5902873486259
 21
1559.6797421827571
 31
0.0
  0
LINE
  5
7D2F
  8
1
 10
1698.5902873486259
 20
1446.6797421827559
 30
0.0
 11
1698.5902873486259
 21
1371.6797421827559
 31
0.0
  0
ARC
  5
7D30
  8
1
 10
1411.590287348625
 20
1957.6797421827571
 30
0.0
 40
409.44799080786049
 50
309.2391721757615
 51
333.13898332374839
  0
LINE
  5
7D31
  8
1
 10
1688.5902873486259
 20
1564.6797421827559
 30
0.0
 11
1670.5902873486259
 21
1564.6797421827559
 31
0.0
  0
LINE
  5
7D32
  8
1
 10
1688.5902873486259
 20
1599.6797421827571
 30
0.0
 11
1670.5902873486259
 21
1599.6797421827571
 31
0.0
  0
LINE
  5
7D33
  8
1
 10
1688.5902873486259
 20
1559.6797421827571
 30
0.0
 11
1688.5902873486259
 21
1599.6797421827571
 31
0.0
  0
ARC
  5
7D34
  8
1
 10
1479.590287348625
 20
2025.6797421827559
 30
0.0
 40
269.18379814435679
 50
89.999999999999744
 51
122.98669047482041
  0
LINE
  5
7D35
  8
1
 10
1216.5902873486259
 20
1934.6797421827571
 30
0.0
 11
1680.5902873486259
 21
1934.6797421827571
 31
0.0
  0
LINE
  5
7D36
  8
1
 10
1183.5902873486259
 20
1931.479742182757
 30
0.0
 11
1713.5902873486259
 21
1931.479742182757
 31
0.0
  0
CIRCLE
  5
7D37
  8
1
 10
1448.5902873486259
 20
1994.6797421827559
 30
0.0
 40
63.5
  0
LINE
  5
7D38
  8
1
 10
1183.5902873486259
 20
1881.4797421827559
 30
0.0
 11
1183.5902873486259
 21
1931.4797421827559
 31
0.0
  0
LINE
  5
7D39
  8
1
 10
1216.5902873486259
 20
1931.4797421827559
 30
0.0
 11
1216.5902873486259
 21
1934.6797421827559
 31
0.0
  0
LINE
  5
7D3A
  8
1
 10
1273.5902873486259
 20
2354.6797421827569
 30
0.0
 11
1254.7731931704759
 21
2305.0519579617112
 31
0.0
  0
ARC
  5
7D3B
  8
1
 10
1300.5902873486259
 20
2287.6797421827569
 30
0.0
 40
49.0
 50
159.2350507232635
 51
314.31750806242439
  0
ARC
  5
7D3C
  8
1
 10
1448.5902873486259
 20
1994.6797421827559
 30
0.0
 40
150.0
 50
290.68715764067701
 51
110.6871576406769
  0
LINE
  5
7D3D
  8
1
 10
1680.5902873486259
 20
1931.479742182757
 30
0.0
 11
1680.5902873486259
 21
1934.6797421827571
 31
0.0
  0
LINE
  5
7D3E
  8
1
 10
1713.5902873486259
 20
1881.4797421827559
 30
0.0
 11
1713.5902873486259
 21
1931.4797421827559
 31
0.0
  0
ARC
  5
7D3F
  8
1
 10
1479.590287348625
 20
1963.6797421827571
 30
0.0
 40
341.18379814435662
 50
47.86240683271734
 51
89.999999999999687
  0
LINE
  5
7D40
  8
1
 10
1422.5902873486259
 20
2288.759420575866
 30
0.0
 11
1422.5902873486259
 21
2354.6797421827569
 31
0.0
  0
LINE
  5
7D41
  8
1
 10
1432.5902873486259
 20
2300.8789303107551
 30
0.0
 11
1432.5902873486259
 21
2329.6797421827569
 31
0.0
  0
LINE
  5
7D42
  8
1
 10
1424.190287348626
 20
2288.759420575866
 30
0.0
 11
1424.190287348626
 21
2354.6797421827569
 31
0.0
  0
ARC
  5
7D43
  8
1
 10
1479.590287348627
 20
2025.6797421827571
 30
0.0
 40
279.1837981443565
 50
90.0
 51
99.691775071159924
  0
INSERT
  5
7D44
  8
1
  2
L02503
 10
1342.9876238630211
 20
2439.9602720388011
 30
0.0
 41
-1.0
 50
180.0
  0
LINE
  5
7D45
  8
1
 10
1432.5902873486259
 20
2329.6797421827569
 30
0.0
 11
1424.190287348626
 21
2329.6797421827569
 31
0.0
  0
LINE
  5
7D46
  8
1
 10
2453.7762554624592
 20
2144.6797421827569
 30
0.0
 11
2453.7762554624592
 21
1591.679442182756
 31
0.0
  0
LINE
  5
7D47
  8
1
 10
2533.7762554624592
 20
1931.1797421827571
 30
0.0
 11
2533.7762554624592
 21
1817.8794421827561
 31
0.0
  0
LINE
  5
7D48
  8
1
 10
2483.7762554624578
 20
1931.1797421827559
 30
0.0
 11
2483.7762554624578
 21
1809.6113556103601
 31
0.0
  0
LINE
  5
7D49
  8
1
 10
2559.7762554624592
 20
1644.6797421827559
 30
0.0
 11
2559.7762554624592
 21
1862.679442182756
 31
0.0
  0
CIRCLE
  5
7D4A
  8
3
 10
1997.4055410585829
 20
1446.6797421827559
 30
0.0
 40
4.0
  0
LINE
  5
7D4B
  8
1
 10
2538.7762554624592
 20
1559.6797421827571
 30
0.0
 11
2538.7762554624592
 21
1484.6797421827559
 31
0.0
  0
LINE
  5
7D4C
  8
1
 10
2538.7762554624592
 20
1446.6797421827559
 30
0.0
 11
2538.7762554624592
 21
1371.6797421827559
 31
0.0
  0
LINE
  5
7D4D
  8
1
 10
2533.7762554624592
 20
1665.479442182756
 30
0.0
 11
2533.7762554624592
 21
1817.8794421827561
 31
0.0
  0
LINE
  5
7D4E
  8
1
 10
2483.7762554624578
 20
1665.479442182756
 30
0.0
 11
2483.7762554624578
 21
1817.8794421827561
 31
0.0
  0
LINE
  5
7D4F
  8
1
 10
2483.7762554624578
 20
1665.479442182756
 30
0.0
 11
2533.7762554624578
 21
1665.479442182756
 31
0.0
  0
ARC
  5
7D50
  8
1
 10
2561.7762554624578
 20
1644.6798421827559
 30
0.0
 40
2.0001000000000002
 50
180.00349999999989
 51
270.0
  0
LINE
  5
7D51
  8
1
 10
2543.7762554624592
 20
1726.179442182756
 30
0.0
 11
2543.7762554624592
 21
1757.179442182756
 31
0.0
  0
LINE
  5
7D52
  8
1
 10
2549.7762554624578
 20
1699.179442182756
 30
0.0
 11
2549.7762554624578
 21
1784.179442182756
 31
0.0
  0
LINE
  5
7D53
  8
1
 10
2549.7762554624578
 20
1726.179442182756
 30
0.0
 11
2543.7762554624592
 21
1726.179442182756
 31
0.0
  0
LINE
  5
7D54
  8
1
 10
2559.7762554624592
 20
1699.179442182756
 30
0.0
 11
2549.7762554624578
 21
1699.179442182756
 31
0.0
  0
LINE
  5
7D55
  8
1
 10
2543.7762554624592
 20
1727.679442182756
 30
0.0
 11
2533.7762554624592
 21
1727.679442182756
 31
0.0
  0
LINE
  5
7D56
  8
1
 10
2483.7762554624578
 20
1817.8794421827561
 30
0.0
 11
2533.7762554624578
 21
1817.8794421827561
 31
0.0
  0
LINE
  5
7D57
  8
1
 10
2543.7762554624592
 20
1757.179442182756
 30
0.0
 11
2549.7762554624578
 21
1757.179442182756
 31
0.0
  0
LINE
  5
7D58
  8
1
 10
2559.7762554624592
 20
1784.179442182756
 30
0.0
 11
2549.7762554624578
 21
1784.179442182756
 31
0.0
  0
LINE
  5
7D59
  8
1
 10
2543.7762554624592
 20
1755.679442182756
 30
0.0
 11
2533.7762554624592
 21
1755.679442182756
 31
0.0
  0
LINE
  5
7D5A
  8
1
 10
2533.7762554624592
 20
2058.1797421827559
 30
0.0
 11
2533.7762554624592
 21
1931.1797421827571
 31
0.0
  0
LINE
  5
7D5B
  8
1
 10
2483.7762554624578
 20
2058.1797421827559
 30
0.0
 11
2483.7762554624578
 21
1931.1797421827571
 31
0.0
  0
LINE
  5
7D5C
  8
1
 10
2483.7762554624578
 20
1931.1797421827559
 30
0.0
 11
2533.7762554624592
 21
1931.1797421827571
 31
0.0
  0
POINT
  5
7D5D
  8
1
 10
2568.7762554624592
 20
1934.6797421827571
 30
0.0
  0
LINE
  5
7D5E
  8
1
 10
2568.7762554624592
 20
1934.6797421827571
 30
0.0
 11
2568.7762554624592
 21
1931.479742182757
 31
0.0
  0
LINE
  5
7D5F
  8
1
 10
2483.7762554624578
 20
2058.1797421827569
 30
0.0
 11
2533.7762554624592
 21
2058.1797421827559
 31
0.0
  0
LINE
  5
7D60
  8
1
 10
903.98510438532321
 20
4286.1541628245941
 30
0.0
 11
1419.985104385323
 21
3906.1541628245941
 31
0.0
  0
LINE
  5
7D61
  8
1
 10
1419.985104385323
 20
4286.1541628245941
 30
0.0
 11
903.98510438532321
 21
3906.1541628245941
 31
0.0
  0
LINE
  5
7D62
  8
1
 10
1419.985104385323
 20
3906.1541628245941
 30
0.0
 11
903.98510438532321
 21
3906.1541628245941
 31
0.0
  0
LINE
  5
7D63
  8
1
 10
1419.985104385323
 20
4286.1541628245941
 30
0.0
 11
903.98510438532321
 21
4286.1541628245941
 31
0.0
  0
LINE
  5
7D64
  8
1
 10
1444.985104385323
 20
3881.1541628245941
 30
0.0
 11
878.98510438532321
 21
3881.1541628245941
 31
0.0
  0
LINE
  5
7D65
  8
1
 10
1444.985104385323
 20
4311.1541628245941
 30
0.0
 11
878.98510438532321
 21
4311.1541628245941
 31
0.0
  0
DIMENSION
  5
7D66
  8
3
  2
*D15
 10
618.59028734862704
 20
4469.4389140303056
 30
0.0
 11
908.59028734862693
 21
4524.4389140303056
 31
0.0
 70
     0
 13
1198.5902873486259
 23
4326.1541628245923
 33
0.0
 14
618.59028734862704
 24
3886.1541628245918
 34
0.0
1001
ACAD
1000
DSTYLE
1002
{
1070
   287
1070
     4
1070
    40
1040
20.0
1070
    75
1070
     1
1070
   147
1040
1.5
1070
   173
1070
     1
1070
   272
1070
     4
1070
   279
1070
     1
1070
   284
1070
     0
1070
   285
1070
     0
1070
   286
1070
     0
1070
     6
1000
ARROW
1070
     7
1000
ARROW
1002
}
  0
LINE
  5
7D67
  8
1
 10
1198.5902873486259
 20
3846.1541628245909
 30
0.0
 11
618.59028734862704
 21
3846.1541628245909
 31
0.0
  0
LINE
  5
7D68
  8
1
 10
1216.5902873486259
 20
3366.1541628245909
 30
0.0
 11
899.59028734862648
 21
3366.1541628245918
 31
0.0
  0
LINE
  5
7D69
  8
1
 10
1372.3902873486261
 20
3271.1541628245932
 30
0.0
 11
842.09028734862659
 21
3271.1541628245932
 31
0.0
  0
LINE
  5
7D6A
  8
1
 10
1372.3902873486261
 20
3321.1541628245932
 30
0.0
 11
842.09028734862602
 21
3321.1541628245932
 31
0.0
  0
LINE
  5
7D6B
  8
1
 10
1598.5902873486259
 20
3241.1541628245932
 30
0.0
 11
628.59028734862704
 21
3241.1541628245932
 31
0.0
  0
LINE
  5
7D6C
  8
1
 10
1598.5902873486259
 20
3363.1541628245932
 30
0.0
 11
628.59028734862704
 21
3363.1541628245932
 31
0.0
  0
LINE
  5
7D6D
  8
1
 10
1426.0902873486259
 20
3326.1541628245909
 30
0.0
 11
618.59028734862704
 21
3326.1541628245918
 31
0.0
  0
LINE
  5
7D6E
  8
2
 10
1847.74589202216
 20
4096.1541628245941
 30
0.0
 11
867.47046143043417
 21
4096.1541628245941
 31
0.0
  0
DIMENSION
  5
7D6F
  8
3
  2
*D16
 10
618.59028734862704
 20
3009.3359103246339
 30
0.0
 11
1158.5902873486259
 21
3064.3359103246339
 31
0.0
 70
     0
 13
1698.5902873486259
 23
3326.1541628245918
 33
0.0
 14
618.59028734862704
 24
3326.1541628245918
 34
0.0
1001
ACAD
1000
DSTYLE
1002
{
1070
   287
1070
     3
1070
    40
1040
20.0
1070
   147
1040
1.5
1070
   173
1070
     1
1070
   272
1070
     4
1070
   279
1070
     0
1070
   284
1070
     0
1070
   285
1070
     0
1070
   286
1070
     0
1070
     6
1000
ARROW
1070
     7
1000
ARROW
1002
}
  0
DIMENSION
  5
7D70
  8
3
  2
*D17
 10
431.95570278987219
 20
3326.1541628245918
 30
0.0
 11
376.95570278987168
 21
3606.1541628245918
 31
0.0
 70
     0
 13
618.59028734862704
 23
3886.1541628245918
 33
0.0
 14
618.59028734862704
 24
3326.1541628245918
 34
0.0
 50
270.0
1001
ACAD
1000
DSTYLE
1002
{
1070
   287
1070
     3
1070
    40
1040
20.0
1070
   147
1040
1.5
1070
   173
1070
     1
1070
   272
1070
     4
1070
   279
1070
     0
1070
   284
1070
     0
1070
   285
1070
     0
1070
   286
1070
     0
1070
     6
1000
ARROW
1070
     7
1000
ARROW
1002
}
  0
LINE
  5
7D71
  8
2
 10
778.59028734862648
 20
3267.564162824594
 30
0.0
 11
778.59028734862648
 21
3657.6799628245931
 31
0.0
  0
LINE
  5
7D72
  8
1
 10
899.59028734862648
 20
3347.1541628245932
 30
0.0
 11
899.59028734862648
 21
3654.1541628245932
 31
0.0
  0
LINE
  5
7D73
  8
1
 10
657.59028734862648
 20
3347.1541628245932
 30
0.0
 11
657.59028734862648
 21
3654.1541628245932
 31
0.0
  0
LINE
  5
7D74
  8
1
 10
736.09028734862648
 20
3337.1541628245932
 30
0.0
 11
821.09028734862648
 21
3337.1541628245932
 31
0.0
  0
LINE
  5
7D75
  8
1
 10
715.09028734862648
 20
3271.1541628245932
 30
0.0
 11
842.09028734862659
 21
3271.1541628245932
 31
0.0
  0
LINE
  5
7D76
  8
1
 10
715.09028734862704
 20
3321.1541628245941
 30
0.0
 11
842.09028734862693
 21
3321.1541628245932
 31
0.0
  0
LINE
  5
7D77
  8
1
 10
657.59028734862648
 20
3347.1541628245932
 30
0.0
 11
899.59028734862648
 21
3347.1541628245932
 31
0.0
  0
LINE
  5
7D78
  8
1
 10
628.59028734862704
 20
3241.1541628245932
 30
0.0
 11
628.59028734862704
 21
3363.1541628245932
 31
0.0
  0
LINE
  5
7D79
  8
1
 10
715.09028734862648
 20
3271.1541628245932
 30
0.0
 11
715.09028734862613
 21
3321.1541628245941
 31
0.0
  0
LINE
  5
7D7A
  8
1
 10
657.59028734862613
 20
3366.1541628245918
 30
0.0
 11
618.59028734862704
 21
3366.1541628245918
 31
0.0
  0
LINE
  5
7D7B
  8
1
 10
618.59028734862704
 20
3326.1541628245918
 30
0.0
 11
618.59028734862704
 21
3366.1541628245918
 31
0.0
  0
POINT
  5
7D7C
  8
1
 10
618.59028734862704
 20
3326.1541628245918
 30
0.0
  0
POINT
  5
7D7D
  8
1
 10
618.59028734862704
 20
3326.1541628245918
 30
0.0
  0
POINT
  5
7D7E
  8
1
 10
618.59028734862704
 20
3326.1541628245918
 30
0.0
  0
LINE
  5
7D7F
  8
1
 10
736.09028734862648
 20
3347.1541628245932
 30
0.0
 11
736.09028734862648
 21
3337.1541628245932
 31
0.0
  0
LINE
  5
7D80
  8
1
 10
763.09028734862659
 20
3337.1541628245932
 30
0.0
 11
763.09028734862659
 21
3331.1541628245932
 31
0.0
  0
LINE
  5
7D81
  8
1
 10
764.59028734862648
 20
3331.1541628245932
 30
0.0
 11
764.59028734862613
 21
3321.1541628245941
 31
0.0
  0
LINE
  5
7D82
  8
1
 10
794.09028734862648
 20
3331.1541628245932
 30
0.0
 11
794.09028734862648
 21
3337.1541628245932
 31
0.0
  0
LINE
  5
7D83
  8
1
 10
792.59028734862659
 20
3331.1541628245932
 30
0.0
 11
792.59028734862613
 21
3321.1541628245941
 31
0.0
  0
LINE
  5
7D84
  8
1
 10
763.09028734862659
 20
3331.1541628245932
 30
0.0
 11
794.09028734862648
 21
3331.1541628245932
 31
0.0
  0
LINE
  5
7D85
  8
1
 10
842.09028734862659
 20
3271.1541628245932
 30
0.0
 11
842.09028734862602
 21
3321.1541628245932
 31
0.0
  0
LINE
  5
7D86
  8
1
 10
821.09028734862648
 20
3347.1541628245932
 30
0.0
 11
821.09028734862648
 21
3337.1541628245932
 31
0.0
  0
LINE
  5
7D87
  8
1
 10
657.59028734862648
 20
3654.1541628245932
 30
0.0
 11
899.59028734862648
 21
3654.1541628245932
 31
0.0
  0
LINE
  5
7D88
  8
1
 10
903.98510438532321
 20
3906.1541628245941
 30
0.0
 11
903.98510438532321
 21
4286.1541628245941
 31
0.0
  0
LINE
  5
7D89
  8
1
 10
878.98510438532321
 20
3881.1541628245941
 30
0.0
 11
878.98510438532321
 21
4311.1541628245941
 31
0.0
  0
LINE
  5
7D8A
  8
1
 10
878.98510438532276
 20
3886.1541628245918
 30
0.0
 11
618.59028734862704
 21
3886.1541628245918
 31
0.0
  0
LINE
  5
7D8B
  8
1
 10
618.59028734862704
 20
3846.1541628245909
 30
0.0
 11
618.59028734862704
 21
3886.1541628245918
 31
0.0
  0
LINE
  5
7D8C
  8
1
 10
1353.5902873486259
 20
3757.954162824592
 30
0.0
 11
1353.5902873486259
 21
3814.354162824593
 31
0.0
  0
LINE
  5
7D8D
  8
1
 10
1348.5902873486259
 20
3753.6541628245932
 30
0.0
 11
1348.5902873486259
 21
3818.6541628245941
 31
0.0
  0
LINE
  5
7D8E
  8
1
 10
1543.5902873486259
 20
3757.954162824592
 30
0.0
 11
1543.5902873486259
 21
3814.354162824593
 31
0.0
  0
LINE
  5
7D8F
  8
1
 10
1548.5902873486259
 20
3753.6541628245932
 30
0.0
 11
1548.5902873486259
 21
3818.6541628245941
 31
0.0
  0
LINE
  5
7D90
  8
2
 10
1448.5902873486259
 20
3238.6715517134012
 30
0.0
 11
1448.5902873486259
 21
3970.9637990288579
 31
0.0
  0
LINE
  5
7D91
  8
1
 10
1198.5902873486259
 20
3366.1541628245918
 30
0.0
 11
1198.5902873486259
 21
3881.1541628245941
 31
0.0
  0
LINE
  5
7D92
  8
1
 10
1216.5902873486259
 20
3356.1541628245932
 30
0.0
 11
1216.5902873486259
 21
3841.1541628245932
 31
0.0
  0
LINE
  5
7D93
  8
1
 10
1698.5902873486259
 20
3326.1541628245918
 30
0.0
 11
1698.5902873486259
 21
3908.6541628245941
 31
0.0
  0
DIMENSION
  5
7D94
  8
3
  2
*D18
 10
2003.4080191371299
 20
4326.1541628245923
 30
0.0
 11
1948.4080191371299
 21
3826.1541628245918
 31
0.0
 70
     0
 13
1698.5902873486259
 23
3326.1541628245918
 33
0.0
 14
1698.5902873486259
 24
4326.1541628245923
 34
0.0
 50
270.0
1001
ACAD
1000
DSTYLE
1002
{
1070
   287
1070
     3
1070
    40
1040
20.0
1070
   147
1040
1.5
1070
   173
1070
     1
1070
   272
1070
     4
1070
   279
1070
     0
1070
   284
1070
     0
1070
   285
1070
     0
1070
   286
1070
     0
1070
     6
1000
ARROW
1070
     7
1000
ARROW
1002
}
  0
LINE
  5
7D95
  8
1
 10
1680.5902873486259
 20
3356.1541628245932
 30
0.0
 11
1680.5902873486259
 21
3841.1541628245932
 31
0.0
  0
LINE
  5
7D96
  8
1
 10
1426.0902873486259
 20
3753.654162824595
 30
0.0
 11
1348.5902873486259
 21
3753.6541628245941
 31
0.0
  0
LINE
  5
7D97
  8
1
 10
1543.5902873486259
 20
3757.954162824592
 30
0.0
 11
1353.5902873486259
 21
3757.9541628245929
 31
0.0
  0
LINE
  5
7D98
  8
1
 10
1524.790287348626
 20
3271.1541628245932
 30
0.0
 11
1372.3902873486261
 21
3271.1541628245932
 31
0.0
  0
LINE
  5
7D99
  8
1
 10
1426.0902873486259
 20
3378.6541628245932
 30
0.0
 11
1348.5902873486259
 21
3378.6541628245941
 31
0.0
  0
LINE
  5
7D9A
  8
1
 10
1426.0902873486259
 20
3443.6541628245941
 30
0.0
 11
1348.5902873486259
 21
3443.6541628245941
 31
0.0
  0
LINE
  5
7D9B
  8
1
 10
1543.5902873486259
 20
3382.954162824592
 30
0.0
 11
1353.5902873486259
 21
3382.9541628245929
 31
0.0
  0
LINE
  5
7D9C
  8
1
 10
1543.5902873486259
 20
3439.354162824593
 30
0.0
 11
1353.5902873486259
 21
3439.354162824593
 31
0.0
  0
LINE
  5
7D9D
  8
1
 10
1524.790287348626
 20
3321.1541628245932
 30
0.0
 11
1372.3902873486261
 21
3321.1541628245932
 31
0.0
  0
LINE
  5
7D9E
  8
2
 10
1563.702111860375
 20
3411.1541628245932
 30
0.0
 11
1333.478462836877
 21
3411.1541628245932
 31
0.0
  0
LINE
  5
7D9F
  8
1
 10
1426.0902873486259
 20
3356.1541628245932
 30
0.0
 11
1216.5902873486259
 21
3356.1541628245932
 31
0.0
  0
LINE
  5
7DA0
  8
1
 10
1372.3902873486261
 20
3271.1541628245932
 30
0.0
 11
1372.3902873486261
 21
3321.1541628245932
 31
0.0
  0
LINE
  5
7DA1
  8
1
 10
1353.5902873486259
 20
3382.954162824592
 30
0.0
 11
1353.5902873486259
 21
3439.354162824593
 31
0.0
  0
LINE
  5
7DA2
  8
1
 10
1348.5902873486259
 20
3378.6541628245932
 30
0.0
 11
1348.5902873486259
 21
3443.6541628245941
 31
0.0
  0
LINE
  5
7DA3
  8
1
 10
1471.0902873486259
 20
3439.354162824593
 30
0.0
 11
1471.0902873486259
 21
3757.9541628245929
 31
0.0
  0
LINE
  5
7DA4
  8
1
 10
1426.0902873486259
 20
3439.354162824593
 30
0.0
 11
1426.0902873486259
 21
3757.9541628245929
 31
0.0
  0
LINE
  5
7DA5
  8
1
 10
1680.5902873486259
 20
3356.1541628245932
 30
0.0
 11
1471.0902873486259
 21
3356.1541628245932
 31
0.0
  0
LINE
  5
7DA6
  8
1
 10
1698.5902873486259
 20
3326.1541628245918
 30
0.0
 11
1471.0902873486259
 21
3326.1541628245909
 31
0.0
  0
LINE
  5
7DA7
  8
1
 10
1524.790287348626
 20
3271.1541628245932
 30
0.0
 11
1524.790287348626
 21
3321.1541628245932
 31
0.0
  0
LINE
  5
7DA8
  8
1
 10
1548.5902873486259
 20
3443.6541628245941
 30
0.0
 11
1471.0902873486259
 21
3443.6541628245941
 31
0.0
  0
LINE
  5
7DA9
  8
1
 10
1548.5902873486259
 20
3378.6541628245932
 30
0.0
 11
1471.0902873486259
 21
3378.6541628245932
 31
0.0
  0
LINE
  5
7DAA
  8
1
 10
1426.0902873486259
 20
3321.1541628245932
 30
0.0
 11
1426.0902873486259
 21
3382.9541628245929
 31
0.0
  0
LINE
  5
7DAB
  8
1
 10
1471.0902873486259
 20
3321.1541628245932
 30
0.0
 11
1471.0902873486259
 21
3382.9541628245929
 31
0.0
  0
LINE
  5
7DAC
  8
1
 10
1543.5902873486259
 20
3382.954162824592
 30
0.0
 11
1543.5902873486259
 21
3439.354162824593
 31
0.0
  0
LINE
  5
7DAD
  8
1
 10
1548.5902873486259
 20
3378.6541628245932
 30
0.0
 11
1548.5902873486259
 21
3443.6541628245941
 31
0.0
  0
LINE
  5
7DAE
  8
1
 10
1598.5902873486259
 20
3241.1541628245918
 30
0.0
 11
1598.5902873486259
 21
3363.1541628245918
 31
0.0
  0
LINE
  5
7DAF
  8
1
 10
1698.5902873486259
 20
3366.1541628245918
 30
0.0
 11
1680.5902873486259
 21
3366.1541628245909
 31
0.0
  0
LINE
  5
7DB0
  8
1
 10
1548.5902873486259
 20
3753.6541628245932
 30
0.0
 11
1471.0902873486259
 21
3753.6541628245941
 31
0.0
  0
LINE
  5
7DB1
  8
1
 10
1809.638278156486
 20
3908.6541628245932
 30
0.0
 11
1444.985104385323
 21
3908.6541628245941
 31
0.0
  0
LINE
  5
7DB2
  8
1
 10
1809.638278156486
 20
4283.6541628245941
 30
0.0
 11
1444.985104385323
 21
4283.6541628245941
 31
0.0
  0
DIMENSION
  5
7DB3
  8
3
  2
*D19
 10
1198.5902873486259
 20
4469.4389140303056
 30
0.0
 11
1448.5902873486259
 21
4524.4389140303056
 31
0.0
 70
     0
 13
1698.5902873486259
 23
4326.1541628245923
 33
0.0
 14
1198.5902873486259
 24
4326.1541628245923
 34
0.0
1001
ACAD
1000
DSTYLE
1002
{
1070
   287
1070
     3
1070
    40
1040
20.0
1070
   147
1040
1.5
1070
   173
1070
     1
1070
   272
1070
     4
1070
   279
1070
     0
1070
   284
1070
     0
1070
   285
1070
     0
1070
   286
1070
     0
1070
     6
1000
ARROW
1070
     7
1000
ARROW
1002
}
  0
LINE
  5
7DB4
  8
1
 10
1426.0902873486259
 20
3818.6541628245941
 30
0.0
 11
1348.5902873486259
 21
3818.6541628245941
 31
0.0
  0
LINE
  5
7DB5
  8
1
 10
1543.5902873486259
 20
3814.354162824593
 30
0.0
 11
1353.5902873486259
 21
3814.354162824593
 31
0.0
  0
LINE
  5
7DB6
  8
1
 10
1563.702111860375
 20
3786.1541628245932
 30
0.0
 11
1333.478462836877
 21
3786.1541628245932
 31
0.0
  0
LINE
  5
7DB7
  8
1
 10
1680.5902873486259
 20
3841.1541628245932
 30
0.0
 11
1216.5902873486259
 21
3841.1541628245932
 31
0.0
  0
LINE
  5
7DB8
  8
1
 10
1698.5902873486259
 20
4326.1541628245923
 30
0.0
 11
1198.5902873486259
 21
4326.1541628245923
 31
0.0
  0
LINE
  5
7DB9
  8
1
 10
1238.5902873486259
 20
3841.1541628245932
 30
0.0
 11
1238.5902873486259
 21
3881.1541628245941
 31
0.0
  0
LINE
  5
7DBA
  8
1
 10
1238.5902873486259
 20
3841.1541628245932
 30
0.0
 11
1238.5902873486259
 21
3867.1541628245918
 31
0.0
  0
LINE
  5
7DBB
  8
1
 10
1198.5902873486259
 20
4311.1541628245941
 30
0.0
 11
1198.5902873486259
 21
4326.1541628245923
 31
0.0
  0
LINE
  5
7DBC
  8
1
 10
1238.5902873486259
 20
4311.1541628245941
 30
0.0
 11
1238.5902873486259
 21
4326.1541628245923
 31
0.0
  0
LINE
  5
7DBD
  8
1
 10
1448.5902873486259
 20
4025.5804066427759
 30
0.0
 11
1448.5902873486259
 21
4335.2743838353272
 31
0.0
  0
LINE
  5
7DBE
  8
1
 10
1419.985104385323
 20
3906.1541628245941
 30
0.0
 11
1419.985104385323
 21
4286.1541628245941
 31
0.0
  0
LINE
  5
7DBF
  8
2
 10
1444.985104385323
 20
3881.1541628245941
 30
0.0
 11
1444.985104385323
 21
4311.1541628245941
 31
0.0
  0
LINE
  5
7DC0
  8
1
 10
1548.5902873486259
 20
3818.6541628245941
 30
0.0
 11
1471.0902873486259
 21
3818.6541628245941
 31
0.0
  0
LINE
  5
7DC1
  8
1
 10
1426.0902873486259
 20
3814.354162824593
 30
0.0
 11
1426.0902873486259
 21
3881.1541628245941
 31
0.0
  0
LINE
  5
7DC2
  8
1
 10
1471.0902873486259
 20
3814.354162824593
 30
0.0
 11
1471.0902873486259
 21
3908.6541628245941
 31
0.0
  0
LINE
  5
7DC3
  8
1
 10
1658.5902873486259
 20
3841.1541628245932
 30
0.0
 11
1658.5902873486259
 21
3867.1541628245941
 31
0.0
  0
LINE
  5
7DC4
  8
1
 10
1658.5902873486259
 20
3841.1541628245932
 30
0.0
 11
1658.5902873486259
 21
3908.6541628245941
 31
0.0
  0
LINE
  5
7DC5
  8
1
 10
1658.5902873486259
 20
4286.1541628245941
 30
0.0
 11
1444.985104385323
 21
4286.1541628245932
 31
0.0
  0
LINE
  5
7DC6
  8
1
 10
1658.5902873486259
 20
4283.6541628245941
 30
0.0
 11
1658.5902873486259
 21
4326.1541628245923
 31
0.0
  0
LINE
  5
7DC7
  8
1
 10
1698.5902873486259
 20
4283.6541628245941
 30
0.0
 11
1698.5902873486259
 21
4326.1541628245923
 31
0.0
  0
LINE
  5
7DC8
  8
1
 10
1809.638278156486
 20
3908.6541628245941
 30
0.0
 11
1809.638278156486
 21
4283.6541628245941
 31
0.0
  0
DIMENSION
  5
7DC9
  8
3
  2
*D20
 10
3500.7762554624592
 20
2560.4278103853931
 30
0.0
 11
3404.7762554624592
 21
2615.4278103853931
 31
0.0
 70
     0
 13
3308.7762554624592
 23
2384.3112346064622
 33
0.0
 14
3500.7762554624592
 24
2269.6797421827569
 34
0.0
1001
ACAD
1000
DSTYLE
1002
{
1070
   287
1070
     3
1070
    40
1040
20.0
1070
   147
1040
1.5
1070
   173
1070
     1
1070
   272
1070
     4
1070
   279
1070
     0
1070
   284
1070
     0
1070
   285
1070
     0
1070
   286
1070
     0
1070
     6
1000
ARROW
1070
     7
1000
ARROW
1002
}
  0
DIMENSION
  5
7DCA
  8
3
  2
*D21
 10
3496.2762554624592
 20
2444.1436902347282
 30
0.0
 11
3308.7762554624592
 21
2499.1436902347282
 31
0.0
 70
     0
 13
3121.2762554624592
 23
2354.6797421827559
 33
0.0
 14
3496.2762554624592
 24
2354.6797421827559
 34
0.0
1001
ACAD
1000
DSTYLE
1002
{
1070
   287
1070
     3
1070
    40
1040
20.0
1070
   147
1040
1.5
1070
   173
1070
     1
1070
   272
1070
     4
1070
   279
1070
     0
1070
   284
1070
     0
1070
   285
1070
     0
1070
   286
1070
     0
1070
     6
1000
ARROW
1070
     7
1000
ARROW
1002
}
  0
DIMENSION
  5
7DCB
  8
3
  2
*D22
 10
3538.7762554624578
 20
1182.7752338568939
 30
0.0
 11
3423.7762554624578
 21
1237.7752338568939
 31
0.0
 70
     0
 13
3308.7762554624592
 23
1343.201855650276
 33
0.0
 14
3538.7762554624578
 24
1371.6797421827559
 34
0.0
1001
ACAD
1000
DSTYLE
1002
{
1070
   287
1070
     3
1070
    40
1040
20.0
1070
   147
1040
1.5
1070
   173
1070
     1
1070
   272
1070
     4
1070
   279
1070
     0
1070
   284
1070
     0
1070
   285
1070
     0
1070
   286
1070
     0
1070
     6
1000
ARROW
1070
     7
1000
ARROW
1002
}
  0
LINE
  5
7DCC
  8
1
 10
3119.2762554624592
 20
2351.6797421827559
 30
0.0
 11
3498.2762554624601
 21
2351.6797421827559
 31
0.0
  0
LINE
  5
7DCD
  8
1
 10
3119.2762554624592
 20
2329.6797421827569
 30
0.0
 11
3498.2762554624601
 21
2329.6797421827569
 31
0.0
  0
LINE
  5
7DCE
  8
1
 10
3119.2762554624592
 20
2354.6797421827559
 30
0.0
 11
3498.2762554624601
 21
2354.6797421827559
 31
0.0
  0
LINE
  5
7DCF
  8
1
 10
2575.7762554624592
 20
2144.6797421827569
 30
0.0
 11
2575.7762554624592
 21
1591.679442182756
 31
0.0
  0
LINE
  5
7DD0
  8
2
 10
3308.7762554624592
 20
2384.3112346064622
 30
0.0
 11
3308.7762554624592
 21
1343.201855650276
 31
0.0
  0
LINE
  5
7DD1
  8
1
 10
3121.2762554624592
 20
1994.6797421827559
 30
0.0
 11
3121.2762554624592
 21
1559.6797421827571
 31
0.0
  0
LINE
  5
7DD2
  8
1
 10
3119.2762554624592
 20
1994.6797421827559
 30
0.0
 11
3119.2762554624578
 21
1559.6797421827571
 31
0.0
  0
LINE
  5
7DD3
  8
1
 10
3043.7762554624592
 20
1931.479742182757
 30
0.0
 11
3043.7762554624592
 21
1662.29185323569
 31
0.0
  0
LINE
  5
7DD4
  8
1
 10
2578.7762554624592
 20
1931.479742182757
 30
0.0
 11
2578.7762554624592
 21
1559.6797421827571
 31
0.0
  0
LINE
  5
7DD5
  8
1
 10
2575.5762554624589
 20
1642.679742182755
 30
0.0
 11
2575.5762554624598
 21
1559.6797421827571
 31
0.0
  0
LINE
  5
7DD6
  8
1
 10
3043.7762554624592
 20
1680.4620745727209
 30
0.0
 11
3043.7762554624592
 21
1559.6797421827571
 31
0.0
  0
POLYLINE
  5
7DD7
  8
1
 66
     1
 10
0.0
 20
0.0
 30
0.0
 70
     1
  0
VERTEX
  5
8179
  8
1
 10
3119.2762554624592
 20
1559.6797421827571
 30
0.0
  0
VERTEX
  5
817A
  8
1
 10
3119.2762554624592
 20
1599.6797421827571
 30
0.0
  0
VERTEX
  5
817B
  8
1
 10
3117.2762554624592
 20
1599.6797421827571
 30
0.0
 42
0.4142135623730951
  0
VERTEX
  5
817C
  8
1
 10
3114.2762554624592
 20
1596.6797421827559
 30
0.0
  0
VERTEX
  5
817D
  8
1
 10
3114.2762554624592
 20
1569.1797421827571
 30
0.0
 42
-0.4142135623730951
  0
VERTEX
  5
817E
  8
1
 10
3109.7762554624592
 20
1564.6797421827559
 30
0.0
  0
VERTEX
  5
817F
  8
1
 10
3082.2762554624592
 20
1564.6797421827559
 30
0.0
 42
0.4142135623730951
  0
VERTEX
  5
8180
  8
1
 10
3079.2762554624592
 20
1561.6797421827559
 30
0.0
  0
VERTEX
  5
8181
  8
1
 10
3079.2762554624592
 20
1559.6797421827571
 30
0.0
  0
SEQEND
  5
8182
  8
1
  0
LINE
  5
7DE2
  8
1
 10
3121.2762554624592
 20
1559.6797421827571
 30
0.0
 11
3121.2762554624592
 21
1548.231751374896
 31
0.0
  0
LINE
  5
7DE3
  8
1
 10
3119.2762554624578
 20
1559.6797421827571
 30
0.0
 11
3119.2762554624578
 21
1548.231751374896
 31
0.0
  0
LINE
  5
7DE4
  8
1
 10
3119.2762554624578
 20
1548.231751374896
 30
0.0
 11
3121.2762554624592
 21
1548.231751374896
 31
0.0
  0
LINE
  5
7DE5
  8
1
 10
2963.8762554624582
 20
2024.6797421827559
 30
0.0
 11
2985.1287737344919
 21
2024.6797421827559
 31
0.0
  0
LINE
  5
7DE6
  8
1
 10
2963.8762554624582
 20
1964.6797421827559
 30
0.0
 11
2973.2015884617649
 21
1964.6797421827559
 31
0.0
  0
LINE
  5
7DE7
  8
1
 10
2966.2762554624592
 20
1940.6797421827571
 30
0.0
 11
3031.2762554624592
 21
1940.6797421827571
 31
0.0
  0
LINE
  5
7DE8
  8
1
 10
2658.6762554624602
 20
1972.1797421827571
 30
0.0
 11
2963.8762554624582
 21
1972.1797421827571
 31
0.0
  0
LINE
  5
7DE9
  8
1
 10
2658.6762554624588
 20
2017.1797421827571
 30
0.0
 11
2963.8762554624591
 21
2017.1797421827571
 31
0.0
  0
LINE
  5
7DEA
  8
1
 10
2602.37625546246
 20
1978.1014913254851
 30
0.0
 11
2602.3762554624591
 21
2024.6797421827559
 31
0.0
  0
ARC
  5
7DEB
  8
1
 10
2385.9508671896729
 20
2038.0577847018769
 30
0.0
 40
224.57672587439311
 50
339.84563570863128
 51
1.250487140871362
  0
LINE
  5
7DEC
  8
1
 10
2658.6762554624602
 20
1964.6797421827559
 30
0.0
 11
2658.6762554624588
 21
2024.6797421827559
 31
0.0
  0
ARC
  5
7DED
  8
1
 10
2861.6016437352469
 20
2038.0577847018769
 30
0.0
 40
224.57672587439311
 50
178.75196597161769
 51
200.15436429136861
  0
LINE
  5
7DEE
  8
2
 10
2623.7762554624592
 20
2068.1601522503702
 30
0.0
 11
2623.7762554624592
 21
1919.487202399951
 31
0.0
  0
LINE
  5
7DEF
  8
1
 10
2575.5762554624589
 20
1931.479742182757
 30
0.0
 11
2575.5762554624589
 21
1862.6794421827569
 31
0.0
  0
LINE
  5
7DF0
  8
1
 10
2596.7762554624592
 20
1940.6797421827571
 30
0.0
 11
2650.7762554624592
 21
1940.6797421827571
 31
0.0
  0
LINE
  5
7DF1
  8
1
 10
2650.7762554624601
 20
1940.6797421827571
 30
0.0
 11
2596.7762554624601
 21
1940.6797421827571
 31
0.0
  0
LINE
  5
7DF2
  8
1
 10
2650.7762554624601
 20
1960.6797421827559
 30
0.0
 11
2596.7762554624601
 21
1960.6797421827559
 31
0.0
  0
LINE
  5
7DF3
  8
1
 10
2656.2762554624592
 20
1940.6797421827571
 30
0.0
 11
2591.2762554624592
 21
1940.6797421827571
 31
0.0
  0
LINE
  5
7DF4
  8
1
 10
2596.7762554624592
 20
1940.6797421827571
 30
0.0
 11
2650.7762554624592
 21
1940.6797421827571
 31
0.0
  0
LINE
  5
7DF5
  8
1
 10
2596.7762554624601
 20
1940.6797421827571
 30
0.0
 11
2596.7762554624601
 21
1960.6797421827559
 31
0.0
  0
LINE
  5
7DF6
  8
1
 10
2591.2762554624592
 20
1940.6797421827571
 30
0.0
 11
2591.2762554624592
 21
1934.6797421827571
 31
0.0
  0
LINE
  5
7DF7
  8
1
 10
2658.6762554624602
 20
1964.6797421827559
 30
0.0
 11
2649.350922463153
 21
1964.6797421827559
 31
0.0
  0
LINE
  5
7DF8
  8
1
 10
2650.7762554624601
 20
1940.6797421827571
 30
0.0
 11
2650.7762554624601
 21
1960.6797421827559
 31
0.0
  0
LINE
  5
7DF9
  8
1
 10
2656.2762554624592
 20
1940.6797421827571
 30
0.0
 11
2656.2762554624592
 21
1934.6797421827571
 31
0.0
  0
ARC
  5
7DFA
  8
1
 10
2623.743254832767
 20
1987.4767478499909
 30
0.0
 40
61.203003229727571
 50
81.470321513412159
 51
98.461868303637843
  0
LINE
  5
7DFB
  8
1
 10
2610.128773734496
 20
2024.6797421827559
 30
0.0
 11
2602.3762554624591
 21
2024.6797421827559
 31
0.0
  0
ARC
  5
7DFC
  8
1
 10
2615.472917431237
 20
2043.0679260287779
 30
0.0
 40
5.0
 50
98.461868303636777
 51
181.25048714087211
  0
POLYLINE
  5
7DFD
  8
1
 66
     1
 10
0.0
 20
0.0
 30
0.0
 70
     1
  0
VERTEX
  5
8183
  8
1
 10
2631.52978045788
 20
2059.8838547325872
 30
0.0
  0
VERTEX
  5
8184
  8
1
 10
2624.6207894305949
 20
2059.8838547325872
 30
0.0
  0
VERTEX
  5
8185
  8
1
 10
2624.6207894305949
 20
2048.6797421827559
 30
0.0
  0
VERTEX
  5
8186
  8
1
 10
2631.52978045788
 20
2048.6797421827559
 30
0.0
  0
SEQEND
  5
8187
  8
1
  0
LINE
  5
7E03
  8
1
 10
2658.6762554624602
 20
2024.6797421827559
 30
0.0
 11
2637.423737190426
 21
2024.6797421827559
 31
0.0
  0
ARC
  5
7E04
  8
1
 10
2632.0793791954052
 20
2043.058099062888
 30
0.0
 40
5.0
 50
358.75196597161698
 51
81.470321513410241
  0
POINT
  5
7E05
  8
1
 10
2623.7762554624592
 20
2068.1601522503702
 30
0.0
  0
LINE
  5
7E06
  8
1
 10
2963.8762554624582
 20
1964.6797421827559
 30
0.0
 11
2963.8762554624591
 21
2024.6797421827559
 31
0.0
  0
LINE
  5
7E07
  8
1
 10
2966.2762554624592
 20
1940.6797421827571
 30
0.0
 11
2966.2762554624592
 21
1934.6797421827571
 31
0.0
  0
LINE
  5
7E08
  8
1
 10
3119.2762554624592
 20
2354.6797421827559
 30
0.0
 11
3119.2762554624592
 21
1994.6797421827559
 31
0.0
  0
LINE
  5
7E09
  8
1
 10
3121.2762554624592
 20
2354.6797421827559
 30
0.0
 11
3121.2762554624592
 21
1994.6797421827559
 31
0.0
  0
ARC
  5
7E0A
  8
1
 10
2760.950867189671
 20
2038.0577847018769
 30
0.0
 40
224.57672587439311
 50
339.84563570863122
 51
1.2480340283822391
  0
ARC
  5
7E0B
  8
1
 10
3236.6016437352441
 20
2038.0577847018769
 30
0.0
 40
224.57672587439311
 50
178.7495128591286
 51
200.15436429136861
  0
LINE
  5
7E0C
  8
1
 10
3020.1762554624579
 20
1978.1014913254851
 30
0.0
 11
3020.1762554624588
 21
2024.6797421827559
 31
0.0
  0
LINE
  5
7E0D
  8
2
 10
2998.7762554624578
 20
2070.5735454932701
 30
0.0
 11
2998.7762554624578
 21
1918.785938872242
 31
0.0
  0
LINE
  5
7E0E
  8
1
 10
3021.9046728243552
 20
1972.1797421827571
 30
0.0
 11
3119.2762554624592
 21
1972.1797421827571
 31
0.0
  0
POLYLINE
  5
7E0F
  8
1
 66
     1
 10
0.0
 20
0.0
 30
0.0
 70
     1
  0
VERTEX
  5
8188
  8
1
 10
3043.7762554624592
 20
1881.479742182757
 30
0.0
  0
VERTEX
  5
8189
  8
1
 10
3093.7762554624578
 20
1881.479742182757
 30
0.0
  0
VERTEX
  5
818A
  8
1
 10
3093.7762554624578
 20
1882.979742182757
 30
0.0
 42
0.4142135623730942
  0
VERTEX
  5
818B
  8
1
 10
3089.2762554624592
 20
1887.4797421827559
 30
0.0
  0
VERTEX
  5
818C
  8
1
 10
3056.2762554624578
 20
1887.4797421827559
 30
0.0
 42
-0.4142135623730951
  0
VERTEX
  5
818D
  8
1
 10
3049.7762554624578
 20
1893.979742182757
 30
0.0
  0
VERTEX
  5
818E
  8
1
 10
3049.7762554624578
 20
1926.979742182757
 30
0.0
 42
0.4142135623730951
  0
VERTEX
  5
818F
  8
1
 10
3045.2762554624592
 20
1931.479742182757
 30
0.0
  0
VERTEX
  5
8190
  8
1
 10
3043.7762554624592
 20
1931.479742182757
 30
0.0
  0
SEQEND
  5
8191
  8
1
  0
LINE
  5
7E1A
  8
1
 10
3046.976255462459
 20
1881.4797421827559
 30
0.0
 11
3119.2762554624578
 21
1881.4797421827559
 31
0.0
  0
LINE
  5
7E1B
  8
1
 10
3054.2762554624592
 20
1875.479742182757
 30
0.0
 11
3119.2762554624592
 21
1875.4797421827559
 31
0.0
  0
LINE
  5
7E1C
  8
1
 10
3054.2762554624592
 20
1881.4797421827559
 30
0.0
 11
3054.2762554624592
 21
1875.479742182757
 31
0.0
  0
LINE
  5
7E1D
  8
1
 10
2971.7762554624578
 20
1940.6797421827571
 30
0.0
 11
3025.7762554624578
 21
1940.6797421827571
 31
0.0
  0
LINE
  5
7E1E
  8
1
 10
2971.7762554624578
 20
1960.6797421827559
 30
0.0
 11
3025.7762554624578
 21
1960.6797421827559
 31
0.0
  0
LINE
  5
7E1F
  8
1
 10
3025.7762554624592
 20
1940.6797421827571
 30
0.0
 11
2971.7762554624592
 21
1940.6797421827571
 31
0.0
  0
LINE
  5
7E20
  8
1
 10
2971.7762554624578
 20
1940.6797421827571
 30
0.0
 11
2971.7762554624578
 21
1960.6797421827559
 31
0.0
  0
LINE
  5
7E21
  8
1
 10
3025.7762554624578
 20
1940.6797421827571
 30
0.0
 11
3025.7762554624578
 21
1960.6797421827559
 31
0.0
  0
LINE
  5
7E22
  8
1
 10
3053.7762554624592
 20
1934.6797421827571
 30
0.0
 11
3053.7762554624592
 21
1931.479742182757
 31
0.0
  0
LINE
  5
7E23
  8
1
 10
3031.2762554624592
 20
1940.6797421827571
 30
0.0
 11
3031.2762554624569
 21
1934.6797421827571
 31
0.0
  0
LINE
  5
7E24
  8
1
 10
3020.1762554624588
 20
2017.1797421827571
 30
0.0
 11
3119.2762554624592
 21
2017.1797421827571
 31
0.0
  0
LINE
  5
7E25
  8
1
 10
3012.4237371904228
 20
2024.6797421827559
 30
0.0
 11
3020.1762554624588
 21
2024.6797421827559
 31
0.0
  0
ARC
  5
7E26
  8
1
 10
2998.8092560921509
 20
1987.4767478499909
 30
0.0
 40
61.203003229727571
 50
81.538131696362171
 51
98.529678486587855
  0
ARC
  5
7E27
  8
1
 10
2990.4731317295132
 20
2043.058099062888
 30
0.0
 40
5.0
 50
98.529678486589773
 51
181.24803402838279
  0
ARC
  5
7E28
  8
1
 10
3007.0795934936809
 20
2043.0679260287779
 30
0.0
 40
5.0
 50
358.74951285912778
 51
81.538131696363237
  0
POLYLINE
  5
7E29
  8
1
 66
     1
 10
0.0
 20
0.0
 30
0.0
 70
     1
  0
VERTEX
  5
8192
  8
1
 10
2991.0227304670379
 20
2059.8838547325872
 30
0.0
  0
VERTEX
  5
8193
  8
1
 10
2997.9317214943221
 20
2059.8838547325872
 30
0.0
  0
VERTEX
  5
8194
  8
1
 10
2997.9317214943221
 20
2048.6797421827559
 30
0.0
  0
VERTEX
  5
8195
  8
1
 10
2991.0227304670379
 20
2048.6797421827559
 30
0.0
  0
SEQEND
  5
8196
  8
1
  0
POLYLINE
  5
7E2F
  8
1
 66
     1
 10
0.0
 20
0.0
 30
0.0
 70
     1
  0
VERTEX
  5
8197
  8
1
 10
3119.2762554624592
 20
2354.6797421827559
 30
0.0
  0
VERTEX
  5
8198
  8
1
 10
3119.2762554624592
 20
2329.6797421827569
 30
0.0
  0
VERTEX
  5
8199
  8
1
 10
3118.2762554624592
 20
2329.6797421827569
 30
0.0
 42
-0.4142135623730951
  0
VERTEX
  5
819A
  8
1
 10
3116.2762554624592
 20
2331.6797421827559
 30
0.0
  0
VERTEX
  5
819B
  8
1
 10
3116.2762554624592
 20
2347.6797421827559
 30
0.0
 42
0.4142135623730951
  0
VERTEX
  5
819C
  8
1
 10
3112.2762554624592
 20
2351.6797421827559
 30
0.0
  0
VERTEX
  5
819D
  8
1
 10
3096.2762554624592
 20
2351.6797421827559
 30
0.0
 42
-0.4142135623730951
  0
VERTEX
  5
819E
  8
1
 10
3094.2762554624592
 20
2353.6797421827569
 30
0.0
  0
VERTEX
  5
819F
  8
1
 10
3094.2762554624592
 20
2354.6797421827559
 30
0.0
  0
SEQEND
  5
81A0
  8
1
  0
POINT
  5
7E3A
  8
1
 10
3121.2762554624592
 20
2354.6797421827559
 30
0.0
  0
POINT
  5
7E3B
  8
1
 10
3119.2762554624592
 20
2354.6797421827559
 30
0.0
  0
DIMENSION
  5
7E3C
  8
3
  2
*D23
 10
3714.5503481469082
 20
1744.6797421827559
 30
0.0
 11
3659.5503481469082
 21
1994.6797421827571
 31
0.0
 70
     0
 13
3524.7762554624592
 23
2244.6797421827569
 33
0.0
 14
3524.7762554624592
 24
1744.6797421827559
 34
0.0
 50
90.0
1001
ACAD
1000
DSTYLE
1002
{
1070
   287
1070
     3
1070
     3
1000
φ<>
1070
    40
1040
20.0
1070
   147
1040
1.5
1070
   173
1070
     1
1070
   272
1070
     4
1070
   279
1070
     0
1070
   284
1070
     0
1070
   285
1070
     0
1070
   286
1070
     0
1070
     6
1000
ARROW
1070
     7
1000
ARROW
1002
}
  0
LINE
  5
7E3D
  8
1
 10
3503.7762554624592
 20
1988.6797421827571
 30
0.0
 11
3503.7762554624592
 21
1737.6797421827571
 31
0.0
  0
LINE
  5
7E3E
  8
1
 10
3525.7762554624592
 20
1988.6797421827571
 30
0.0
 11
3525.7762554624592
 21
1744.6797421827559
 31
0.0
  0
LINE
  5
7E3F
  8
1
 10
3500.7762554624592
 20
1744.6797421827559
 30
0.0
 11
3500.7762554624592
 21
1988.6797421827571
 31
0.0
  0
LINE
  5
7E40
  8
1
 10
3496.2762554624592
 20
1994.6797421827559
 30
0.0
 11
3496.2762554624592
 21
1559.6797421827571
 31
0.0
  0
LINE
  5
7E41
  8
1
 10
3498.2762554624601
 20
1994.6797421827559
 30
0.0
 11
3498.2762554624578
 21
1559.6797421827571
 31
0.0
  0
LINE
  5
7E42
  8
1
 10
3538.7762554624592
 20
1559.6797421827571
 30
0.0
 11
3538.7762554624592
 21
1484.6797421827559
 31
0.0
  0
LINE
  5
7E43
  8
1
 10
3538.7762554624592
 20
1446.6797421827559
 30
0.0
 11
3538.7762554624578
 21
1371.6797421827559
 31
0.0
  0
LINE
  5
7E44
  8
1
 10
3503.7762554624578
 20
1596.6797421827559
 30
0.0
 11
3503.7762554624578
 21
1569.1797421827571
 31
0.0
  0
LINE
  5
7E45
  8
1
 10
3538.7762554624578
 20
1559.6797421827571
 30
0.0
 11
3498.2762554624578
 21
1559.6797421827571
 31
0.0
  0
LINE
  5
7E46
  8
1
 10
3508.2762554624578
 20
1564.6797421827559
 30
0.0
 11
3535.7762554624578
 21
1564.6797421827559
 31
0.0
  0
ARC
  5
7E47
  8
1
 10
3508.2762554624578
 20
1569.1797421827571
 30
0.0
 40
4.5
 50
180.0
 51
270.0
  0
LINE
  5
7E48
  8
1
 10
3498.2762554624592
 20
1548.231751374896
 30
0.0
 11
3498.2762554624592
 21
1589.6797421827571
 31
0.0
  0
LINE
  5
7E49
  8
1
 10
3498.2762554624578
 20
1559.6797421827571
 30
0.0
 11
3498.2762554624578
 21
1548.231751374896
 31
0.0
  0
LINE
  5
7E4A
  8
1
 10
3496.2762554624592
 20
1559.6797421827571
 30
0.0
 11
3496.2762554624592
 21
1548.231751374896
 31
0.0
  0
LINE
  5
7E4B
  8
1
 10
3496.2762554624578
 20
1548.231751374896
 30
0.0
 11
3498.2762554624578
 21
1548.231751374896
 31
0.0
  0
LINE
  5
7E4C
  8
1
 10
3538.7762554624578
 20
1557.6797421827571
 30
0.0
 11
3538.7762554624578
 21
1559.6797421827571
 31
0.0
  0
LINE
  5
7E4D
  8
1
 10
3538.7762554624578
 20
1561.6797421827559
 30
0.0
 11
3538.7762554624578
 21
1559.6797421827571
 31
0.0
  0
ARC
  5
7E4E
  8
1
 10
3535.7762554624578
 20
1561.6797421827559
 30
0.0
 40
3.0
 50
0.0
 51
90.0
  0
ARC
  5
7E4F
  8
1
 10
3500.7762554624592
 20
1596.6797421827559
 30
0.0
 40
3.0
 50
0.0
 51
90.0
  0
LINE
  5
7E50
  8
1
 10
3498.7762554624592
 20
1599.6797421827571
 30
0.0
 11
3500.7762554624592
 21
1599.6797421827571
 31
0.0
  0
LINE
  5
7E51
  8
1
 10
3523.7762554624592
 20
1741.6797421827559
 30
0.0
 11
3507.7762554624592
 21
1741.6797421827559
 31
0.0
  0
LINE
  5
7E52
  8
1
 10
3500.7762554624592
 20
1744.6797421827559
 30
0.0
 11
3525.7762554624592
 21
1744.6797421827559
 31
0.0
  0
LINE
  5
7E53
  8
1
 10
3500.7762554624592
 20
1719.6797421827571
 30
0.0
 11
3499.2762554624592
 21
1719.6797421827571
 31
0.0
  0
LINE
  5
7E54
  8
1
 10
3500.7762554624592
 20
1719.6797421827571
 30
0.0
 11
3500.7762554624592
 21
1744.6797421827559
 31
0.0
  0
LINE
  5
7E55
  8
1
 10
3501.7762554624592
 20
1719.6797421827571
 30
0.0
 11
3500.7762554624592
 21
1719.6797421827571
 31
0.0
  0
ARC
  5
7E56
  8
1
 10
3501.7762554624592
 20
1721.6797421827559
 30
0.0
 40
2.0
 50
270.0
 51
0.0
  0
LINE
  5
7E57
  8
1
 10
3503.7762554624592
 20
1737.6797421827571
 30
0.0
 11
3503.7762554624592
 21
1721.6797421827559
 31
0.0
  0
ARC
  5
7E58
  8
1
 10
3507.7762554624592
 20
1737.6797421827571
 30
0.0
 40
4.0
 50
90.0
 51
180.0
  0
ARC
  5
7E59
  8
1
 10
3523.7762554624592
 20
1743.6797421827571
 30
0.0
 40
2.0
 50
270.0
 51
0.0
  0
LINE
  5
7E5A
  8
1
 10
3525.7762554624592
 20
1744.6797421827559
 30
0.0
 11
3525.7762554624592
 21
1743.6797421827571
 31
0.0
  0
LINE
  5
7E5B
  8
1
 10
3500.7762554624592
 20
1988.6797421827571
 30
0.0
 11
3500.7762554624592
 21
2244.6797421827569
 31
0.0
  0
LINE
  5
7E5C
  8
1
 10
3498.2762554624601
 20
2354.6797421827559
 30
0.0
 11
3498.2762554624592
 21
1994.6797421827559
 31
0.0
  0
LINE
  5
7E5D
  8
1
 10
3496.2762554624592
 20
2354.6797421827559
 30
0.0
 11
3496.2762554624592
 21
1994.6797421827559
 31
0.0
  0
LINE
  5
7E5E
  8
1
 10
3525.7762554624592
 20
2244.6797421827569
 30
0.0
 11
3525.7762554624592
 21
1988.6797421827571
 31
0.0
  0
LINE
  5
7E5F
  8
1
 10
3503.7762554624592
 20
2251.679703152894
 30
0.0
 11
3503.7762554624592
 21
1988.6797421827571
 31
0.0
  0
POLYLINE
  5
7E60
  8
1
 66
     1
 10
0.0
 20
0.0
 30
0.0
 70
     1
  0
VERTEX
  5
81AA
  8
1
 10
3500.7762554624592
 20
2244.6797421827569
 30
0.0
  0
VERTEX
  5
81AB
  8
1
 10
3525.7762554624592
 20
2244.6797421827569
 30
0.0
  0
VERTEX
  5
81AC
  8
1
 10
3525.7762554624592
 20
2245.6797421827569
 30
0.0
 42
0.4142135623730951
  0
VERTEX
  5
81AD
  8
1
 10
3523.7762554624592
 20
2247.6797421827569
 30
0.0
  0
VERTEX
  5
81AE
  8
1
 10
3507.7762554624592
 20
2247.6797421827569
 30
0.0
 42
-0.4142135623730951
  0
VERTEX
  5
81AF
  8
1
 10
3503.7762554624592
 20
2251.6797421827559
 30
0.0
  0
VERTEX
  5
81B0
  8
1
 10
3503.7762554624592
 20
2267.6797421827559
 30
0.0
 42
0.4142135623730951
  0
VERTEX
  5
81B1
  8
1
 10
3501.7762554624592
 20
2269.6797421827569
 30
0.0
  0
VERTEX
  5
81B2
  8
1
 10
3500.7762554624592
 20
2269.6797421827569
 30
0.0
  0
SEQEND
  5
81B3
  8
1
  0
LINE
  5
7E6B
  8
1
 10
3501.5762554624589
 20
2269.6797421827569
 30
0.0
 11
3499.2762554624592
 21
2269.6797421827569
 31
0.0
  0
POLYLINE
  5
7E6C
  8
1
 66
     1
 10
0.0
 20
0.0
 30
0.0
 70
     1
  0
VERTEX
  5
81B4
  8
1
 10
3498.2762554624592
 20
2354.6797421827559
 30
0.0
  0
VERTEX
  5
81B5
  8
1
 10
3498.2762554624592
 20
2329.6797421827569
 30
0.0
  0
VERTEX
  5
81B6
  8
1
 10
3499.2762554624592
 20
2329.6797421827569
 30
0.0
 42
0.4142135623730951
  0
VERTEX
  5
81B7
  8
1
 10
3501.2762554624592
 20
2331.6797421827559
 30
0.0
  0
VERTEX
  5
81B8
  8
1
 10
3501.2762554624592
 20
2347.6797421827559
 30
0.0
 42
-0.4142135623730951
  0
VERTEX
  5
81B9
  8
1
 10
3505.2762554624592
 20
2351.6797421827559
 30
0.0
  0
VERTEX
  5
81BA
  8
1
 10
3521.2762554624592
 20
2351.6797421827559
 30
0.0
 42
0.4142135623730951
  0
VERTEX
  5
81BB
  8
1
 10
3523.2762554624592
 20
2353.6797421827569
 30
0.0
  0
VERTEX
  5
81BC
  8
1
 10
3523.2762554624592
 20
2354.6797421827559
 30
0.0
  0
SEQEND
  5
81BD
  8
1
  0
POINT
  5
7E77
  8
1
 10
3498.2762554624592
 20
2354.6797421827559
 30
0.0
  0
POINT
  5
7E78
  8
1
 10
3496.2762554624592
 20
2354.6797421827559
 30
0.0
  0
LINE
  5
806F
  8
4
 10
3700.0
 20
1000.0
 30
0.0
 11
3700.0
 21
600.0
 31
0.0
  0
LINE
  5
8070
  8
4
 10
2300.0
 20
1000.0
 30
0.0
 11
2300.0
 21
600.0
 31
0.0
  0
LINE
  5
8071
  8
4
 10
1300.0
 20
1000.0
 30
0.0
 11
1300.0
 21
600.0
 31
0.0
  0
LINE
  5
8074
  8
4
 10
1300.0
 20
600.0
 30
0.0
 11
3700.0
 21
600.0
 31
0.0
  0
LINE
  5
8075
  8
4
 10
1300.0
 20
800.0
 30
0.0
 11
3700.0
 21
800.0
 31
0.0
  0
TEXT
  5
8076
  8
4
 10
1377.0041616938031
 20
863.08605173322564
 30
0.0
 40
100.0
  1
機器名称
  0
TEXT
  5
8077
  8
4
 10
1372.516212049595
 20
643.29031346402189
 30
0.0
 40
100.0
  1
機器型番
  0
TEXT
  5
8078
  8
4
 10
2309.586123402084
 20
844.3746047138942
 30
0.0
 40
90.0
  1
ミツヤ多翼送風機
  0
TEXT
  5
8079
  8
4
 10
2373.3089911709608
 20
634.31916855988675
 30
0.0
 40
100.0
  1
MF#3-1
  0
TEXT
  5
807B
  8
4
 10
1539.251891789397
 20
4766.8576826650306
 30
0.0
 40
107.9999999999999
  1
床置防振ベット
  0
TEXT
  5
807C
  8
4
 10
632.33518665889278
 20
5067.7619523985959
 30
0.0
 40
144.0
  1
遠心式片吸込片持多翼ファン
  0
LINE
  5
807D
  8
4
 10
500.0
 20
4938.8175085296089
 30
0.0
 11
3700.0
 21
4938.8175085296089
 31
0.0
  0
LINE
  5
807E
  8
4
 10
500.0
 20
5338.8175085296098
 30
0.0
 11
3700.0
 21
5338.8175085296098
 31
0.0
  0
LINE
  5
807F
  8
4
 10
1300.0
 20
1000.0
 30
0.0
 11
3700.0
 21
1000.0
 31
0.0
  0
LINE
  5
8080
  8
4
 10
500.0
 20
5338.8175085296098
 30
0.0
 11
500.0
 21
4938.8175085296089
 31
0.0
  0
TEXT
  5
8081
  8
4
 10
667.53422730399325
 20
4764.638955092687
 30
0.0
 40
107.9999999999999
  1
右回転上向
  0
TEXT
  5
8082
  8
4
 10
2937.9391184985789
 20
5412.1221629906177
 30
0.0
 40
112.0
  1
No.
  0
TEXT
  5
8083
  8
4
 10
2622.5921252000262
 20
4766.8576826650306
 30
0.0
 40
107.9999999999999
  1
縮尺：1/20
  0
LINE
  5
8084
  8
4
 10
3700.0
 20
5338.8175085296098
 30
0.0
 11
3700.0
 21
4938.8175085296089
 31
0.0
  0
LINE
  5
8085
  8
4
 10
4200.0
 20
5900.0
 30
0.0
 11
4200.0
 21
5900.0
 31
0.0
  0
LINE
  5
8086
  8
4
 10
2881.2348447197292
 20
5362.5271662508021
 30
0.0
 11
2881.2348447197292
 21
5573.3045230995049
 31
0.0
  0
LINE
  5
8087
  8
4
 10
2881.2348447197292
 20
5573.3045230995049
 30
0.0
 11
3700.0
 21
5573.3045230995049
 31
0.0
  0
LINE
  5
8088
  8
4
 10
3700.0
 20
5573.3045230995049
 30
0.0
 11
3700.0
 21
5362.5271662508021
 31
0.0
  0
LINE
  5
8089
  8
4
 10
3700.0
 20
5362.5271662508021
 30
0.0
 11
2881.2348447197292
 21
5362.5271662508021
 31
0.0
  0
LINE
  5
808A
  8
4
 10
0.0
 20
0.0
 30
0.0
 11
0.0
 21
5900.0
 31
0.0
  0
LINE
  5
808B
  8
4
 10
0.0
 20
5900.0
 30
0.0
 11
4200.0
 21
5900.0
 31
0.0
  0
LINE
  5
808C
  8
4
 10
4200.0
 20
5900.0
 30
0.0
 11
4200.0
 21
0.0
 31
0.0
  0
LINE
  5
808D
  8
4
 10
4200.0
 20
0.0
 30
0.0
 11
0.0
 21
0.0
 31
0.0
  0
DIMENSION
  5
80A0
  8
3
  2
*D24
 10
2222.5714744305801
 20
1371.6797421827559
 30
0.0
 11
2172.5714744305801
 21
1863.1797421827571
 31
0.0
 70
     0
 13
1440.1625825441461
 23
2354.6797421827569
 33
0.0
 14
1698.5902873486259
 24
1371.6797421827559
 34
0.0
 50
90.0
1001
ACAD
1000
DSTYLE
1002
{
1070
   287
1070
     3
1070
    40
1040
20.0
1070
   143
1040
0.039
1070
   172
1070
     1
1070
   271
1070
     0
1070
   279
1070
     0
1002
}
  0
DIMENSION
  5
80AD
  8
3
  2
*D25
 10
618.59028734862704
 20
2658.1707206863612
 30
0.0
 11
1214.1142827525571
 21
2708.1707206863612
 31
0.0
 70
     0
 13
1809.638278156486
 23
1977.6797421827571
 33
0.0
 14
618.59028734862704
 24
1559.6797421827571
 34
0.0
1001
ACAD
1000
DSTYLE
1002
{
1070
   287
1070
     3
1070
    40
1040
20.0
1070
   143
1040
0.039
1070
   172
1070
     1
1070
   271
1070
     0
1070
   279
1070
     0
1002
}
  0
ENDSEC
  0
EOF
