  0
SECTION
  2
HEADER
  9
$ACADVER
  1
AC1009
  9
$INSBASE
 10
0.0
 20
0.0
 30
0.0
  9
$EXTMIN
 10
0.0
 20
0.0
 30
0.0
  9
$EXTMAX
 10
4200.0
 20
5900.0
 30
0.0
  9
$LIMMIN
 10
0.0
 20
0.0
  9
$LIMMAX
 10
297.0
 20
210.0
  9
$ORTHOMODE
 70
     0
  9
$REGENMODE
 70
     1
  9
$FILLMODE
 70
     0
  9
$QTEXTMODE
 70
     0
  9
$MIRRTEXT
 70
     1
  9
$DRAGMODE
 70
     2
  9
$LTSCALE
 40
100.0
  9
$OSMODE
 70
    37
  9
$ATTMODE
 70
     1
  9
$TEXTSIZE
 40
180.0
  9
$TRACEWID
 40
0.05
  9
$TEXTSTYLE
  7
STANDARD
  9
$CLAYER
  8
4
  9
$CELTYPE
  6
BYLAYER
  9
$CECOLOR
 62
   256
  9
$DIMSCALE
 40
20.0
  9
$DIMASZ
 40
2.0
  9
$DIMEXO
 40
0.5
  9
$DIMDLI
 40
10.0
  9
$DIMRND
 40
0.0
  9
$DIMDLE
 40
0.0
  9
$DIMEXE
 40
1.0
  9
$DIMTP
 40
1.0
  9
$DIMTM
 40
1.0
  9
$DIMTXT
 40
3.0
  9
$DIMCEN
 40
0.0
  9
$DIMTSZ
 40
0.0
  9
$DIMTOL
 70
     0
  9
$DIMLIM
 70
     0
  9
$DIMTIH
 70
     0
  9
$DIMTOH
 70
     0
  9
$DIMSE1
 70
     0
  9
$DIMSE2
 70
     0
  9
$DIMTAD
 70
     1
  9
$DIMZIN
 70
     8
  9
$DIMBLK
  1

  9
$DIMASO
 70
     1
  9
$DIMSHO
 70
     1
  9
$DIMPOST
  1

  9
$DIMAPOST
  1

  9
$DIMALT
 70
     0
  9
$DIMALTD
 70
     2
  9
$DIMALTF
 40
0.039
  9
$DIMLFAC
 40
1.0
  9
$DIMTOFL
 70
     1
  9
$DIMTVP
 40
0.0
  9
$DIMTIX
 70
     0
  9
$DIMSOXD
 70
     0
  9
$DIMSAH
 70
     1
  9
$DIMBLK1
  1
OPEN
  9
$DIMBLK2
  1
OPEN
  9
$DIMSTYLE
  2
IGA
  9
$DIMCLRD
 70
     0
  9
$DIMCLRE
 70
     0
  9
$DIMCLRT
 70
     0
  9
$DIMTFAC
 40
10.0
  9
$DIMGAP
 40
1.0
  9
$LUNITS
 70
     2
  9
$LUPREC
 70
     3
  9
$SKETCHINC
 40
0.1
  9
$FILLETRAD
 40
50.0
  9
$AUNITS
 70
     0
  9
$AUPREC
 70
     0
  9
$MENU
  1
acad
  9
$ELEVATION
 40
0.0
  9
$PELEVATION
 40
0.0
  9
$THICKNESS
 40
0.0
  9
$LIMCHECK
 70
     0
  9
$BLIPMODE
 70
     0
  9
$CHAMFERA
 40
0.5
  9
$CHAMFERB
 40
0.5
  9
$SKPOLY
 70
     0
  9
$TDCREATE
 40
2451019.6417248831
  9
$TDUPDATE
 40
2454953.7544737379
  9
$TDINDWG
 40
0.0120264583
  9
$TDUSRTIMER
 40
0.0120264583
  9
$USRTIMER
 70
     1
  9
$ANGBASE
 50
0.0
  9
$ANGDIR
 70
     0
  9
$PDMODE
 70
     0
  9
$PDSIZE
 40
0.0
  9
$PLINEWID
 40
0.0
  9
$COORDS
 70
     1
  9
$SPLFRAME
 70
     0
  9
$SPLINETYPE
 70
     6
  9
$SPLINESEGS
 70
     8
  9
$ATTDIA
 70
     0
  9
$ATTREQ
 70
     1
  9
$HANDLING
 70
 10241
  9
$HANDSEED
  5
82A1
  9
$SURFTAB1
 70
     6
  9
$SURFTAB2
 70
     6
  9
$SURFTYPE
 70
     6
  9
$SURFU
 70
     6
  9
$SURFV
 70
     6
  9
$UCSNAME
  2

  9
$UCSORG
 10
0.0
 20
0.0
 30
0.0
  9
$UCSXDIR
 10
1.0
 20
0.0
 30
0.0
  9
$UCSYDIR
 10
0.0
 20
1.0
 30
0.0
  9
$PUCSNAME
  2

  9
$PUCSORG
 10
0.0
 20
0.0
 30
0.0
  9
$PUCSXDIR
 10
1.0
 20
0.0
 30
0.0
  9
$PUCSYDIR
 10
0.0
 20
1.0
 30
0.0
  9
$USERI1
 70
     0
  9
$USERI2
 70
     0
  9
$USERI3
 70
     0
  9
$USERI4
 70
     0
  9
$USERI5
 70
     0
  9
$USERR1
 40
0.0
  9
$USERR2
 40
0.0
  9
$USERR3
 40
0.0
  9
$USERR4
 40
0.0
  9
$USERR5
 40
0.0
  9
$WORLDVIEW
 70
     1
  9
$SHADEDGE
 70
     3
  9
$SHADEDIF
 70
    70
  9
$TILEMODE
 70
     1
  9
$MAXACTVP
 70
    16
  9
$PLIMCHECK
 70
     0
  9
$PEXTMIN
 10
1.0000000000000000E+020
 20
1.0000000000000000E+020
 30
1.0000000000000000E+020
  9
$PEXTMAX
 10
-1.0000000000000000E+020
 20
-1.0000000000000000E+020
 30
-1.0000000000000000E+020
  9
$PLIMMIN
 10
0.0
 20
0.0
  9
$PLIMMAX
 10
12.0
 20
9.0
  9
$UNITMODE
 70
     0
  9
$VISRETAIN
 70
     0
  9
$PLINEGEN
 70
     0
  9
$PSLTSCALE
 70
     1
  0
ENDSEC
  0
SECTION
  2
TABLES
  0
TABLE
  2
VPORT
 70
     2
  0
VPORT
  2
*ACTIVE
 70
     0
 10
0.0
 20
0.0
 11
1.0
 21
1.0
 12
7073.5234687367147
 22
2950.0000274748518
 13
0.0
 23
0.0
 14
10.0
 24
10.0
 15
10.0
 25
10.0
 16
0.0
 26
0.0
 36
1.0
 17
0.0
 27
0.0
 37
0.0
 40
5945.5926340620017
 41
3.1666666666666661
 42
50.0
 43
0.0
 44
0.0
 50
0.0
 51
0.0
 71
     0
 72
   100
 73
     1
 74
     0
 75
     0
 76
     0
 77
     0
 78
     0
  0
ENDTAB
  0
TABLE
  2
LTYPE
 70
     2
  0
LTYPE
  2
CONTINUOUS
 70
     0
  3
Solid line
 72
    65
 73
     0
 40
0.0
  0
LTYPE
  2
CENTER
 70
     0
  3
____ _ ____ _ ____ _ ____ _ ____ _ ____ _ ____ 
 72
    65
 73
     4
 40
2.0
 49
1.25
 49
-0.25
 49
0.25
 49
-0.25
  0
ENDTAB
  0
TABLE
  2
LAYER
 70
     7
  0
LAYER
  2
0
 70
     0
 62
     7
  6
CONTINUOUS
  0
LAYER
  2
3
 70
     0
 62
     2
  6
CONTINUOUS
  0
LAYER
  2
2
 70
     0
 62
     3
  6
CENTER
  0
LAYER
  2
1
 70
     0
 62
     4
  6
CONTINUOUS
  0
LAYER
  2
4
 70
     0
 62
     7
  6
CONTINUOUS
  0
LAYER
  2
SUNPOU
 70
     0
 62
     2
  6
CONTINUOUS
  0
LAYER
  2
DEFPOINTS
 70
     0
 62
     7
  6
CONTINUOUS
  0
ENDTAB
  0
TABLE
  2
STYLE
 70
     1
  0
STYLE
  2
STANDARD
 70
     0
 40
0.0
 41
1.0
 50
0.0
 71
     0
 42
180.0
  3
simplex.shx
  4
extfont.shx
  0
ENDTAB
  0
TABLE
  2
VIEW
 70
     0
  0
ENDTAB
  0
TABLE
  2
UCS
 70
     0
  0
ENDTAB
  0
TABLE
  2
APPID
 70
     1
  0
APPID
  2
ACAD
 70
     0
  0
ENDTAB
  0
TABLE
  2
DIMSTYLE
 70
     2
  0
DIMSTYLE
  2
IGA
 70
     0
  3

  4

  5

  6
OPEN
  7
OPEN
 40
2.0
 41
2.0
 42
0.5
 43
10.0
 44
1.0
 45
0.0
 46
0.0
 47
1.0
 48
1.0
140
3.0
141
0.0
142
0.0
143
0.03937
144
1.0
145
0.0
146
10.0
147
1.0
 71
     0
 72
     0
 73
     0
 74
     0
 75
     0
 76
     0
 77
     1
 78
     8
170
     0
171
     2
172
     0
173
     1
174
     0
175
     0
176
     0
177
     0
178
     0
  0
DIMSTYLE
  2
DIA1
 70
     0
  3

  4

  5
ARROW
  6

  7

 40
1.0
 41
2.0
 42
1.0
 43
10.0
 44
1.0
 45
0.0
 46
0.0
 47
0.0
 48
0.0
140
2.5
141
0.0
142
0.0
143
25.399999999999999
144
1.0
145
0.0
146
1.0
147
0.09
 71
     0
 72
     0
 73
     0
 74
     0
 75
     0
 76
     0
 77
     1
 78
     8
170
     0
171
     2
172
     1
173
     0
174
     0
175
     0
176
     2
177
     2
178
     2
  0
ENDTAB
  0
ENDSEC
  0
SECTION
  2
BLOCKS
  0
BLOCK
  8
0
  2
$MODEL_SPACE
 70
     0
 10
0.0
 20
0.0
 30
0.0
  3
$MODEL_SPACE
  1

  0
ENDBLK
  5
1B
  8
0
  0
BLOCK
 67
     1
  8
0
  2
$PAPER_SPACE
 70
     0
 10
0.0
 20
0.0
 30
0.0
  3
$PAPER_SPACE
  1

  0
ENDBLK
  5
18
 67
     1
  8
0
  0
BLOCK
  8
0
  2
YA_N
 70
     0
 10
0.0
 20
0.0
 30
0.0
  3
YA_N
  1

  0
ENDBLK
  5
79FE
  8
0
  0
BLOCK
  8
0
  2
ARROW
 70
     0
 10
0.0
 20
0.0
 30
0.0
  3
ARROW
  1

  0
LINE
  5
7A00
  8
0
 10
-0.9999999999999991
 20
0.1666666667000003
 30
0.0
 11
0.0
 21
0.0
 31
0.0
  0
LINE
  5
7A01
  8
0
 10
-0.9999999999999991
 20
0.0
 30
0.0
 11
0.0
 21
0.0
 31
0.0
  0
LINE
  5
7A02
  8
0
 10
-0.9999999999999991
 20
-0.1666666667000003
 30
0.0
 11
0.0
 21
0.0
 31
0.0
  0
ENDBLK
  5
7A04
  8
0
  0
BLOCK
  8
0
  2
_OPEN
 70
     0
 10
0.0
 20
0.0
 30
0.0
  3
_OPEN
  1

  0
LINE
  5
7A06
  8
0
  6
BYBLOCK
 62
     0
 10
-1.0
 20
0.1666666666666666
 30
0.0
 11
0.0
 21
0.0
 31
0.0
  0
LINE
  5
7A07
  8
0
  6
BYBLOCK
 62
     0
 10
0.0
 20
0.0
 30
0.0
 11
-1.0
 21
-0.1666666666666666
 31
0.0
  0
LINE
  5
7A08
  8
0
  6
BYBLOCK
 62
     0
 10
0.0
 20
0.0
 30
0.0
 11
-1.0
 21
0.0
 31
0.0
  0
ENDBLK
  5
7A0A
  8
0
  0
BLOCK
  8
0
  2
L02503
 70
     0
 10
0.0
 20
0.0
 30
0.0
  3
L02503
  1

  0
LINE
  5
7A0C
  8
0
 10
81.202663485604475
 20
85.280529856043884
 30
0.0
 11
106.2026634856044
 21
85.280529856043884
 31
0.0
  0
LINE
  5
7A0D
  8
0
 10
106.2026634856044
 20
85.280529856043884
 30
0.0
 11
106.2026634856044
 21
86.28052985604387
 31
0.0
  0
LINE
  5
7A0E
  8
0
 10
88.202663485604475
 20
88.280529856043856
 30
0.0
 11
104.2026634856044
 21
88.28052985604387
 31
0.0
  0
ARC
  5
7A0F
  8
0
 10
104.2026634856044
 20
86.28052985604387
 30
0.0
 40
2.0
 50
359.9999999999992
 51
89.999999999999588
  0
LINE
  5
7A10
  8
0
 10
81.202663485604475
 20
85.280529856043884
 30
0.0
 11
81.202663485604475
 21
110.2805298560438
 31
0.0
  0
LINE
  5
7A11
  8
0
 10
84.202663485604504
 20
92.280529856043856
 30
0.0
 11
84.202663485604504
 21
108.2805298560438
 31
0.0
  0
LINE
  5
7A12
  8
0
 10
81.202663485604475
 20
110.2805298560438
 30
0.0
 11
82.202663485604475
 21
110.2805298560438
 31
0.0
  0
ARC
  5
7A13
  8
0
 10
82.202663485604475
 20
108.2805298560438
 30
0.0
 40
2.0
 50
0.0
 51
90.00000000000081
  0
ARC
  5
7A14
  8
0
 10
88.202663485604475
 20
92.280529856043856
 30
0.0
 40
4.0
 50
180.0
 51
270.0
  0
ENDBLK
  5
7A16
  8
0
  0
BLOCK
  8
0
  2
*D4
 70
     1
 10
0.0
 20
0.0
 30
0.0
  3
*D4
  1

  0
LINE
  5
81A4
  8
3
 62
     2
 10
962.0168404095524
 20
2020.168048020744
 30
0.0
 11
962.0168404095524
 21
2686.4351676492488
 31
0.0
  0
LINE
  5
81A5
  8
3
 62
     2
 10
1357.064831217413
 20
2666.4351676492488
 30
0.0
 11
1002.0168404095519
 21
2666.4351676492488
 31
0.0
  0
INSERT
  5
81A6
  8
3
 62
     2
  2
ARROW
 10
1397.064831217413
 20
2666.4351676492488
 30
0.0
 41
40.0
 42
40.0
 43
40.0
  0
INSERT
  5
81A7
  8
3
 62
     2
  2
ARROW
 10
962.0168404095524
 20
2666.4351676492488
 30
0.0
 41
40.0
 42
40.0
 43
40.0
 50
180.0
  0
TEXT
  8
3
  40
50
  5
828C
  62
2
  72
0
  71
0
 10
1079.54
 20
2632.94
 30
0.000000
  1
435
  0
POINT
  5
81A9
  8
DEFPOINTS
 62
     0
 10
1397.064831217413
 20
2574.09347719885
 30
0.0
  0
POINT
  5
81AA
  8
DEFPOINTS
 62
     0
 10
962.0168404095524
 20
2000.168048020744
 30
0.0
  0
POINT
  5
81AB
  8
DEFPOINTS
 62
     0
 10
962.0168404095524
 20
2666.4351676492488
 30
0.0
  0
ENDBLK
  5
7F32
  8
0
  0
BLOCK
  8
0
  2
*D5
 70
     1
 10
0.0
 20
0.0
 30
0.0
  3
*D5
  1

  0
LINE
  5
81AC
  8
3
 62
     2
 10
1667.064831217413
 20
1513.168048020744
 30
0.0
 11
2341.5419632943031
 21
1513.168048020744
 31
0.0
  0
LINE
  5
81AD
  8
3
 62
     2
 10
1777.064831217413
 20
2528.174526724873
 30
0.0
 11
2341.5419632943031
 21
2528.174526724873
 31
0.0
  0
LINE
  5
81AE
  8
3
 62
     2
 10
2321.541963294304
 20
1553.168048020744
 30
0.0
 11
2321.541963294304
 21
2488.174526724873
 31
0.0
  0
INSERT
  5
81AF
  8
3
 62
     2
  2
ARROW
 10
2321.541963294304
 20
1513.168048020744
 30
0.0
 41
40.0
 42
40.0
 43
40.0
 50
270.0
  0
INSERT
  5
81B0
  8
3
 62
     2
  2
ARROW
 10
2321.541963294304
 20
2528.174526724873
 30
0.0
 41
40.0
 42
40.0
 43
40.0
 50
90.0
  0
TEXT
  8
3
  40
50
  5
828D
  62
2
  72
0
  71
0
 10
2166.54
 20
1932.17
 30
0.000000
  1
1015
  0
POINT
  5
81B2
  8
DEFPOINTS
 62
     0
 10
1647.064831217413
 20
1513.168048020744
 30
0.0
  0
POINT
  5
81B3
  8
DEFPOINTS
 62
     0
 10
1757.064831217413
 20
2528.174526724873
 30
0.0
  0
POINT
  5
81B4
  8
DEFPOINTS
 62
     0
 10
2321.541963294304
 20
2528.174526724873
 30
0.0
  0
ENDBLK
  5
7F3D
  8
0
  0
BLOCK
  8
0
  2
*D6
 70
     1
 10
0.0
 20
0.0
 30
0.0
  3
*D6
  1

  0
LINE
  5
81B5
  8
3
 62
     2
 10
1777.064831217413
 20
2501.1680480207442
 30
0.0
 11
2057.2219079403139
 21
2501.1680480207442
 31
0.0
  0
LINE
  5
81B6
  8
3
 62
     2
 10
1860.211324533657
 20
1963.168048020744
 30
0.0
 11
2057.2219079403139
 21
1963.168048020744
 31
0.0
  0
LINE
  5
81B7
  8
3
 62
     2
 10
2037.2219079403139
 20
2461.1680480207442
 30
0.0
 11
2037.2219079403139
 21
2003.168048020744
 31
0.0
  0
INSERT
  5
81B8
  8
3
 62
     2
  2
ARROW
 10
2037.2219079403139
 20
2501.1680480207442
 30
0.0
 41
40.0
 42
40.0
 43
40.0
 50
90.0
  0
INSERT
  5
81B9
  8
3
 62
     2
  2
ARROW
 10
2037.2219079403139
 20
1963.168048020744
 30
0.0
 41
40.0
 42
40.0
 43
40.0
 50
270.0
  0
TEXT
  8
3
  40
50
  5
828E
  62
2
  72
0
  71
0
 10
1882.22
 20
2143.67
 30
0.000000
  1
538
  0
POINT
  5
81BB
  8
DEFPOINTS
 62
     0
 10
1757.064831217413
 20
2501.1680480207442
 30
0.0
  0
POINT
  5
81BC
  8
DEFPOINTS
 62
     0
 10
1840.211324533657
 20
1963.168048020744
 30
0.0
  0
POINT
  5
81BD
  8
DEFPOINTS
 62
     0
 10
2037.2219079403139
 20
1963.168048020744
 30
0.0
  0
ENDBLK
  5
7F48
  8
0
  0
BLOCK
  8
0
  2
*D7
 70
     1
 10
0.0
 20
0.0
 30
0.0
  3
*D7
  1

  0
LINE
  5
81BE
  8
3
 62
     2
 10
1777.064831217413
 20
2501.1680480207442
 30
0.0
 11
1919.070066481831
 21
2501.1680480207442
 31
0.0
  0
LINE
  5
81BF
  8
3
 62
     2
 10
1777.064831217413
 20
1989.168048020744
 30
0.0
 11
1919.070066481831
 21
1989.168048020744
 31
0.0
  0
LINE
  5
81C0
  8
3
 62
     2
 10
1899.070066481831
 20
2461.1680480207442
 30
0.0
 11
1899.070066481831
 21
2029.168048020744
 31
0.0
  0
INSERT
  5
81C1
  8
3
 62
     2
  2
ARROW
 10
1899.070066481831
 20
2501.1680480207442
 30
0.0
 41
40.0
 42
40.0
 43
40.0
 50
90.0
  0
INSERT
  5
81C2
  8
3
 62
     2
  2
ARROW
 10
1899.070066481831
 20
1989.168048020744
 30
0.0
 41
40.0
 42
40.0
 43
40.0
 50
270.0
  0
TEXT
  8
3
  40
50
  5
828F
  62
2
  72
0
  71
0
 10
1744.07
 20
2156.67
 30
0.000000
  1
512
  0
POINT
  5
81C4
  8
DEFPOINTS
 62
     0
 10
1757.064831217413
 20
2501.1680480207442
 30
0.0
  0
POINT
  5
81C5
  8
DEFPOINTS
 62
     0
 10
1757.064831217413
 20
1989.168048020744
 30
0.0
  0
POINT
  5
81C6
  8
DEFPOINTS
 62
     0
 10
1899.070066481831
 20
1989.168048020744
 30
0.0
  0
ENDBLK
  5
7F53
  8
0
  0
BLOCK
  8
0
  2
*D8
 70
     1
 10
0.0
 20
0.0
 30
0.0
  3
*D8
  1

  0
LINE
  5
81C7
  8
3
 62
     2
 10
567.06483121741348
 20
1380.168048020744
 30
0.0
 11
567.06483121741348
 21
1227.824852396091
 31
0.0
  0
LINE
  5
81C8
  8
3
 62
     2
 10
1397.064831217413
 20
1347.636776533544
 30
0.0
 11
1397.064831217413
 21
1227.824852396091
 31
0.0
  0
LINE
  5
81C9
  8
3
 62
     2
 10
607.06483121741337
 20
1247.824852396091
 30
0.0
 11
1357.064831217413
 21
1247.824852396091
 31
0.0
  0
INSERT
  5
81CA
  8
3
 62
     2
  2
ARROW
 10
567.06483121741348
 20
1247.824852396091
 30
0.0
 41
40.0
 42
40.0
 43
40.0
 50
180.0
  0
INSERT
  5
81CB
  8
3
 62
     2
  2
ARROW
 10
1397.064831217413
 20
1247.824852396091
 30
0.0
 41
40.0
 42
40.0
 43
40.0
  0
TEXT
  8
3
  40
50
  5
8290
  62
2
  72
0
  71
0
 10
882.065
 20
1214.32
 30
0.000000
  1
830
  0
POINT
  5
81CD
  8
DEFPOINTS
 62
     0
 10
567.06483121741348
 20
1400.168048020744
 30
0.0
  0
POINT
  5
81CE
  8
DEFPOINTS
 62
     0
 10
1397.064831217413
 20
1367.636776533544
 30
0.0
  0
POINT
  5
81CF
  8
DEFPOINTS
 62
     0
 10
1397.064831217413
 20
1247.824852396091
 30
0.0
  0
ENDBLK
  5
7F5E
  8
0
  0
BLOCK
  8
0
  2
*D9
 70
     1
 10
0.0
 20
0.0
 30
0.0
  3
*D9
  1

  0
LINE
  5
81D0
  8
3
 62
     2
 10
1667.0648312174119
 20
1475.168048020744
 30
0.0
 11
2057.2219079403139
 21
1475.168048020744
 31
0.0
  0
LINE
  5
81D1
  8
3
 62
     2
 10
1667.064831217413
 20
1400.168048020744
 30
0.0
 11
2057.2219079403139
 21
1400.168048020744
 31
0.0
  0
LINE
  5
81D2
  8
3
 62
     2
 10
2037.2219079403139
 20
1515.168048020744
 30
0.0
 11
2037.2219079403139
 21
1555.168048020744
 31
0.0
  0
LINE
  5
81D3
  8
3
 62
     2
 10
2037.2219079403139
 20
1360.168048020744
 30
0.0
 11
2037.2219079403139
 21
1179.215667068363
 31
0.0
  0
LINE
  5
81D4
  8
3
 62
     2
 10
2037.2219079403139
 20
1475.168048020744
 30
0.0
 11
2037.2219079403139
 21
1400.168048020744
 31
0.0
  0
INSERT
  5
81D5
  8
3
 62
     2
  2
YA_N
 10
2037.2219079403139
 20
1475.168048020744
 30
0.0
 41
40.0
 42
40.0
 43
40.0
 50
270.0
  0
INSERT
  5
81D6
  8
3
 62
     2
  2
_OPEN
 10
2037.2219079403139
 20
1400.168048020744
 30
0.0
 41
40.0
 42
40.0
 43
40.0
 50
90.0
  0
TEXT
  8
3
  40
50
  5
8291
  62
2
  72
0
  71
0
 10
1882.22
 20
1161.19
 30
0.000000
  1
75
  0
POINT
  5
81D8
  8
DEFPOINTS
 62
     0
 10
1647.0648312174119
 20
1475.168048020744
 30
0.0
  0
POINT
  5
81D9
  8
DEFPOINTS
 62
     0
 10
1647.064831217413
 20
1400.168048020744
 30
0.0
  0
POINT
  5
81DA
  8
DEFPOINTS
 62
     0
 10
2037.2219079403139
 20
1400.168048020744
 30
0.0
  0
ENDBLK
  5
7F6B
  8
0
  0
BLOCK
  8
0
  2
*D10
 70
     1
 10
0.0
 20
0.0
 30
0.0
  3
*D10
  1

  0
LINE
  5
81DB
  8
3
 62
     2
 10
1667.0648312174119
 20
1475.168048020744
 30
0.0
 11
2057.2219079403139
 21
1475.168048020744
 31
0.0
  0
LINE
  5
81DC
  8
3
 62
     2
 10
2037.2219079403139
 20
1553.168048020744
 30
0.0
 11
2037.2219079403139
 21
1593.168048020744
 31
0.0
  0
LINE
  5
81DD
  8
3
 62
     2
 10
2037.2219079403139
 20
1435.168048020744
 30
0.0
 11
2037.2219079403139
 21
1395.168048020744
 31
0.0
  0
LINE
  5
81DE
  8
3
 62
     2
 10
2037.2219079403139
 20
1494.168048020744
 30
0.0
 11
2208.4123841307901
 21
1580.9384643401729
 31
0.0
  0
LINE
  5
81DF
  8
3
 62
     2
 10
2208.4123841307901
 20
1580.9384643401729
 30
0.0
 11
2208.4123841307901
 21
1786.1765595782681
 31
0.0
  0
TEXT
  8
3
  40
50
  5
8292
  62
2
  72
0
  71
0
 10
2040.32
 20
1595.06
 30
0.000000
  1
(38)
  0
LINE
  5
81E1
  8
3
 62
     2
 10
2037.2219079403139
 20
1513.168048020744
 30
0.0
 11
2037.2219079403139
 21
1475.168048020744
 31
0.0
  0
LINE
  5
81E2
  8
3
 62
     2
 10
2037.2219079403139
 20
1513.168048020744
 30
0.0
 11
2037.2219079403139
 21
1475.168048020744
 31
0.0
  0
INSERT
  5
81E3
  8
3
 62
     2
  2
_OPEN
 10
2037.2219079403139
 20
1513.168048020744
 30
0.0
 41
40.0
 42
40.0
 43
40.0
 50
270.0
  0
INSERT
  5
81E4
  8
3
 62
     2
  2
YA_N
 10
2037.2219079403139
 20
1475.168048020744
 30
0.0
 41
40.0
 42
40.0
 43
40.0
 50
90.0
  0
POINT
  5
81E5
  8
DEFPOINTS
 62
     0
 10
1647.064831217413
 20
1513.168048020744
 30
0.0
  0
POINT
  5
81E6
  8
DEFPOINTS
 62
     0
 10
1647.0648312174119
 20
1475.168048020744
 30
0.0
  0
POINT
  5
81E7
  8
DEFPOINTS
 62
     0
 10
2037.2219079403139
 20
1475.168048020744
 30
0.0
  0
ENDBLK
  5
7F79
  8
0
  0
BLOCK
  8
0
  2
*D11
 70
     1
 10
0.0
 20
0.0
 30
0.0
  3
*D11
  1

  0
LINE
  5
81E8
  8
3
 62
     2
 10
1667.064831217413
 20
1513.168048020744
 30
0.0
 11
2057.2219079403139
 21
1513.168048020744
 31
0.0
  0
LINE
  5
81E9
  8
3
 62
     2
 10
2037.2219079403139
 20
1923.168048020744
 30
0.0
 11
2037.2219079403139
 21
1553.168048020744
 31
0.0
  0
INSERT
  5
81EA
  8
3
 62
     2
  2
ARROW
 10
2037.2219079403139
 20
1963.168048020744
 30
0.0
 41
40.0
 42
40.0
 43
40.0
 50
90.0
  0
INSERT
  5
81EB
  8
3
 62
     2
  2
ARROW
 10
2037.2219079403139
 20
1513.168048020744
 30
0.0
 41
40.0
 42
40.0
 43
40.0
 50
270.0
  0
TEXT
  8
3
  40
50
  5
8293
  62
2
  72
0
  71
0
 10
1882.22
 20
1649.67
 30
0.000000
  1
450
  0
POINT
  5
81ED
  8
DEFPOINTS
 62
     0
 10
1840.211324533657
 20
1963.168048020744
 30
0.0
  0
POINT
  5
81EE
  8
DEFPOINTS
 62
     0
 10
1647.064831217413
 20
1513.168048020744
 30
0.0
  0
POINT
  5
81EF
  8
DEFPOINTS
 62
     0
 10
2037.2219079403139
 20
1513.168048020744
 30
0.0
  0
ENDBLK
  5
7F83
  8
0
  0
BLOCK
  8
0
  2
*D12
 70
     1
 10
0.0
 20
0.0
 30
0.0
  3
*D12
  1

  0
LINE
  5
81F0
  8
3
 62
     2
 10
1397.064831217413
 20
1347.636776533544
 30
0.0
 11
1397.064831217413
 21
1227.824852396091
 31
0.0
  0
LINE
  5
81F1
  8
3
 62
     2
 10
1647.064831217413
 20
1380.168048020744
 30
0.0
 11
1647.064831217413
 21
1227.824852396091
 31
0.0
  0
LINE
  5
81F2
  8
3
 62
     2
 10
1437.064831217413
 20
1247.824852396091
 30
0.0
 11
1607.064831217413
 21
1247.824852396091
 31
0.0
  0
INSERT
  5
81F3
  8
3
 62
     2
  2
ARROW
 10
1397.064831217413
 20
1247.824852396091
 30
0.0
 41
40.0
 42
40.0
 43
40.0
 50
180.0
  0
INSERT
  5
81F4
  8
3
 62
     2
  2
ARROW
 10
1647.064831217413
 20
1247.824852396091
 30
0.0
 41
40.0
 42
40.0
 43
40.0
  0
TEXT
  8
3
  40
50
  5
8294
  62
2
  72
0
  71
0
 10
1422.06
 20
1214.32
 30
0.000000
  1
250
  0
POINT
  5
81F6
  8
DEFPOINTS
 62
     0
 10
1397.064831217413
 20
1367.636776533544
 30
0.0
  0
POINT
  5
81F7
  8
DEFPOINTS
 62
     0
 10
1647.064831217413
 20
1400.168048020744
 30
0.0
  0
POINT
  5
81F8
  8
DEFPOINTS
 62
     0
 10
1647.064831217413
 20
1247.824852396091
 30
0.0
  0
ENDBLK
  5
7F90
  8
0
  0
BLOCK
  8
0
  2
*D13
 70
     1
 10
0.0
 20
0.0
 30
0.0
  3
*D13
  1

  0
LINE
  5
81F9
  8
3
 62
     2
 10
567.06483121741348
 20
3874.6424686625792
 30
0.0
 11
567.06483121741348
 21
4457.9272198682929
 31
0.0
  0
LINE
  5
81FA
  8
3
 62
     2
 10
1107.064831217413
 20
4437.9272198682938
 30
0.0
 11
607.06483121741337
 21
4437.9272198682938
 31
0.0
  0
INSERT
  5
81FB
  8
3
 62
     2
  2
ARROW
 10
1147.064831217413
 20
4437.9272198682938
 30
0.0
 41
40.0
 42
40.0
 43
40.0
  0
INSERT
  5
81FC
  8
3
 62
     2
  2
ARROW
 10
567.06483121741348
 20
4437.9272198682938
 30
0.0
 41
40.0
 42
40.0
 43
40.0
 50
180.0
  0
TEXT
  8
3
  40
50
  5
8295
  62
2
  72
0
  71
0
 10
757.065
 20
4404.43
 30
0.000000
  1
580
  0
POINT
  5
81FE
  8
DEFPOINTS
 62
     0
 10
1147.064831217413
 20
4294.6424686625787
 30
0.0
  0
POINT
  5
81FF
  8
DEFPOINTS
 62
     0
 10
567.06483121741348
 20
3854.6424686625792
 30
0.0
  0
POINT
  5
8200
  8
DEFPOINTS
 62
     0
 10
567.06483121741348
 20
4437.9272198682938
 30
0.0
  0
ENDBLK
  5
7F9A
  8
0
  0
BLOCK
  8
0
  2
*D14
 70
     1
 10
0.0
 20
0.0
 30
0.0
  3
*D14
  1

  0
LINE
  5
8201
  8
3
 62
     2
 10
1647.064831217413
 20
3274.6424686625792
 30
0.0
 11
1647.064831217413
 21
2957.8242161626222
 31
0.0
  0
LINE
  5
8202
  8
3
 62
     2
 10
567.06483121741348
 20
3274.6424686625792
 30
0.0
 11
567.06483121741348
 21
2957.8242161626222
 31
0.0
  0
LINE
  5
8203
  8
3
 62
     2
 10
1607.064831217413
 20
2977.8242161626222
 30
0.0
 11
607.06483121741337
 21
2977.8242161626222
 31
0.0
  0
INSERT
  5
8204
  8
3
 62
     2
  2
ARROW
 10
1647.064831217413
 20
2977.8242161626222
 30
0.0
 41
40.0
 42
40.0
 43
40.0
  0
INSERT
  5
8205
  8
3
 62
     2
  2
ARROW
 10
567.06483121741348
 20
2977.8242161626222
 30
0.0
 41
40.0
 42
40.0
 43
40.0
 50
180.0
  0
TEXT
  8
3
  40
50
  5
8296
  62
2
  72
0
  71
0
 10
1007.06
 20
2944.32
 30
0.000000
  1
1080
  0
POINT
  5
8207
  8
DEFPOINTS
 62
     0
 10
1647.064831217413
 20
3294.6424686625792
 30
0.0
  0
POINT
  5
8208
  8
DEFPOINTS
 62
     0
 10
567.06483121741348
 20
3294.6424686625792
 30
0.0
  0
POINT
  5
8209
  8
DEFPOINTS
 62
     0
 10
567.06483121741348
 20
2977.8242161626222
 30
0.0
  0
ENDBLK
  5
7FA5
  8
0
  0
BLOCK
  8
0
  2
*D15
 70
     1
 10
0.0
 20
0.0
 30
0.0
  3
*D15
  1

  0
LINE
  5
820A
  8
3
 62
     2
 10
547.06483121741348
 20
3854.6424686625792
 30
0.0
 11
360.4302466586588
 21
3854.6424686625792
 31
0.0
  0
LINE
  5
820B
  8
3
 62
     2
 10
547.06483121741348
 20
3294.6424686625792
 30
0.0
 11
360.43024665865858
 21
3294.6424686625792
 31
0.0
  0
LINE
  5
820C
  8
3
 62
     2
 10
380.43024665865869
 20
3814.6424686625792
 30
0.0
 11
380.43024665865858
 21
3334.6424686625792
 31
0.0
  0
INSERT
  5
820D
  8
3
 62
     2
  2
ARROW
 10
380.43024665865869
 20
3854.6424686625792
 30
0.0
 41
40.0
 42
40.0
 43
40.0
 50
90.0
  0
INSERT
  5
820E
  8
3
 62
     2
  2
ARROW
 10
380.43024665865858
 20
3294.6424686625792
 30
0.0
 41
40.0
 42
40.0
 43
40.0
 50
270.0
  0
TEXT
  8
3
  40
50
  5
8297
  62
2
  72
0
  71
0
 10
225.430
 20
3486.14
 30
0.000000
  1
560
  0
POINT
  5
8210
  8
DEFPOINTS
 62
     0
 10
567.06483121741348
 20
3854.6424686625792
 30
0.0
  0
POINT
  5
8211
  8
DEFPOINTS
 62
     0
 10
567.06483121741348
 20
3294.6424686625792
 30
0.0
  0
POINT
  5
8212
  8
DEFPOINTS
 62
     0
 10
380.43024665865858
 20
3294.6424686625792
 30
0.0
  0
ENDBLK
  5
7FB0
  8
0
  0
BLOCK
  8
0
  2
*D16
 70
     1
 10
0.0
 20
0.0
 30
0.0
  3
*D16
  1

  0
LINE
  5
8213
  8
3
 62
     2
 10
1667.064831217413
 20
3294.6424686625792
 30
0.0
 11
1971.8825630059171
 21
3294.6424686625792
 31
0.0
  0
LINE
  5
8214
  8
3
 62
     2
 10
1667.064831217413
 20
4294.6424686625787
 30
0.0
 11
1971.8825630059171
 21
4294.6424686625787
 31
0.0
  0
LINE
  5
8215
  8
3
 62
     2
 10
1951.8825630059171
 20
3334.6424686625792
 30
0.0
 11
1951.8825630059171
 21
4254.6424686625796
 31
0.0
  0
INSERT
  5
8216
  8
3
 62
     2
  2
ARROW
 10
1951.8825630059171
 20
3294.6424686625792
 30
0.0
 41
40.0
 42
40.0
 43
40.0
 50
270.0
  0
INSERT
  5
8217
  8
3
 62
     2
  2
ARROW
 10
1951.8825630059171
 20
4294.6424686625787
 30
0.0
 41
40.0
 42
40.0
 43
40.0
 50
90.0
  0
TEXT
  8
3
  40
50
  5
8298
  62
2
  72
0
  71
0
 10
1796.88
 20
3706.14
 30
0.000000
  1
1000
  0
POINT
  5
8219
  8
DEFPOINTS
 62
     0
 10
1647.064831217413
 20
3294.6424686625792
 30
0.0
  0
POINT
  5
821A
  8
DEFPOINTS
 62
     0
 10
1647.064831217413
 20
4294.6424686625787
 30
0.0
  0
POINT
  5
821B
  8
DEFPOINTS
 62
     0
 10
1951.8825630059171
 20
4294.6424686625787
 30
0.0
  0
ENDBLK
  5
7FBB
  8
0
  0
BLOCK
  8
0
  2
*D17
 70
     1
 10
0.0
 20
0.0
 30
0.0
  3
*D17
  1

  0
LINE
  5
821C
  8
3
 62
     2
 10
1757.064831217413
 20
2548.1745267248721
 30
0.0
 11
1757.064831217413
 21
2686.4351676492488
 31
0.0
  0
LINE
  5
821D
  8
3
 62
     2
 10
1397.064831217413
 20
2594.09347719885
 30
0.0
 11
1397.064831217413
 21
2686.4351676492488
 31
0.0
  0
LINE
  5
821E
  8
3
 62
     2
 10
1717.064831217413
 20
2666.4351676492488
 30
0.0
 11
1437.064831217413
 21
2666.4351676492488
 31
0.0
  0
INSERT
  5
821F
  8
3
 62
     2
  2
ARROW
 10
1757.064831217413
 20
2666.4351676492488
 30
0.0
 41
40.0
 42
40.0
 43
40.0
  0
INSERT
  5
8220
  8
3
 62
     2
  2
ARROW
 10
1397.064831217413
 20
2666.4351676492488
 30
0.0
 41
40.0
 42
40.0
 43
40.0
 50
180.0
  0
TEXT
  8
3
  40
50
  5
8299
  62
2
  72
0
  71
0
 10
1477.06
 20
2632.94
 30
0.000000
  1
360
  0
POINT
  5
8222
  8
DEFPOINTS
 62
     0
 10
1757.064831217413
 20
2528.174526724873
 30
0.0
  0
POINT
  5
8223
  8
DEFPOINTS
 62
     0
 10
1397.064831217413
 20
2574.09347719885
 30
0.0
  0
POINT
  5
8224
  8
DEFPOINTS
 62
     0
 10
1397.064831217413
 20
2666.4351676492488
 30
0.0
  0
ENDBLK
  5
7FC6
  8
0
  0
BLOCK
  8
0
  2
*D18
 70
     1
 10
0.0
 20
0.0
 30
0.0
  3
*D18
  1

  0
LINE
  5
8225
  8
3
 62
     2
 10
1647.064831217413
 20
4314.6424686625787
 30
0.0
 11
1647.064831217413
 21
4457.9272198682929
 31
0.0
  0
LINE
  5
8226
  8
3
 62
     2
 10
1147.064831217413
 20
4314.6424686625787
 30
0.0
 11
1147.064831217413
 21
4457.9272198682929
 31
0.0
  0
LINE
  5
8227
  8
3
 62
     2
 10
1607.064831217413
 20
4437.9272198682938
 30
0.0
 11
1187.064831217413
 21
4437.9272198682938
 31
0.0
  0
INSERT
  5
8228
  8
3
 62
     2
  2
ARROW
 10
1647.064831217413
 20
4437.9272198682938
 30
0.0
 41
40.0
 42
40.0
 43
40.0
  0
INSERT
  5
8229
  8
3
 62
     2
  2
ARROW
 10
1147.064831217413
 20
4437.9272198682938
 30
0.0
 41
40.0
 42
40.0
 43
40.0
 50
180.0
  0
TEXT
  8
3
  40
50
  5
829A
  62
2
  72
0
  71
0
 10
1297.06
 20
4404.43
 30
0.000000
  1
500
  0
POINT
  5
822B
  8
DEFPOINTS
 62
     0
 10
1647.064831217413
 20
4294.6424686625787
 30
0.0
  0
POINT
  5
822C
  8
DEFPOINTS
 62
     0
 10
1147.064831217413
 20
4294.6424686625787
 30
0.0
  0
POINT
  5
822D
  8
DEFPOINTS
 62
     0
 10
1147.064831217413
 20
4437.9272198682938
 30
0.0
  0
ENDBLK
  5
7FD1
  8
0
  0
BLOCK
  8
0
  2
*D19
 70
     1
 10
0.0
 20
0.0
 30
0.0
  3
*D19
  1

  0
LINE
  5
822E
  8
3
 62
     2
 10
3522.5155854576942
 20
2687.6250395132638
 30
0.0
 11
3522.5155854576942
 21
2819.361904703007
 31
0.0
  0
LINE
  5
822F
  8
3
 62
     2
 10
3714.5155854576942
 20
1982.0745267248731
 30
0.0
 11
3714.5155854576942
 21
2819.361904703007
 31
0.0
  0
LINE
  5
8230
  8
3
 62
     2
 10
3562.5155854576942
 20
2799.361904703007
 30
0.0
 11
3674.5155854576942
 21
2799.361904703007
 31
0.0
  0
INSERT
  5
8231
  8
3
 62
     2
  2
ARROW
 10
3522.5155854576942
 20
2799.361904703007
 30
0.0
 41
40.0
 42
40.0
 43
40.0
 50
180.0
  0
INSERT
  5
8232
  8
3
 62
     2
  2
ARROW
 10
3714.5155854576942
 20
2799.361904703007
 30
0.0
 41
40.0
 42
40.0
 43
40.0
  0
TEXT
  8
3
  40
50
  5
829B
  62
2
  72
0
  71
0
 10
3518.52
 20
2765.86
 30
0.000000
  1
192
  0
POINT
  5
8234
  8
DEFPOINTS
 62
     0
 10
3522.5155854576942
 20
2667.6250395132629
 30
0.0
  0
POINT
  5
8235
  8
DEFPOINTS
 62
     0
 10
3714.5155854576942
 20
1962.0745267248731
 30
0.0
  0
POINT
  5
8236
  8
DEFPOINTS
 62
     0
 10
3714.5155854576942
 20
2799.361904703007
 30
0.0
  0
ENDBLK
  5
7FDE
  8
0
  0
BLOCK
  8
0
  2
*D20
 70
     1
 10
0.0
 20
0.0
 30
0.0
  3
*D20
  1

  0
LINE
  5
8237
  8
3
 62
     2
 10
2667.5155854576942
 20
2133.1680480207428
 30
0.0
 11
2667.5155854576942
 21
2819.361904703007
 31
0.0
  0
LINE
  5
8238
  8
3
 62
     2
 10
3522.5155854576942
 20
2687.6250395132638
 30
0.0
 11
3522.5155854576942
 21
2819.361904703007
 31
0.0
  0
LINE
  5
8239
  8
3
 62
     2
 10
2707.5155854576929
 20
2799.361904703007
 30
0.0
 11
3482.5155854576942
 21
2799.361904703007
 31
0.0
  0
INSERT
  5
823A
  8
3
 62
     2
  2
ARROW
 10
2667.5155854576942
 20
2799.361904703007
 30
0.0
 41
40.0
 42
40.0
 43
40.0
 50
180.0
  0
INSERT
  5
823B
  8
3
 62
     2
  2
ARROW
 10
3522.5155854576942
 20
2799.361904703007
 30
0.0
 41
40.0
 42
40.0
 43
40.0
  0
TEXT
  8
3
  40
50
  5
829C
  62
2
  72
0
  71
0
 10
2995.02
 20
2765.86
 30
0.000000
  1
855
  0
POINT
  5
823D
  8
DEFPOINTS
 62
     0
 10
2667.5155854576942
 20
2113.1680480207442
 30
0.0
  0
POINT
  5
823E
  8
DEFPOINTS
 62
     0
 10
3522.5155854576942
 20
2667.6250395132629
 30
0.0
  0
POINT
  5
823F
  8
DEFPOINTS
 62
     0
 10
3522.5155854576942
 20
2799.361904703007
 30
0.0
  0
ENDBLK
  5
7FE9
  8
0
  0
BLOCK
  8
0
  2
*D21
 70
     1
 10
0.0
 20
0.0
 30
0.0
  3
*D21
  1

  0
LINE
  5
8240
  8
3
 62
     2
 10
2752.5155854576951
 20
1380.168048020744
 30
0.0
 11
2752.5155854576951
 21
1223.5710108559811
 31
0.0
  0
LINE
  5
8241
  8
3
 62
     2
 10
3522.5155854576942
 20
1347.6367765335449
 30
0.0
 11
3522.5155854576942
 21
1223.5710108559811
 31
0.0
  0
LINE
  5
8242
  8
3
 62
     2
 10
2792.5155854576951
 20
1243.5710108559811
 30
0.0
 11
3482.5155854576942
 21
1243.5710108559811
 31
0.0
  0
INSERT
  5
8243
  8
3
 62
     2
  2
ARROW
 10
2752.5155854576951
 20
1243.5710108559811
 30
0.0
 41
40.0
 42
40.0
 43
40.0
 50
180.0
  0
INSERT
  5
8244
  8
3
 62
     2
  2
ARROW
 10
3522.5155854576942
 20
1243.5710108559811
 30
0.0
 41
40.0
 42
40.0
 43
40.0
  0
TEXT
  8
3
  40
50
  5
829D
  62
2
  72
0
  71
0
 10
3037.52
 20
1210.07
 30
0.000000
  1
770
  0
POINT
  5
8246
  8
DEFPOINTS
 62
     0
 10
2752.5155854576951
 20
1400.168048020744
 30
0.0
  0
POINT
  5
8247
  8
DEFPOINTS
 62
     0
 10
3522.5155854576942
 20
1367.6367765335449
 30
0.0
  0
POINT
  5
8248
  8
DEFPOINTS
 62
     0
 10
3522.5155854576942
 20
1243.5710108559811
 30
0.0
  0
ENDBLK
  5
7FF4
  8
0
  0
BLOCK
  8
0
  2
*D22
 70
     1
 10
0.0
 20
0.0
 30
0.0
  3
*D22
  1

  0
LINE
  5
8267
  8
3
 62
     2
 10
3759.5155854576942
 20
2213.1680480207442
 30
0.0
 11
3934.596359877286
 21
2213.1680480207442
 31
0.0
  0
LINE
  5
8268
  8
3
 62
     2
 10
3759.5155854576942
 20
1713.168048020744
 30
0.0
 11
3934.596359877286
 21
1713.168048020744
 31
0.0
  0
LINE
  5
8269
  8
3
 62
     2
 10
3914.596359877286
 20
2173.1680480207442
 30
0.0
 11
3914.596359877286
 21
1753.168048020744
 31
0.0
  0
INSERT
  5
826A
  8
3
 62
     2
  2
ARROW
 10
3914.596359877286
 20
2213.1680480207442
 30
0.0
 41
40.0
 42
40.0
 43
40.0
 50
90.0
  0
INSERT
  5
826B
  8
3
 62
     2
  2
ARROW
 10
3914.596359877286
 20
1713.168048020744
 30
0.0
 41
40.0
 42
40.0
 43
40.0
 50
270.0
  0
TEXT
  8
3
  40
50
  5
829E
  62
2
  72
0
  71
0
 10
3759.60
 20
1874.67
 30
0.000000
  1
φ500
  0
POINT
  5
826D
  8
DEFPOINTS
 62
     0
 10
3739.5155854576942
 20
2213.1680480207442
 30
0.0
  0
POINT
  5
826E
  8
DEFPOINTS
 62
     0
 10
3739.5155854576942
 20
1713.168048020744
 30
0.0
  0
POINT
  5
826F
  8
DEFPOINTS
 62
     0
 10
3914.596359877286
 20
1713.168048020744
 30
0.0
  0
ENDBLK
  5
7FFF
  8
0
  0
BLOCK
  8
0
  2
*D23
 70
     1
 10
0.0
 20
0.0
 30
0.0
  3
*D23
  1

  0
LINE
  5
8270
  8
3
 62
     2
 10
3522.5155854576942
 20
1347.6367765335449
 30
0.0
 11
3522.5155854576942
 21
1223.5710108559811
 31
0.0
  0
LINE
  5
8271
  8
3
 62
     2
 10
3752.5155854576942
 20
1380.168048020744
 30
0.0
 11
3752.5155854576942
 21
1223.5710108559811
 31
0.0
  0
LINE
  5
8272
  8
3
 62
     2
 10
3562.5155854576942
 20
1243.5710108559811
 30
0.0
 11
3712.5155854576942
 21
1243.5710108559811
 31
0.0
  0
INSERT
  5
8273
  8
3
 62
     2
  2
ARROW
 10
3522.5155854576942
 20
1243.5710108559811
 30
0.0
 41
40.0
 42
40.0
 43
40.0
 50
180.0
  0
INSERT
  5
8274
  8
3
 62
     2
  2
ARROW
 10
3752.5155854576942
 20
1243.5710108559811
 30
0.0
 41
40.0
 42
40.0
 43
40.0
  0
TEXT
  8
3
  40
50
  5
829F
  62
2
  72
0
  71
0
 10
3537.52
 20
1210.07
 30
0.000000
  1
230
  0
POINT
  5
8276
  8
DEFPOINTS
 62
     0
 10
3522.5155854576942
 20
1367.6367765335449
 30
0.0
  0
POINT
  5
8277
  8
DEFPOINTS
 62
     0
 10
3752.5155854576942
 20
1400.168048020744
 30
0.0
  0
POINT
  5
8278
  8
DEFPOINTS
 62
     0
 10
3752.5155854576942
 20
1243.5710108559811
 30
0.0
  0
ENDBLK
  5
800C
  8
0
  0
BLOCK
  8
0
  2
*D24
 70
     1
 10
0.0
 20
0.0
 30
0.0
  3
*D24
  1

  0
LINE
  5
8283
  8
3
 62
     2
 10
3335.0155854576942
 20
2521.1680480207442
 30
0.0
 11
3335.0155854576942
 21
2601.447160286014
 31
0.0
  0
LINE
  5
8284
  8
3
 62
     2
 10
3710.0155854576951
 20
2521.1680480207451
 30
0.0
 11
3710.0155854576951
 21
2601.447160286014
 31
0.0
  0
LINE
  5
8285
  8
3
 62
     2
 10
3375.0155854576942
 20
2581.447160286014
 30
0.0
 11
3670.0155854576951
 21
2581.447160286014
 31
0.0
  0
INSERT
  5
8286
  8
3
 62
     2
  2
ARROW
 10
3335.0155854576942
 20
2581.447160286014
 30
0.0
 41
40.0
 42
40.0
 43
40.0
 50
180.0
  0
INSERT
  5
8287
  8
3
 62
     2
  2
ARROW
 10
3710.0155854576951
 20
2581.447160286014
 30
0.0
 41
40.0
 42
40.0
 43
40.0
  0
TEXT
  8
3
  40
50
  5
82A0
  62
2
  72
0
  71
0
 10
3405.84
 20
2547.95
 30
0.000000
  1
375
  0
POINT
  5
8289
  8
DEFPOINTS
 62
     0
 10
3335.0155854576942
 20
2501.1680480207442
 30
0.0
  0
POINT
  5
828A
  8
DEFPOINTS
 62
     0
 10
3710.0155854576951
 20
2501.1680480207442
 30
0.0
  0
POINT
  5
828B
  8
DEFPOINTS
 62
     0
 10
3710.0155854576951
 20
2581.447160286014
 30
0.0
  0
ENDBLK
  5
8074
  8
0
  0
ENDSEC
  0
SECTION
  2
ENTITIES
  0
DIMENSION
  5
7CA6
  8
3
  2
*D4
 10
962.0168404095524
 20
2666.4351676492488
 30
0.0
 11
1179.5408358134821
 21
2721.4351676492488
 31
0.0
 70
     0
 13
1397.064831217413
 23
2574.09347719885
 33
0.0
 14
962.0168404095524
 24
2000.168048020744
 34
0.0
1001
ACAD
1000
DSTYLE
1002
{
1070
   287
1070
     4
1070
   287
1070
     4
1070
    40
1040
20.0
1070
    75
1070
     1
1070
   147
1040
1.5
1070
   173
1070
     1
1070
   272
1070
     4
1070
   279
1070
     1
1070
   284
1070
     0
1070
   285
1070
     0
1070
   286
1070
     0
1070
     6
1000
ARROW
1070
     7
1000
ARROW
1002
}
  0
DIMENSION
  5
7CA7
  8
3
  2
*D5
 10
2321.541963294304
 20
2528.174526724873
 30
0.0
 11
2266.5419632943031
 21
2020.671287372809
 31
0.0
 70
     0
 13
1647.064831217413
 23
1513.168048020744
 33
0.0
 14
1757.064831217413
 24
2528.174526724873
 34
0.0
 50
90.0
1001
ACAD
1000
DSTYLE
1002
{
1070
   287
1070
     3
1070
   287
1070
     3
1070
    40
1040
20.0
1070
   147
1040
1.5
1070
   173
1070
     1
1070
   272
1070
     4
1070
   279
1070
     0
1070
   284
1070
     0
1070
   285
1070
     0
1070
   286
1070
     0
1070
     6
1000
ARROW
1070
     7
1000
ARROW
1002
}
  0
DIMENSION
  5
7CA8
  8
3
  2
*D6
 10
2037.2219079403139
 20
1963.168048020744
 30
0.0
 11
1982.221907940313
 21
2232.1680480207442
 31
0.0
 70
     0
 13
1757.064831217413
 23
2501.1680480207442
 33
0.0
 14
1840.211324533657
 24
1963.168048020744
 34
0.0
 50
90.0
1001
ACAD
1000
DSTYLE
1002
{
1070
   287
1070
     3
1070
   287
1070
     3
1070
    40
1040
20.0
1070
   147
1040
1.5
1070
   173
1070
     1
1070
   272
1070
     4
1070
   279
1070
     0
1070
   284
1070
     0
1070
   285
1070
     0
1070
   286
1070
     0
1070
     6
1000
ARROW
1070
     7
1000
ARROW
1002
}
  0
DIMENSION
  5
7CA9
  8
3
  2
*D7
 10
1899.070066481831
 20
1989.168048020744
 30
0.0
 11
1844.070066481831
 21
2245.1680480207442
 31
0.0
 70
     0
 13
1757.064831217413
 23
2501.1680480207442
 33
0.0
 14
1757.064831217413
 24
1989.168048020744
 34
0.0
 50
90.0
1001
ACAD
1000
DSTYLE
1002
{
1070
   287
1070
     3
1070
   287
1070
     3
1070
    40
1040
20.0
1070
   147
1040
1.5
1070
   173
1070
     1
1070
   272
1070
     4
1070
   279
1070
     0
1070
   284
1070
     0
1070
   285
1070
     0
1070
   286
1070
     0
1070
     6
1000
ARROW
1070
     7
1000
ARROW
1002
}
  0
LINE
  5
7CAA
  8
1
 10
1757.064831217413
 20
2501.1680480207442
 30
0.0
 11
1757.064831217413
 21
1989.1680480207449
 31
0.0
  0
LINE
  5
7CAB
  8
1
 10
1757.064831217413
 20
1979.168048020744
 30
0.0
 11
1757.064831217413
 21
2511.200441541389
 31
0.0
  0
LINE
  5
7CAC
  8
1
 10
1757.064831217413
 20
1971.5957528252241
 30
0.0
 11
1757.064831217413
 21
2519.9060935555872
 31
0.0
  0
LINE
  5
7CAD
  8
1
 10
1754.064831217413
 20
2522.3144490336999
 30
0.0
 11
1754.064831217413
 21
1969.895955947213
 31
0.0
  0
LINE
  5
7CAE
  8
1
 10
1732.064831217413
 20
2509.1865526524998
 30
0.0
 11
1732.064831217413
 21
1986.5680480207441
 31
0.0
  0
ARC
  5
7CAF
  8
1
 10
1434.064831217413
 20
2000.168048020744
 30
0.0
 40
483.44799080786061
 50
94.483522332855699
 51
179.9999999999992
  0
ARC
  5
7CB0
  8
1
 10
1434.064831217413
 20
2000.1680480207431
 30
0.0
 40
473.44799080786078
 50
94.48224037042489
 51
180.0
  0
LINE
  5
7CB1
  8
2
 10
1397.064831217413
 20
1367.636776533544
 30
0.0
 11
1397.064831217413
 21
2574.09347719885
 31
0.0
  0
LINE
  5
7CB2
  8
1
 10
768.58551461393699
 20
1626.0288120933351
 30
0.0
 11
1438.5855146139361
 21
1819.029112093335
 31
0.0
  0
LINE
  5
7CB3
  8
1
 10
685.54414782088986
 20
1914.3066839481521
 30
0.0
 11
1355.5441478208891
 21
2107.3069839481518
 31
0.0
  0
LINE
  5
7CB4
  8
1
 10
749.48755710099931
 20
1697.3415071185141
 30
0.0
 11
1415.750436120401
 21
1902.4795139355531
 31
0.0
  0
LINE
  5
7CB5
  8
1
 10
707.30954122510911
 20
1843.7623709039401
 30
0.0
 11
1380.6020895571589
 21
2024.4969004234081
 31
0.0
  0
DIMENSION
  5
7CB6
  8
3
  2
*D8
 10
1397.064831217413
 20
1247.824852396091
 30
0.0
 11
982.06483121741314
 21
1302.824852396091
 31
0.0
 70
     0
 13
567.06483121741348
 23
1400.168048020744
 33
0.0
 14
1397.064831217413
 24
1367.636776533544
 34
0.0
1001
ACAD
1000
DSTYLE
1002
{
1070
   287
1070
     3
1070
   287
1070
     3
1070
    40
1040
20.0
1070
   147
1040
1.5
1070
   173
1070
     1
1070
   272
1070
     4
1070
   279
1070
     0
1070
   284
1070
     0
1070
   285
1070
     0
1070
   286
1070
     0
1070
     6
1000
ARROW
1070
     7
1000
ARROW
1002
}
  0
ARC
  5
7CB7
  8
1
 10
1360.064831217413
 20
2000.1680480207449
 30
0.0
 40
409.44799080786049
 50
179.9999999999992
 51
243.1389833237485
  0
LINE
  5
7CB8
  8
1
 10
1647.064831217413
 20
1588.168048020744
 30
0.0
 11
567.06483121741348
 21
1588.168048020744
 31
0.0
  0
LINE
  5
7CB9
  8
1
 10
1647.064831217413
 20
1513.168048020744
 30
0.0
 11
567.06483121741348
 21
1513.168048020744
 31
0.0
  0
LINE
  5
7CBA
  8
2
 10
821.62315386893624
 20
1963.168048020744
 30
0.0
 11
1840.211324533657
 21
1963.168048020744
 31
0.0
  0
ARC
  5
7CBB
  8
1
 10
1360.064831217413
 20
2000.168048020744
 30
0.0
 40
398.04799080786057
 50
180.0
 51
275.04245106917091
  0
LINE
  5
7CBC
  8
1
 10
1647.064831217413
 20
1475.168048020744
 30
0.0
 11
567.06483121741348
 21
1475.168048020744
 31
0.0
  0
LINE
  5
7CBD
  8
1
 10
1647.064831217413
 20
1400.168048020744
 30
0.0
 11
567.06483121741348
 21
1400.168048020744
 31
0.0
  0
ARC
  5
7CBE
  8
1
 10
727.06483121741337
 20
1770.1677480207441
 30
0.0
 40
150.0
 50
106.0695828264779
 51
286.06958282647798
  0
LINE
  5
7CBF
  8
2
 10
727.06483121741337
 20
1658.8027480207429
 30
0.0
 11
727.06483121741337
 21
1895.7507480207439
 31
0.0
  0
ARC
  5
7CC0
  8
1
 10
727.06483121741337
 20
1770.1677480207441
 30
0.0
 40
117.0
 50
293.30549999999988
 51
180.0
  0
ARC
  5
7CC1
  8
1
 10
727.06483121741337
 20
1770.1677480207441
 30
0.0
 40
121.5
 50
296.18489999999991
 51
180.0
  0
CIRCLE
  5
7CC2
  8
2
 10
727.06483121741337
 20
1770.1677480207441
 30
0.0
 40
76.200000000000003
  0
LINE
  5
7CC3
  8
1
 10
567.06483121741348
 20
1475.168048020744
 30
0.0
 11
567.06483121741348
 21
1400.168048020744
 31
0.0
  0
LINE
  5
7CC4
  8
1
 10
773.24653121741346
 20
1662.6680480207431
 30
0.0
 11
680.88313121741339
 21
1662.6680480207431
 31
0.0
  0
LINE
  5
7CC5
  8
1
 10
780.74213121741366
 20
1661.1680480207431
 30
0.0
 11
673.3875312174132
 21
1661.1680480207431
 31
0.0
  0
LINE
  5
7CC6
  8
1
 10
601.19443121741358
 20
1770.1677480207441
 30
0.0
 11
852.8974312174131
 21
1770.1677480207441
 31
0.0
  0
LINE
  5
7CC7
  8
1
 10
877.06483121741337
 20
1618.168048020744
 30
0.0
 11
577.06483121741394
 21
1618.168048020744
 31
0.0
  0
LINE
  5
7CC8
  8
1
 10
858.57728198604525
 20
1658.168048020744
 30
0.0
 11
595.55238044878161
 21
1658.1680480207431
 31
0.0
  0
LINE
  5
7CC9
  8
1
 10
584.56483121741348
 20
1618.168048020744
 30
0.0
 11
595.55238044878161
 21
1658.168048020744
 31
0.0
  0
LINE
  5
7CCA
  8
1
 10
567.06483121741348
 20
1513.168048020744
 30
0.0
 11
567.06483121741348
 21
1588.168048020744
 31
0.0
  0
LINE
  5
7CCB
  8
1
 10
577.06483121741394
 20
1588.168048020744
 30
0.0
 11
577.06483121741394
 21
1618.168048020744
 31
0.0
  0
LINE
  5
7CCC
  8
1
 10
617.06483121741348
 20
1658.1680480207431
 30
0.0
 11
657.06483121741337
 21
1658.1680480207431
 31
0.0
  0
ARC
  5
7CCD
  8
1
 10
727.06483121741337
 20
1770.1677480207441
 30
0.0
 40
117.0
 50
180.0
 51
246.6926
  0
ARC
  5
7CCE
  8
1
 10
727.06483121741337
 20
1770.1677480207441
 30
0.0
 40
121.5
 50
180.0
 51
243.7502999999999
  0
LINE
  5
7CCF
  8
1
 10
617.06483121741348
 20
1658.1680480207431
 30
0.0
 11
617.06483121741348
 21
1668.1680480207431
 31
0.0
  0
LINE
  5
7CD0
  8
1
 10
626.23223121741319
 20
1702.3812480207439
 30
0.0
 11
617.06483121741348
 21
1668.1680480207431
 31
0.0
  0
LINE
  5
7CD1
  8
1
 10
657.06483121741337
 20
1658.1680480207431
 30
0.0
 11
657.06483121741337
 21
1663.0969480207441
 31
0.0
  0
LINE
  5
7CD2
  8
1
 10
660.45253121741359
 20
1668.555748020744
 30
0.0
 11
658.52933121741353
 21
1666.6324480207429
 31
0.0
  0
ARC
  5
7CD3
  8
1
 10
662.06473121741317
 20
1663.0969480207441
 30
0.0
 40
4.9999000000000002
 50
134.99950000000001
 51
180.0
  0
LINE
  5
7CD4
  8
1
 10
869.56483121741348
 20
1618.168048020744
 30
0.0
 11
858.57728198604525
 21
1658.168048020744
 31
0.0
  0
LINE
  5
7CD5
  8
1
 10
877.06483121741337
 20
1588.168048020744
 30
0.0
 11
877.06483121741337
 21
1618.168048020744
 31
0.0
  0
LINE
  5
7CD6
  8
1
 10
837.06483121741337
 20
1658.1680480207431
 30
0.0
 11
797.06483121741348
 21
1658.1680480207431
 31
0.0
  0
LINE
  5
7CD7
  8
1
 10
797.06483121741348
 20
1658.1680480207431
 30
0.0
 11
797.06483121741348
 21
1663.0969480207441
 31
0.0
  0
ARC
  5
7CD8
  8
1
 10
792.06493121741369
 20
1663.0969480207441
 30
0.0
 40
4.9999000000000002
 50
0.0
 51
45.000500000000002
  0
LINE
  5
7CD9
  8
1
 10
793.67713121741326
 20
1668.555748020744
 30
0.0
 11
795.60033121741344
 21
1666.6324480207429
 31
0.0
  0
LINE
  5
7CDA
  8
1
 10
837.06483121741337
 20
1658.1680480207431
 30
0.0
 11
837.06483121741337
 21
1668.1680480207431
 31
0.0
  0
LINE
  5
7CDB
  8
1
 10
827.8974312174131
 20
1702.3812480207439
 30
0.0
 11
837.06483121741337
 21
1668.1680480207431
 31
0.0
  0
DIMENSION
  5
7CDC
  8
3
  2
*D9
 10
2037.2219079403139
 20
1400.168048020744
 30
0.0
 11
1982.221907940313
 21
1249.6918575445541
 31
0.0
 70
     0
 13
1647.0648312174119
 23
1475.168048020744
 33
0.0
 14
1647.064831217413
 24
1400.168048020744
 34
0.0
 50
90.0
1001
ACAD
1000
DSTYLE
1002
{
1070
   287
1070
     3
1070
   287
1070
     3
1070
    40
1040
20.0
1070
   147
1040
1.5
1070
   173
1070
     1
1070
   272
1070
     4
1070
   279
1070
     0
1070
   284
1070
     0
1070
   285
1070
     0
1070
   286
1070
     0
1070
     6
1000
YA_N
1070
     7
1000
OPEN
1002
}
  0
DIMENSION
  5
7CDD
  8
3
  2
*D10
 10
2037.2219079403139
 20
1475.168048020744
 30
0.0
 11
2208.4123841307892
 21
1610.9384643401729
 31
0.0
 70
   128
  1
(38)
 13
1647.064831217413
 23
1513.168048020744
 33
0.0
 14
1647.0648312174119
 24
1475.168048020744
 34
0.0
 50
90.0
1001
ACAD
1000
DSTYLE
1002
{
1070
   287
1070
     4
1070
   287
1070
     4
1070
    40
1040
20.0
1070
    75
1070
     1
1070
   147
1040
1.5
1070
   173
1070
     1
1070
   272
1070
     4
1070
   279
1070
     1
1070
   284
1070
     0
1070
   285
1070
     0
1070
   286
1070
     0
1070
     6
1000
OPEN
1070
     7
1000
YA_N
1002
}
  0
DIMENSION
  5
7CDE
  8
3
  2
*D11
 10
2037.2219079403139
 20
1513.168048020744
 30
0.0
 11
1982.221907940313
 21
1738.168048020744
 31
0.0
 70
     0
 13
1840.211324533657
 23
1963.168048020744
 33
0.0
 14
1647.064831217413
 24
1513.168048020744
 34
0.0
 50
90.0
1001
ACAD
1000
DSTYLE
1002
{
1070
   287
1070
     4
1070
   287
1070
     4
1070
    40
1040
20.0
1070
    75
1070
     1
1070
   147
1040
1.5
1070
   173
1070
     1
1070
   272
1070
     4
1070
   279
1070
     1
1070
   284
1070
     0
1070
   285
1070
     0
1070
   286
1070
     0
1070
     6
1000
ARROW
1070
     7
1000
ARROW
1002
}
  0
LINE
  5
7CDF
  8
1
 10
1757.064831217413
 20
2138.1680480207442
 30
0.0
 11
1707.4370469963681
 21
2156.9851421988942
 31
0.0
  0
LINE
  5
7CE0
  8
1
 10
1691.1445096105219
 20
1989.168048020744
 30
0.0
 11
1757.064831217413
 21
1989.168048020744
 31
0.0
  0
LINE
  5
7CE1
  8
1
 10
1691.1445096105219
 20
1987.5680480207441
 30
0.0
 11
1757.064831217413
 21
1987.5680480207441
 31
0.0
  0
INSERT
  5
7CE2
  8
1
  2
L02503
 10
1842.3453610734571
 20
2068.770711506349
 30
0.0
 41
-1.0
 50
90.0
  0
ARC
  5
7CE3
  8
1
 10
1366.064831217413
 20
1932.168048020744
 30
0.0
 40
329.7837981443563
 50
275.04245106917091
 51
0.0
  0
ARC
  5
7CE4
  8
1
 10
1366.064831217413
 20
1932.1680480207449
 30
0.0
 40
341.18379814435662
 50
317.86240683271728
 51
359.99999999999972
  0
LINE
  5
7CE5
  8
1
 10
1175.0648312174289
 20
1588.168048020744
 30
0.0
 11
1175.064831217413
 21
1899.9680480207439
 31
0.0
  0
LINE
  5
7CE6
  8
1
 10
1619.0648312174119
 20
1588.168048020744
 30
0.0
 11
1619.0648312174119
 21
1899.9680480207439
 31
0.0
  0
DIMENSION
  5
7CE7
  8
3
  2
*D12
 10
1647.064831217413
 20
1247.824852396091
 30
0.0
 11
1522.064831217413
 21
1302.824852396091
 31
0.0
 70
     0
 13
1397.064831217413
 23
1367.636776533544
 33
0.0
 14
1647.064831217413
 24
1400.168048020744
 34
0.0
1001
ACAD
1000
DSTYLE
1002
{
1070
   287
1070
     3
1070
   287
1070
     3
1070
    40
1040
20.0
1070
   147
1040
1.5
1070
   173
1070
     1
1070
   272
1070
     4
1070
   279
1070
     0
1070
   284
1070
     0
1070
   285
1070
     0
1070
   286
1070
     0
1070
     6
1000
ARROW
1070
     7
1000
ARROW
1002
}
  0
LINE
  5
7CE8
  8
1
 10
1157.0648312174119
 20
1588.168048020744
 30
0.0
 11
1157.0648312174119
 21
1628.168048020744
 31
0.0
  0
LINE
  5
7CE9
  8
1
 10
1175.0648312174319
 20
1593.168048020744
 30
0.0
 11
1157.0648312174119
 21
1593.168048020744
 31
0.0
  0
LINE
  5
7CEA
  8
1
 10
1175.0648312174301
 20
1628.168048020744
 30
0.0
 11
1157.0648312174119
 21
1628.168048020744
 31
0.0
  0
LINE
  5
7CEB
  8
1
 10
1647.0648312174119
 20
1475.168048020744
 30
0.0
 11
1647.064831217413
 21
1400.168048020744
 31
0.0
  0
LINE
  5
7CEC
  8
1
 10
1637.0648312174119
 20
1593.168048020744
 30
0.0
 11
1619.0648312174119
 21
1593.168048020744
 31
0.0
  0
LINE
  5
7CED
  8
1
 10
1637.0648312174119
 20
1628.168048020744
 30
0.0
 11
1619.0648312174119
 21
1628.168048020744
 31
0.0
  0
LINE
  5
7CEE
  8
1
 10
1647.064831217413
 20
1513.168048020744
 30
0.0
 11
1647.064831217413
 21
1588.168048020744
 31
0.0
  0
LINE
  5
7CEF
  8
1
 10
1637.0648312174119
 20
1588.168048020744
 30
0.0
 11
1637.0648312174119
 21
1628.168048020744
 31
0.0
  0
LINE
  5
7CF0
  8
1
 10
1165.0648312174119
 20
1903.168048020744
 30
0.0
 11
1629.064831217413
 21
1903.168048020744
 31
0.0
  0
LINE
  5
7CF1
  8
1
 10
1132.064831217413
 20
1899.9680480207439
 30
0.0
 11
1662.064831217413
 21
1899.9680480207439
 31
0.0
  0
CIRCLE
  5
7CF2
  8
1
 10
1397.064831217413
 20
1963.168048020744
 30
0.0
 40
63.5
  0
LINE
  5
7CF3
  8
1
 10
1175.0648312174151
 20
1843.9680480207439
 30
0.0
 11
981.58204802035254
 21
1843.9680480207439
 31
0.0
  0
LINE
  5
7CF4
  8
1
 10
1175.0648312174151
 20
1849.9680480207439
 30
0.0
 11
979.16114630928132
 21
1849.9680480207439
 31
0.0
  0
LINE
  5
7CF5
  8
1
 10
1132.064831217413
 20
1849.9680480207439
 30
0.0
 11
1132.064831217413
 21
1899.9680480207439
 31
0.0
  0
LINE
  5
7CF6
  8
1
 10
1165.064831217413
 20
1899.9680480207439
 30
0.0
 11
1165.0648312174119
 21
1903.1680480207431
 31
0.0
  0
ARC
  5
7CF7
  8
1
 10
1397.064831217413
 20
1963.168048020744
 30
0.0
 40
150.0
 50
286.06958282647798
 51
106.069582826478
  0
ARC
  5
7CF8
  8
1
 10
1690.064831217413
 20
2111.1680480207442
 30
0.0
 40
49.0
 50
69.235050723263512
 51
224.31750806242439
  0
ARC
  5
7CF9
  8
1
 10
1428.064831217413
 20
1932.1680480207431
 30
0.0
 40
279.1837981443565
 50
0.0
 51
9.6917750711599275
  0
ARC
  5
7CFA
  8
1
 10
1428.0648312174119
 20
1932.1680480207449
 30
0.0
 40
269.18379814435679
 50
359.99999999999972
 51
32.986690474820392
  0
LINE
  5
7CFB
  8
1
 10
1697.1985566459909
 20
1849.9680480207439
 30
0.0
 11
1619.0648312174119
 21
1849.9680480207439
 31
0.0
  0
LINE
  5
7CFC
  8
1
 10
1695.6511539254541
 20
1843.9680480207439
 30
0.0
 11
1619.0648312174119
 21
1843.9680480207439
 31
0.0
  0
LINE
  5
7CFD
  8
1
 10
1629.064831217413
 20
1899.9680480207439
 30
0.0
 11
1629.064831217413
 21
1903.168048020744
 31
0.0
  0
LINE
  5
7CFE
  8
1
 10
1662.064831217413
 20
1849.9680480207439
 30
0.0
 11
1662.064831217413
 21
1899.9680480207439
 31
0.0
  0
LINE
  5
7CFF
  8
1
 10
1732.064831217413
 20
1979.168048020744
 30
0.0
 11
1732.064831217413
 21
1987.5680480207441
 31
0.0
  0
LINE
  5
7D00
  8
1
 10
1703.2640193454099
 20
1979.168048020744
 30
0.0
 11
1732.064831217413
 21
1979.168048020744
 31
0.0
  0
CIRCLE
  5
7D01
  8
1
 10
2037.2219079403139
 20
1475.168048020744
 30
0.0
 40
4.0
  0
DIMENSION
  5
7D02
  8
3
  2
*D13
 10
567.06483121741348
 20
4437.9272198682938
 30
0.0
 11
857.06483121741314
 21
4492.9272198682938
 31
0.0
 70
     0
 13
1147.064831217413
 23
4294.6424686625787
 33
0.0
 14
567.06483121741348
 24
3854.6424686625792
 34
0.0
1001
ACAD
1000
DSTYLE
1002
{
1070
   287
1070
     4
1070
   287
1070
     4
1070
    40
1040
20.0
1070
    75
1070
     1
1070
   147
1040
1.5
1070
   173
1070
     1
1070
   272
1070
     4
1070
   279
1070
     1
1070
   284
1070
     0
1070
   285
1070
     0
1070
   286
1070
     0
1070
     6
1000
ARROW
1070
     7
1000
ARROW
1002
}
  0
LINE
  5
7D03
  8
1
 10
1147.064831217413
 20
3814.6424686625792
 30
0.0
 11
567.06483121741348
 21
3814.6424686625792
 31
0.0
  0
LINE
  5
7D04
  8
1
 10
1147.064831217413
 20
3854.6424686625792
 30
0.0
 11
567.06483121741348
 21
3854.6424686625792
 31
0.0
  0
LINE
  5
7D05
  8
1
 10
1165.0648312174119
 20
3334.6424686625792
 30
0.0
 11
848.06483121741246
 21
3334.6424686625792
 31
0.0
  0
LINE
  5
7D06
  8
1
 10
1320.864831217413
 20
3239.6424686625801
 30
0.0
 11
790.56483121741303
 21
3239.6424686625801
 31
0.0
  0
LINE
  5
7D07
  8
1
 10
1320.864831217413
 20
3289.6424686625801
 30
0.0
 11
790.56483121741246
 21
3289.6424686625801
 31
0.0
  0
LINE
  5
7D08
  8
1
 10
1547.064831217413
 20
3209.642468662581
 30
0.0
 11
577.06483121741337
 21
3209.642468662581
 31
0.0
  0
LINE
  5
7D09
  8
1
 10
1547.064831217413
 20
3331.642468662581
 30
0.0
 11
577.06483121741337
 21
3331.642468662581
 31
0.0
  0
LINE
  5
7D0A
  8
1
 10
1374.564831217413
 20
3294.6424686625792
 30
0.0
 11
567.06483121741348
 21
3294.6424686625792
 31
0.0
  0
LINE
  5
7D0B
  8
2
 10
1796.220435890946
 20
4064.642468662581
 30
0.0
 11
815.9450052992205
 21
4064.642468662581
 31
0.0
  0
DIMENSION
  5
7D0C
  8
3
  2
*D14
 10
567.06483121741348
 20
2977.8242161626222
 30
0.0
 11
1107.064831217413
 21
3032.8242161626208
 31
0.0
 70
     0
 13
1647.064831217413
 23
3294.6424686625792
 33
0.0
 14
567.06483121741348
 24
3294.6424686625792
 34
0.0
1001
ACAD
1000
DSTYLE
1002
{
1070
   287
1070
     3
1070
   287
1070
     3
1070
    40
1040
20.0
1070
   147
1040
1.5
1070
   173
1070
     1
1070
   272
1070
     4
1070
   279
1070
     0
1070
   284
1070
     0
1070
   285
1070
     0
1070
   286
1070
     0
1070
     6
1000
ARROW
1070
     7
1000
ARROW
1002
}
  0
DIMENSION
  5
7D0D
  8
3
  2
*D15
 10
380.43024665865858
 20
3294.6424686625792
 30
0.0
 11
325.43024665865812
 21
3574.6424686625792
 31
0.0
 70
     0
 13
567.06483121741348
 23
3854.6424686625792
 33
0.0
 14
567.06483121741348
 24
3294.6424686625792
 34
0.0
 50
270.0
1001
ACAD
1000
DSTYLE
1002
{
1070
   287
1070
     3
1070
   287
1070
     3
1070
    40
1040
20.0
1070
   147
1040
1.5
1070
   173
1070
     1
1070
   272
1070
     4
1070
   279
1070
     0
1070
   284
1070
     0
1070
   285
1070
     0
1070
   286
1070
     0
1070
     6
1000
ARROW
1070
     7
1000
ARROW
1002
}
  0
LINE
  5
7D0E
  8
2
 10
727.06483121741303
 20
3236.0524686625808
 30
0.0
 11
727.06483121741303
 21
3626.1682686625809
 31
0.0
  0
LINE
  5
7D0F
  8
1
 10
848.06483121741303
 20
3315.642468662581
 30
0.0
 11
848.06483121741303
 21
3622.642468662581
 31
0.0
  0
LINE
  5
7D10
  8
1
 10
606.06483121741303
 20
3315.642468662581
 30
0.0
 11
606.06483121741303
 21
3622.642468662581
 31
0.0
  0
LINE
  5
7D11
  8
1
 10
684.56483121741303
 20
3305.642468662581
 30
0.0
 11
769.56483121741303
 21
3305.642468662581
 31
0.0
  0
LINE
  5
7D12
  8
1
 10
663.56483121741303
 20
3239.642468662581
 30
0.0
 11
790.56483121741303
 21
3239.6424686625801
 31
0.0
  0
LINE
  5
7D13
  8
1
 10
663.56483121741348
 20
3289.642468662581
 30
0.0
 11
790.56483121741337
 21
3289.6424686625801
 31
0.0
  0
LINE
  5
7D14
  8
1
 10
606.06483121741303
 20
3315.642468662581
 30
0.0
 11
848.06483121741303
 21
3315.642468662581
 31
0.0
  0
LINE
  5
7D15
  8
1
 10
577.06483121741337
 20
3209.642468662581
 30
0.0
 11
577.06483121741337
 21
3331.642468662581
 31
0.0
  0
LINE
  5
7D16
  8
1
 10
663.56483121741303
 20
3239.642468662581
 30
0.0
 11
663.56483121741257
 21
3289.642468662581
 31
0.0
  0
LINE
  5
7D17
  8
1
 10
606.06483121741257
 20
3334.6424686625792
 30
0.0
 11
567.06483121741348
 21
3334.6424686625792
 31
0.0
  0
LINE
  5
7D18
  8
1
 10
567.06483121741348
 20
3294.6424686625792
 30
0.0
 11
567.06483121741348
 21
3334.6424686625792
 31
0.0
  0
POINT
  5
7D19
  8
1
 10
567.06483121741348
 20
3294.6424686625792
 30
0.0
  0
POINT
  5
7D1A
  8
1
 10
567.06483121741348
 20
3294.6424686625792
 30
0.0
  0
POINT
  5
7D1B
  8
1
 10
567.06483121741348
 20
3294.6424686625792
 30
0.0
  0
LINE
  5
7D1C
  8
1
 10
684.56483121741303
 20
3315.642468662581
 30
0.0
 11
684.56483121741303
 21
3305.642468662581
 31
0.0
  0
LINE
  5
7D1D
  8
1
 10
711.56483121741303
 20
3305.642468662581
 30
0.0
 11
711.56483121741303
 21
3299.642468662581
 31
0.0
  0
LINE
  5
7D1E
  8
1
 10
713.06483121741303
 20
3299.642468662581
 30
0.0
 11
713.06483121741246
 21
3289.642468662581
 31
0.0
  0
LINE
  5
7D1F
  8
1
 10
742.56483121741303
 20
3299.642468662581
 30
0.0
 11
742.56483121741303
 21
3305.642468662581
 31
0.0
  0
LINE
  5
7D20
  8
1
 10
741.06483121741303
 20
3299.642468662581
 30
0.0
 11
741.06483121741246
 21
3289.642468662581
 31
0.0
  0
LINE
  5
7D21
  8
1
 10
711.56483121741303
 20
3299.642468662581
 30
0.0
 11
742.56483121741303
 21
3299.642468662581
 31
0.0
  0
LINE
  5
7D22
  8
1
 10
790.56483121741303
 20
3239.6424686625801
 30
0.0
 11
790.56483121741246
 21
3289.6424686625801
 31
0.0
  0
LINE
  5
7D23
  8
1
 10
769.56483121741303
 20
3315.642468662581
 30
0.0
 11
769.56483121741303
 21
3305.642468662581
 31
0.0
  0
LINE
  5
7D24
  8
1
 10
606.06483121741303
 20
3622.6424686625801
 30
0.0
 11
848.06483121741303
 21
3622.642468662581
 31
0.0
  0
LINE
  5
7D25
  8
1
 10
567.06483121741348
 20
3814.6424686625792
 30
0.0
 11
567.06483121741348
 21
3854.6424686625792
 31
0.0
  0
LINE
  5
7D26
  8
1
 10
1302.064831217413
 20
3726.4424686625798
 30
0.0
 11
1302.064831217413
 21
3782.8424686625799
 31
0.0
  0
LINE
  5
7D27
  8
1
 10
1297.064831217413
 20
3722.142468662581
 30
0.0
 11
1297.064831217413
 21
3787.1424686625801
 31
0.0
  0
LINE
  5
7D28
  8
1
 10
1492.064831217413
 20
3726.4424686625798
 30
0.0
 11
1492.064831217413
 21
3782.8424686625799
 31
0.0
  0
LINE
  5
7D29
  8
1
 10
1497.064831217413
 20
3722.142468662581
 30
0.0
 11
1497.064831217413
 21
3787.1424686625801
 31
0.0
  0
LINE
  5
7D2A
  8
2
 10
1397.064831217413
 20
3207.1598575513881
 30
0.0
 11
1397.064831217413
 21
3939.4521048668448
 31
0.0
  0
LINE
  5
7D2B
  8
1
 10
1147.064831217413
 20
3334.6424686625792
 30
0.0
 11
1147.064831217413
 21
3877.142468662581
 31
0.0
  0
LINE
  5
7D2C
  8
1
 10
1165.0648312174119
 20
3324.6424686625801
 30
0.0
 11
1165.0648312174119
 21
3809.6424686625801
 31
0.0
  0
LINE
  5
7D2D
  8
1
 10
1647.064831217413
 20
3294.6424686625792
 30
0.0
 11
1647.064831217413
 21
3877.142468662581
 31
0.0
  0
DIMENSION
  5
7D2E
  8
3
  2
*D16
 10
1951.8825630059171
 20
4294.6424686625787
 30
0.0
 11
1896.8825630059159
 21
3794.6424686625792
 31
0.0
 70
     0
 13
1647.064831217413
 23
3294.6424686625792
 33
0.0
 14
1647.064831217413
 24
4294.6424686625787
 34
0.0
 50
270.0
1001
ACAD
1000
DSTYLE
1002
{
1070
   287
1070
     3
1070
   287
1070
     3
1070
    40
1040
20.0
1070
   147
1040
1.5
1070
   173
1070
     1
1070
   272
1070
     4
1070
   279
1070
     0
1070
   284
1070
     0
1070
   285
1070
     0
1070
   286
1070
     0
1070
     6
1000
ARROW
1070
     7
1000
ARROW
1002
}
  0
LINE
  5
7D2F
  8
1
 10
1629.064831217413
 20
3324.6424686625801
 30
0.0
 11
1629.064831217413
 21
3809.6424686625801
 31
0.0
  0
DIMENSION
  5
7D30
  8
3
  2
*D17
 10
1397.064831217413
 20
2666.4351676492488
 30
0.0
 11
1577.064831217413
 21
2721.4351676492488
 31
0.0
 70
     0
 13
1757.064831217413
 23
2528.174526724873
 33
0.0
 14
1397.064831217413
 24
2574.09347719885
 34
0.0
1001
ACAD
1000
DSTYLE
1002
{
1070
   287
1070
     3
1070
   287
1070
     3
1070
    40
1040
20.0
1070
   147
1040
1.5
1070
   173
1070
     1
1070
   272
1070
     4
1070
   279
1070
     0
1070
   284
1070
     0
1070
   285
1070
     0
1070
   286
1070
     0
1070
     6
1000
ARROW
1070
     7
1000
ARROW
1002
}
  0
INSERT
  5
7D31
  8
1
  2
L02503
 10
1842.3453610734571
 20
2421.9718632392692
 30
0.0
 50
90.0
  0
LINE
  5
7D32
  8
1
 10
1757.064831217413
 20
2501.1680480207442
 30
0.0
 11
1397.064831217413
 21
2472.1680480207442
 31
0.0
  0
LINE
  5
7D33
  8
1
 10
1757.064831217413
 20
2503.174526724873
 30
0.0
 11
1396.9042403167671
 21
2474.1615902356548
 31
0.0
  0
LINE
  5
7D34
  8
1
 10
1732.064831217413
 20
2509.1865526524998
 30
0.0
 11
1396.2725465842
 21
2482.1366186126029
 31
0.0
  0
LINE
  5
7D35
  8
1
 10
1374.5648312174119
 20
3722.142468662581
 30
0.0
 11
1297.0648312174119
 21
3722.142468662581
 31
0.0
  0
LINE
  5
7D36
  8
1
 10
1492.064831217413
 20
3726.4424686625798
 30
0.0
 11
1302.064831217413
 21
3726.4424686625812
 31
0.0
  0
LINE
  5
7D37
  8
1
 10
1473.2648312174131
 20
3239.6424686625801
 30
0.0
 11
1320.8648312174121
 21
3239.6424686625801
 31
0.0
  0
LINE
  5
7D38
  8
1
 10
1374.564831217413
 20
3347.142468662581
 30
0.0
 11
1297.0648312174119
 21
3347.142468662581
 31
0.0
  0
LINE
  5
7D39
  8
1
 10
1374.5648312174119
 20
3412.142468662581
 30
0.0
 11
1297.0648312174119
 21
3412.1424686625801
 31
0.0
  0
LINE
  5
7D3A
  8
1
 10
1492.064831217413
 20
3351.4424686625798
 30
0.0
 11
1302.064831217413
 21
3351.4424686625812
 31
0.0
  0
LINE
  5
7D3B
  8
1
 10
1492.064831217413
 20
3407.8424686625799
 30
0.0
 11
1302.064831217413
 21
3407.8424686625808
 31
0.0
  0
LINE
  5
7D3C
  8
1
 10
1473.2648312174131
 20
3289.6424686625801
 30
0.0
 11
1320.864831217413
 21
3289.6424686625801
 31
0.0
  0
LINE
  5
7D3D
  8
2
 10
1512.1766557291619
 20
3379.6424686625801
 30
0.0
 11
1281.9530067056639
 21
3379.6424686625801
 31
0.0
  0
LINE
  5
7D3E
  8
1
 10
1374.564831217413
 20
3324.642468662581
 30
0.0
 11
1165.0648312174119
 21
3324.642468662581
 31
0.0
  0
LINE
  5
7D3F
  8
1
 10
1320.864831217413
 20
3239.6424686625801
 30
0.0
 11
1320.864831217413
 21
3289.6424686625801
 31
0.0
  0
LINE
  5
7D40
  8
1
 10
1302.064831217413
 20
3351.4424686625798
 30
0.0
 11
1302.064831217413
 21
3407.8424686625799
 31
0.0
  0
LINE
  5
7D41
  8
1
 10
1297.064831217413
 20
3347.142468662581
 30
0.0
 11
1297.064831217413
 21
3412.1424686625801
 31
0.0
  0
LINE
  5
7D42
  8
1
 10
1419.564831217413
 20
3407.8424686625808
 30
0.0
 11
1419.564831217413
 21
3726.4424686625812
 31
0.0
  0
LINE
  5
7D43
  8
1
 10
1374.564831217413
 20
3407.8424686625808
 30
0.0
 11
1374.564831217413
 21
3726.4424686625812
 31
0.0
  0
LINE
  5
7D44
  8
1
 10
1629.064831217413
 20
3324.642468662581
 30
0.0
 11
1419.564831217413
 21
3324.642468662581
 31
0.0
  0
LINE
  5
7D45
  8
1
 10
1647.064831217413
 20
3294.6424686625792
 30
0.0
 11
1419.564831217413
 21
3294.6424686625792
 31
0.0
  0
LINE
  5
7D46
  8
1
 10
1473.2648312174131
 20
3239.6424686625801
 30
0.0
 11
1473.2648312174131
 21
3289.6424686625801
 31
0.0
  0
LINE
  5
7D47
  8
1
 10
1497.064831217413
 20
3412.1424686625801
 30
0.0
 11
1419.564831217413
 21
3412.142468662581
 31
0.0
  0
LINE
  5
7D48
  8
1
 10
1497.064831217413
 20
3347.142468662581
 30
0.0
 11
1419.564831217413
 21
3347.142468662581
 31
0.0
  0
LINE
  5
7D49
  8
1
 10
1374.564831217413
 20
3289.6424686625801
 30
0.0
 11
1374.564831217413
 21
3351.4424686625812
 31
0.0
  0
LINE
  5
7D4A
  8
1
 10
1419.564831217413
 20
3289.6424686625801
 30
0.0
 11
1419.564831217413
 21
3351.4424686625812
 31
0.0
  0
LINE
  5
7D4B
  8
1
 10
1492.064831217413
 20
3351.4424686625798
 30
0.0
 11
1492.064831217413
 21
3407.8424686625799
 31
0.0
  0
LINE
  5
7D4C
  8
1
 10
1497.064831217413
 20
3347.142468662581
 30
0.0
 11
1497.064831217413
 21
3412.1424686625801
 31
0.0
  0
LINE
  5
7D4D
  8
1
 10
1547.064831217413
 20
3209.6424686625801
 30
0.0
 11
1547.064831217413
 21
3331.6424686625801
 31
0.0
  0
LINE
  5
7D4E
  8
1
 10
1647.064831217413
 20
3334.6424686625792
 30
0.0
 11
1629.064831217413
 21
3334.6424686625792
 31
0.0
  0
LINE
  5
7D4F
  8
1
 10
1497.064831217413
 20
3722.142468662581
 30
0.0
 11
1419.5648312174119
 21
3722.142468662581
 31
0.0
  0
POINT
  5
7D50
  8
1
 10
1757.064831217413
 20
2501.1680480207442
 30
0.0
  0
POINT
  5
7D51
  8
1
 10
1757.064831217413
 20
2502.7732309840471
 30
0.0
  0
LINE
  5
7D52
  8
1
 10
1754.064831217413
 20
3877.1424686625801
 30
0.0
 11
962.0168404095524
 21
3877.142468662581
 31
0.0
  0
LINE
  5
7D53
  8
1
 10
1754.064831217413
 20
4252.1424686625815
 30
0.0
 11
962.0168404095524
 21
4252.1424686625815
 31
0.0
  0
DIMENSION
  5
7D54
  8
3
  2
*D18
 10
1147.064831217413
 20
4437.9272198682938
 30
0.0
 11
1397.064831217413
 21
4492.9272198682938
 31
0.0
 70
     0
 13
1647.064831217413
 23
4294.6424686625787
 33
0.0
 14
1147.064831217413
 24
4294.6424686625787
 34
0.0
1001
ACAD
1000
DSTYLE
1002
{
1070
   287
1070
     3
1070
   287
1070
     3
1070
    40
1040
20.0
1070
   147
1040
1.5
1070
   173
1070
     1
1070
   272
1070
     4
1070
   279
1070
     0
1070
   284
1070
     0
1070
   285
1070
     0
1070
   286
1070
     0
1070
     6
1000
ARROW
1070
     7
1000
ARROW
1002
}
  0
LINE
  5
7D55
  8
1
 10
1374.564831217413
 20
3787.1424686625801
 30
0.0
 11
1297.0648312174119
 21
3787.1424686625801
 31
0.0
  0
LINE
  5
7D56
  8
1
 10
1492.064831217413
 20
3782.8424686625799
 30
0.0
 11
1302.064831217413
 21
3782.8424686625808
 31
0.0
  0
LINE
  5
7D57
  8
2
 10
1512.1766557291619
 20
3754.6424686625801
 30
0.0
 11
1281.9530067056639
 21
3754.6424686625801
 31
0.0
  0
LINE
  5
7D58
  8
1
 10
1629.064831217413
 20
3809.6424686625801
 30
0.0
 11
1165.064831217413
 21
3809.6424686625801
 31
0.0
  0
LINE
  5
7D59
  8
1
 10
1647.064831217413
 20
4294.6424686625787
 30
0.0
 11
1147.064831217413
 21
4294.6424686625787
 31
0.0
  0
LINE
  5
7D5A
  8
1
 10
1607.064831217413
 20
4254.6424686625815
 30
0.0
 11
1187.064831217413
 21
4254.6424686625796
 31
0.0
  0
LINE
  5
7D5B
  8
1
 10
962.0168404095524
 20
3877.142468662581
 30
0.0
 11
962.0168404095524
 21
4252.1424686625815
 31
0.0
  0
LINE
  5
7D5C
  8
1
 10
1187.064831217413
 20
3809.6424686625801
 30
0.0
 11
1187.064831217413
 21
3849.642468662581
 31
0.0
  0
LINE
  5
7D5D
  8
1
 10
1187.064831217413
 20
3809.6424686625801
 30
0.0
 11
1187.064831217413
 21
3877.142468662581
 31
0.0
  0
LINE
  5
7D5E
  8
1
 10
1147.064831217413
 20
4252.1424686625815
 30
0.0
 11
1147.064831217413
 21
4294.6424686625787
 31
0.0
  0
LINE
  5
7D5F
  8
1
 10
1187.064831217413
 20
4252.1424686625815
 30
0.0
 11
1187.064831217413
 21
4294.6424686625787
 31
0.0
  0
LINE
  5
7D60
  8
2
 10
1397.064831217413
 20
3994.0687124807632
 30
0.0
 11
1397.064831217413
 21
4303.7626896733136
 31
0.0
  0
LINE
  5
7D61
  8
1
 10
1497.064831217413
 20
3787.1424686625801
 30
0.0
 11
1419.564831217413
 21
3787.1424686625801
 31
0.0
  0
LINE
  5
7D62
  8
1
 10
1374.564831217413
 20
3782.8424686625808
 30
0.0
 11
1374.564831217413
 21
3849.642468662581
 31
0.0
  0
LINE
  5
7D63
  8
1
 10
1419.564831217413
 20
3782.8424686625799
 30
0.0
 11
1419.564831217413
 21
3877.142468662581
 31
0.0
  0
LINE
  5
7D64
  8
1
 10
1607.064831217413
 20
3809.6424686625801
 30
0.0
 11
1607.064831217413
 21
3835.6424686625801
 31
0.0
  0
LINE
  5
7D65
  8
1
 10
1607.064831217413
 20
3809.6424686625801
 30
0.0
 11
1607.064831217413
 21
3877.142468662581
 31
0.0
  0
LINE
  5
7D66
  8
1
 10
1607.064831217413
 20
4252.1424686625815
 30
0.0
 11
1607.064831217413
 21
4294.6424686625787
 31
0.0
  0
LINE
  5
7D67
  8
1
 10
1647.064831217413
 20
4252.1424686625815
 30
0.0
 11
1647.064831217413
 21
4294.6424686625787
 31
0.0
  0
LINE
  5
7D68
  8
1
 10
1754.064831217413
 20
3849.6424686625801
 30
0.0
 11
1754.064831217413
 21
4279.6424686625815
 31
0.0
  0
LINE
  5
7D69
  8
1
 10
1757.064831217413
 20
3849.6424686625801
 30
0.0
 11
1757.064831217413
 21
4279.6424686625815
 31
0.0
  0
LINE
  5
7D6A
  8
1
 10
1757.064831217413
 20
3849.6424686625801
 30
0.0
 11
1754.064831217413
 21
3849.6424686625801
 31
0.0
  0
LINE
  5
7D6B
  8
1
 10
1757.064831217413
 20
4279.6424686625815
 30
0.0
 11
1754.064831217413
 21
4279.6424686625815
 31
0.0
  0
DIMENSION
  5
7D6E
  8
3
  2
*D19
 10
3714.5155854576942
 20
2799.361904703007
 30
0.0
 11
3618.5155854576942
 21
2854.361904703007
 31
0.0
 70
     0
 13
3522.5155854576942
 23
2667.6250395132629
 33
0.0
 14
3714.5155854576942
 24
1962.0745267248731
 34
0.0
1001
ACAD
1000
DSTYLE
1002
{
1070
   287
1070
     3
1070
   287
1070
     3
1070
    40
1040
20.0
1070
   147
1040
1.5
1070
   173
1070
     1
1070
   272
1070
     4
1070
   279
1070
     0
1070
   284
1070
     0
1070
   285
1070
     0
1070
   286
1070
     0
1070
     6
1000
ARROW
1070
     7
1000
ARROW
1002
}
  0
DIMENSION
  5
7D6F
  8
3
  2
*D20
 10
3522.5155854576942
 20
2799.361904703007
 30
0.0
 11
3095.0155854576942
 21
2854.361904703007
 31
0.0
 70
     0
 13
2667.5155854576942
 23
2113.1680480207442
 33
0.0
 14
3522.5155854576942
 24
2667.6250395132629
 34
0.0
1001
ACAD
1000
DSTYLE
1002
{
1070
   287
1070
     3
1070
   287
1070
     3
1070
    40
1040
20.0
1070
   147
1040
1.5
1070
   173
1070
     1
1070
   272
1070
     4
1070
   279
1070
     0
1070
   284
1070
     0
1070
   285
1070
     0
1070
   286
1070
     0
1070
     6
1000
ARROW
1070
     7
1000
ARROW
1002
}
  0
LINE
  5
7D70
  8
1
 10
3712.5155854576942
 20
2503.0745267248731
 30
0.0
 11
3712.5155854576942
 21
1987.0745267248731
 31
0.0
  0
LINE
  5
7D71
  8
1
 10
3332.5155854576951
 20
2503.0745267248731
 30
0.0
 11
3332.5155854576942
 21
1987.0745267248731
 31
0.0
  0
LINE
  5
7D72
  8
1
 10
3737.5155854576942
 20
2528.0745267248731
 30
0.0
 11
3737.5155854576942
 21
1962.0745267248731
 31
0.0
  0
LINE
  5
7D73
  8
1
 10
3307.5155854576942
 20
2528.0745267248731
 30
0.0
 11
3307.5155854576942
 21
1962.0745267248731
 31
0.0
  0
LINE
  5
7D74
  8
2
 10
3522.5155854576942
 20
2667.6250395132629
 30
0.0
 11
3522.5155854576942
 21
1367.6367765335449
 31
0.0
  0
DIMENSION
  5
7D75
  8
3
  2
*D21
 10
3522.5155854576942
 20
1243.5710108559811
 30
0.0
 11
3137.5155854576951
 21
1298.5710108559811
 31
0.0
 70
     0
 13
2752.5155854576951
 23
1400.168048020744
 33
0.0
 14
3522.5155854576942
 24
1367.6367765335449
 34
0.0
1001
ACAD
1000
DSTYLE
1002
{
1070
   287
1070
     3
1070
   287
1070
     3
1070
    40
1040
20.0
1070
   147
1040
1.5
1070
   173
1070
     1
1070
   272
1070
     4
1070
   279
1070
     0
1070
   284
1070
     0
1070
   285
1070
     0
1070
   286
1070
     0
1070
     6
1000
ARROW
1070
     7
1000
ARROW
1002
}
  0
LINE
  5
7D76
  8
1
 10
3307.5155854576942
 20
1962.0745267248731
 30
0.0
 11
3737.5155854576942
 21
1962.0745267248731
 31
0.0
  0
LINE
  5
7D77
  8
1
 10
3235.6440028195898
 20
1940.668048020744
 30
0.0
 11
3333.0155854576942
 21
1940.668048020744
 31
0.0
  0
LINE
  5
7D78
  8
1
 10
2752.5155854576951
 20
1475.168048020744
 30
0.0
 11
3752.5155854576951
 21
1475.168048020744
 31
0.0
  0
LINE
  5
7D79
  8
1
 10
2752.5155854576951
 20
1400.168048020744
 30
0.0
 11
3752.5155854576942
 21
1400.168048020744
 31
0.0
  0
LINE
  5
7D7A
  8
2
 10
2740.5165289314959
 20
1963.168048020744
 30
0.0
 11
3796.1496812540672
 21
1963.168048020744
 31
0.0
  0
POLYLINE
  5
7D7B
  8
1
 66
     1
 10
0.0
 20
0.0
 30
0.0
 70
     1
  0
VERTEX
  5
8249
  8
1
 10
3333.0155854576942
 20
1588.168048020744
 30
0.0
  0
VERTEX
  5
824A
  8
1
 10
3333.0155854576942
 20
1628.168048020744
 30
0.0
  0
VERTEX
  5
824B
  8
1
 10
3331.0155854576942
 20
1628.168048020744
 30
0.0
 42
0.4142135623730951
  0
VERTEX
  5
824C
  8
1
 10
3328.0155854576942
 20
1625.168048020744
 30
0.0
  0
VERTEX
  5
824D
  8
1
 10
3328.0155854576942
 20
1597.668048020744
 30
0.0
 42
-0.4142135623730951
  0
VERTEX
  5
824E
  8
1
 10
3323.5155854576942
 20
1593.168048020744
 30
0.0
  0
VERTEX
  5
824F
  8
1
 10
3296.0155854576942
 20
1593.168048020744
 30
0.0
 42
0.4142135623730951
  0
VERTEX
  5
8250
  8
1
 10
3293.0155854576942
 20
1590.168048020744
 30
0.0
  0
VERTEX
  5
8251
  8
1
 10
3293.0155854576942
 20
1588.168048020744
 30
0.0
  0
SEQEND
  5
8252
  8
1
  0
LINE
  5
7D86
  8
1
 10
2752.5155854576951
 20
1513.168048020744
 30
0.0
 11
3752.5155854576942
 21
1513.168048020744
 31
0.0
  0
LINE
  5
7D87
  8
1
 10
2752.5155854576951
 20
1588.168048020744
 30
0.0
 11
3752.5155854576942
 21
1588.168048020744
 31
0.0
  0
LINE
  5
7D88
  8
1
 10
3260.715585457694
 20
1849.9680480207439
 30
0.0
 11
3333.0155854576929
 21
1849.9680480207439
 31
0.0
  0
LINE
  5
7D89
  8
1
 10
3268.0155854576942
 20
1843.9680480207439
 30
0.0
 11
3333.0155854576942
 21
1843.9680480207439
 31
0.0
  0
LINE
  5
7D8A
  8
1
 10
2789.5155854576942
 20
2113.1680480207442
 30
0.0
 11
2789.5155854576942
 21
1620.1677480207429
 31
0.0
  0
LINE
  5
7D8B
  8
1
 10
2789.5155854576942
 20
2113.1680480207442
 30
0.0
 11
2789.5155854576929
 21
1588.168048020744
 31
0.0
  0
LINE
  5
7D8C
  8
1
 10
2667.5155854576942
 20
2113.1680480207442
 30
0.0
 11
2667.5155854576942
 21
1620.1677480207429
 31
0.0
  0
LINE
  5
7D8D
  8
1
 10
2747.5155854576942
 20
1899.668048020744
 30
0.0
 11
2747.5155854576942
 21
1786.3677480207441
 31
0.0
  0
LINE
  5
7D8E
  8
1
 10
2697.5155854576929
 20
1899.6680480207431
 30
0.0
 11
2697.5155854576929
 21
1778.0996614483479
 31
0.0
  0
LINE
  5
7D8F
  8
1
 10
2747.5155854576942
 20
1693.9677480207431
 30
0.0
 11
2747.5155854576942
 21
1846.3677480207441
 31
0.0
  0
LINE
  5
7D90
  8
1
 10
2697.5155854576929
 20
1693.9677480207431
 30
0.0
 11
2697.5155854576929
 21
1846.3677480207441
 31
0.0
  0
LINE
  5
7D91
  8
1
 10
2763.5155854576929
 20
1727.6677480207441
 30
0.0
 11
2763.5155854576929
 21
1812.6677480207441
 31
0.0
  0
LINE
  5
7D92
  8
1
 10
2773.5155854576942
 20
1673.1680480207431
 30
0.0
 11
2773.5155854576942
 21
1891.1677480207441
 31
0.0
  0
LINE
  5
7D93
  8
1
 10
3257.5155854576942
 20
1899.9680480207439
 30
0.0
 11
3257.5155854576942
 21
1630.7801590736769
 31
0.0
  0
LINE
  5
7D94
  8
1
 10
2792.5155854576942
 20
1899.9680480207439
 30
0.0
 11
2792.5155854576942
 21
1588.168048020744
 31
0.0
  0
LINE
  5
7D95
  8
2
 10
2693.9255854576941
 20
1770.1677480207441
 30
0.0
 11
3084.0413854576932
 21
1770.1677480207441
 31
0.0
  0
LINE
  5
7D96
  8
1
 10
2752.5155854576951
 20
1475.168048020744
 30
0.0
 11
2752.5155854576951
 21
1400.1680480207431
 31
0.0
  0
LINE
  5
7D97
  8
1
 10
2667.5155854576942
 20
1620.1677480207441
 30
0.0
 11
2789.5155854576929
 21
1620.1677480207441
 31
0.0
  0
LINE
  5
7D98
  8
1
 10
2697.5155854576929
 20
1693.9677480207431
 30
0.0
 11
2747.5155854576929
 21
1693.9677480207431
 31
0.0
  0
LINE
  5
7D99
  8
1
 10
2752.5155854576951
 20
1588.168048020744
 30
0.0
 11
2752.5155854576951
 21
1513.168048020744
 31
0.0
  0
ARC
  5
7D9A
  8
1
 10
2775.5155854576929
 20
1673.168148020743
 30
0.0
 40
2.0001000000000002
 50
180.00349999999989
 51
270.0
  0
LINE
  5
7D9B
  8
1
 10
2789.5155854576942
 20
1671.168048020744
 30
0.0
 11
2775.5155854576929
 21
1671.1680480207431
 31
0.0
  0
LINE
  5
7D9C
  8
1
 10
2773.5155854576942
 20
1727.6677480207441
 30
0.0
 11
2763.5155854576929
 21
1727.6677480207441
 31
0.0
  0
LINE
  5
7D9D
  8
1
 10
2757.5155854576942
 20
1754.6677480207441
 30
0.0
 11
2757.5155854576942
 21
1785.6677480207441
 31
0.0
  0
LINE
  5
7D9E
  8
1
 10
2763.5155854576929
 20
1754.6677480207441
 30
0.0
 11
2757.5155854576942
 21
1754.6677480207441
 31
0.0
  0
LINE
  5
7D9F
  8
1
 10
2757.5155854576942
 20
1785.6677480207441
 30
0.0
 11
2763.5155854576929
 21
1785.6677480207441
 31
0.0
  0
LINE
  5
7DA0
  8
1
 10
2757.5155854576942
 20
1756.1677480207441
 30
0.0
 11
2747.5155854576942
 21
1756.1677480207441
 31
0.0
  0
LINE
  5
7DA1
  8
1
 10
2757.5155854576942
 20
1784.1677480207441
 30
0.0
 11
2747.5155854576942
 21
1784.1677480207441
 31
0.0
  0
LINE
  5
7DA2
  8
1
 10
3257.5155854576942
 20
1648.9503804107089
 30
0.0
 11
3257.5155854576942
 21
1588.1680480207431
 31
0.0
  0
LINE
  5
7DA3
  8
1
 10
2872.4155854576952
 20
1940.668048020744
 30
0.0
 11
3177.6155854576932
 21
1940.668048020744
 31
0.0
  0
LINE
  5
7DA4
  8
1
 10
2872.4155854576939
 20
1985.668048020744
 30
0.0
 11
3177.6155854576941
 21
1985.668048020744
 31
0.0
  0
LINE
  5
7DA5
  8
1
 10
2782.5155854576942
 20
1899.9680480207439
 30
0.0
 11
3267.5155854576942
 21
1899.9680480207439
 31
0.0
  0
LINE
  5
7DA6
  8
1
 10
2782.5155854576942
 20
1903.168048020744
 30
0.0
 11
3267.5155854576942
 21
1903.168048020744
 31
0.0
  0
LINE
  5
7DA7
  8
1
 10
2667.5155854576942
 20
2113.1680480207442
 30
0.0
 11
2789.5155854576942
 21
2113.1680480207442
 31
0.0
  0
LINE
  5
7DA8
  8
1
 10
2697.5155854576929
 20
1846.3677480207441
 30
0.0
 11
2747.5155854576929
 21
1846.3677480207441
 31
0.0
  0
LINE
  5
7DA9
  8
1
 10
2697.5155854576929
 20
1899.6680480207431
 30
0.0
 11
2747.5155854576942
 21
1899.668048020744
 31
0.0
  0
LINE
  5
7DAA
  8
1
 10
2697.5155854576929
 20
2026.668048020744
 30
0.0
 11
2747.5155854576942
 21
2026.6680480207431
 31
0.0
  0
LINE
  5
7DAB
  8
1
 10
2697.5155854576929
 20
2026.6680480207431
 30
0.0
 11
2697.5155854576929
 21
1899.668048020744
 31
0.0
  0
LINE
  5
7DAC
  8
1
 10
2747.5155854576942
 20
2026.6680480207431
 30
0.0
 11
2747.5155854576942
 21
1899.668048020744
 31
0.0
  0
LINE
  5
7DAD
  8
1
 10
2816.115585457695
 20
1946.589797163472
 30
0.0
 11
2816.1155854576941
 21
1993.168048020744
 31
0.0
  0
ARC
  5
7DAE
  8
1
 10
2599.6901971849088
 20
2006.546090539865
 30
0.0
 40
224.57672587439311
 50
339.84563570863128
 51
1.250487140871362
  0
LINE
  5
7DAF
  8
1
 10
2872.4155854576952
 20
1933.168048020744
 30
0.0
 11
2872.4155854576939
 21
1993.1680480207431
 31
0.0
  0
ARC
  5
7DB0
  8
1
 10
3075.3409737304819
 20
2006.546090539865
 30
0.0
 40
224.57672587439311
 50
178.75196597161769
 51
200.15436429136861
  0
LINE
  5
7DB1
  8
2
 10
2837.5155854576942
 20
2036.6484580883571
 30
0.0
 11
2837.5155854576942
 21
1887.9755082379379
 31
0.0
  0
LINE
  5
7DB2
  8
1
 10
2810.5155854576942
 20
1909.168048020744
 30
0.0
 11
2864.5155854576942
 21
1909.168048020744
 31
0.0
  0
LINE
  5
7DB3
  8
1
 10
2864.5155854576951
 20
1909.168048020744
 30
0.0
 11
2810.5155854576951
 21
1909.168048020744
 31
0.0
  0
LINE
  5
7DB4
  8
1
 10
2864.5155854576951
 20
1929.168048020744
 30
0.0
 11
2810.5155854576951
 21
1929.168048020744
 31
0.0
  0
LINE
  5
7DB5
  8
1
 10
2870.0155854576942
 20
1909.168048020744
 30
0.0
 11
2805.0155854576942
 21
1909.168048020744
 31
0.0
  0
LINE
  5
7DB6
  8
1
 10
2810.5155854576942
 20
1909.168048020744
 30
0.0
 11
2864.5155854576942
 21
1909.168048020744
 31
0.0
  0
LINE
  5
7DB7
  8
1
 10
2789.3155854576939
 20
1899.9680480207439
 30
0.0
 11
2789.3155854576939
 21
1831.1677480207429
 31
0.0
  0
LINE
  5
7DB8
  8
1
 10
2773.5155854576942
 20
1812.6677480207441
 30
0.0
 11
2763.5155854576929
 21
1812.6677480207441
 31
0.0
  0
LINE
  5
7DB9
  8
1
 10
2747.5155854576942
 20
1940.668048020744
 30
0.0
 11
2814.3871680957982
 21
1940.668048020744
 31
0.0
  0
LINE
  5
7DBA
  8
1
 10
2810.5155854576951
 20
1909.168048020744
 30
0.0
 11
2810.5155854576951
 21
1929.168048020744
 31
0.0
  0
LINE
  5
7DBB
  8
1
 10
2773.5155854576942
 20
1891.1677480207441
 30
0.0
 11
2789.5155854576942
 21
1891.1677480207441
 31
0.0
  0
POINT
  5
7DBC
  8
1
 10
2782.5155854576942
 20
1903.168048020744
 30
0.0
  0
LINE
  5
7DBD
  8
1
 10
2782.5155854576942
 20
1903.168048020744
 30
0.0
 11
2782.5155854576942
 21
1899.9680480207439
 31
0.0
  0
LINE
  5
7DBE
  8
1
 10
2805.0155854576942
 20
1909.168048020744
 30
0.0
 11
2805.0155854576942
 21
1903.168048020744
 31
0.0
  0
LINE
  5
7DBF
  8
1
 10
2872.4155854576952
 20
1933.168048020744
 30
0.0
 11
2863.090252458388
 21
1933.168048020744
 31
0.0
  0
LINE
  5
7DC0
  8
1
 10
2864.5155854576951
 20
1909.168048020744
 30
0.0
 11
2864.5155854576951
 21
1929.168048020744
 31
0.0
  0
LINE
  5
7DC1
  8
1
 10
2870.0155854576942
 20
1909.168048020744
 30
0.0
 11
2870.0155854576942
 21
1903.168048020744
 31
0.0
  0
LINE
  5
7DC2
  8
1
 10
2823.868103729731
 20
1993.168048020744
 30
0.0
 11
2816.1155854576941
 21
1993.168048020744
 31
0.0
  0
LINE
  5
7DC3
  8
1
 10
2747.5155854576942
 20
1985.668048020744
 30
0.0
 11
2816.1155854576941
 21
1985.668048020744
 31
0.0
  0
LINE
  5
7DC4
  8
1
 10
2872.4155854576952
 20
1993.1680480207431
 30
0.0
 11
2851.163067185661
 21
1993.168048020744
 31
0.0
  0
ARC
  5
7DC5
  8
1
 10
2829.212247426472
 20
2011.5562318667651
 30
0.0
 40
5.0
 50
98.461868303636777
 51
181.25048714087211
  0
POLYLINE
  5
7DC6
  8
1
 66
     1
 10
0.0
 20
0.0
 30
0.0
 70
     1
  0
VERTEX
  5
8253
  8
1
 10
2845.269110453115
 20
2028.372160570575
 30
0.0
  0
VERTEX
  5
8254
  8
1
 10
2838.3601194258299
 20
2028.372160570575
 30
0.0
  0
VERTEX
  5
8255
  8
1
 10
2838.3601194258299
 20
2017.168048020744
 30
0.0
  0
VERTEX
  5
8256
  8
1
 10
2845.269110453115
 20
2017.168048020744
 30
0.0
  0
SEQEND
  5
8257
  8
1
  0
ARC
  5
7DCC
  8
1
 10
2845.8187091906402
 20
2011.5464049008749
 30
0.0
 40
5.0
 50
358.75196597161698
 51
81.470321513410241
  0
ARC
  5
7DCD
  8
1
 10
2837.482584828002
 20
1955.965053687979
 30
0.0
 40
61.203003229727571
 50
81.470321513412159
 51
98.461868303637843
  0
POINT
  5
7DCE
  8
1
 10
2837.5155854576942
 20
2036.6484580883571
 30
0.0
  0
ARC
  5
7DCF
  8
1
 10
2974.6901971849061
 20
2006.546090539865
 30
0.0
 40
224.57672587439311
 50
339.84563570863122
 51
1.2480340283822391
  0
ARC
  5
7DD0
  8
1
 10
3450.3409737304792
 20
2006.546090539865
 30
0.0
 40
224.57672587439311
 50
178.7495128591286
 51
200.15436429136861
  0
LINE
  5
7DD1
  8
1
 10
3233.9155854576929
 20
1946.589797163472
 30
0.0
 11
3233.9155854576929
 21
1993.168048020744
 31
0.0
  0
LINE
  5
7DD2
  8
1
 10
3177.6155854576932
 20
1933.168048020744
 30
0.0
 11
3177.6155854576941
 21
1993.1680480207431
 31
0.0
  0
LINE
  5
7DD3
  8
2
 10
3212.5155854576929
 20
2039.0618513312579
 30
0.0
 11
3212.5155854576929
 21
1887.2742447102301
 31
0.0
  0
LINE
  5
7DD4
  8
1
 10
3185.5155854576929
 20
1909.168048020744
 30
0.0
 11
3239.5155854576929
 21
1909.168048020744
 31
0.0
  0
LINE
  5
7DD5
  8
1
 10
3185.5155854576929
 20
1929.168048020744
 30
0.0
 11
3239.5155854576929
 21
1929.168048020744
 31
0.0
  0
LINE
  5
7DD6
  8
1
 10
3239.5155854576942
 20
1909.168048020744
 30
0.0
 11
3185.5155854576942
 21
1909.168048020744
 31
0.0
  0
LINE
  5
7DD7
  8
1
 10
3180.0155854576942
 20
1909.168048020744
 30
0.0
 11
3245.0155854576942
 21
1909.168048020744
 31
0.0
  0
LINE
  5
7DD8
  8
1
 10
3185.5155854576929
 20
1909.168048020744
 30
0.0
 11
3185.5155854576929
 21
1929.168048020744
 31
0.0
  0
LINE
  5
7DD9
  8
1
 10
3177.6155854576932
 20
1933.168048020744
 30
0.0
 11
3186.9409184570009
 21
1933.168048020744
 31
0.0
  0
LINE
  5
7DDA
  8
1
 10
3180.0155854576942
 20
1909.168048020744
 30
0.0
 11
3180.0155854576942
 21
1903.168048020744
 31
0.0
  0
POLYLINE
  5
7DDB
  8
1
 66
     1
 10
0.0
 20
0.0
 30
0.0
 70
     1
  0
VERTEX
  5
8258
  8
1
 10
3257.5155854576942
 20
1849.9680480207439
 30
0.0
  0
VERTEX
  5
8259
  8
1
 10
3307.5155854576942
 20
1849.9680480207439
 30
0.0
  0
VERTEX
  5
825A
  8
1
 10
3307.5155854576942
 20
1851.4680480207439
 30
0.0
 42
0.4142135623730942
  0
VERTEX
  5
825B
  8
1
 10
3303.0155854576942
 20
1855.9680480207439
 30
0.0
  0
VERTEX
  5
825C
  8
1
 10
3270.0155854576942
 20
1855.9680480207439
 30
0.0
 42
-0.4142135623730951
  0
VERTEX
  5
825D
  8
1
 10
3263.5155854576929
 20
1862.4680480207439
 30
0.0
  0
VERTEX
  5
825E
  8
1
 10
3263.5155854576929
 20
1895.4680480207439
 30
0.0
 42
0.4142135623730951
  0
VERTEX
  5
825F
  8
1
 10
3259.0155854576929
 20
1899.9680480207439
 30
0.0
  0
VERTEX
  5
8260
  8
1
 10
3257.5155854576942
 20
1899.9680480207439
 30
0.0
  0
SEQEND
  5
8261
  8
1
  0
LINE
  5
7DE6
  8
1
 10
3268.0155854576942
 20
1849.9680480207439
 30
0.0
 11
3268.0155854576942
 21
1843.9680480207439
 31
0.0
  0
LINE
  5
7DE7
  8
1
 10
3239.5155854576929
 20
1909.168048020744
 30
0.0
 11
3239.5155854576929
 21
1929.168048020744
 31
0.0
  0
LINE
  5
7DE8
  8
1
 10
3245.0155854576942
 20
1909.168048020744
 30
0.0
 11
3245.0155854576919
 21
1903.168048020744
 31
0.0
  0
LINE
  5
7DE9
  8
1
 10
3267.5155854576942
 20
1903.168048020744
 30
0.0
 11
3267.5155854576942
 21
1899.9680480207439
 31
0.0
  0
ARC
  5
7DEA
  8
1
 10
3212.548586087386
 20
1955.965053687979
 30
0.0
 40
61.203003229727571
 50
81.538131696362171
 51
98.529678486587855
  0
POLYLINE
  5
7DEB
  8
1
 66
     1
 10
0.0
 20
0.0
 30
0.0
 70
     1
  0
VERTEX
  5
8262
  8
1
 10
3204.762060462273
 20
2028.372160570575
 30
0.0
  0
VERTEX
  5
8263
  8
1
 10
3211.6710514895581
 20
2028.372160570575
 30
0.0
  0
VERTEX
  5
8264
  8
1
 10
3211.6710514895581
 20
2017.168048020744
 30
0.0
  0
VERTEX
  5
8265
  8
1
 10
3204.762060462273
 20
2017.168048020744
 30
0.0
  0
SEQEND
  5
8266
  8
1
  0
LINE
  5
7DF1
  8
1
 10
3177.6155854576932
 20
1993.1680480207431
 30
0.0
 11
3198.868103729727
 21
1993.168048020744
 31
0.0
  0
ARC
  5
7DF2
  8
1
 10
3204.2124617247482
 20
2011.5464049008749
 30
0.0
 40
5.0
 50
98.529678486589773
 51
181.24803402838279
  0
LINE
  5
7DF3
  8
1
 10
3233.9155854576929
 20
1985.668048020744
 30
0.0
 11
3307.5155854576942
 21
1985.668048020744
 31
0.0
  0
LINE
  5
7DF4
  8
1
 10
3226.1630671856578
 20
1993.168048020744
 30
0.0
 11
3233.9155854576929
 21
1993.168048020744
 31
0.0
  0
ARC
  5
7DF5
  8
1
 10
3220.818923488916
 20
2011.5562318667651
 30
0.0
 40
5.0
 50
358.74951285912778
 51
81.538131696363237
  0
DIMENSION
  5
7DF6
  8
3
  2
*D22
 10
3914.596359877286
 20
1713.168048020744
 30
0.0
 11
3859.5963598772851
 21
1963.1680480207449
 31
0.0
 70
     0
 13
3739.5155854576942
 23
2213.1680480207442
 33
0.0
 14
3739.5155854576942
 24
1713.168048020744
 34
0.0
 50
90.0
1001
ACAD
1000
DSTYLE
1002
{
1070
   287
1070
     3
1070
   287
1070
     3
1070
     3
1000
φ<>
1070
    40
1040
20.0
1070
   147
1040
1.5
1070
   173
1070
     1
1070
   272
1070
     4
1070
   279
1070
     0
1070
   284
1070
     0
1070
   285
1070
     0
1070
   286
1070
     0
1070
     6
1000
ARROW
1070
     7
1000
ARROW
1002
}
  0
LINE
  5
7DF7
  8
1
 10
3717.5155854576942
 20
1957.168048020744
 30
0.0
 11
3717.5155854576942
 21
1706.168048020744
 31
0.0
  0
LINE
  5
7DF8
  8
1
 10
3739.5155854576942
 20
1957.168048020744
 30
0.0
 11
3739.5155854576942
 21
1713.168048020744
 31
0.0
  0
LINE
  5
7DF9
  8
1
 10
3714.5155854576942
 20
1713.168048020744
 30
0.0
 11
3714.5155854576942
 21
1957.168048020744
 31
0.0
  0
LINE
  5
7DFA
  8
1
 10
3710.0155854576951
 20
2501.1680480207442
 30
0.0
 11
3710.0155854576951
 21
1989.168048020744
 31
0.0
  0
LINE
  5
7DFB
  8
1
 10
3712.0155854576951
 20
1962.0745267248731
 30
0.0
 11
3712.0155854576929
 21
1592.120057212883
 31
0.0
  0
LINE
  5
7DFC
  8
1
 10
3335.0155854576942
 20
2501.1680480207442
 30
0.0
 11
3335.0155854576942
 21
1989.168048020744
 31
0.0
  0
LINE
  5
7DFD
  8
1
 10
3333.0155854576942
 20
1963.168048020744
 30
0.0
 11
3333.0155854576929
 21
1592.120057212883
 31
0.0
  0
DIMENSION
  5
7DFE
  8
3
  2
*D23
 10
3752.5155854576942
 20
1243.5710108559811
 30
0.0
 11
3637.5155854576942
 21
1298.5710108559811
 31
0.0
 70
     0
 13
3522.5155854576942
 23
1367.6367765335449
 33
0.0
 14
3752.5155854576942
 24
1400.168048020744
 34
0.0
1001
ACAD
1000
DSTYLE
1002
{
1070
   287
1070
     3
1070
   287
1070
     3
1070
    40
1040
20.0
1070
   147
1040
1.5
1070
   173
1070
     1
1070
   272
1070
     4
1070
   279
1070
     0
1070
   284
1070
     0
1070
   285
1070
     0
1070
   286
1070
     0
1070
     6
1000
ARROW
1070
     7
1000
ARROW
1002
}
  0
LINE
  5
7DFF
  8
1
 10
3335.0155854576942
 20
1602.120057212883
 30
0.0
 11
3710.0155854576942
 21
1602.120057212883
 31
0.0
  0
LINE
  5
7E00
  8
1
 10
3333.0155854576929
 20
1592.120057212883
 30
0.0
 11
3335.0155854576942
 21
1592.120057212883
 31
0.0
  0
LINE
  5
7E01
  8
1
 10
3752.5155854576951
 20
1475.168048020744
 30
0.0
 11
3752.5155854576942
 21
1400.168048020744
 31
0.0
  0
LINE
  5
7E02
  8
1
 10
3752.5155854576942
 20
1588.168048020744
 30
0.0
 11
3752.5155854576942
 21
1513.168048020744
 31
0.0
  0
POLYLINE
  5
7E03
  8
1
 66
     1
 10
0.0
 20
0.0
 30
0.0
 70
     1
  0
VERTEX
  5
8279
  8
1
 10
3712.0155854576942
 20
1588.168048020744
 30
0.0
  0
VERTEX
  5
827A
  8
1
 10
3712.0155854576942
 20
1628.168048020744
 30
0.0
  0
VERTEX
  5
827B
  8
1
 10
3714.0155854576942
 20
1628.168048020744
 30
0.0
 42
-0.4142135623730951
  0
VERTEX
  5
827C
  8
1
 10
3717.0155854576942
 20
1625.168048020744
 30
0.0
  0
VERTEX
  5
827D
  8
1
 10
3717.0155854576942
 20
1597.668048020744
 30
0.0
 42
0.4142135623730951
  0
VERTEX
  5
827E
  8
1
 10
3721.5155854576942
 20
1593.168048020744
 30
0.0
  0
VERTEX
  5
827F
  8
1
 10
3749.0155854576942
 20
1593.168048020744
 30
0.0
 42
-0.4142135623730951
  0
VERTEX
  5
8280
  8
1
 10
3752.0155854576942
 20
1590.168048020744
 30
0.0
  0
VERTEX
  5
8281
  8
1
 10
3752.0155854576942
 20
1588.168048020744
 30
0.0
  0
SEQEND
  5
8282
  8
1
  0
LINE
  5
7E0E
  8
1
 10
3710.0155854576942
 20
1592.120057212883
 30
0.0
 11
3712.0155854576929
 21
1592.120057212883
 31
0.0
  0
LINE
  5
7E0F
  8
1
 10
3714.5155854576942
 20
1688.168048020744
 30
0.0
 11
3713.0155854576942
 21
1688.168048020744
 31
0.0
  0
LINE
  5
7E10
  8
1
 10
3714.5155854576942
 20
1688.168048020744
 30
0.0
 11
3714.5155854576942
 21
1713.168048020744
 31
0.0
  0
LINE
  5
7E11
  8
1
 10
3715.5155854576942
 20
1688.168048020744
 30
0.0
 11
3714.5155854576942
 21
1688.168048020744
 31
0.0
  0
ARC
  5
7E12
  8
1
 10
3715.5155854576942
 20
1690.168048020744
 30
0.0
 40
2.0
 50
270.0
 51
0.0
  0
LINE
  5
7E13
  8
1
 10
3717.5155854576942
 20
1706.168048020744
 30
0.0
 11
3717.5155854576942
 21
1690.168048020744
 31
0.0
  0
ARC
  5
7E14
  8
1
 10
3721.5155854576942
 20
1706.168048020744
 30
0.0
 40
4.0
 50
90.0
 51
180.0
  0
LINE
  5
7E15
  8
1
 10
3737.5155854576942
 20
1710.168048020744
 30
0.0
 11
3721.5155854576942
 21
1710.168048020744
 31
0.0
  0
ARC
  5
7E16
  8
1
 10
3737.5155854576942
 20
1712.168048020744
 30
0.0
 40
2.0
 50
270.0
 51
0.0
  0
LINE
  5
7E17
  8
1
 10
3739.5155854576942
 20
1713.168048020744
 30
0.0
 11
3739.5155854576942
 21
1712.168048020744
 31
0.0
  0
LINE
  5
7E18
  8
1
 10
3714.5155854576942
 20
1713.168048020744
 30
0.0
 11
3739.5155854576942
 21
1713.168048020744
 31
0.0
  0
LINE
  5
7E19
  8
1
 10
3332.5155854576942
 20
1987.0745267248731
 30
0.0
 11
3712.5155854576942
 21
1987.0745267248731
 31
0.0
  0
LINE
  5
7E1A
  8
1
 10
3739.5155854576942
 20
2213.1680480207442
 30
0.0
 11
3739.5155854576942
 21
1957.168048020744
 31
0.0
  0
LINE
  5
7E1B
  8
1
 10
3714.5155854576942
 20
1957.168048020744
 30
0.0
 11
3714.5155854576942
 21
1962.0745267248731
 31
0.0
  0
LINE
  5
7E1C
  8
1
 10
3717.5155854576951
 20
1962.0745267248731
 30
0.0
 11
3717.5155854576942
 21
1957.168048020744
 31
0.0
  0
LINE
  5
7E1F
  8
1
 10
3307.5155854576942
 20
2528.0745267248731
 30
0.0
 11
3737.5155854576942
 21
2528.0745267248731
 31
0.0
  0
LINE
  5
7E24
  8
1
 10
3332.5155854576951
 20
2503.0745267248731
 30
0.0
 11
3712.5155854576942
 21
2503.0745267248731
 31
0.0
  0
LINE
  5
8018
  8
4
 10
3700.0
 20
1000.0
 30
0.0
 11
3700.0
 21
600.0
 31
0.0
  0
LINE
  5
8019
  8
4
 10
2300.0
 20
1000.0
 30
0.0
 11
2300.0
 21
600.0
 31
0.0
  0
LINE
  5
801A
  8
4
 10
1300.0
 20
1000.0
 30
0.0
 11
1300.0
 21
600.0
 31
0.0
  0
LINE
  5
801D
  8
4
 10
1300.0
 20
600.0
 30
0.0
 11
3700.0
 21
600.0
 31
0.0
  0
LINE
  5
801E
  8
4
 10
1300.0
 20
800.0
 30
0.0
 11
3700.0
 21
800.0
 31
0.0
  0
TEXT
  5
801F
  8
4
 10
1377.0041616938031
 20
863.08605173322564
 30
0.0
 40
100.0
  1
機器名称
  0
TEXT
  5
8020
  8
4
 10
1372.516212049595
 20
643.29031346402189
 30
0.0
 40
100.0
  1
機器型番
  0
TEXT
  5
8021
  8
4
 10
2319.3176373393071
 20
844.3746047138942
 30
0.0
 40
90.0
  1
ミツヤ多翼送風機
  0
TEXT
  5
8022
  8
4
 10
2373.3089911709608
 20
634.31916855988675
 30
0.0
 40
100.0
  1
MF#3-1
  0
TEXT
  5
8024
  8
4
 10
1528.4391079134689
 20
4766.8576826650306
 30
0.0
 40
107.9999999999999
  1
床置防振ベット
  0
TEXT
  5
8025
  8
4
 10
632.33518665889278
 20
5067.7619523985959
 30
0.0
 40
144.0
  1
遠心式片吸込片持多翼ファン
  0
LINE
  5
8026
  8
4
 10
500.0
 20
4938.8175085296089
 30
0.0
 11
3700.0
 21
4938.8175085296089
 31
0.0
  0
LINE
  5
8027
  8
4
 10
500.0
 20
5338.8175085296098
 30
0.0
 11
3700.0
 21
5338.8175085296098
 31
0.0
  0
LINE
  5
8028
  8
4
 10
1300.0
 20
1000.0
 30
0.0
 11
3700.0
 21
1000.0
 31
0.0
  0
LINE
  5
8029
  8
4
 10
500.0
 20
5338.8175085296098
 30
0.0
 11
500.0
 21
4938.8175085296089
 31
0.0
  0
TEXT
  5
802A
  8
4
 10
656.72144342806484
 20
4764.638955092687
 30
0.0
 40
107.9999999999999
  1
右回転右横向
  0
TEXT
  5
802B
  8
4
 10
2937.9391184985789
 20
5412.1221629906177
 30
0.0
 40
112.0
  1
No.
  0
TEXT
  5
802C
  8
4
 10
2622.5921252000262
 20
4766.8576826650306
 30
0.0
 40
107.9999999999999
  1
縮尺：1/20
  0
LINE
  5
802D
  8
4
 10
3700.0
 20
5338.8175085296098
 30
0.0
 11
3700.0
 21
4938.8175085296089
 31
0.0
  0
LINE
  5
802E
  8
4
 10
4200.0
 20
5900.0
 30
0.0
 11
4200.0
 21
5900.0
 31
0.0
  0
LINE
  5
802F
  8
4
 10
2881.2348447197292
 20
5362.5271662508021
 30
0.0
 11
2881.2348447197292
 21
5573.3045230995049
 31
0.0
  0
LINE
  5
8030
  8
4
 10
2881.2348447197292
 20
5573.3045230995049
 30
0.0
 11
3700.0
 21
5573.3045230995049
 31
0.0
  0
LINE
  5
8031
  8
4
 10
3700.0
 20
5573.3045230995049
 30
0.0
 11
3700.0
 21
5362.5271662508021
 31
0.0
  0
LINE
  5
8032
  8
4
 10
3700.0
 20
5362.5271662508021
 30
0.0
 11
2881.2348447197292
 21
5362.5271662508021
 31
0.0
  0
LINE
  5
8033
  8
4
 10
0.0
 20
0.0
 30
0.0
 11
0.0
 21
5900.0
 31
0.0
  0
LINE
  5
8034
  8
4
 10
0.0
 20
5900.0
 30
0.0
 11
4200.0
 21
5900.0
 31
0.0
  0
LINE
  5
8035
  8
4
 10
4200.0
 20
5900.0
 30
0.0
 11
4200.0
 21
0.0
 31
0.0
  0
LINE
  5
8036
  8
4
 10
4200.0
 20
0.0
 30
0.0
 11
0.0
 21
0.0
 31
0.0
  0
LINE
  5
8052
  8
1
 10
3335.0155854576942
 20
2501.1680480207442
 30
0.0
 11
3710.0155854576951
 21
2501.1680480207442
 31
0.0
  0
LINE
  5
8053
  8
1
 10
3335.0155854576942
 20
1989.168048020744
 30
0.0
 11
3710.0155854576951
 21
1989.168048020744
 31
0.0
  0
LINE
  5
8054
  8
1
 10
3710.0155854576942
 20
1962.0745267248731
 30
0.0
 11
3710.0155854576942
 21
1592.120057212883
 31
0.0
  0
LINE
  5
8055
  8
1
 10
3335.0155854576942
 20
1962.0745267248731
 30
0.0
 11
3335.0155854576942
 21
1592.120057212883
 31
0.0
  0
DIMENSION
  5
8068
  8
3
  2
*D24
 10
3710.0155854576951
 20
2581.447160286014
 30
0.0
 11
3505.837915245309
 21
2581.447160286014
 31
0.0
 70
   128
 13
3335.0155854576942
 23
2501.1680480207442
 33
0.0
 14
3710.0155854576951
 24
2501.1680480207442
 34
0.0
1001
ACAD
1000
DSTYLE
1002
{
1070
   287
1070
     3
1070
   287
1070
     3
1070
    40
1040
20.0
1070
   147
1040
1.5
1070
   173
1070
     1
1070
   272
1070
     4
1070
   279
1070
     0
1070
   284
1070
     0
1070
   285
1070
     0
1070
   286
1070
     0
1070
     6
1000
ARROW
1070
     7
1000
ARROW
1002
}
  0
ENDSEC
  0
EOF
