  0
SECTION
  2
HEADER
  9
$ACADVER
  1
AC1009
  9
$INSBASE
 10
0.0
 20
0.0
 30
0.0
  9
$EXTMIN
 10
0.0
 20
0.0
 30
0.0
  9
$EXTMAX
 10
4200.0
 20
5900.0
 30
0.0
  9
$LIMMIN
 10
0.0
 20
0.0
  9
$LIMMAX
 10
297.0
 20
210.0
  9
$ORTHOMODE
 70
     0
  9
$REGENMODE
 70
     1
  9
$FILLMODE
 70
     0
  9
$QTEXTMODE
 70
     0
  9
$MIRRTEXT
 70
     1
  9
$DRAGMODE
 70
     2
  9
$LTSCALE
 40
100.0
  9
$OSMODE
 70
    37
  9
$ATTMODE
 70
     1
  9
$TEXTSIZE
 40
180.0
  9
$TRACEWID
 40
0.05
  9
$TEXTSTYLE
  7
STANDARD
  9
$CLAYER
  8
1
  9
$CELTYPE
  6
BYLAYER
  9
$CECOLOR
 62
   256
  9
$DIMSCALE
 40
20.0
  9
$DIMASZ
 40
2.0
  9
$DIMEXO
 40
0.5
  9
$DIMDLI
 40
10.0
  9
$DIMRND
 40
0.0
  9
$DIMDLE
 40
0.0
  9
$DIMEXE
 40
1.0
  9
$DIMTP
 40
1.0
  9
$DIMTM
 40
1.0
  9
$DIMTXT
 40
3.0
  9
$DIMCEN
 40
0.0
  9
$DIMTSZ
 40
0.0
  9
$DIMTOL
 70
     0
  9
$DIMLIM
 70
     0
  9
$DIMTIH
 70
     0
  9
$DIMTOH
 70
     0
  9
$DIMSE1
 70
     0
  9
$DIMSE2
 70
     0
  9
$DIMTAD
 70
     1
  9
$DIMZIN
 70
     8
  9
$DIMBLK
  1

  9
$DIMASO
 70
     1
  9
$DIMSHO
 70
     1
  9
$DIMPOST
  1

  9
$DIMAPOST
  1

  9
$DIMALT
 70
     0
  9
$DIMALTD
 70
     2
  9
$DIMALTF
 40
0.039
  9
$DIMLFAC
 40
1.0
  9
$DIMTOFL
 70
     1
  9
$DIMTVP
 40
0.0
  9
$DIMTIX
 70
     0
  9
$DIMSOXD
 70
     0
  9
$DIMSAH
 70
     1
  9
$DIMBLK1
  1
OPEN
  9
$DIMBLK2
  1
OPEN
  9
$DIMSTYLE
  2
IGA
  9
$DIMCLRD
 70
     0
  9
$DIMCLRE
 70
     0
  9
$DIMCLRT
 70
     0
  9
$DIMTFAC
 40
10.0
  9
$DIMGAP
 40
1.0
  9
$LUNITS
 70
     2
  9
$LUPREC
 70
     3
  9
$SKETCHINC
 40
0.1
  9
$FILLETRAD
 40
50.0
  9
$AUNITS
 70
     0
  9
$AUPREC
 70
     0
  9
$MENU
  1
acad
  9
$ELEVATION
 40
0.0
  9
$PELEVATION
 40
0.0
  9
$THICKNESS
 40
0.0
  9
$LIMCHECK
 70
     0
  9
$BLIPMODE
 70
     0
  9
$CHAMFERA
 40
0.0
  9
$CHAMFERB
 40
0.0
  9
$SKPOLY
 70
     0
  9
$TDCREATE
 40
2451019.6417248831
  9
$TDUPDATE
 40
2454953.7544209259
  9
$TDINDWG
 40
0.0666108102
  9
$TDUSRTIMER
 40
0.0666108102
  9
$USRTIMER
 70
     1
  9
$ANGBASE
 50
0.0
  9
$ANGDIR
 70
     0
  9
$PDMODE
 70
     0
  9
$PDSIZE
 40
0.0
  9
$PLINEWID
 40
0.0
  9
$COORDS
 70
     1
  9
$SPLFRAME
 70
     0
  9
$SPLINETYPE
 70
     6
  9
$SPLINESEGS
 70
     8
  9
$ATTDIA
 70
     0
  9
$ATTREQ
 70
     1
  9
$HANDLING
 70
 10241
  9
$HANDSEED
  5
86F7
  9
$SURFTAB1
 70
     6
  9
$SURFTAB2
 70
     6
  9
$SURFTYPE
 70
     6
  9
$SURFU
 70
     6
  9
$SURFV
 70
     6
  9
$UCSNAME
  2

  9
$UCSORG
 10
0.0
 20
0.0
 30
0.0
  9
$UCSXDIR
 10
1.0
 20
0.0
 30
0.0
  9
$UCSYDIR
 10
0.0
 20
1.0
 30
0.0
  9
$PUCSNAME
  2

  9
$PUCSORG
 10
0.0
 20
0.0
 30
0.0
  9
$PUCSXDIR
 10
1.0
 20
0.0
 30
0.0
  9
$PUCSYDIR
 10
0.0
 20
1.0
 30
0.0
  9
$USERI1
 70
     0
  9
$USERI2
 70
     0
  9
$USERI3
 70
     0
  9
$USERI4
 70
     0
  9
$USERI5
 70
     0
  9
$USERR1
 40
0.0
  9
$USERR2
 40
0.0
  9
$USERR3
 40
0.0
  9
$USERR4
 40
0.0
  9
$USERR5
 40
0.0
  9
$WORLDVIEW
 70
     1
  9
$SHADEDGE
 70
     3
  9
$SHADEDIF
 70
    70
  9
$TILEMODE
 70
     1
  9
$MAXACTVP
 70
    16
  9
$PLIMCHECK
 70
     0
  9
$PEXTMIN
 10
1.0000000000000000E+020
 20
1.0000000000000000E+020
 30
1.0000000000000000E+020
  9
$PEXTMAX
 10
-1.0000000000000000E+020
 20
-1.0000000000000000E+020
 30
-1.0000000000000000E+020
  9
$PLIMMIN
 10
0.0
 20
0.0
  9
$PLIMMAX
 10
12.0
 20
9.0
  9
$UNITMODE
 70
     0
  9
$VISRETAIN
 70
     0
  9
$PLINEGEN
 70
     0
  9
$PSLTSCALE
 70
     1
  0
ENDSEC
  0
SECTION
  2
TABLES
  0
TABLE
  2
VPORT
 70
     2
  0
VPORT
  2
*ACTIVE
 70
     0
 10
0.0
 20
0.0
 11
1.0
 21
1.0
 12
7073.2199177027342
 22
2950.0000137370062
 13
0.0
 23
0.0
 14
10.0
 24
10.0
 15
10.0
 25
10.0
 16
0.0
 26
0.0
 36
1.0
 17
0.0
 27
0.0
 37
0.0
 40
5945.22976603387
 41
3.1666666666666661
 42
50.0
 43
0.0
 44
0.0
 50
0.0
 51
0.0
 71
     0
 72
   100
 73
     1
 74
     0
 75
     0
 76
     0
 77
     0
 78
     0
  0
ENDTAB
  0
TABLE
  2
LTYPE
 70
     2
  0
LTYPE
  2
CONTINUOUS
 70
     0
  3
Solid line
 72
    65
 73
     0
 40
0.0
  0
LTYPE
  2
CENTER
 70
     0
  3
____ _ ____ _ ____ _ ____ _ ____ _ ____ _ ____ 
 72
    65
 73
     4
 40
2.0
 49
1.25
 49
-0.25
 49
0.25
 49
-0.25
  0
ENDTAB
  0
TABLE
  2
LAYER
 70
     6
  0
LAYER
  2
0
 70
     0
 62
     7
  6
CONTINUOUS
  0
LAYER
  2
3
 70
     0
 62
     2
  6
CONTINUOUS
  0
LAYER
  2
2
 70
     0
 62
     3
  6
CENTER
  0
LAYER
  2
1
 70
     0
 62
     4
  6
CONTINUOUS
  0
LAYER
  2
4
 70
     0
 62
     7
  6
CONTINUOUS
  0
LAYER
  2
DEFPOINTS
 70
     0
 62
     7
  6
CONTINUOUS
  0
ENDTAB
  0
TABLE
  2
STYLE
 70
     1
  0
STYLE
  2
STANDARD
 70
     0
 40
0.0
 41
1.0
 50
0.0
 71
     0
 42
180.0
  3
simplex.shx
  4
extfont.shx
  0
ENDTAB
  0
TABLE
  2
VIEW
 70
     0
  0
ENDTAB
  0
TABLE
  2
UCS
 70
     0
  0
ENDTAB
  0
TABLE
  2
APPID
 70
     1
  0
APPID
  2
ACAD
 70
     0
  0
ENDTAB
  0
TABLE
  2
DIMSTYLE
 70
     1
  0
DIMSTYLE
  2
IGA
 70
     0
  3

  4

  5

  6
OPEN
  7
OPEN
 40
2.0
 41
2.0
 42
0.5
 43
10.0
 44
1.0
 45
0.0
 46
0.0
 47
1.0
 48
1.0
140
3.0
141
0.0
142
0.0
143
0.03937
144
1.0
145
0.0
146
10.0
147
1.0
 71
     0
 72
     0
 73
     0
 74
     0
 75
     0
 76
     0
 77
     1
 78
     8
170
     0
171
     2
172
     0
173
     1
174
     0
175
     0
176
     0
177
     0
178
     0
  0
ENDTAB
  0
ENDSEC
  0
SECTION
  2
BLOCKS
  0
BLOCK
  8
0
  2
$MODEL_SPACE
 70
     0
 10
0.0
 20
0.0
 30
0.0
  3
$MODEL_SPACE
  1

  0
ENDBLK
  5
1B
  8
0
  0
BLOCK
 67
     1
  8
0
  2
$PAPER_SPACE
 70
     0
 10
0.0
 20
0.0
 30
0.0
  3
$PAPER_SPACE
  1

  0
ENDBLK
  5
18
 67
     1
  8
0
  0
BLOCK
  8
0
  2
_OPEN
 70
     0
 10
0.0
 20
0.0
 30
0.0
  3
_OPEN
  1

  0
LINE
  5
7A06
  8
0
  6
BYBLOCK
 62
     0
 10
-1.0
 20
0.1666666666666666
 30
0.0
 11
0.0
 21
0.0
 31
0.0
  0
LINE
  5
7A07
  8
0
  6
BYBLOCK
 62
     0
 10
0.0
 20
0.0
 30
0.0
 11
-1.0
 21
-0.1666666666666666
 31
0.0
  0
LINE
  5
7A08
  8
0
  6
BYBLOCK
 62
     0
 10
0.0
 20
0.0
 30
0.0
 11
-1.0
 21
0.0
 31
0.0
  0
ENDBLK
  5
7A0A
  8
0
  0
BLOCK
  8
0
  2
*D1
 70
     1
 10
0.0
 20
0.0
 30
0.0
  3
*D1
  1

  0
LINE
  5
862A
  8
3
 62
     0
 10
1350.4780735101849
 20
2540.3683472427251
 30
0.0
 11
1350.4780735101849
 21
2642.7100376931239
 31
0.0
  0
LINE
  5
862B
  8
3
 62
     0
 10
915.43008270232519
 20
2150.5704625218318
 30
0.0
 11
915.43008270232519
 21
2642.7100376931239
 31
0.0
  0
LINE
  5
862C
  8
3
 62
     0
 10
1310.4780735101849
 20
2622.7100376931239
 30
0.0
 11
955.43008270232531
 21
2622.7100376931239
 31
0.0
  0
INSERT
  5
862D
  8
3
 62
     0
  2
_OPEN
 10
1350.4780735101849
 20
2622.7100376931239
 30
0.0
 41
40.0
 42
40.0
 43
40.0
  0
INSERT
  5
862E
  8
3
 62
     0
  2
_OPEN
 10
915.43008270232519
 20
2622.7100376931239
 30
0.0
 41
40.0
 42
40.0
 43
40.0
 50
180.0
  0
TEXT
  8
3
  40
60
  5
86E3
  62
0
  72
0
  71
0
 10
1012.95
 20
2566.51
 30
0.000000
  1
435
  0
POINT
  5
8630
  8
DEFPOINTS
 62
     0
 10
1350.4780735101849
 20
2530.3683472427251
 30
0.0
  0
POINT
  5
8631
  8
DEFPOINTS
 62
     0
 10
915.43008270232519
 20
2140.5704625218318
 30
0.0
  0
POINT
  5
8632
  8
DEFPOINTS
 62
     0
 10
915.43008270232519
 20
2622.7100376931239
 30
0.0
  0
ENDBLK
  5
8587
  8
0
  0
BLOCK
  8
0
  2
*D2
 70
     1
 10
0.0
 20
0.0
 30
0.0
  3
*D2
  1

  0
LINE
  5
8633
  8
3
 62
     0
 10
1720.4780735101861
 20
1565.570462521832
 30
0.0
 11
2010.6351502330861
 21
1565.570462521832
 31
0.0
  0
LINE
  5
8634
  8
3
 62
     0
 10
1756.440532699298
 20
2103.5704625218318
 30
0.0
 11
2010.6351502330861
 21
2103.5704625218318
 31
0.0
  0
LINE
  5
8635
  8
3
 62
     0
 10
1990.6351502330861
 20
1605.570462521832
 30
0.0
 11
1990.6351502330861
 21
2063.5704625218318
 31
0.0
  0
INSERT
  5
8636
  8
3
 62
     0
  2
_OPEN
 10
1990.6351502330861
 20
1565.570462521832
 30
0.0
 41
40.0
 42
40.0
 43
40.0
 50
270.0
  0
INSERT
  5
8637
  8
3
 62
     0
  2
_OPEN
 10
1990.6351502330861
 20
2103.5704625218318
 30
0.0
 41
40.0
 42
40.0
 43
40.0
 50
90.0
  0
TEXT
  8
3
  40
60
  5
86E4
  62
0
  72
0
  71
0
 10
1820.64
 20
1728.37
 30
0.000000
  1
538
  0
POINT
  5
8639
  8
DEFPOINTS
 62
     0
 10
1710.4780735101849
 20
1565.570462521832
 30
0.0
  0
POINT
  5
863A
  8
DEFPOINTS
 62
     0
 10
1746.440532699298
 20
2103.5704625218318
 30
0.0
  0
POINT
  5
863B
  8
DEFPOINTS
 62
     0
 10
1990.6351502330861
 20
2103.5704625218318
 30
0.0
  0
ENDBLK
  5
85DD
  8
0
  0
BLOCK
  8
0
  2
*D3
 70
     1
 10
0.0
 20
0.0
 30
0.0
  3
*D3
  1

  0
LINE
  5
863C
  8
3
 62
     0
 10
1720.4780735101861
 20
1565.570462521832
 30
0.0
 11
1872.483308774604
 21
1565.570462521832
 31
0.0
  0
LINE
  5
863D
  8
3
 62
     0
 10
1720.4780735101861
 20
2077.5704625218318
 30
0.0
 11
1872.483308774604
 21
2077.5704625218318
 31
0.0
  0
LINE
  5
863E
  8
3
 62
     0
 10
1852.4833087746031
 20
1605.570462521832
 30
0.0
 11
1852.4833087746031
 21
2037.570462521832
 31
0.0
  0
INSERT
  5
863F
  8
3
 62
     0
  2
_OPEN
 10
1852.4833087746031
 20
1565.570462521832
 30
0.0
 41
40.0
 42
40.0
 43
40.0
 50
270.0
  0
INSERT
  5
8640
  8
3
 62
     0
  2
_OPEN
 10
1852.4833087746031
 20
2077.5704625218318
 30
0.0
 41
40.0
 42
40.0
 43
40.0
 50
90.0
  0
TEXT
  8
3
  40
60
  5
86E5
  62
0
  72
0
  71
0
 10
1682.48
 20
1715.37
 30
0.000000
  1
512
  0
POINT
  5
8642
  8
DEFPOINTS
 62
     0
 10
1710.4780735101849
 20
1565.570462521832
 30
0.0
  0
POINT
  5
8643
  8
DEFPOINTS
 62
     0
 10
1710.4780735101849
 20
2077.5704625218318
 30
0.0
  0
POINT
  5
8644
  8
DEFPOINTS
 62
     0
 10
1852.4833087746031
 20
2077.5704625218318
 30
0.0
  0
ENDBLK
  5
8571
  8
0
  0
BLOCK
  8
0
  2
*D4
 70
     1
 10
0.0
 20
0.0
 30
0.0
  3
*D4
  1

  0
LINE
  5
8645
  8
3
 62
     0
 10
520.47807351018582
 20
1350.570462521832
 30
0.0
 11
520.47807351018582
 21
1188.2272668971791
 31
0.0
  0
LINE
  5
8646
  8
3
 62
     0
 10
1350.4780735101849
 20
1318.039191034632
 30
0.0
 11
1350.4780735101849
 21
1188.2272668971791
 31
0.0
  0
LINE
  5
8647
  8
3
 62
     0
 10
560.47807351018582
 20
1208.2272668971791
 30
0.0
 11
1310.4780735101849
 21
1208.2272668971791
 31
0.0
  0
INSERT
  5
8648
  8
3
 62
     0
  2
_OPEN
 10
520.47807351018582
 20
1208.2272668971791
 30
0.0
 41
40.0
 42
40.0
 43
40.0
 50
180.0
  0
INSERT
  5
8649
  8
3
 62
     0
  2
_OPEN
 10
1350.4780735101849
 20
1208.2272668971791
 30
0.0
 41
40.0
 42
40.0
 43
40.0
  0
TEXT
  8
3
  40
60
  5
86E6
  62
0
  72
0
  71
0
 10
815.478
 20
1152.03
 30
0.000000
  1
830
  0
POINT
  5
864B
  8
DEFPOINTS
 62
     0
 10
520.47807351018582
 20
1360.570462521832
 30
0.0
  0
POINT
  5
864C
  8
DEFPOINTS
 62
     0
 10
1350.4780735101849
 20
1328.039191034632
 30
0.0
  0
POINT
  5
864D
  8
DEFPOINTS
 62
     0
 10
1350.4780735101849
 20
1208.2272668971791
 30
0.0
  0
ENDBLK
  5
8550
  8
0
  0
BLOCK
  8
0
  2
*D5
 70
     1
 10
0.0
 20
0.0
 30
0.0
  3
*D5
  1

  0
LINE
  5
855D
  8
0
  6
BYBLOCK
 62
     0
 10
5496.7004542123977
 20
1318.039191034632
 30
0.0
 11
5496.7004542123977
 21
1188.2272668971791
 31
0.0
  0
LINE
  5
855E
  8
0
  6
BYBLOCK
 62
     0
 10
5746.7004542123977
 20
1350.570462521832
 30
0.0
 11
5746.7004542123977
 21
1188.2272668971791
 31
0.0
  0
LINE
  5
855F
  8
0
  6
BYBLOCK
 62
     0
 10
5536.7004542123977
 20
1208.2272668971791
 30
0.0
 11
5706.7004542123977
 21
1208.2272668971791
 31
0.0
  0
TEXT
  5
8560
  8
1
 62
     0
 10
5544.5575970695409
 20
1227.3975341789319
 30
0.0
 40
60.0
  1
250
  0
INSERT
  5
8561
  8
0
  6
BYBLOCK
 62
     0
  2
_OPEN
 10
5496.7004542123977
 20
1208.2272668971791
 30
0.0
 41
40.0
 42
40.0
 43
40.0
 50
180.0
  0
INSERT
  5
8562
  8
0
  6
BYBLOCK
 62
     0
  2
_OPEN
 10
5746.7004542123977
 20
1208.2272668971791
 30
0.0
 41
40.0
 42
40.0
 43
40.0
  0
POINT
  5
8563
  8
DEFPOINTS
  6
BYBLOCK
 62
     0
 10
5496.7004542123977
 20
1328.039191034632
 30
0.0
  0
POINT
  5
8564
  8
DEFPOINTS
  6
BYBLOCK
 62
     0
 10
5746.7004542123977
 20
1360.570462521832
 30
0.0
  0
POINT
  5
8565
  8
DEFPOINTS
  6
BYBLOCK
 62
     0
 10
5746.7004542123977
 20
1208.2272668971791
 30
0.0
  0
ENDBLK
  5
8566
  8
0
  0
BLOCK
  8
0
  2
*D6
 70
     1
 10
0.0
 20
0.0
 30
0.0
  3
*D6
  1

  0
LINE
  5
864E
  8
3
 62
     0
 10
1100.4780735101849
 20
4293.0053821373576
 30
0.0
 11
1100.4780735101849
 21
4446.2901333430718
 31
0.0
  0
LINE
  5
864F
  8
3
 62
     0
 10
520.47807351018582
 20
3853.0053821373581
 30
0.0
 11
520.47807351018582
 21
4446.2901333430718
 31
0.0
  0
LINE
  5
8650
  8
3
 62
     0
 10
1060.4780735101849
 20
4426.2901333430718
 30
0.0
 11
560.47807351018582
 21
4426.2901333430718
 31
0.0
  0
INSERT
  5
8651
  8
3
 62
     0
  2
_OPEN
 10
1100.4780735101849
 20
4426.2901333430718
 30
0.0
 41
40.0
 42
40.0
 43
40.0
  0
INSERT
  5
8652
  8
3
 62
     0
  2
_OPEN
 10
520.47807351018582
 20
4426.2901333430718
 30
0.0
 41
40.0
 42
40.0
 43
40.0
 50
180.0
  0
TEXT
  8
3
  40
60
  5
86E7
  62
0
  72
0
  71
0
 10
690.478
 20
4370.09
 30
0.000000
  1
580
  0
POINT
  5
8654
  8
DEFPOINTS
 62
     0
 10
1100.4780735101849
 20
4283.0053821373594
 30
0.0
  0
POINT
  5
8655
  8
DEFPOINTS
 62
     0
 10
520.47807351018582
 20
3843.0053821373581
 30
0.0
  0
POINT
  5
8656
  8
DEFPOINTS
 62
     0
 10
520.47807351018582
 20
4426.2901333430718
 30
0.0
  0
ENDBLK
  5
8592
  8
0
  0
BLOCK
  8
0
  2
*D7
 70
     1
 10
0.0
 20
0.0
 30
0.0
  3
*D7
  1

  0
LINE
  5
8657
  8
3
 62
     0
 10
1600.4780735101849
 20
3273.0053821373581
 30
0.0
 11
1600.4780735101849
 21
2946.1871296374011
 31
0.0
  0
LINE
  5
8658
  8
3
 62
     0
 10
520.47807351018582
 20
3273.0053821373581
 30
0.0
 11
520.47807351018582
 21
2946.1871296374011
 31
0.0
  0
LINE
  5
8659
  8
3
 62
     0
 10
1560.4780735101849
 20
2966.1871296374002
 30
0.0
 11
560.47807351018582
 21
2966.1871296374002
 31
0.0
  0
INSERT
  5
865A
  8
3
 62
     0
  2
_OPEN
 10
1600.4780735101849
 20
2966.1871296374002
 30
0.0
 41
40.0
 42
40.0
 43
40.0
  0
INSERT
  5
865B
  8
3
 62
     0
  2
_OPEN
 10
520.47807351018582
 20
2966.1871296374002
 30
0.0
 41
40.0
 42
40.0
 43
40.0
 50
180.0
  0
TEXT
  8
3
  40
60
  5
86E8
  62
0
  72
0
  71
0
 10
940.478
 20
2909.99
 30
0.000000
  1
1080
  0
POINT
  5
865D
  8
DEFPOINTS
 62
     0
 10
1600.4780735101849
 20
3283.0053821373581
 30
0.0
  0
POINT
  5
865E
  8
DEFPOINTS
 62
     0
 10
520.47807351018582
 20
3283.0053821373581
 30
0.0
  0
POINT
  5
865F
  8
DEFPOINTS
 62
     0
 10
520.47807351018582
 20
2966.1871296374002
 30
0.0
  0
ENDBLK
  5
8501
  8
0
  0
BLOCK
  8
0
  2
*D8
 70
     1
 10
0.0
 20
0.0
 30
0.0
  3
*D8
  1

  0
LINE
  5
8660
  8
3
 62
     0
 10
510.47807351018571
 20
3843.0053821373581
 30
0.0
 11
313.84348895143108
 21
3843.0053821373581
 31
0.0
  0
LINE
  5
8661
  8
3
 62
     0
 10
510.47807351018588
 20
3283.0053821373581
 30
0.0
 11
313.84348895143103
 21
3283.0053821373581
 31
0.0
  0
LINE
  5
8662
  8
3
 62
     0
 10
333.84348895143108
 20
3803.0053821373581
 30
0.0
 11
333.84348895143103
 21
3323.0053821373581
 31
0.0
  0
INSERT
  5
8663
  8
3
 62
     0
  2
_OPEN
 10
333.84348895143108
 20
3843.0053821373581
 30
0.0
 41
40.0
 42
40.0
 43
40.0
 50
90.0
  0
INSERT
  5
8664
  8
3
 62
     0
  2
_OPEN
 10
333.84348895143103
 20
3283.0053821373581
 30
0.0
 41
40.0
 42
40.0
 43
40.0
 50
270.0
  0
TEXT
  8
3
  40
60
  5
86E9
  62
0
  72
0
  71
0
 10
163.843
 20
3456.81
 30
0.000000
  1
560
  0
POINT
  5
8666
  8
DEFPOINTS
 62
     0
 10
520.47807351018582
 20
3843.0053821373581
 30
0.0
  0
POINT
  5
8667
  8
DEFPOINTS
 62
     0
 10
520.47807351018582
 20
3283.0053821373581
 30
0.0
  0
POINT
  5
8668
  8
DEFPOINTS
 62
     0
 10
333.84348895143103
 20
3283.0053821373581
 30
0.0
  0
ENDBLK
  5
85B3
  8
0
  0
BLOCK
  8
0
  2
*D9
 70
     1
 10
0.0
 20
0.0
 30
0.0
  3
*D9
  1

  0
LINE
  5
8669
  8
3
 62
     0
 10
1610.478073510184
 20
3283.0053821373581
 30
0.0
 11
1925.2958052986889
 21
3283.0053821373581
 31
0.0
  0
LINE
  5
866A
  8
3
 62
     0
 10
1610.478073510184
 20
4283.0053821373594
 30
0.0
 11
1925.2958052986889
 21
4283.0053821373594
 31
0.0
  0
LINE
  5
866B
  8
3
 62
     0
 10
1905.2958052986889
 20
3323.0053821373581
 30
0.0
 11
1905.2958052986889
 21
4243.0053821373576
 31
0.0
  0
INSERT
  5
866C
  8
3
 62
     0
  2
_OPEN
 10
1905.2958052986889
 20
3283.0053821373581
 30
0.0
 41
40.0
 42
40.0
 43
40.0
 50
270.0
  0
INSERT
  5
866D
  8
3
 62
     0
  2
_OPEN
 10
1905.2958052986889
 20
4283.0053821373594
 30
0.0
 41
40.0
 42
40.0
 43
40.0
 50
90.0
  0
TEXT
  8
3
  40
60
  5
86EA
  62
0
  72
0
  71
0
 10
1735.30
 20
3676.81
 30
0.000000
  1
1000
  0
POINT
  5
866F
  8
DEFPOINTS
 62
     0
 10
1600.4780735101849
 20
3283.0053821373581
 30
0.0
  0
POINT
  5
8670
  8
DEFPOINTS
 62
     0
 10
1600.4780735101849
 20
4283.0053821373594
 30
0.0
  0
POINT
  5
8671
  8
DEFPOINTS
 62
     0
 10
1905.2958052986889
 20
4283.0053821373594
 30
0.0
  0
ENDBLK
  5
85A8
  8
0
  0
BLOCK
  8
0
  2
*D10
 70
     1
 10
0.0
 20
0.0
 30
0.0
  3
*D10
  1

  0
LINE
  5
8672
  8
3
 62
     0
 10
1710.4780735101849
 20
2108.6583577807842
 30
0.0
 11
1710.4780735101849
 21
2642.7100376931239
 31
0.0
  0
LINE
  5
8673
  8
3
 62
     0
 10
1350.4780735101849
 20
2540.3683472427251
 30
0.0
 11
1350.4780735101849
 21
2642.7100376931239
 31
0.0
  0
LINE
  5
8674
  8
3
 62
     0
 10
1670.4780735101861
 20
2622.7100376931239
 30
0.0
 11
1390.4780735101849
 21
2622.7100376931239
 31
0.0
  0
INSERT
  5
8675
  8
3
 62
     0
  2
_OPEN
 10
1710.4780735101849
 20
2622.7100376931239
 30
0.0
 41
40.0
 42
40.0
 43
40.0
  0
INSERT
  5
8676
  8
3
 62
     0
  2
_OPEN
 10
1350.4780735101849
 20
2622.7100376931239
 30
0.0
 41
40.0
 42
40.0
 43
40.0
 50
180.0
  0
TEXT
  8
3
  40
60
  5
86EB
  62
0
  72
0
  71
0
 10
1410.48
 20
2566.51
 30
0.000000
  1
360
  0
POINT
  5
8678
  8
DEFPOINTS
 62
     0
 10
1710.4780735101849
 20
2098.6583577807842
 30
0.0
  0
POINT
  5
8679
  8
DEFPOINTS
 62
     0
 10
1350.4780735101849
 20
2530.3683472427251
 30
0.0
  0
POINT
  5
867A
  8
DEFPOINTS
 62
     0
 10
1350.4780735101849
 20
2622.7100376931239
 30
0.0
  0
ENDBLK
  5
855B
  8
0
  0
BLOCK
  8
0
  2
*D11
 70
     1
 10
0.0
 20
0.0
 30
0.0
  3
*D11
  1

  0
LINE
  5
867B
  8
3
 62
     0
 10
1600.4780735101849
 20
4293.0053821373576
 30
0.0
 11
1600.4780735101849
 21
4446.2901333430718
 31
0.0
  0
LINE
  5
867C
  8
3
 62
     0
 10
1100.4780735101849
 20
4293.0053821373576
 30
0.0
 11
1100.4780735101849
 21
4446.2901333430718
 31
0.0
  0
LINE
  5
867D
  8
3
 62
     0
 10
1560.4780735101849
 20
4426.2901333430718
 30
0.0
 11
1140.4780735101849
 21
4426.2901333430718
 31
0.0
  0
INSERT
  5
867E
  8
3
 62
     0
  2
_OPEN
 10
1600.4780735101849
 20
4426.2901333430718
 30
0.0
 41
40.0
 42
40.0
 43
40.0
  0
INSERT
  5
867F
  8
3
 62
     0
  2
_OPEN
 10
1100.4780735101849
 20
4426.2901333430718
 30
0.0
 41
40.0
 42
40.0
 43
40.0
 50
180.0
  0
TEXT
  8
3
  40
60
  5
86EC
  62
0
  72
0
  71
0
 10
1230.48
 20
4370.09
 30
0.000000
  1
500
  0
POINT
  5
8681
  8
DEFPOINTS
 62
     0
 10
1600.4780735101849
 20
4283.0053821373594
 30
0.0
  0
POINT
  5
8682
  8
DEFPOINTS
 62
     0
 10
1100.4780735101849
 20
4283.0053821373594
 30
0.0
  0
POINT
  5
8683
  8
DEFPOINTS
 62
     0
 10
1100.4780735101849
 20
4426.2901333430718
 30
0.0
  0
ENDBLK
  5
859D
  8
0
  0
BLOCK
  8
0
  2
*D12
 70
     1
 10
0.0
 20
0.0
 30
0.0
  3
*D12
  1

  0
LINE
  5
84E5
  8
0
  6
BYBLOCK
 62
     0
 10
3406.0486675706529
 20
2705.7794243709
 30
0.0
 11
3406.0486675706529
 21
2755.4612448513699
 31
0.0
  0
LINE
  5
84E6
  8
0
  6
BYBLOCK
 62
     0
 10
3598.048667570652
 20
2388.5704625218318
 30
0.0
 11
3598.048667570652
 21
2755.4612448513699
 31
0.0
  0
LINE
  5
84E7
  8
0
  6
BYBLOCK
 62
     0
 10
3446.048667570652
 20
2735.4612448513699
 30
0.0
 11
3558.048667570652
 21
2735.4612448513699
 31
0.0
  0
TEXT
  5
84E8
  8
1
 62
     0
 10
3430.62009614208
 20
2765.2635465378512
 30
0.0
 40
60.0
  1
192
  0
INSERT
  5
84E9
  8
0
  6
BYBLOCK
 62
     0
  2
_OPEN
 10
3406.0486675706529
 20
2735.4612448513699
 30
0.0
 41
40.0
 42
40.0
 43
40.0
 50
180.0
  0
INSERT
  5
84EA
  8
0
  6
BYBLOCK
 62
     0
  2
_OPEN
 10
3598.048667570652
 20
2735.4612448513699
 30
0.0
 41
40.0
 42
40.0
 43
40.0
  0
POINT
  5
84EB
  8
DEFPOINTS
  6
BYBLOCK
 62
     0
 10
3406.0486675706529
 20
2695.7794243709
 30
0.0
  0
POINT
  5
84EC
  8
DEFPOINTS
  6
BYBLOCK
 62
     0
 10
3598.048667570652
 20
2378.5704625218318
 30
0.0
  0
POINT
  5
84ED
  8
DEFPOINTS
  6
BYBLOCK
 62
     0
 10
3598.048667570652
 20
2735.4612448513699
 30
0.0
  0
ENDBLK
  5
84EE
  8
0
  0
BLOCK
  8
0
  2
*D13
 70
     1
 10
0.0
 20
0.0
 30
0.0
  3
*D13
  1

  0
LINE
  5
8684
  8
3
 62
     0
 10
2539.4019663343579
 20
2263.5704625218318
 30
0.0
 11
2539.4019663343579
 21
2755.4612448513699
 31
0.0
  0
LINE
  5
8685
  8
3
 62
     0
 10
3394.4019663343611
 20
2705.7794243709
 30
0.0
 11
3394.4019663343611
 21
2755.4612448513699
 31
0.0
  0
LINE
  5
8686
  8
3
 62
     0
 10
2579.4019663343588
 20
2735.4612448513699
 30
0.0
 11
3354.4019663343602
 21
2735.4612448513699
 31
0.0
  0
INSERT
  5
8687
  8
3
 62
     0
  2
_OPEN
 10
2539.4019663343579
 20
2735.4612448513699
 30
0.0
 41
40.0
 42
40.0
 43
40.0
 50
180.0
  0
INSERT
  5
8688
  8
3
 62
     0
  2
_OPEN
 10
3394.4019663343611
 20
2735.4612448513699
 30
0.0
 41
40.0
 42
40.0
 43
40.0
  0
TEXT
  8
3
  40
60
  5
86ED
  62
0
  72
0
  71
0
 10
2846.90
 20
2729.26
 30
0.000000
  1
MAX
  0
TEXT
  8
3
  40
60
  5
86EE
  62
0
  72
0
  71
0
 10
2846.90
 20
2651.26
 30
0.000000
  1
930
  0
POINT
  5
868A
  8
DEFPOINTS
 62
     0
 10
2539.4019663343579
 20
2253.5704625218309
 30
0.0
  0
POINT
  5
868B
  8
DEFPOINTS
 62
     0
 10
3394.4019663343611
 20
2695.7794243709
 30
0.0
  0
POINT
  5
868C
  8
DEFPOINTS
 62
     0
 10
3394.4019663343611
 20
2735.4612448513699
 30
0.0
  0
ENDBLK
  5
84D7
  8
0
  0
BLOCK
  8
0
  2
*D14
 70
     1
 10
0.0
 20
0.0
 30
0.0
  3
*D14
  1

  0
LINE
  5
868D
  8
3
 62
     0
 10
2624.4019663343602
 20
1350.570462521832
 30
0.0
 11
2624.4019663343602
 21
1183.9734253570689
 31
0.0
  0
LINE
  5
868E
  8
3
 62
     0
 10
3394.4019663343611
 20
1318.0391910346329
 30
0.0
 11
3394.4019663343611
 21
1183.9734253570689
 31
0.0
  0
LINE
  5
868F
  8
3
 62
     0
 10
2664.4019663343602
 20
1203.9734253570689
 30
0.0
 11
3354.4019663343602
 21
1203.9734253570689
 31
0.0
  0
INSERT
  5
8690
  8
3
 62
     0
  2
_OPEN
 10
2624.4019663343602
 20
1203.9734253570689
 30
0.0
 41
40.0
 42
40.0
 43
40.0
 50
180.0
  0
INSERT
  5
8691
  8
3
 62
     0
  2
_OPEN
 10
3394.4019663343611
 20
1203.9734253570689
 30
0.0
 41
40.0
 42
40.0
 43
40.0
  0
TEXT
  8
3
  40
60
  5
86EF
  62
0
  72
0
  71
0
 10
2889.40
 20
1147.77
 30
0.000000
  1
770
  0
POINT
  5
8693
  8
DEFPOINTS
 62
     0
 10
2624.4019663343602
 20
1360.570462521832
 30
0.0
  0
POINT
  5
8694
  8
DEFPOINTS
 62
     0
 10
3394.4019663343611
 20
1328.039191034632
 30
0.0
  0
POINT
  5
8695
  8
DEFPOINTS
 62
     0
 10
3394.4019663343611
 20
1203.9734253570689
 30
0.0
  0
ENDBLK
  5
80B8
  8
0
  0
BLOCK
  8
0
  2
*D15
 70
     1
 10
0.0
 20
0.0
 30
0.0
  3
*D15
  1

  0
LINE
  5
86A0
  8
3
 62
     0
 10
3621.4019663343602
 20
2353.5704625218318
 30
0.0
 11
3806.4827407539519
 21
2353.5704625218318
 31
0.0
  0
LINE
  5
86A1
  8
3
 62
     0
 10
3621.4019663343602
 20
1853.570462521832
 30
0.0
 11
3806.4827407539519
 21
1853.570462521832
 31
0.0
  0
LINE
  5
86A2
  8
3
 62
     0
 10
3786.4827407539519
 20
2313.5704625218318
 30
0.0
 11
3786.4827407539519
 21
1893.570462521832
 31
0.0
  0
INSERT
  5
86A3
  8
3
 62
     0
  2
_OPEN
 10
3786.4827407539519
 20
2353.5704625218318
 30
0.0
 41
40.0
 42
40.0
 43
40.0
 50
90.0
  0
INSERT
  5
86A4
  8
3
 62
     0
  2
_OPEN
 10
3786.4827407539519
 20
1853.570462521832
 30
0.0
 41
40.0
 42
40.0
 43
40.0
 50
270.0
  0
TEXT
  8
3
  40
60
  5
86F0
  62
0
  72
0
  71
0
 10
3616.48
 20
1997.37
 30
0.000000
  1
φ500
  0
POINT
  5
86A6
  8
DEFPOINTS
 62
     0
 10
3611.4019663343602
 20
2353.5704625218318
 30
0.0
  0
POINT
  5
86A7
  8
DEFPOINTS
 62
     0
 10
3611.4019663343602
 20
1853.570462521832
 30
0.0
  0
POINT
  5
86A8
  8
DEFPOINTS
 62
     0
 10
3786.4827407539519
 20
1853.570462521832
 30
0.0
  0
ENDBLK
  5
8243
  8
0
  0
BLOCK
  8
0
  2
*D16
 70
     1
 10
0.0
 20
0.0
 30
0.0
  3
*D16
  1

  0
LINE
  5
81B6
  8
0
  6
BYBLOCK
 62
     0
 10
3522.5155854576942
 20
1357.6367765335449
 30
0.0
 11
3522.5155854576942
 21
1223.5710108559811
 31
0.0
  0
LINE
  5
81B7
  8
0
  6
BYBLOCK
 62
     0
 10
3752.5155854576942
 20
1390.168048020744
 30
0.0
 11
3752.5155854576942
 21
1223.5710108559811
 31
0.0
  0
LINE
  5
81B8
  8
0
  6
BYBLOCK
 62
     0
 10
3562.5155854576942
 20
1243.5710108559811
 30
0.0
 11
3712.5155854576942
 21
1243.5710108559811
 31
0.0
  0
TEXT
  5
81B9
  8
1
 62
     0
 10
3560.372728314836
 20
1262.289782331587
 30
0.0
 40
60.0
  1
230
  0
INSERT
  5
81BA
  8
0
  6
BYBLOCK
 62
     0
  2
_OPEN
 10
3522.5155854576942
 20
1243.5710108559811
 30
0.0
 41
40.0
 42
40.0
 43
40.0
 50
180.0
  0
INSERT
  5
81BB
  8
0
  6
BYBLOCK
 62
     0
  2
_OPEN
 10
3752.5155854576942
 20
1243.5710108559811
 30
0.0
 41
40.0
 42
40.0
 43
40.0
  0
POINT
  5
81BC
  8
DEFPOINTS
  6
BYBLOCK
 62
     0
 10
3522.5155854576942
 20
1367.6367765335449
 30
0.0
  0
POINT
  5
81BD
  8
DEFPOINTS
  6
BYBLOCK
 62
     0
 10
3752.5155854576942
 20
1400.168048020744
 30
0.0
  0
POINT
  5
81BE
  8
DEFPOINTS
  6
BYBLOCK
 62
     0
 10
3752.5155854576942
 20
1243.5710108559811
 30
0.0
  0
ENDBLK
  5
81BF
  8
0
  0
BLOCK
  8
0
  2
*D17
 70
     1
 10
0.0
 20
0.0
 30
0.0
  3
*D17
  1

  0
LINE
  5
86A9
  8
3
 62
     0
 10
3206.9019663343611
 20
2474.5704625218318
 30
0.0
 11
3206.9019663343611
 21
2623.9998715490342
 31
0.0
  0
LINE
  5
86AA
  8
3
 62
     0
 10
3581.9019663343611
 20
2474.5704625218318
 30
0.0
 11
3581.9019663343611
 21
2623.9998715490342
 31
0.0
  0
LINE
  5
86AB
  8
3
 62
     0
 10
3246.9019663343611
 20
2603.9998715490342
 30
0.0
 11
3541.9019663343611
 21
2603.9998715490342
 31
0.0
  0
INSERT
  5
86AC
  8
3
 62
     0
  2
_OPEN
 10
3206.9019663343611
 20
2603.9998715490342
 30
0.0
 41
40.0
 42
40.0
 43
40.0
 50
180.0
  0
INSERT
  5
86AD
  8
3
 62
     0
  2
_OPEN
 10
3581.9019663343611
 20
2603.9998715490342
 30
0.0
 41
40.0
 42
40.0
 43
40.0
  0
TEXT
  8
3
  40
60
  5
86F1
  62
0
  72
0
  71
0
 10
3274.40
 20
2547.80
 30
0.000000
  1
375
  0
POINT
  5
86AF
  8
DEFPOINTS
 62
     0
 10
3206.9019663343611
 20
2464.5704625218318
 30
0.0
  0
POINT
  5
86B0
  8
DEFPOINTS
 62
     0
 10
3581.9019663343611
 20
2464.5704625218318
 30
0.0
  0
POINT
  5
86B1
  8
DEFPOINTS
 62
     0
 10
3581.9019663343611
 20
2603.9998715490342
 30
0.0
  0
ENDBLK
  5
85FE
  8
0
  0
BLOCK
  8
0
  2
_DOT
 70
     0
 10
0.0
 20
0.0
 30
0.0
  3
_DOT
  1

  0
LINE
  5
8234
  8
0
  6
BYBLOCK
 62
     0
 10
0.0
 20
0.0
 30
0.0
 11
-1.0
 21
-0.0000000000000284
 31
0.0
  0
POLYLINE
  5
8235
  8
0
  6
BYBLOCK
 62
     0
 66
     1
 10
0.0
 20
0.0
 30
0.0
 70
     1
 40
0.1666666666666666
 41
0.1666666666666666
  0
VERTEX
  5
86B2
  8
0
  6
BYBLOCK
 62
     0
 10
-0.0833333333333286
 20
-0.0000000000000284
 30
0.0
 42
1.0
  0
VERTEX
  5
86B3
  8
0
  6
BYBLOCK
 62
     0
 10
0.0833333333333286
 20
-0.0000000000000284
 30
0.0
 42
1.0
  0
SEQEND
  5
86B4
  8
0
  6
BYBLOCK
 62
     0
  0
ENDBLK
  5
81F4
  8
0
  0
BLOCK
  8
0
  2
*D19
 70
     1
 10
0.0
 20
0.0
 30
0.0
  3
*D19
  1

  0
LINE
  5
86B5
  8
3
 62
     0
 10
1710.4780735101849
 20
2108.6583577807851
 30
0.0
 11
1710.4780735101849
 21
2758.6389402333989
 31
0.0
  0
LINE
  5
86B6
  8
3
 62
     0
 10
520.47807351018582
 20
1483.570462521832
 30
0.0
 11
520.47807351018594
 21
2758.6389402333989
 31
0.0
  0
LINE
  5
86B7
  8
3
 62
     0
 10
1670.4780735101861
 20
2738.6389402333989
 30
0.0
 11
560.47807351018594
 21
2738.6389402333989
 31
0.0
  0
INSERT
  5
86B8
  8
3
 62
     0
  2
_OPEN
 10
1710.4780735101849
 20
2738.6389402333989
 30
0.0
 41
40.0
 42
40.0
 43
40.0
  0
INSERT
  5
86B9
  8
3
 62
     0
  2
_OPEN
 10
520.47807351018594
 20
2738.6389402333989
 30
0.0
 41
40.0
 42
40.0
 43
40.0
 50
180.0
  0
TEXT
  8
3
  40
60
  5
86F2
  62
0
  72
0
  71
0
 10
1002.22
 20
2682.44
 30
0.000000
  1
1190
  0
POINT
  5
86BB
  8
DEFPOINTS
 62
     0
 10
1710.4780735101849
 20
2098.6583577807851
 30
0.0
  0
POINT
  5
86BC
  8
DEFPOINTS
 62
     0
 10
520.47807351018582
 20
1473.570462521832
 30
0.0
  0
POINT
  5
86BD
  8
DEFPOINTS
 62
     0
 10
520.47807351018594
 20
2738.6389402333989
 30
0.0
  0
ENDBLK
  5
8545
  8
0
  0
BLOCK
  8
0
  2
L-30-3
 70
     0
 10
0.0
 20
0.0
 30
0.0
  3
L-30-3
  1

  0
LINE
  5
8293
  8
0
 10
115.2488417492448
 20
98.116970357453638
 30
0.0
 11
145.2488417492448
 21
98.116970357453638
 31
0.0
  0
LINE
  5
8294
  8
0
 10
115.2488417492448
 20
98.116970357453638
 30
0.0
 11
115.2488417492448
 21
128.1169703574536
 31
0.0
  0
LINE
  5
8295
  8
0
 10
145.2488417492448
 20
98.116970357453638
 30
0.0
 11
145.2488417492448
 21
99.116970357453638
 31
0.0
  0
LINE
  5
8296
  8
0
 10
115.2488417492448
 20
128.1169703574536
 30
0.0
 11
116.2488417492448
 21
128.1169703574536
 31
0.0
  0
LINE
  5
8297
  8
0
 10
122.2488417492448
 20
101.1169703574536
 30
0.0
 11
143.2488417492448
 21
101.1169703574536
 31
0.0
  0
LINE
  5
8298
  8
0
 10
118.2488417492448
 20
105.1169703574536
 30
0.0
 11
118.2488417492448
 21
126.1169703574536
 31
0.0
  0
ARC
  5
8299
  8
0
 10
143.2488417492448
 20
99.116970357453638
 30
0.0
 40
2.0
 50
0.0
 51
90.0
  0
ARC
  5
829A
  8
0
 10
116.2488417492448
 20
126.1169703574536
 30
0.0
 40
2.0
 50
0.0
 51
90.0
  0
ARC
  5
829B
  8
0
 10
122.2488417492448
 20
105.1169703574536
 30
0.0
 40
4.0
 50
180.0
 51
270.0
  0
ENDBLK
  5
829D
  8
0
  0
BLOCK
  8
0
  2
*D21
 70
     1
 10
0.0
 20
0.0
 30
0.0
  3
*D21
  1

  0
LINE
  5
86BE
  8
3
 62
     0
 10
1323.4780735101849
 20
2464.6184533296928
 30
0.0
 11
2130.078338921408
 21
2464.6184533296928
 31
0.0
  0
LINE
  5
86BF
  8
3
 62
     0
 10
1756.440532699298
 20
2103.5704625218318
 30
0.0
 11
2130.078338921408
 21
2103.5704625218318
 31
0.0
  0
LINE
  5
86C0
  8
3
 62
     0
 10
2110.0783389214089
 20
2424.6184533296928
 30
0.0
 11
2110.0783389214089
 21
2143.5704625218318
 31
0.0
  0
INSERT
  5
86C1
  8
3
 62
     0
  2
_OPEN
 10
2110.0783389214089
 20
2464.6184533296928
 30
0.0
 41
40.0
 42
40.0
 43
40.0
 50
90.0
  0
INSERT
  5
86C2
  8
3
 62
     0
  2
_OPEN
 10
2110.0783389214089
 20
2103.5704625218318
 30
0.0
 41
40.0
 42
40.0
 43
40.0
 50
270.0
  0
TEXT
  8
3
  40
60
  5
86F3
  62
0
  72
0
  71
0
 10
1940.08
 20
2169.30
 30
0.000000
  1
361
  0
POINT
  5
86C4
  8
DEFPOINTS
 62
     0
 10
1313.478073510184
 20
2464.6184533296928
 30
0.0
  0
POINT
  5
86C5
  8
DEFPOINTS
 62
     0
 10
1746.440532699298
 20
2103.5704625218318
 30
0.0
  0
POINT
  5
86C6
  8
DEFPOINTS
 62
     0
 10
2110.0783389214089
 20
2103.5704625218318
 30
0.0
  0
ENDBLK
  5
85D2
  8
0
  0
BLOCK
  8
0
  2
*D22
 70
     1
 10
0.0
 20
0.0
 30
0.0
  3
*D22
  1

  0
LINE
  5
86C7
  8
3
 62
     0
 10
1610.478073510184
 20
1473.570462521832
 30
0.0
 11
2130.078338921408
 21
1473.570462521832
 31
0.0
  0
LINE
  5
86C8
  8
3
 62
     0
 10
2110.078338921408
 20
2063.5704625218318
 30
0.0
 11
2110.078338921408
 21
1513.570462521832
 31
0.0
  0
INSERT
  5
86C9
  8
3
 62
     0
  2
_OPEN
 10
2110.078338921408
 20
2103.5704625218318
 30
0.0
 41
40.0
 42
40.0
 43
40.0
 50
90.0
  0
INSERT
  5
86CA
  8
3
 62
     0
  2
_OPEN
 10
2110.078338921408
 20
1473.570462521832
 30
0.0
 41
40.0
 42
40.0
 43
40.0
 50
270.0
  0
TEXT
  8
3
  40
60
  5
86F4
  62
0
  72
0
  71
0
 10
1940.08
 20
1682.37
 30
0.000000
  1
630
  0
POINT
  5
86CC
  8
DEFPOINTS
 62
     0
 10
1746.440532699298
 20
2103.5704625218318
 30
0.0
  0
POINT
  5
86CD
  8
DEFPOINTS
 62
     0
 10
1600.4780735101849
 20
1473.570462521832
 30
0.0
  0
POINT
  5
86CE
  8
DEFPOINTS
 62
     0
 10
2110.078338921408
 20
1473.570462521832
 30
0.0
  0
ENDBLK
  5
85C7
  8
0
  0
BLOCK
  8
0
  2
*D23
 70
     1
 10
0.0
 20
0.0
 30
0.0
  3
*D23
  1

  0
LINE
  5
8510
  8
0
  6
BYBLOCK
 62
     0
 10
5756.7004542123977
 20
1435.570462521832
 30
0.0
 11
6276.3007196236222
 21
1435.570462521832
 31
0.0
  0
LINE
  5
8511
  8
0
  6
BYBLOCK
 62
     0
 10
6256.3007196236213
 20
1513.570462521832
 30
0.0
 11
6256.3007196236213
 21
1553.570462521832
 31
0.0
  0
LINE
  5
8512
  8
0
  6
BYBLOCK
 62
     0
 10
6256.3007196236213
 20
1395.570462521832
 30
0.0
 11
6256.3007196236213
 21
1355.570462521832
 31
0.0
  0
TEXT
  5
8513
  8
1
 62
     0
 10
6372.0150053379066
 20
1367.4276053789749
 30
0.0
 40
60.0
  1
(38)
 50
90.0
  0
LINE
  5
8514
  8
0
  6
BYBLOCK
 62
     0
 10
6256.3007196236213
 20
1473.570462521832
 30
0.0
 11
6256.3007196236213
 21
1435.570462521832
 31
0.0
  0
INSERT
  5
8515
  8
0
  6
BYBLOCK
 62
     0
  2
_OPEN
 10
6256.3007196236213
 20
1473.570462521832
 30
0.0
 41
40.0
 42
40.0
 43
40.0
 50
270.0
  0
INSERT
  5
8516
  8
0
  6
BYBLOCK
 62
     0
  2
_DOT
 10
6256.3007196236213
 20
1435.570462521832
 30
0.0
 41
40.0
 42
40.0
 43
40.0
 50
90.0
  0
POINT
  5
8517
  8
DEFPOINTS
  6
BYBLOCK
 62
     0
 10
5746.7004542123977
 20
1473.570462521832
 30
0.0
  0
POINT
  5
8518
  8
DEFPOINTS
  6
BYBLOCK
 62
     0
 10
5746.7004542123977
 20
1435.570462521832
 30
0.0
  0
POINT
  5
8519
  8
DEFPOINTS
  6
BYBLOCK
 62
     0
 10
6256.3007196236213
 20
1435.570462521832
 30
0.0
  0
ENDBLK
  5
851A
  8
0
  0
BLOCK
  8
0
  2
*D24
 70
     1
 10
0.0
 20
0.0
 30
0.0
  3
*D24
  1

  0
LINE
  5
86CF
  8
3
 62
     0
 10
1610.478073510184
 20
1435.570462521832
 30
0.0
 11
2130.078338921408
 21
1435.570462521832
 31
0.0
  0
LINE
  5
86D0
  8
3
 62
     0
 10
1610.478073510184
 20
1360.570462521832
 30
0.0
 11
2130.078338921408
 21
1360.570462521832
 31
0.0
  0
LINE
  5
86D1
  8
3
 62
     0
 10
2110.078338921408
 20
1475.570462521832
 30
0.0
 11
2110.078338921408
 21
1515.570462521832
 31
0.0
  0
LINE
  5
86D2
  8
3
 62
     0
 10
2110.078338921408
 20
1320.570462521832
 30
0.0
 11
2110.078338921408
 21
1143.4276053789749
 31
0.0
  0
LINE
  5
86D3
  8
3
 62
     0
 10
2110.078338921408
 20
1435.570462521832
 30
0.0
 11
2110.078338921408
 21
1360.570462521832
 31
0.0
  0
INSERT
  5
86D4
  8
3
 62
     0
  2
_DOT
 10
2110.078338921408
 20
1435.570462521832
 30
0.0
 41
40.0
 42
40.0
 43
40.0
 50
270.0
  0
INSERT
  5
86D5
  8
3
 62
     0
  2
_OPEN
 10
2110.078338921408
 20
1360.570462521832
 30
0.0
 41
40.0
 42
40.0
 43
40.0
 50
90.0
  0
TEXT
  8
3
  40
60
  5
86F5
  62
0
  72
0
  71
0
 10
1940.08
 20
1105.80
 30
0.000000
  1
75
  0
POINT
  5
86D7
  8
DEFPOINTS
 62
     0
 10
1600.4780735101849
 20
1435.570462521832
 30
0.0
  0
POINT
  5
86D8
  8
DEFPOINTS
 62
     0
 10
1600.4780735101849
 20
1360.570462521832
 30
0.0
  0
POINT
  5
86D9
  8
DEFPOINTS
 62
     0
 10
2110.078338921408
 20
1360.570462521832
 30
0.0
  0
ENDBLK
  5
850E
  8
0
  0
BLOCK
  8
0
  2
*D25
 70
     1
 10
0.0
 20
0.0
 30
0.0
  3
*D25
  1

  0
LINE
  5
86DA
  8
3
 62
     0
 10
1323.4780735101849
 20
2464.6184533296928
 30
0.0
 11
2327.520780694118
 21
2464.6184533296928
 31
0.0
  0
LINE
  5
86DB
  8
3
 62
     0
 10
1610.478073510184
 20
1360.570462521832
 30
0.0
 11
2327.520780694118
 21
1360.570462521832
 31
0.0
  0
LINE
  5
86DC
  8
3
 62
     0
 10
2307.520780694118
 20
2424.6184533296928
 30
0.0
 11
2307.520780694118
 21
1400.570462521832
 31
0.0
  0
INSERT
  5
86DD
  8
3
 62
     0
  2
_OPEN
 10
2307.520780694118
 20
2464.6184533296928
 30
0.0
 41
40.0
 42
40.0
 43
40.0
 50
90.0
  0
INSERT
  5
86DE
  8
3
 62
     0
  2
_OPEN
 10
2307.520780694118
 20
1360.570462521832
 30
0.0
 41
40.0
 42
40.0
 43
40.0
 50
270.0
  0
TEXT
  8
3
  40
60
  5
86F6
  62
0
  72
0
  71
0
 10
2137.52
 20
1774.74
 30
0.000000
  1
1104
  0
POINT
  5
86E0
  8
DEFPOINTS
 62
     0
 10
1313.478073510184
 20
2464.6184533296928
 30
0.0
  0
POINT
  5
86E1
  8
DEFPOINTS
 62
     0
 10
1600.4780735101849
 20
1360.570462521832
 30
0.0
  0
POINT
  5
86E2
  8
DEFPOINTS
 62
     0
 10
2307.520780694118
 20
1360.570462521832
 30
0.0
  0
ENDBLK
  5
853A
  8
0
  0
ENDSEC
  0
SECTION
  2
ENTITIES
  0
DIMENSION
  5
7CA6
  8
3
  2
*D1
 10
915.43008270232519
 20
2622.7100376931239
 30
0.0
 11
1132.9540781062551
 21
2672.7100376931239
 31
0.0
 70
     0
 13
1350.4780735101849
 23
2530.3683472427251
 33
0.0
 14
915.43008270232519
 24
2140.5704625218318
 34
0.0
1001
ACAD
1000
DSTYLE
1002
{
1070
   287
1070
     3
1070
    40
1040
20.0
1070
   143
1040
0.039
1070
   172
1070
     1
1070
   271
1070
     0
1070
   279
1070
     0
1070
   288
1070
     1
1002
}
  0
DIMENSION
  5
7CA8
  8
3
  2
*D2
 10
1990.6351502330861
 20
2103.5704625218318
 30
0.0
 11
1940.6351502330861
 21
1834.570462521832
 31
0.0
 70
     0
 13
1710.4780735101849
 23
1565.570462521832
 33
0.0
 14
1746.440532699298
 24
2103.5704625218318
 34
0.0
 50
90.0
1001
ACAD
1000
DSTYLE
1002
{
1070
   287
1070
     3
1070
    40
1040
20.0
1070
   143
1040
0.039
1070
   172
1070
     1
1070
   271
1070
     0
1070
   279
1070
     0
1070
   288
1070
     1
1002
}
  0
DIMENSION
  5
7CA9
  8
3
  2
*D3
 10
1852.4833087746031
 20
2077.5704625218318
 30
0.0
 11
1802.4833087746031
 21
1821.570462521832
 31
0.0
 70
     0
 13
1710.4780735101849
 23
1565.570462521832
 33
0.0
 14
1710.4780735101849
 24
2077.5704625218318
 34
0.0
 50
90.0
1001
ACAD
1000
DSTYLE
1002
{
1070
   287
1070
     3
1070
    40
1040
20.0
1070
   143
1040
0.039
1070
   172
1070
     1
1070
   271
1070
     0
1070
   279
1070
     0
1070
   288
1070
     1
1002
}
  0
LINE
  5
7CAA
  8
1
 10
1710.4780735101849
 20
1565.570462521832
 30
0.0
 11
1710.4780735101849
 21
2077.5704625218309
 31
0.0
  0
LINE
  5
7CAB
  8
1
 10
1710.4780735101849
 20
2087.5704625218318
 30
0.0
 11
1710.4780735101849
 21
1555.5380690011871
 31
0.0
  0
LINE
  5
7CAC
  8
1
 10
1710.4780735101849
 20
2095.1427577173522
 30
0.0
 11
1710.4780735101849
 21
1546.83241698699
 31
0.0
  0
LINE
  5
7CAD
  8
1
 10
1707.4780735101849
 20
1544.4240615088761
 30
0.0
 11
1707.4780735101849
 21
2096.8425545953628
 31
0.0
  0
LINE
  5
7CAE
  8
1
 10
1680.502398093394
 20
1565.524933687243
 30
0.0
 11
1680.4780735101849
 21
2077.5704625218318
 31
0.0
  0
ARC
  5
7CB0
  8
1
 10
1387.4780735101849
 20
2066.5704625218318
 30
0.0
 40
473.44799080786078
 50
180.0
 51
265.5177596295751
  0
LINE
  5
7CB1
  8
2
 10
1350.4780735101849
 20
1249.6434608238139
 30
0.0
 11
1350.4780735101849
 21
2530.3683472427251
 31
0.0
  0
DIMENSION
  5
7CB6
  8
3
  2
*D4
 10
1350.4780735101849
 20
1208.2272668971791
 30
0.0
 11
935.47807351018525
 21
1258.2272668971791
 31
0.0
 70
     0
 13
520.47807351018582
 23
1360.570462521832
 33
0.0
 14
1350.4780735101849
 24
1328.039191034632
 34
0.0
1001
ACAD
1000
DSTYLE
1002
{
1070
   287
1070
     3
1070
    40
1040
20.0
1070
   143
1040
0.039
1070
   172
1070
     1
1070
   271
1070
     0
1070
   279
1070
     0
1070
   288
1070
     1
1002
}
  0
LINE
  5
7CB8
  8
1
 10
1600.4780735101849
 20
1548.570462521832
 30
0.0
 11
520.47807351018582
 21
1548.570462521832
 31
0.0
  0
LINE
  5
7CB9
  8
1
 10
1600.4780735101849
 20
1473.570462521832
 30
0.0
 11
520.47807351018582
 21
1473.570462521832
 31
0.0
  0
LINE
  5
7CBA
  8
2
 10
883.9770397843821
 20
2103.5704625218318
 30
0.0
 11
1746.440532699298
 21
2103.5704625218318
 31
0.0
  0
ARC
  5
7CBB
  8
1
 10
1313.478073510184
 20
2066.5704625218318
 30
0.0
 40
398.04799080786057
 50
84.957548930829049
 51
180.0
  0
LINE
  5
7CBC
  8
1
 10
1600.4780735101849
 20
1435.570462521832
 30
0.0
 11
520.47807351018582
 21
1435.570462521832
 31
0.0
  0
LINE
  5
7CBD
  8
1
 10
1600.4780735101849
 20
1360.570462521832
 30
0.0
 11
520.47807351018582
 21
1360.570462521832
 31
0.0
  0
ARC
  5
7CBE
  8
1
 10
680.47807351018582
 20
1730.5701625218319
 30
0.0
 40
150.0
 50
119.1054242350806
 51
299.10542423508048
  0
LINE
  5
7CBF
  8
2
 10
680.47807351018582
 20
1619.205162521831
 30
0.0
 11
680.47807351018582
 21
1856.153162521832
 31
0.0
  0
ARC
  5
7CC1
  8
1
 10
680.47807351018582
 20
1730.5701625218319
 30
0.0
 40
121.5
 50
296.18489999999991
 51
180.0
  0
CIRCLE
  5
7CC2
  8
1
 10
680.47807351018582
 20
1730.5701625218319
 30
0.0
 40
76.200000000000003
  0
LINE
  5
7CC3
  8
1
 10
520.47807351018582
 20
1435.570462521832
 30
0.0
 11
520.47807351018582
 21
1360.570462521832
 31
0.0
  0
LINE
  5
7CC5
  8
1
 10
734.15537351018611
 20
1621.5704625218309
 30
0.0
 11
626.80077351018554
 21
1621.5704625218309
 31
0.0
  0
LINE
  5
7CC6
  8
2
 10
554.60767351018603
 20
1730.5701625218319
 30
0.0
 11
806.31067351018555
 21
1730.5701625218319
 31
0.0
  0
LINE
  5
7CC7
  8
1
 10
830.47807351018571
 20
1578.570462521832
 30
0.0
 11
530.47807351018673
 21
1578.570462521832
 31
0.0
  0
LINE
  5
7CC8
  8
1
 10
811.99052427881725
 20
1618.570462521832
 30
0.0
 11
548.9656227415544
 21
1618.5704625218309
 31
0.0
  0
LINE
  5
7CC9
  8
1
 10
537.97807351018582
 20
1578.570462521832
 30
0.0
 11
548.9656227415544
 21
1618.570462521832
 31
0.0
  0
LINE
  5
7CCA
  8
1
 10
520.47807351018582
 20
1473.570462521832
 30
0.0
 11
520.47807351018582
 21
1548.570462521832
 31
0.0
  0
LINE
  5
7CCB
  8
1
 10
530.47807351018673
 20
1548.570462521832
 30
0.0
 11
530.47807351018673
 21
1578.570462521832
 31
0.0
  0
LINE
  5
7CCC
  8
1
 10
570.47807351018582
 20
1618.5704625218309
 30
0.0
 11
610.47807351018582
 21
1618.5704625218309
 31
0.0
  0
ARC
  5
7CCE
  8
1
 10
680.47807351018582
 20
1730.5701625218319
 30
0.0
 40
121.5
 50
180.0
 51
243.7502999999999
  0
LINE
  5
7CCF
  8
1
 10
570.47807351018582
 20
1618.5704625218309
 30
0.0
 11
570.47807351018582
 21
1628.570462521832
 31
0.0
  0
LINE
  5
7CD0
  8
1
 10
579.64547351018518
 20
1662.783662521832
 30
0.0
 11
570.47807351018582
 21
1628.570462521832
 31
0.0
  0
LINE
  5
7CD1
  8
1
 10
610.47807351018582
 20
1618.5704625218309
 30
0.0
 11
610.47807351018582
 21
1623.4993625218319
 31
0.0
  0
LINE
  5
7CD2
  8
1
 10
613.86577351018605
 20
1628.958162521832
 30
0.0
 11
611.94257351018587
 21
1627.0348625218321
 31
0.0
  0
ARC
  5
7CD3
  8
1
 10
615.47797351018562
 20
1623.4993625218319
 30
0.0
 40
4.9999000000000002
 50
134.99950000000001
 51
180.0
  0
LINE
  5
7CD4
  8
1
 10
822.97807351018582
 20
1578.570462521832
 30
0.0
 11
811.99052427881725
 21
1618.570462521832
 31
0.0
  0
LINE
  5
7CD5
  8
1
 10
830.47807351018571
 20
1548.570462521832
 30
0.0
 11
830.47807351018571
 21
1578.570462521832
 31
0.0
  0
LINE
  5
7CD6
  8
1
 10
790.47807351018582
 20
1618.5704625218309
 30
0.0
 11
750.47807351018582
 21
1618.5704625218309
 31
0.0
  0
LINE
  5
7CD7
  8
1
 10
750.47807351018582
 20
1618.5704625218309
 30
0.0
 11
750.47807351018582
 21
1623.4993625218319
 31
0.0
  0
ARC
  5
7CD8
  8
1
 10
745.47817351018602
 20
1623.4993625218319
 30
0.0
 40
4.9999000000000002
 50
0.0
 51
45.000500000000002
  0
LINE
  5
7CD9
  8
1
 10
747.0903735101856
 20
1628.958162521832
 30
0.0
 11
749.01357351018578
 21
1627.0348625218321
 31
0.0
  0
LINE
  5
7CDA
  8
1
 10
790.47807351018582
 20
1618.5704625218309
 30
0.0
 11
790.47807351018582
 21
1628.570462521832
 31
0.0
  0
LINE
  5
7CDB
  8
1
 10
781.31067351018555
 20
1662.783662521832
 30
0.0
 11
790.47807351018582
 21
1628.570462521832
 31
0.0
  0
LINE
  5
7CE0
  8
1
 10
1644.557751903295
 20
2077.5704625218318
 30
0.0
 11
1710.4780735101849
 21
2077.5704625218318
 31
0.0
  0
ARC
  5
7CE3
  8
1
 10
1319.478073510184
 20
2134.5704625218318
 30
0.0
 40
329.7837981443563
 50
0.0
 51
84.957548930829049
  0
LINE
  5
7CE5
  8
1
 10
1128.4780735101999
 20
1548.570462521832
 30
0.0
 11
1128.4780735101849
 21
2040.370462521832
 31
0.0
  0
LINE
  5
7CE6
  8
1
 10
1572.478073510184
 20
1548.570462521832
 30
0.0
 11
1572.478073510184
 21
2040.370462521832
 31
0.0
  0
DIMENSION
  5
7CE7
  8
3
  2
*D5
 10
1600.4780735101849
 20
1208.2272668971791
 30
0.0
 11
1475.4780735101849
 21
1257.3975341789319
 31
0.0
 12
-4146.2223807022119
 22
0.0
 32
0.0
 70
   128
 13
1350.4780735101849
 23
1328.039191034632
 33
0.0
 14
1600.4780735101849
 24
1360.570462521832
 34
0.0
1001
ACAD
1000
DSTYLE
1002
{
1070
   288
1070
     1
1070
   172
1070
     1
1070
    40
1040
20.0
1070
   271
1070
     0
1070
   143
1040
0.039
1002
}
  0
LINE
  5
7CE8
  8
1
 10
1110.4780735101831
 20
1548.570462521832
 30
0.0
 11
1110.4780735101831
 21
1588.570462521832
 31
0.0
  0
LINE
  5
7CE9
  8
1
 10
1128.4780735102031
 20
1553.570462521832
 30
0.0
 11
1110.4780735101831
 21
1553.570462521832
 31
0.0
  0
LINE
  5
7CEA
  8
1
 10
1128.4780735102011
 20
1588.570462521832
 30
0.0
 11
1110.4780735101831
 21
1588.570462521832
 31
0.0
  0
LINE
  5
7CEB
  8
1
 10
1600.4780735101849
 20
1435.570462521832
 30
0.0
 11
1600.4780735101849
 21
1360.570462521832
 31
0.0
  0
LINE
  5
7CEC
  8
1
 10
1590.4780735101849
 20
1553.570462521832
 30
0.0
 11
1572.478073510184
 21
1553.570462521832
 31
0.0
  0
LINE
  5
7CED
  8
1
 10
1590.4780735101849
 20
1588.570462521832
 30
0.0
 11
1572.478073510184
 21
1588.570462521832
 31
0.0
  0
LINE
  5
7CEE
  8
1
 10
1600.4780735101849
 20
1473.570462521832
 30
0.0
 11
1600.4780735101849
 21
1548.570462521832
 31
0.0
  0
LINE
  5
7CEF
  8
1
 10
1590.4780735101849
 20
1548.570462521832
 30
0.0
 11
1590.4780735101849
 21
1588.570462521832
 31
0.0
  0
LINE
  5
7CF0
  8
1
 10
1118.478073510184
 20
2043.570462521832
 30
0.0
 11
1582.4780735101849
 21
2043.570462521832
 31
0.0
  0
LINE
  5
7CF1
  8
1
 10
1085.4780735101849
 20
2040.370462521832
 30
0.0
 11
1615.4780735101849
 21
2040.370462521832
 31
0.0
  0
CIRCLE
  5
7CF2
  8
1
 10
1350.4780735101849
 20
2103.5704625218318
 30
0.0
 40
63.5
  0
LINE
  5
7CF3
  8
1
 10
1128.4780735101881
 20
1984.3704625218311
 30
0.0
 11
921.22046231225613
 21
1984.3704625218311
 31
0.0
  0
LINE
  5
7CF4
  8
1
 10
1128.4780735101881
 20
1990.370462521832
 30
0.0
 11
920.20239470804688
 21
1990.370462521832
 31
0.0
  0
LINE
  5
7CF5
  8
1
 10
1085.4780735101849
 20
1990.370462521832
 30
0.0
 11
1085.4780735101849
 21
2040.370462521832
 31
0.0
  0
LINE
  5
7CF6
  8
1
 10
1118.4780735101849
 20
2040.370462521832
 30
0.0
 11
1118.478073510184
 21
2043.5704625218309
 31
0.0
  0
ARC
  5
7CF7
  8
1
 10
1350.4780735101849
 20
2103.5704625218318
 30
0.0
 40
150.0
 50
299.10542423508048
 51
119.10542423508051
  0
ARC
  5
7CFA
  8
1
 10
1381.4780735101849
 20
2134.5704625218309
 30
0.0
 40
269.18379814435679
 50
347.77500151106608
 51
0.0000000000002544
  0
LINE
  5
7CFB
  8
1
 10
1680.482215922405
 20
1990.370462521832
 30
0.0
 11
1572.478073510184
 21
1990.370462521832
 31
0.0
  0
LINE
  5
7CFC
  8
1
 10
1680.482500950769
 20
1984.3704625218311
 30
0.0
 11
1572.478073510184
 21
1984.3704625218311
 31
0.0
  0
LINE
  5
7CFD
  8
1
 10
1582.4780735101849
 20
2040.370462521832
 30
0.0
 11
1582.4780735101849
 21
2043.570462521832
 31
0.0
  0
LINE
  5
7CFE
  8
1
 10
1615.4780735101849
 20
1990.370462521832
 30
0.0
 11
1615.4780735101849
 21
2040.370462521832
 31
0.0
  0
DIMENSION
  5
7D02
  8
3
  2
*D6
 10
520.47807351018582
 20
4426.2901333430718
 30
0.0
 11
810.47807351018525
 21
4476.2901333430727
 31
0.0
 70
     0
 13
1100.4780735101849
 23
4283.0053821373594
 33
0.0
 14
520.47807351018582
 24
3843.0053821373581
 34
0.0
1001
ACAD
1000
DSTYLE
1002
{
1070
   287
1070
     3
1070
    40
1040
20.0
1070
   143
1040
0.039
1070
   172
1070
     1
1070
   271
1070
     0
1070
   279
1070
     0
1070
   288
1070
     1
1002
}
  0
LINE
  5
7D03
  8
1
 10
1100.4780735101849
 20
3803.0053821373581
 30
0.0
 11
520.47807351018582
 21
3803.0053821373581
 31
0.0
  0
LINE
  5
7D04
  8
1
 10
1100.4780735101849
 20
3843.0053821373581
 30
0.0
 11
520.47807351018582
 21
3843.0053821373581
 31
0.0
  0
LINE
  5
7D05
  8
1
 10
1118.478073510184
 20
3323.0053821373572
 30
0.0
 11
801.47807351018491
 21
3323.0053821373581
 31
0.0
  0
LINE
  5
7D06
  8
1
 10
1274.278073510186
 20
3228.005382137359
 30
0.0
 11
743.97807351018491
 21
3228.005382137359
 31
0.0
  0
LINE
  5
7D07
  8
1
 10
1274.278073510186
 20
3278.005382137359
 30
0.0
 11
743.97807351018491
 21
3278.005382137359
 31
0.0
  0
LINE
  5
7D08
  8
1
 10
1500.478073510184
 20
3198.005382137359
 30
0.0
 11
530.47807351018582
 21
3198.005382137359
 31
0.0
  0
LINE
  5
7D09
  8
1
 10
1500.478073510184
 20
3320.005382137359
 30
0.0
 11
1372.978073510184
 21
3320.005382137359
 31
0.0
  0
LINE
  5
7D0A
  8
1
 10
1327.9780735101861
 20
3283.0053821373572
 30
0.0
 11
520.47807351018582
 21
3283.0053821373581
 31
0.0
  0
LINE
  5
7D0B
  8
2
 10
1749.633678183719
 20
4053.005382137359
 30
0.0
 11
858.6046958977131
 21
4053.005382137359
 31
0.0
  0
DIMENSION
  5
7D0C
  8
3
  2
*D7
 10
520.47807351018582
 20
2966.1871296374002
 30
0.0
 11
1060.4780735101849
 21
3016.1871296374002
 31
0.0
 70
     0
 13
1600.4780735101849
 23
3283.0053821373581
 33
0.0
 14
520.47807351018582
 24
3283.0053821373581
 34
0.0
1001
ACAD
1000
DSTYLE
1002
{
1070
   287
1070
     3
1070
    40
1040
20.0
1070
   143
1040
0.039
1070
   172
1070
     1
1070
   271
1070
     0
1070
   279
1070
     0
1070
   288
1070
     1
1002
}
  0
DIMENSION
  5
7D0D
  8
3
  2
*D8
 10
333.84348895143103
 20
3283.0053821373581
 30
0.0
 11
283.84348895143052
 21
3563.0053821373581
 31
0.0
 70
     0
 13
520.47807351018582
 23
3843.0053821373581
 33
0.0
 14
520.47807351018582
 24
3283.0053821373581
 34
0.0
 50
270.0
1001
ACAD
1000
DSTYLE
1002
{
1070
   287
1070
     3
1070
    40
1040
20.0
1070
   143
1040
0.039
1070
   172
1070
     1
1070
   271
1070
     0
1070
   279
1070
     0
1070
   288
1070
     1
1002
}
  0
LINE
  5
7D0E
  8
2
 10
680.47807351018491
 20
3224.4153821373602
 30
0.0
 11
680.47807351018491
 21
3614.5311821373589
 31
0.0
  0
LINE
  5
7D0F
  8
1
 10
801.47807351018491
 20
3304.0053821373599
 30
0.0
 11
801.47807351018491
 21
3611.005382137359
 31
0.0
  0
LINE
  5
7D10
  8
1
 10
559.4780735101848
 20
3304.0053821373599
 30
0.0
 11
559.4780735101848
 21
3611.005382137359
 31
0.0
  0
LINE
  5
7D11
  8
1
 10
637.9780735101848
 20
3294.0053821373599
 30
0.0
 11
722.97807351018491
 21
3294.0053821373599
 31
0.0
  0
LINE
  5
7D12
  8
1
 10
616.9780735101848
 20
3228.0053821373599
 30
0.0
 11
743.97807351018491
 21
3228.005382137359
 31
0.0
  0
LINE
  5
7D13
  8
1
 10
616.97807351018582
 20
3278.0053821373599
 30
0.0
 11
743.97807351018582
 21
3278.005382137359
 31
0.0
  0
LINE
  5
7D14
  8
1
 10
559.4780735101848
 20
3304.0053821373599
 30
0.0
 11
801.47807351018491
 21
3304.0053821373599
 31
0.0
  0
LINE
  5
7D15
  8
1
 10
530.47807351018582
 20
3198.005382137359
 30
0.0
 11
530.47807351018582
 21
3320.005382137359
 31
0.0
  0
LINE
  5
7D16
  8
1
 10
616.9780735101848
 20
3228.0053821373599
 30
0.0
 11
616.9780735101848
 21
3278.0053821373599
 31
0.0
  0
LINE
  5
7D17
  8
1
 10
559.4780735101848
 20
3323.0053821373581
 30
0.0
 11
520.47807351018582
 21
3323.0053821373581
 31
0.0
  0
LINE
  5
7D18
  8
1
 10
520.47807351018582
 20
3283.0053821373581
 30
0.0
 11
520.47807351018582
 21
3323.0053821373581
 31
0.0
  0
POINT
  5
7D19
  8
1
 10
520.47807351018582
 20
3283.0053821373581
 30
0.0
  0
POINT
  5
7D1A
  8
1
 10
520.47807351018582
 20
3283.0053821373581
 30
0.0
  0
POINT
  5
7D1B
  8
1
 10
520.47807351018582
 20
3283.0053821373581
 30
0.0
  0
LINE
  5
7D1C
  8
1
 10
637.9780735101848
 20
3304.0053821373599
 30
0.0
 11
637.9780735101848
 21
3294.0053821373599
 31
0.0
  0
LINE
  5
7D1D
  8
1
 10
664.97807351018491
 20
3294.0053821373599
 30
0.0
 11
664.97807351018491
 21
3288.0053821373599
 31
0.0
  0
LINE
  5
7D1E
  8
1
 10
666.47807351018491
 20
3288.0053821373599
 30
0.0
 11
666.47807351018491
 21
3278.0053821373599
 31
0.0
  0
LINE
  5
7D1F
  8
1
 10
695.97807351018491
 20
3288.0053821373599
 30
0.0
 11
695.97807351018491
 21
3294.0053821373599
 31
0.0
  0
LINE
  5
7D20
  8
1
 10
694.47807351018491
 20
3288.0053821373599
 30
0.0
 11
694.47807351018491
 21
3278.0053821373599
 31
0.0
  0
LINE
  5
7D21
  8
1
 10
664.97807351018491
 20
3288.0053821373599
 30
0.0
 11
695.97807351018491
 21
3288.0053821373599
 31
0.0
  0
LINE
  5
7D22
  8
1
 10
743.97807351018491
 20
3228.005382137359
 30
0.0
 11
743.97807351018491
 21
3278.005382137359
 31
0.0
  0
LINE
  5
7D23
  8
1
 10
722.97807351018491
 20
3304.0053821373599
 30
0.0
 11
722.97807351018491
 21
3294.0053821373599
 31
0.0
  0
LINE
  5
7D24
  8
1
 10
559.4780735101848
 20
3611.005382137359
 30
0.0
 11
801.47807351018491
 21
3611.005382137359
 31
0.0
  0
LINE
  5
7D25
  8
1
 10
520.47807351018582
 20
3803.0053821373581
 30
0.0
 11
520.47807351018582
 21
3843.0053821373581
 31
0.0
  0
LINE
  5
7D2A
  8
2
 10
1350.4780735101849
 20
3195.522771026167
 30
0.0
 11
1350.4780735101849
 21
3927.8150183416242
 31
0.0
  0
LINE
  5
7D2B
  8
1
 10
1100.4780735101849
 20
3323.0053821373581
 30
0.0
 11
1100.4780735101849
 21
3865.5053821373599
 31
0.0
  0
LINE
  5
7D2C
  8
1
 10
1118.478073510184
 20
3313.005382137359
 30
0.0
 11
1118.478073510184
 21
3798.005382137359
 31
0.0
  0
LINE
  5
7D2D
  8
1
 10
1600.4780735101849
 20
3283.0053821373581
 30
0.0
 11
1600.4780735101849
 21
3865.5053821373599
 31
0.0
  0
DIMENSION
  5
7D2E
  8
3
  2
*D9
 10
1905.2958052986889
 20
4283.0053821373594
 30
0.0
 11
1855.2958052986889
 21
3783.005382137359
 31
0.0
 70
     0
 13
1600.4780735101849
 23
3283.0053821373581
 33
0.0
 14
1600.4780735101849
 24
4283.0053821373594
 34
0.0
 50
270.0
1001
ACAD
1000
DSTYLE
1002
{
1070
   287
1070
     3
1070
    40
1040
20.0
1070
   143
1040
0.039
1070
   172
1070
     1
1070
   271
1070
     0
1070
   279
1070
     0
1070
   288
1070
     1
1002
}
  0
LINE
  5
7D2F
  8
1
 10
1582.4780735101849
 20
3313.005382137359
 30
0.0
 11
1582.4780735101849
 21
3798.005382137359
 31
0.0
  0
DIMENSION
  5
7D30
  8
3
  2
*D10
 10
1350.4780735101849
 20
2622.7100376931239
 30
0.0
 11
1530.4780735101849
 21
2672.7100376931239
 31
0.0
 70
     0
 13
1710.4780735101849
 23
2098.6583577807842
 33
0.0
 14
1350.4780735101849
 24
2530.3683472427251
 34
0.0
1001
ACAD
1000
DSTYLE
1002
{
1070
   287
1070
     3
1070
    40
1040
20.0
1070
   143
1040
0.039
1070
   172
1070
     1
1070
   271
1070
     0
1070
   279
1070
     0
1070
   288
1070
     1
1002
}
  0
LINE
  5
7D32
  8
1
 10
1710.4780735101849
 20
1565.570462521832
 30
0.0
 11
1350.4780735101861
 21
1594.570462521832
 31
0.0
  0
LINE
  5
7D37
  8
1
 10
1426.678073510185
 20
3228.005382137359
 30
0.0
 11
1274.2780735101851
 21
3228.005382137359
 31
0.0
  0
LINE
  5
7D3C
  8
1
 10
1426.678073510185
 20
3278.005382137359
 30
0.0
 11
1274.278073510186
 21
3278.005382137359
 31
0.0
  0
LINE
  5
7D3E
  8
1
 10
1327.9780735101849
 20
3313.005382137359
 30
0.0
 11
1118.478073510184
 21
3313.005382137359
 31
0.0
  0
LINE
  5
7D3F
  8
1
 10
1274.278073510186
 20
3228.005382137359
 30
0.0
 11
1274.278073510186
 21
3278.005382137359
 31
0.0
  0
LINE
  5
7D44
  8
1
 10
1582.4780735101849
 20
3313.005382137359
 30
0.0
 11
1372.9780735101849
 21
3313.005382137359
 31
0.0
  0
LINE
  5
7D45
  8
1
 10
1600.4780735101849
 20
3283.0053821373581
 30
0.0
 11
1372.9780735101849
 21
3283.0053821373572
 31
0.0
  0
LINE
  5
7D46
  8
1
 10
1426.678073510185
 20
3228.005382137359
 30
0.0
 11
1426.678073510185
 21
3278.005382137359
 31
0.0
  0
LINE
  5
7D49
  8
1
 10
1327.9780735101849
 20
3278.005382137359
 30
0.0
 11
1327.9780735101849
 21
3865.505382137359
 31
0.0
  0
LINE
  5
7D4A
  8
1
 10
1372.9780735101849
 20
3278.005382137359
 30
0.0
 11
1372.9780735101849
 21
3865.505382137359
 31
0.0
  0
LINE
  5
7D4D
  8
1
 10
1500.478073510184
 20
3198.005382137359
 30
0.0
 11
1500.478073510184
 21
3320.005382137359
 31
0.0
  0
LINE
  5
7D4E
  8
1
 10
1600.4780735101849
 20
3323.0053821373581
 30
0.0
 11
1582.4780735101849
 21
3323.0053821373572
 31
0.0
  0
POINT
  5
7D50
  8
1
 10
1710.4780735101849
 20
1565.570462521832
 30
0.0
  0
POINT
  5
7D51
  8
1
 10
1710.4780735101849
 20
1563.965279558528
 30
0.0
  0
LINE
  5
7D52
  8
1
 10
1707.4780735101849
 20
3865.505382137359
 30
0.0
 11
915.43008270232519
 21
3865.5053821373599
 31
0.0
  0
LINE
  5
7D53
  8
1
 10
1707.4780735101849
 20
4240.5053821373604
 30
0.0
 11
915.43008270232519
 21
4240.5053821373604
 31
0.0
  0
DIMENSION
  5
7D54
  8
3
  2
*D11
 10
1100.4780735101849
 20
4426.2901333430718
 30
0.0
 11
1350.4780735101849
 21
4476.2901333430727
 31
0.0
 70
     0
 13
1600.4780735101849
 23
4283.0053821373594
 33
0.0
 14
1100.4780735101849
 24
4283.0053821373594
 34
0.0
1001
ACAD
1000
DSTYLE
1002
{
1070
   287
1070
     3
1070
    40
1040
20.0
1070
   143
1040
0.039
1070
   172
1070
     1
1070
   271
1070
     0
1070
   279
1070
     0
1070
   288
1070
     1
1002
}
  0
LINE
  5
7D58
  8
1
 10
1582.4780735101849
 20
3798.005382137359
 30
0.0
 11
1372.9780735101849
 21
3798.005382137359
 31
0.0
  0
LINE
  5
7D59
  8
1
 10
1600.4780735101849
 20
4283.0053821373594
 30
0.0
 11
1100.4780735101849
 21
4283.0053821373594
 31
0.0
  0
LINE
  5
7D5A
  8
1
 10
1560.4780735101849
 20
4243.0053821373613
 30
0.0
 11
1140.4780735101861
 21
4243.0053821373576
 31
0.0
  0
LINE
  5
7D5B
  8
1
 10
915.43008270232519
 20
3865.5053821373599
 30
0.0
 11
915.43008270232519
 21
4240.5053821373604
 31
0.0
  0
LINE
  5
7D5C
  8
1
 10
1140.4780735101849
 20
3798.005382137359
 30
0.0
 11
1140.4780735101849
 21
3838.0053821373599
 31
0.0
  0
LINE
  5
7D5D
  8
1
 10
1140.4780735101849
 20
3798.005382137359
 30
0.0
 11
1140.4780735101849
 21
3865.5053821373599
 31
0.0
  0
LINE
  5
7D5E
  8
1
 10
1100.4780735101849
 20
4240.5053821373604
 30
0.0
 11
1100.4780735101849
 21
4283.0053821373594
 31
0.0
  0
LINE
  5
7D5F
  8
1
 10
1140.4780735101849
 20
4240.5053821373604
 30
0.0
 11
1140.4780735101849
 21
4283.0053821373594
 31
0.0
  0
LINE
  5
7D60
  8
2
 10
1350.4780735101849
 20
3982.4316259555421
 30
0.0
 11
1350.4780735101849
 21
4292.1256031480934
 31
0.0
  0
LINE
  5
7D64
  8
1
 10
1560.4780735101849
 20
3798.005382137359
 30
0.0
 11
1560.4780735101849
 21
3824.005382137359
 31
0.0
  0
LINE
  5
7D65
  8
1
 10
1560.4780735101849
 20
3798.0053821373599
 30
0.0
 11
1560.4780735101849
 21
3865.5053821373599
 31
0.0
  0
LINE
  5
7D66
  8
1
 10
1560.4780735101849
 20
4240.5053821373604
 30
0.0
 11
1560.4780735101849
 21
4283.0053821373594
 31
0.0
  0
LINE
  5
7D67
  8
1
 10
1600.4780735101849
 20
4240.5053821373604
 30
0.0
 11
1600.4780735101849
 21
4283.0053821373594
 31
0.0
  0
LINE
  5
7D68
  8
1
 10
1707.4780735101849
 20
3838.0053821373599
 30
0.0
 11
1707.4780735101849
 21
4268.0053821373604
 31
0.0
  0
LINE
  5
7D69
  8
1
 10
1710.4780735101849
 20
3838.0053821373599
 30
0.0
 11
1710.4780735101849
 21
4268.0053821373604
 31
0.0
  0
LINE
  5
7D6A
  8
1
 10
1710.4780735101849
 20
3838.0053821373599
 30
0.0
 11
1707.4780735101849
 21
3838.0053821373599
 31
0.0
  0
LINE
  5
7D6B
  8
1
 10
1710.4780735101849
 20
4268.0053821373604
 30
0.0
 11
1707.4780735101849
 21
4268.0053821373604
 31
0.0
  0
LINE
  5
7D6C
  8
1
 10
3206.9019663343611
 20
1563.663983817703
 30
0.0
 11
3582.023262620994
 21
2079.663983817703
 31
0.0
  0
LINE
  5
7D6D
  8
1
 10
3581.9019663343611
 20
1563.663983817703
 30
0.0
 11
3206.9019663343611
 21
2079.663983817703
 31
0.0
  0
DIMENSION
  5
7D6E
  8
3
  2
*D12
 10
3586.4019663343602
 20
2735.4612448513699
 30
0.0
 11
3490.4019663343602
 21
2795.2635465378512
 31
0.0
 12
-11.64670123629184
 22
0.0
 32
0.0
 70
   128
 13
3394.4019663343611
 23
2695.7794243709
 33
0.0
 14
3586.4019663343602
 24
2378.5704625218318
 34
0.0
1001
ACAD
1000
DSTYLE
1002
{
1070
   288
1070
     1
1070
   172
1070
     1
1070
    40
1040
20.0
1070
   271
1070
     0
1070
   143
1040
0.039
1002
}
  0
DIMENSION
  5
7D6F
  8
3
  2
*D13
 10
3394.4019663343611
 20
2735.4612448513699
 30
0.0
 11
2966.9019663343602
 21
2835.4612448513699
 31
0.0
 70
     0
  1
MAX\P930
 13
2539.4019663343579
 23
2253.5704625218309
 33
0.0
 14
3394.4019663343611
 24
2695.7794243709
 34
0.0
1001
ACAD
1000
DSTYLE
1002
{
1070
   287
1070
     3
1070
    40
1040
20.0
1070
   143
1040
0.039
1070
   172
1070
     1
1070
   271
1070
     0
1070
   279
1070
     0
1070
   288
1070
     1
1002
}
  0
LINE
  5
7D72
  8
1
 10
3609.4019663343611
 20
1538.663983817703
 30
0.0
 11
3609.4019663343611
 21
2104.663983817702
 31
0.0
  0
LINE
  5
7D73
  8
1
 10
3179.4019663343602
 20
1538.663983817703
 30
0.0
 11
3179.4019663343588
 21
2104.663983817702
 31
0.0
  0
LINE
  5
7D74
  8
2
 10
3394.4019663343611
 20
2597.313041633286
 30
0.0
 11
3394.4019663343611
 21
1330.066526743617
 31
0.0
  0
DIMENSION
  5
7D75
  8
3
  2
*D14
 10
3394.4019663343611
 20
1203.9734253570689
 30
0.0
 11
3009.4019663343602
 21
1253.9734253570689
 31
0.0
 70
     0
 13
2624.4019663343602
 23
1360.570462521832
 33
0.0
 14
3394.4019663343611
 24
1328.039191034632
 34
0.0
1001
ACAD
1000
DSTYLE
1002
{
1070
   287
1070
     3
1070
    40
1040
20.0
1070
   143
1040
0.039
1070
   172
1070
     1
1070
   271
1070
     0
1070
   279
1070
     0
1070
   288
1070
     1
1002
}
  0
LINE
  5
7D76
  8
1
 10
3179.4019663343602
 20
2104.663983817702
 30
0.0
 11
3609.4019663343579
 21
2104.663983817702
 31
0.0
  0
LINE
  5
7D77
  8
1
 10
2619.4019663343588
 20
2081.0704625218318
 30
0.0
 11
3179.4019663343579
 21
2081.0704625218318
 31
0.0
  0
LINE
  5
7D78
  8
1
 10
2624.4019663343602
 20
1435.570462521832
 30
0.0
 11
3624.4019663343602
 21
1435.570462521832
 31
0.0
  0
LINE
  5
7D79
  8
1
 10
2624.4019663343602
 20
1360.570462521832
 30
0.0
 11
3624.4019663343602
 21
1360.570462521832
 31
0.0
  0
LINE
  5
7D7A
  8
2
 10
2555.2773209110492
 20
2103.5704625218318
 30
0.0
 11
3629.1948259339151
 21
2103.5704625218318
 31
0.0
  0
LINE
  5
7D86
  8
1
 10
2624.4019663343602
 20
1473.570462521832
 30
0.0
 11
3624.4019663343602
 21
1473.570462521832
 31
0.0
  0
LINE
  5
7D87
  8
1
 10
2624.4019663343602
 20
1548.570462521832
 30
0.0
 11
3179.4019663343602
 21
1548.570462521832
 31
0.0
  0
LINE
  5
7D88
  8
1
 10
3132.6019663343591
 20
1990.370462521832
 30
0.0
 11
3179.4019663343588
 21
1990.370462521832
 31
0.0
  0
LINE
  5
7D89
  8
1
 10
3139.9019663343602
 20
1984.370462521832
 30
0.0
 11
3179.4019663343588
 21
1984.370462521832
 31
0.0
  0
LINE
  5
7D8B
  8
1
 10
2661.4019663343579
 20
2253.5704625218318
 30
0.0
 11
2661.4019663343579
 21
2196.3215637219291
 31
0.0
  0
LINE
  5
7D8C
  8
1
 10
2539.4019663343579
 20
2253.5704625218318
 30
0.0
 11
2539.4019663343579
 21
1580.5701625218319
 31
0.0
  0
LINE
  5
7D8F
  8
1
 10
2619.4019663343588
 20
1654.3701625218309
 30
0.0
 11
2619.4019663343588
 21
1806.770162521831
 31
0.0
  0
LINE
  5
7D90
  8
1
 10
2569.4019663343588
 20
1654.3701625218309
 30
0.0
 11
2569.4019663343588
 21
1806.770162521831
 31
0.0
  0
LINE
  5
7D91
  8
1
 10
2635.4019663343588
 20
1688.0701625218319
 30
0.0
 11
2635.4019663343588
 21
1773.0701625218319
 31
0.0
  0
LINE
  5
7D92
  8
1
 10
2645.4019663343579
 20
1618.570462521832
 30
0.0
 11
2645.4019663343579
 21
1851.5701625218319
 31
0.0
  0
LINE
  5
7D93
  8
1
 10
3129.4019663343588
 20
2040.370462521832
 30
0.0
 11
3129.4019663343588
 21
1591.1825735747659
 31
0.0
  0
LINE
  5
7D94
  8
1
 10
2664.4019663343588
 20
2040.370462521832
 30
0.0
 11
2664.4019663343588
 21
1548.5704625218309
 31
0.0
  0
LINE
  5
7D96
  8
1
 10
2624.4019663343602
 20
1435.570462521832
 30
0.0
 11
2624.4019663343602
 21
1360.570462521832
 31
0.0
  0
LINE
  5
7D97
  8
1
 10
2539.4019663343588
 20
1580.5701625218319
 30
0.0
 11
2661.4019663343579
 21
1580.5701625218319
 31
0.0
  0
LINE
  5
7D98
  8
1
 10
2569.4019663343588
 20
1654.3701625218309
 30
0.0
 11
2619.4019663343588
 21
1654.3701625218309
 31
0.0
  0
LINE
  5
7D99
  8
1
 10
2624.4019663343602
 20
1548.570462521832
 30
0.0
 11
2624.4019663343602
 21
1473.570462521832
 31
0.0
  0
LINE
  5
7D9C
  8
1
 10
2645.4019663343579
 20
1688.0701625218319
 30
0.0
 11
2635.4019663343588
 21
1688.0701625218319
 31
0.0
  0
LINE
  5
7D9D
  8
1
 10
2629.4019663343588
 20
1715.0701625218319
 30
0.0
 11
2629.4019663343588
 21
1746.0701625218319
 31
0.0
  0
LINE
  5
7D9E
  8
1
 10
2635.4019663343588
 20
1715.0701625218319
 30
0.0
 11
2629.4019663343588
 21
1715.0701625218319
 31
0.0
  0
LINE
  5
7D9F
  8
1
 10
2629.4019663343588
 20
1746.0701625218319
 30
0.0
 11
2635.4019663343588
 21
1746.0701625218319
 31
0.0
  0
LINE
  5
7DA0
  8
1
 10
2629.4019663343588
 20
1716.5701625218319
 30
0.0
 11
2619.4019663343588
 21
1716.5701625218319
 31
0.0
  0
LINE
  5
7DA1
  8
1
 10
2629.4019663343588
 20
1744.5701625218319
 30
0.0
 11
2619.4019663343588
 21
1744.5701625218319
 31
0.0
  0
LINE
  5
7DA2
  8
1
 10
3129.4019663343588
 20
1609.352794911797
 30
0.0
 11
3129.4019663343588
 21
1548.570462521832
 31
0.0
  0
LINE
  5
7DA5
  8
1
 10
2654.4019663343602
 20
2040.370462521832
 30
0.0
 11
3139.4019663343588
 21
2040.370462521832
 31
0.0
  0
LINE
  5
7DA6
  8
1
 10
2654.4019663343602
 20
2043.570462521832
 30
0.0
 11
3139.4019663343588
 21
2043.570462521832
 31
0.0
  0
LINE
  5
7DA7
  8
1
 10
2539.4019663343579
 20
2253.5704625218309
 30
0.0
 11
2661.4019663343579
 21
2253.5704625218309
 31
0.0
  0
LINE
  5
7DA8
  8
1
 10
2569.4019663343588
 20
1806.770162521831
 30
0.0
 11
2619.4019663343588
 21
1806.770162521831
 31
0.0
  0
LINE
  5
7DA9
  8
1
 10
2569.4019663343588
 20
2040.0704625218309
 30
0.0
 11
2619.4019663343588
 21
2040.070462521832
 31
0.0
  0
LINE
  5
7DAA
  8
1
 10
2569.4019663343588
 20
2167.0704625218318
 30
0.0
 11
2619.4019663343588
 21
2167.0704625218309
 31
0.0
  0
LINE
  5
7DAB
  8
1
 10
2569.4019663343588
 20
2167.0704625218309
 30
0.0
 11
2569.4019663343588
 21
1806.770162521831
 31
0.0
  0
LINE
  5
7DAC
  8
1
 10
2619.4019663343588
 20
2167.0704625218309
 30
0.0
 11
2619.4019663343611
 21
1806.770162521831
 31
0.0
  0
LINE
  5
7DB8
  8
1
 10
2645.4019663343579
 20
1773.0701625218319
 30
0.0
 11
2635.4019663343588
 21
1773.0701625218319
 31
0.0
  0
LINE
  5
7DBB
  8
1
 10
2645.4019663343579
 20
1851.5701625218319
 30
0.0
 11
2664.4019663343588
 21
1851.5701625218319
 31
0.0
  0
POINT
  5
7DBC
  8
1
 10
2654.4019663343602
 20
2043.570462521832
 30
0.0
  0
LINE
  5
7DBD
  8
1
 10
2654.4019663343602
 20
2043.570462521832
 30
0.0
 11
2654.4019663343602
 21
2040.370462521832
 31
0.0
  0
POLYLINE
  5
7DDB
  8
1
 66
     1
 10
0.0
 20
0.0
 30
0.0
 70
     1
  0
VERTEX
  5
8696
  8
1
 10
3129.4019663343588
 20
1990.370462521832
 30
0.0
  0
VERTEX
  5
8697
  8
1
 10
3179.4019663343588
 20
1990.370462521832
 30
0.0
  0
VERTEX
  5
8698
  8
1
 10
3179.4019663343588
 20
1991.870462521832
 30
0.0
 42
0.4142135623730942
  0
VERTEX
  5
8699
  8
1
 10
3174.9019663343579
 20
1996.370462521832
 30
0.0
  0
VERTEX
  5
869A
  8
1
 10
3141.9019663343588
 20
1996.370462521832
 30
0.0
 42
-0.4142135623730951
  0
VERTEX
  5
869B
  8
1
 10
3135.4019663343588
 20
2002.870462521832
 30
0.0
  0
VERTEX
  5
869C
  8
1
 10
3135.4019663343588
 20
2035.870462521832
 30
0.0
 42
0.4142135623730951
  0
VERTEX
  5
869D
  8
1
 10
3130.9019663343579
 20
2040.370462521832
 30
0.0
  0
VERTEX
  5
869E
  8
1
 10
3129.4019663343588
 20
2040.370462521832
 30
0.0
  0
SEQEND
  5
869F
  8
1
  0
LINE
  5
7DE6
  8
1
 10
3139.9019663343602
 20
1990.370462521832
 30
0.0
 11
3139.9019663343602
 21
1984.370462521832
 31
0.0
  0
LINE
  5
7DE9
  8
1
 10
3139.4019663343588
 20
2043.570462521832
 30
0.0
 11
3139.4019663343588
 21
2040.370462521832
 31
0.0
  0
LINE
  5
7DF3
  8
1
 10
2619.4019663343588
 20
2126.0704625218341
 30
0.0
 11
3206.9019663343611
 21
2126.0704625218318
 31
0.0
  0
DIMENSION
  5
7DF6
  8
3
  2
*D15
 10
3786.4827407539519
 20
1853.570462521832
 30
0.0
 11
3736.4827407539519
 21
2103.5704625218318
 31
0.0
 70
     0
 13
3611.4019663343602
 23
2353.5704625218318
 33
0.0
 14
3611.4019663343602
 24
1853.570462521832
 34
0.0
 50
90.0
1001
ACAD
1000
DSTYLE
1002
{
1070
   287
1070
     3
1070
     3
1000
φ<>
1070
    40
1040
20.0
1070
   143
1040
0.039
1070
   172
1070
     1
1070
   271
1070
     0
1070
   279
1070
     0
1070
   288
1070
     1
1002
}
  0
LINE
  5
7DF8
  8
1
 10
3611.4019663343602
 20
2109.5704625218318
 30
0.0
 11
3611.4019663343602
 21
2353.5704625218318
 31
0.0
  0
LINE
  5
7DF9
  8
1
 10
3586.4019663343602
 20
2353.5704625218318
 30
0.0
 11
3586.4019663343602
 21
2109.5704625218318
 31
0.0
  0
DIMENSION
  5
7DFE
  8
3
  2
*D16
 10
3624.4019663343602
 20
1203.9734253570689
 30
0.0
 11
3509.4019663343602
 21
1252.6921968326751
 31
0.0
 12
-128.11361912333439
 22
-39.59758549891194
 32
0.0
 70
   128
 13
3394.4019663343611
 23
1328.039191034632
 33
0.0
 14
3624.4019663343602
 24
1360.570462521832
 34
0.0
1001
ACAD
1000
DSTYLE
1002
{
1070
   288
1070
     1
1070
   172
1070
     1
1070
    40
1040
20.0
1070
   271
1070
     0
1070
   143
1040
0.039
1002
}
  0
LINE
  5
7DFF
  8
1
 10
3206.901966334362
 20
2464.5704625218318
 30
0.0
 11
3581.9019663343611
 21
2464.5704625218318
 31
0.0
  0
LINE
  5
7E01
  8
1
 10
3624.4019663343602
 20
1435.570462521832
 30
0.0
 11
3624.4019663343602
 21
1360.570462521832
 31
0.0
  0
LINE
  5
7E02
  8
1
 10
3624.4019663343602
 20
1548.570462521832
 30
0.0
 11
3624.4019663343602
 21
1473.570462521832
 31
0.0
  0
LINE
  5
7E0F
  8
1
 10
3586.4019663343602
 20
2378.5704625218318
 30
0.0
 11
3584.9019663343602
 21
2378.5704625218318
 31
0.0
  0
LINE
  5
7E10
  8
1
 10
3586.4019663343602
 20
2378.5704625218318
 30
0.0
 11
3586.4019663343602
 21
2353.5704625218318
 31
0.0
  0
LINE
  5
7E11
  8
1
 10
3587.4019663343611
 20
2378.5704625218318
 30
0.0
 11
3586.4019663343602
 21
2378.5704625218318
 31
0.0
  0
ARC
  5
7E12
  8
1
 10
3587.4019663343611
 20
2376.5704625218318
 30
0.0
 40
2.0
 50
0.0
 51
90.0
  0
LINE
  5
7E13
  8
1
 10
3589.4019663343602
 20
2360.5704625218318
 30
0.0
 11
3589.4019663343602
 21
2376.5704625218318
 31
0.0
  0
ARC
  5
7E14
  8
1
 10
3593.4019663343602
 20
2360.5704625218318
 30
0.0
 40
4.0
 50
180.0
 51
270.0
  0
LINE
  5
7E15
  8
1
 10
3609.4019663343611
 20
2356.5704625218318
 30
0.0
 11
3593.4019663343602
 21
2356.5704625218318
 31
0.0
  0
ARC
  5
7E16
  8
1
 10
3609.4019663343611
 20
2354.5704625218318
 30
0.0
 40
2.0
 50
0.0
 51
90.0
  0
LINE
  5
7E17
  8
1
 10
3611.4019663343602
 20
2353.5704625218318
 30
0.0
 11
3611.4019663343602
 21
2354.5704625218318
 31
0.0
  0
LINE
  5
7E18
  8
1
 10
3586.4019663343602
 20
2353.5704625218318
 30
0.0
 11
3611.4019663343602
 21
2353.5704625218318
 31
0.0
  0
LINE
  5
7E19
  8
1
 10
3206.9019663343611
 20
2079.663983817703
 30
0.0
 11
3582.023262620994
 21
2079.663983817703
 31
0.0
  0
LINE
  5
7E1A
  8
1
 10
3611.4019663343602
 20
1853.570462521832
 30
0.0
 11
3611.4019663343602
 21
2109.5704625218318
 31
0.0
  0
LINE
  5
7E1B
  8
1
 10
3586.4019663343602
 20
2109.5704625218318
 30
0.0
 11
3586.4019663343602
 21
2104.663983817702
 31
0.0
  0
LINE
  5
7E1F
  8
1
 10
3179.4019663343602
 20
1538.663983817703
 30
0.0
 11
3609.4019663343579
 21
1538.663983817703
 31
0.0
  0
DIMENSION
  5
7E23
  8
3
  2
*D17
 10
3581.9019663343611
 20
2603.9998715490342
 30
0.0
 11
3394.4019663343611
 21
2653.9998715490342
 31
0.0
 70
     0
 13
3206.9019663343611
 23
2464.5704625218318
 33
0.0
 14
3581.9019663343611
 24
2464.5704625218318
 34
0.0
1001
ACAD
1000
DSTYLE
1002
{
1070
   287
1070
     3
1070
    40
1040
20.0
1070
   143
1040
0.039
1070
   172
1070
     1
1070
   271
1070
     0
1070
   279
1070
     0
1070
   288
1070
     1
1002
}
  0
LINE
  5
7E24
  8
1
 10
3206.9019663343611
 20
1563.663983817703
 30
0.0
 11
3581.9019663343611
 21
1563.663983817703
 31
0.0
  0
LINE
  5
8018
  8
4
 10
3700.0
 20
1000.0
 30
0.0
 11
3700.0
 21
600.0
 31
0.0
  0
LINE
  5
8019
  8
4
 10
2300.0
 20
1000.0
 30
0.0
 11
2300.0
 21
600.0
 31
0.0
  0
LINE
  5
801A
  8
4
 10
1300.0
 20
1000.0
 30
0.0
 11
1300.0
 21
600.0
 31
0.0
  0
LINE
  5
801D
  8
4
 10
1300.0
 20
600.0
 30
0.0
 11
3700.0
 21
600.0
 31
0.0
  0
LINE
  5
801E
  8
4
 10
1300.0
 20
800.0
 30
0.0
 11
3700.0
 21
800.0
 31
0.0
  0
TEXT
  5
801F
  8
4
 10
1377.0041616938031
 20
863.08605173322564
 30
0.0
 40
100.0
  1
機器名称
  0
TEXT
  5
8020
  8
4
 10
1372.516212049595
 20
643.29031346402189
 30
0.0
 40
100.0
  1
機器型番
  0
TEXT
  5
8021
  8
4
 10
2319.3176373393071
 20
844.3746047138942
 30
0.0
 40
90.0
  1
ミツヤリミットロードファン
  0
TEXT
  5
8022
  8
4
 10
2373.3089911709608
 20
634.31916855988675
 30
0.0
 40
100.0
  1
MF#3-1
  0
TEXT
  5
8024
  8
4
 10
1528.4391079134689
 20
4766.8576826650306
 30
0.0
 40
107.9999999999999
  1
床置防振ベット
  0
TEXT
  5
8025
  8
4
 10
632.33518665889278
 20
5067.7619523985959
 30
0.0
 40
144.0
  1
遠心式片吸込片持多翼ファン
  0
LINE
  5
8026
  8
4
 10
500.0
 20
4938.8175085296089
 30
0.0
 11
3700.0
 21
4938.8175085296089
 31
0.0
  0
LINE
  5
8027
  8
4
 10
500.0
 20
5338.8175085296098
 30
0.0
 11
3700.0
 21
5338.8175085296098
 31
0.0
  0
LINE
  5
8028
  8
4
 10
1300.0
 20
1000.0
 30
0.0
 11
3700.0
 21
1000.0
 31
0.0
  0
LINE
  5
8029
  8
4
 10
500.0
 20
5338.8175085296098
 30
0.0
 11
500.0
 21
4938.8175085296089
 31
0.0
  0
TEXT
  5
802A
  8
4
 10
656.72144342806484
 20
4764.638955092687
 30
0.0
 40
107.9999999999999
  1
左回転右横向
  0
TEXT
  5
802B
  8
4
 10
2937.9391184985789
 20
5412.1221629906177
 30
0.0
 40
112.0
  1
No.
  0
TEXT
  5
802C
  8
4
 10
2622.5921252000262
 20
4766.8576826650306
 30
0.0
 40
107.9999999999999
  1
縮尺：1/20
  0
LINE
  5
802D
  8
4
 10
3700.0
 20
5338.8175085296098
 30
0.0
 11
3700.0
 21
4938.8175085296089
 31
0.0
  0
LINE
  5
802E
  8
4
 10
4200.0
 20
5900.0
 30
0.0
 11
4200.0
 21
5900.0
 31
0.0
  0
LINE
  5
802F
  8
4
 10
2881.2348447197292
 20
5362.5271662508021
 30
0.0
 11
2881.2348447197292
 21
5573.3045230995049
 31
0.0
  0
LINE
  5
8030
  8
4
 10
2881.2348447197292
 20
5573.3045230995049
 30
0.0
 11
3700.0
 21
5573.3045230995049
 31
0.0
  0
LINE
  5
8031
  8
4
 10
3700.0
 20
5573.3045230995049
 30
0.0
 11
3700.0
 21
5362.5271662508021
 31
0.0
  0
LINE
  5
8032
  8
4
 10
3700.0
 20
5362.5271662508021
 30
0.0
 11
2881.2348447197292
 21
5362.5271662508021
 31
0.0
  0
LINE
  5
8033
  8
4
 10
0.0
 20
0.0
 30
0.0
 11
0.0
 21
5900.0
 31
0.0
  0
LINE
  5
8034
  8
4
 10
0.0
 20
5900.0
 30
0.0
 11
4200.0
 21
5900.0
 31
0.0
  0
LINE
  5
8035
  8
4
 10
4200.0
 20
5900.0
 30
0.0
 11
4200.0
 21
0.0
 31
0.0
  0
LINE
  5
8036
  8
4
 10
4200.0
 20
0.0
 30
0.0
 11
0.0
 21
0.0
 31
0.0
  0
DIMENSION
  5
8266
  8
3
  2
*D19
 10
520.47807351018594
 20
2738.6389402333989
 30
0.0
 11
1122.217347537083
 21
2738.6389402333989
 31
0.0
 70
   128
 13
1710.4780735101849
 23
2098.6583577807851
 33
0.0
 14
520.47807351018582
 24
1473.570462521832
 34
0.0
1001
ACAD
1000
DSTYLE
1002
{
1070
   287
1070
     3
1070
    40
1040
20.0
1070
   143
1040
0.039
1070
   172
1070
     1
1070
   271
1070
     0
1070
   279
1070
     0
1070
   288
1070
     1
1002
}
  0
INSERT
  5
829E
  8
1
  2
L-30-3
 10
1808.5950438676391
 20
1680.819304271077
 30
0.0
 41
-1.0
 50
90.0
  0
INSERT
  5
829F
  8
1
  2
L-30-3
 10
1825.7269152594299
 20
1979.4534921643781
 30
0.0
 41
-1.0
  0
DIMENSION
  5
83F1
  8
3
  2
*D21
 10
2110.0783389214089
 20
2103.5704625218318
 30
0.0
 11
2110.078338921408
 21
2275.4968972881252
 31
0.0
 70
   128
 13
1313.478073510184
 23
2464.6184533296928
 33
0.0
 14
1746.440532699298
 24
2103.5704625218318
 34
0.0
 50
270.0
1001
ACAD
1000
DSTYLE
1002
{
1070
   287
1070
     3
1070
    40
1040
20.0
1070
   143
1040
0.039
1070
   172
1070
     1
1070
   271
1070
     0
1070
   279
1070
     0
1070
   288
1070
     1
1002
}
  0
DIMENSION
  5
840B
  8
3
  2
*D22
 10
2110.078338921408
 20
1473.570462521832
 30
0.0
 11
2060.078338921408
 21
1788.570462521832
 31
0.0
 70
     0
 13
1746.440532699298
 23
2103.5704625218318
 33
0.0
 14
1600.4780735101849
 24
1473.570462521832
 34
0.0
 50
270.0
1001
ACAD
1000
DSTYLE
1002
{
1070
   287
1070
     4
1070
    40
1040
20.0
1070
    75
1070
     1
1070
   143
1040
0.039
1070
   172
1070
     1
1070
   271
1070
     0
1070
   279
1070
     1
1070
   288
1070
     1
1002
}
  0
DIMENSION
  5
841B
  8
3
  2
*D23
 10
2110.078338921408
 20
1435.570462521832
 30
0.0
 11
2205.7926246356942
 21
1454.570462521832
 31
0.0
 12
-4146.2223807022119
 22
0.0
 32
0.0
 70
     0
  1
(<>)
 13
1600.4780735101849
 23
1473.570462521832
 33
0.0
 14
1600.4780735101849
 24
1435.570462521832
 34
0.0
 50
270.0
1001
ACAD
1000
DSTYLE
1002
{
1070
   288
1070
     1
1070
   172
1070
     1
1070
    75
1070
     1
1070
    40
1040
20.0
1070
   271
1070
     0
1070
     7
1000
_DOT
1070
   143
1040
0.039
1002
}
  0
DIMENSION
  5
842B
  8
3
  2
*D24
 10
2110.078338921408
 20
1360.570462521832
 30
0.0
 11
2060.078338921408
 21
1211.9990339504041
 31
0.0
 70
     0
 13
1600.4780735101849
 23
1435.570462521832
 33
0.0
 14
1600.4780735101849
 24
1360.570462521832
 34
0.0
 50
270.0
1001
ACAD
1000
DSTYLE
1002
{
1070
   287
1070
     3
1070
    40
1040
20.0
1070
   143
1040
0.039
1070
   172
1070
     1
1070
   271
1070
     0
1070
   279
1070
     0
1070
   288
1070
     1
1070
     6
1000
DOT
1002
}
  0
LINE
  5
8439
  8
1
 10
1277.5153586713229
 20
2234.629389128695
 30
0.0
 11
607.51535867132395
 21
1861.629089128694
 31
0.0
  0
LINE
  5
843A
  8
1
 10
1423.440788349046
 20
1972.51153591497
 30
0.0
 11
753.44078834904758
 21
1599.5112359149689
 31
0.0
  0
LINE
  5
843B
  8
1
 10
644.52074012839876
 20
1797.7528252859031
 30
0.0
 11
1320.513629025362
 21
2159.5560148252248
 31
0.0
  0
LINE
  5
843C
  8
1
 10
1382.28025489015
 20
2048.6080093426322
 30
0.0
 11
718.64069116614507
 21
1664.615218706793
 31
0.0
  0
DIMENSION
  5
8494
  8
3
  2
*D25
 10
2307.520780694118
 20
1360.570462521832
 30
0.0
 11
2307.520780694118
 21
1880.9378832633899
 31
0.0
 70
   128
 13
1313.478073510184
 23
2464.6184533296928
 33
0.0
 14
1600.4780735101849
 24
1360.570462521832
 34
0.0
 50
270.0
1001
ACAD
1000
DSTYLE
1002
{
1070
   287
1070
     3
1070
    40
1040
20.0
1070
   143
1040
0.039
1070
   172
1070
     1
1070
   271
1070
     0
1070
   279
1070
     0
1070
   288
1070
     1
1002
}
  0
LINE
  5
8498
  8
2
 10
2705.7916872944661
 20
1730.5701625218319
 30
0.0
 11
2562.3955273548459
 21
1730.5701625218319
 31
0.0
  0
LINE
  5
8499
  8
1
 10
2661.4019663343579
 20
1618.570462521832
 30
0.0
 11
2661.4019663343579
 21
1580.5701625218319
 31
0.0
  0
LINE
  5
84C1
  8
1
 10
3609.4019663343611
 20
1548.570462521832
 30
0.0
 11
3624.4019663343602
 21
1548.570462521832
 31
0.0
  0
LINE
  5
84EF
  8
1
 10
2645.401966334357
 20
1618.570462521832
 30
0.0
 11
2664.4019663343588
 21
1618.570462521832
 31
0.0
  0
LINE
  5
85BC
  8
1
 10
1327.9780735101849
 20
3798.005382137359
 30
0.0
 11
1118.4780735101849
 21
3798.005382137359
 31
0.0
  0
LINE
  5
85BD
  8
1
 10
1327.978073510184
 20
3320.005382137359
 30
0.0
 11
530.47807351018582
 21
3320.005382137359
 31
0.0
  0
LINE
  5
85E7
  8
1
 10
3581.9019663343611
 20
2464.5704625218318
 30
0.0
 11
3581.9019663343611
 21
1563.663983817703
 31
0.0
  0
LINE
  5
85E8
  8
1
 10
3206.9019663343611
 20
2464.5704625218318
 30
0.0
 11
3206.9019663343611
 21
1563.663983817703
 31
0.0
  0
ENDSEC
  0
EOF
