  0
SECTION
  2
HEADER
  9
$ACADVER
  1
AC1009
  9
$INSBASE
 10
0.0
 20
0.0
 30
0.0
  9
$EXTMIN
 10
0.0
 20
0.0
 30
0.0
  9
$EXTMAX
 10
4200.0
 20
5900.0
 30
0.0
  9
$LIMMIN
 10
0.0
 20
0.0
  9
$LIMMAX
 10
297.0
 20
210.0
  9
$ORTHOMODE
 70
     0
  9
$REGENMODE
 70
     1
  9
$FILLMODE
 70
     0
  9
$QTEXTMODE
 70
     0
  9
$MIRRTEXT
 70
     1
  9
$DRAGMODE
 70
     2
  9
$LTSCALE
 40
100.0
  9
$OSMODE
 70
    37
  9
$ATTMODE
 70
     1
  9
$TEXTSIZE
 40
180.0
  9
$TRACEWID
 40
0.05
  9
$TEXTSTYLE
  7
STANDARD
  9
$CLAYER
  8
3
  9
$CELTYPE
  6
BYLAYER
  9
$CECOLOR
 62
   256
  9
$DIMSCALE
 40
20.0
  9
$DIMASZ
 40
2.0
  9
$DIMEXO
 40
0.5
  9
$DIMDLI
 40
10.0
  9
$DIMRND
 40
0.0
  9
$DIMDLE
 40
0.0
  9
$DIMEXE
 40
1.0
  9
$DIMTP
 40
1.0
  9
$DIMTM
 40
1.0
  9
$DIMTXT
 40
3.0
  9
$DIMCEN
 40
0.0
  9
$DIMTSZ
 40
0.0
  9
$DIMTOL
 70
     0
  9
$DIMLIM
 70
     0
  9
$DIMTIH
 70
     0
  9
$DIMTOH
 70
     0
  9
$DIMSE1
 70
     0
  9
$DIMSE2
 70
     0
  9
$DIMTAD
 70
     1
  9
$DIMZIN
 70
     8
  9
$DIMBLK
  1

  9
$DIMASO
 70
     1
  9
$DIMSHO
 70
     1
  9
$DIMPOST
  1

  9
$DIMAPOST
  1

  9
$DIMALT
 70
     0
  9
$DIMALTD
 70
     2
  9
$DIMALTF
 40
0.039
  9
$DIMLFAC
 40
1.0
  9
$DIMTOFL
 70
     1
  9
$DIMTVP
 40
0.0
  9
$DIMTIX
 70
     0
  9
$DIMSOXD
 70
     0
  9
$DIMSAH
 70
     1
  9
$DIMBLK1
  1
OPEN
  9
$DIMBLK2
  1
OPEN
  9
$DIMSTYLE
  2
IGA
  9
$DIMCLRD
 70
     0
  9
$DIMCLRE
 70
     0
  9
$DIMCLRT
 70
     0
  9
$DIMTFAC
 40
10.0
  9
$DIMGAP
 40
1.0
  9
$LUNITS
 70
     2
  9
$LUPREC
 70
     3
  9
$SKETCHINC
 40
0.1
  9
$FILLETRAD
 40
50.0
  9
$AUNITS
 70
     0
  9
$AUPREC
 70
     0
  9
$MENU
  1
acad
  9
$ELEVATION
 40
0.0
  9
$PELEVATION
 40
0.0
  9
$THICKNESS
 40
0.0
  9
$LIMCHECK
 70
     0
  9
$BLIPMODE
 70
     0
  9
$CHAMFERA
 40
0.5
  9
$CHAMFERB
 40
0.5
  9
$SKPOLY
 70
     0
  9
$TDCREATE
 40
2451019.6507322919
  9
$TDUPDATE
 40
2454953.754368484
  9
$TDINDWG
 40
0.0084496991
  9
$TDUSRTIMER
 40
0.0084496991
  9
$USRTIMER
 70
     1
  9
$ANGBASE
 50
0.0
  9
$ANGDIR
 70
     0
  9
$PDMODE
 70
     0
  9
$PDSIZE
 40
0.0
  9
$PLINEWID
 40
0.0
  9
$COORDS
 70
     1
  9
$SPLFRAME
 70
     0
  9
$SPLINETYPE
 70
     6
  9
$SPLINESEGS
 70
     8
  9
$ATTDIA
 70
     0
  9
$ATTREQ
 70
     1
  9
$HANDLING
 70
 10241
  9
$HANDSEED
  5
8550
  9
$SURFTAB1
 70
     6
  9
$SURFTAB2
 70
     6
  9
$SURFTYPE
 70
     6
  9
$SURFU
 70
     6
  9
$SURFV
 70
     6
  9
$UCSNAME
  2

  9
$UCSORG
 10
0.0
 20
0.0
 30
0.0
  9
$UCSXDIR
 10
1.0
 20
0.0
 30
0.0
  9
$UCSYDIR
 10
0.0
 20
1.0
 30
0.0
  9
$PUCSNAME
  2

  9
$PUCSORG
 10
0.0
 20
0.0
 30
0.0
  9
$PUCSXDIR
 10
1.0
 20
0.0
 30
0.0
  9
$PUCSYDIR
 10
0.0
 20
1.0
 30
0.0
  9
$USERI1
 70
     0
  9
$USERI2
 70
     0
  9
$USERI3
 70
     0
  9
$USERI4
 70
     0
  9
$USERI5
 70
     0
  9
$USERR1
 40
0.0
  9
$USERR2
 40
0.0
  9
$USERR3
 40
0.0
  9
$USERR4
 40
0.0
  9
$USERR5
 40
0.0
  9
$WORLDVIEW
 70
     1
  9
$SHADEDGE
 70
     3
  9
$SHADEDIF
 70
    70
  9
$TILEMODE
 70
     1
  9
$MAXACTVP
 70
    16
  9
$PLIMCHECK
 70
     0
  9
$PEXTMIN
 10
1.0000000000000000E+020
 20
1.0000000000000000E+020
 30
1.0000000000000000E+020
  9
$PEXTMAX
 10
-1.0000000000000000E+020
 20
-1.0000000000000000E+020
 30
-1.0000000000000000E+020
  9
$PLIMMIN
 10
0.0
 20
0.0
  9
$PLIMMAX
 10
12.0
 20
9.0
  9
$UNITMODE
 70
     0
  9
$VISRETAIN
 70
     0
  9
$PLINEGEN
 70
     0
  9
$PSLTSCALE
 70
     1
  0
ENDSEC
  0
SECTION
  2
TABLES
  0
TABLE
  2
VPORT
 70
     2
  0
VPORT
  2
*ACTIVE
 70
     0
 10
0.0
 20
0.0
 11
1.0
 21
1.0
 12
7073.2199177027342
 22
2950.0000137370062
 13
0.0
 23
0.0
 14
10.0
 24
10.0
 15
10.0
 25
10.0
 16
0.0
 26
0.0
 36
1.0
 17
0.0
 27
0.0
 37
0.0
 40
5945.22976603387
 41
3.1666666666666661
 42
50.0
 43
0.0
 44
0.0
 50
0.0
 51
0.0
 71
     0
 72
   100
 73
     1
 74
     0
 75
     0
 76
     0
 77
     0
 78
     0
  0
ENDTAB
  0
TABLE
  2
LTYPE
 70
     2
  0
LTYPE
  2
CONTINUOUS
 70
     0
  3
Solid line
 72
    65
 73
     0
 40
0.0
  0
LTYPE
  2
CENTER
 70
     0
  3
____ _ ____ _ ____ _ ____ _ ____ _ ____ _ ____ 
 72
    65
 73
     4
 40
2.0
 49
1.25
 49
-0.25
 49
0.25
 49
-0.25
  0
ENDTAB
  0
TABLE
  2
LAYER
 70
     7
  0
LAYER
  2
0
 70
     0
 62
     7
  6
CONTINUOUS
  0
LAYER
  2
3
 70
     0
 62
     2
  6
CONTINUOUS
  0
LAYER
  2
2
 70
     0
 62
     3
  6
CENTER
  0
LAYER
  2
1
 70
     0
 62
     4
  6
CONTINUOUS
  0
LAYER
  2
4
 70
     0
 62
     7
  6
CONTINUOUS
  0
LAYER
  2
SUNPOU
 70
     0
 62
     2
  6
CONTINUOUS
  0
LAYER
  2
DEFPOINTS
 70
     0
 62
     7
  6
CONTINUOUS
  0
ENDTAB
  0
TABLE
  2
STYLE
 70
     1
  0
STYLE
  2
STANDARD
 70
     0
 40
0.0
 41
1.0
 50
0.0
 71
     0
 42
180.0
  3
simplex.shx
  4
extfont.shx
  0
ENDTAB
  0
TABLE
  2
VIEW
 70
     0
  0
ENDTAB
  0
TABLE
  2
UCS
 70
     0
  0
ENDTAB
  0
TABLE
  2
APPID
 70
     1
  0
APPID
  2
ACAD
 70
     0
  0
ENDTAB
  0
TABLE
  2
DIMSTYLE
 70
     2
  0
DIMSTYLE
  2
IGA
 70
     0
  3

  4

  5

  6
OPEN
  7
OPEN
 40
2.0
 41
2.0
 42
0.5
 43
10.0
 44
1.0
 45
0.0
 46
0.0
 47
1.0
 48
1.0
140
3.0
141
0.0
142
0.0
143
0.03937
144
1.0
145
0.0
146
10.0
147
1.0
 71
     0
 72
     0
 73
     0
 74
     0
 75
     0
 76
     0
 77
     1
 78
     8
170
     0
171
     2
172
     0
173
     1
174
     0
175
     0
176
     0
177
     0
178
     0
  0
DIMSTYLE
  2
DIA1
 70
     0
  3

  4

  5
ARROW
  6

  7

 40
1.0
 41
2.0
 42
1.0
 43
10.0
 44
1.0
 45
0.0
 46
0.0
 47
0.0
 48
0.0
140
2.5
141
0.0
142
0.0
143
25.399999999999999
144
1.0
145
0.0
146
1.0
147
0.09
 71
     0
 72
     0
 73
     0
 74
     0
 75
     0
 76
     0
 77
     1
 78
     8
170
     0
171
     2
172
     1
173
     0
174
     0
175
     0
176
     2
177
     2
178
     2
  0
ENDTAB
  0
ENDSEC
  0
SECTION
  2
BLOCKS
  0
BLOCK
  8
0
  2
$MODEL_SPACE
 70
     0
 10
0.0
 20
0.0
 30
0.0
  3
$MODEL_SPACE
  1

  0
ENDBLK
  5
1B
  8
0
  0
BLOCK
 67
     1
  8
0
  2
$PAPER_SPACE
 70
     0
 10
0.0
 20
0.0
 30
0.0
  3
$PAPER_SPACE
  1

  0
ENDBLK
  5
18
 67
     1
  8
0
  0
BLOCK
  8
0
  2
YA_N
 70
     0
 10
0.0
 20
0.0
 30
0.0
  3
YA_N
  1

  0
ENDBLK
  5
79FE
  8
0
  0
BLOCK
  8
0
  2
ARROW
 70
     0
 10
0.0
 20
0.0
 30
0.0
  3
ARROW
  1

  0
LINE
  5
7A00
  8
0
 10
-0.9999999999999991
 20
0.1666666667000003
 30
0.0
 11
0.0
 21
0.0
 31
0.0
  0
LINE
  5
7A01
  8
0
 10
-0.9999999999999991
 20
0.0
 30
0.0
 11
0.0
 21
0.0
 31
0.0
  0
LINE
  5
7A02
  8
0
 10
-0.9999999999999991
 20
-0.1666666667000003
 30
0.0
 11
0.0
 21
0.0
 31
0.0
  0
ENDBLK
  5
7A04
  8
0
  0
BLOCK
  8
0
  2
_OPEN
 70
     0
 10
0.0
 20
0.0
 30
0.0
  3
_OPEN
  1

  0
LINE
  5
7A06
  8
0
  6
BYBLOCK
 62
     0
 10
-1.0
 20
0.1666666666666666
 30
0.0
 11
0.0
 21
0.0
 31
0.0
  0
LINE
  5
7A07
  8
0
  6
BYBLOCK
 62
     0
 10
0.0
 20
0.0
 30
0.0
 11
-1.0
 21
-0.1666666666666666
 31
0.0
  0
LINE
  5
7A08
  8
0
  6
BYBLOCK
 62
     0
 10
0.0
 20
0.0
 30
0.0
 11
-1.0
 21
0.0
 31
0.0
  0
ENDBLK
  5
7A0A
  8
0
  0
BLOCK
  8
0
  2
L02503
 70
     0
 10
0.0
 20
0.0
 30
0.0
  3
L02503
  1

  0
LINE
  5
7A0C
  8
0
 10
81.202663485604475
 20
85.280529856043884
 30
0.0
 11
106.2026634856044
 21
85.280529856043884
 31
0.0
  0
LINE
  5
7A0D
  8
0
 10
106.2026634856044
 20
85.280529856043884
 30
0.0
 11
106.2026634856044
 21
86.28052985604387
 31
0.0
  0
LINE
  5
7A0E
  8
0
 10
88.202663485604475
 20
88.280529856043856
 30
0.0
 11
104.2026634856044
 21
88.28052985604387
 31
0.0
  0
ARC
  5
7A0F
  8
0
 10
104.2026634856044
 20
86.28052985604387
 30
0.0
 40
2.0
 50
359.9999999999992
 51
89.999999999999588
  0
LINE
  5
7A10
  8
0
 10
81.202663485604475
 20
85.280529856043884
 30
0.0
 11
81.202663485604475
 21
110.2805298560438
 31
0.0
  0
LINE
  5
7A11
  8
0
 10
84.202663485604504
 20
92.280529856043856
 30
0.0
 11
84.202663485604504
 21
108.2805298560438
 31
0.0
  0
LINE
  5
7A12
  8
0
 10
81.202663485604475
 20
110.2805298560438
 30
0.0
 11
82.202663485604475
 21
110.2805298560438
 31
0.0
  0
ARC
  5
7A13
  8
0
 10
82.202663485604475
 20
108.2805298560438
 30
0.0
 40
2.0
 50
0.0
 51
90.00000000000081
  0
ARC
  5
7A14
  8
0
 10
88.202663485604475
 20
92.280529856043856
 30
0.0
 40
4.0
 50
180.0
 51
270.0
  0
ENDBLK
  5
7A16
  8
0
  0
BLOCK
  8
0
  2
*D4
 70
     1
 10
0.0
 20
0.0
 30
0.0
  3
*D4
  1

  0
LINE
  5
8436
  8
3
 62
     2
 10
2453.7762554624592
 20
2164.6797421827559
 30
0.0
 11
2453.7762554624592
 21
2580.4278103853931
 31
0.0
  0
LINE
  5
8437
  8
3
 62
     2
 10
3308.7762554624592
 20
2404.3112346064622
 30
0.0
 11
3308.7762554624592
 21
2580.4278103853931
 31
0.0
  0
LINE
  5
8438
  8
3
 62
     2
 10
2493.7762554624578
 20
2560.4278103853931
 30
0.0
 11
3268.7762554624592
 21
2560.4278103853931
 31
0.0
  0
INSERT
  5
8439
  8
3
 62
     2
  2
ARROW
 10
2453.7762554624592
 20
2560.4278103853931
 30
0.0
 41
40.0
 42
40.0
 43
40.0
 50
180.0
  0
INSERT
  5
843A
  8
3
 62
     2
  2
ARROW
 10
3308.7762554624592
 20
2560.4278103853931
 30
0.0
 41
40.0
 42
40.0
 43
40.0
  0
TEXT
  8
3
  40
50
  5
853A
  62
2
  72
0
  71
0
 10
2781.28
 20
2526.93
 30
0.000000
  1
855
  0
POINT
  5
843C
  8
DEFPOINTS
 62
     0
 10
2453.7762554624592
 20
2144.6797421827559
 30
0.0
  0
POINT
  5
843D
  8
DEFPOINTS
 62
     0
 10
3308.7762554624592
 20
2384.3112346064622
 30
0.0
  0
POINT
  5
843E
  8
DEFPOINTS
 62
     0
 10
3308.7762554624592
 20
2560.4278103853931
 30
0.0
  0
ENDBLK
  5
7F8B
  8
0
  0
BLOCK
  8
0
  2
*D5
 70
     1
 10
0.0
 20
0.0
 30
0.0
  3
*D5
  1

  0
LINE
  5
843F
  8
3
 62
     2
 10
2538.7762554624592
 20
1351.6797421827559
 30
0.0
 11
2538.7762554624592
 21
1162.7752338568939
 31
0.0
  0
LINE
  5
8440
  8
3
 62
     2
 10
3308.7762554624592
 20
1323.201855650276
 30
0.0
 11
3308.7762554624592
 21
1162.7752338568939
 31
0.0
  0
LINE
  5
8441
  8
3
 62
     2
 10
2578.7762554624592
 20
1182.7752338568939
 30
0.0
 11
3268.7762554624592
 21
1182.7752338568939
 31
0.0
  0
INSERT
  5
8442
  8
3
 62
     2
  2
ARROW
 10
2538.7762554624592
 20
1182.7752338568939
 30
0.0
 41
40.0
 42
40.0
 43
40.0
 50
180.0
  0
INSERT
  5
8443
  8
3
 62
     2
  2
ARROW
 10
3308.7762554624592
 20
1182.7752338568939
 30
0.0
 41
40.0
 42
40.0
 43
40.0
  0
TEXT
  8
3
  40
50
  5
853B
  62
2
  72
0
  71
0
 10
2823.78
 20
1149.28
 30
0.000000
  1
770
  0
POINT
  5
8445
  8
DEFPOINTS
 62
     0
 10
2538.7762554624592
 20
1371.6797421827559
 30
0.0
  0
POINT
  5
8446
  8
DEFPOINTS
 62
     0
 10
3308.7762554624592
 20
1343.201855650276
 30
0.0
  0
POINT
  5
8447
  8
DEFPOINTS
 62
     0
 10
3308.7762554624592
 20
1182.7752338568939
 30
0.0
  0
ENDBLK
  5
7F96
  8
0
  0
BLOCK
  8
0
  2
*D6
 70
     1
 10
0.0
 20
0.0
 30
0.0
  3
*D6
  1

  0
LINE
  5
8448
  8
3
 62
     2
 10
1120.72105546635
 20
2374.6797421827569
 30
0.0
 11
1120.72105546635
 21
2462.3586998725432
 31
0.0
  0
LINE
  5
8449
  8
3
 62
     2
 10
1632.72105546635
 20
2374.6797421827569
 30
0.0
 11
1632.72105546635
 21
2462.3586998725432
 31
0.0
  0
LINE
  5
844A
  8
3
 62
     2
 10
1160.72105546635
 20
2442.3586998725432
 30
0.0
 11
1592.72105546635
 21
2442.3586998725432
 31
0.0
  0
INSERT
  5
844B
  8
3
 62
     2
  2
ARROW
 10
1120.72105546635
 20
2442.3586998725432
 30
0.0
 41
40.0
 42
40.0
 43
40.0
 50
180.0
  0
INSERT
  5
844C
  8
3
 62
     2
  2
ARROW
 10
1632.72105546635
 20
2442.3586998725432
 30
0.0
 41
40.0
 42
40.0
 43
40.0
  0
TEXT
  8
3
  40
50
  5
853C
  62
2
  72
0
  71
0
 10
1276.72
 20
2408.86
 30
0.000000
  1
512
  0
POINT
  5
844E
  8
DEFPOINTS
 62
     0
 10
1120.72105546635
 20
2354.6797421827569
 30
0.0
  0
POINT
  5
844F
  8
DEFPOINTS
 62
     0
 10
1632.72105546635
 20
2354.6797421827569
 30
0.0
  0
POINT
  5
8450
  8
DEFPOINTS
 62
     0
 10
1632.72105546635
 20
2442.3586998725432
 30
0.0
  0
ENDBLK
  5
7FA1
  8
0
  0
BLOCK
  8
0
  2
*D7
 70
     1
 10
0.0
 20
0.0
 30
0.0
  3
*D7
  1

  0
LINE
  5
8451
  8
3
 62
     2
 10
1632.72105546635
 20
2374.6797421827569
 30
0.0
 11
1632.72105546635
 21
2568.5162160607319
 31
0.0
  0
LINE
  5
8452
  8
3
 62
     2
 10
1094.72105546635
 20
2402.5822650888399
 30
0.0
 11
1094.72105546635
 21
2568.5162160607319
 31
0.0
  0
LINE
  5
8453
  8
3
 62
     2
 10
1592.72105546635
 20
2548.5162160607319
 30
0.0
 11
1134.72105546635
 21
2548.5162160607319
 31
0.0
  0
INSERT
  5
8454
  8
3
 62
     2
  2
ARROW
 10
1632.72105546635
 20
2548.5162160607319
 30
0.0
 41
40.0
 42
40.0
 43
40.0
  0
INSERT
  5
8455
  8
3
 62
     2
  2
ARROW
 10
1094.72105546635
 20
2548.5162160607319
 30
0.0
 41
40.0
 42
40.0
 43
40.0
 50
180.0
  0
TEXT
  8
3
  40
50
  5
853D
  62
2
  72
0
  71
0
 10
1263.72
 20
2515.02
 30
0.000000
  1
538
  0
POINT
  5
8457
  8
DEFPOINTS
 62
     0
 10
1632.72105546635
 20
2354.6797421827569
 30
0.0
  0
POINT
  5
8458
  8
DEFPOINTS
 62
     0
 10
1094.72105546635
 20
2382.582265088839
 30
0.0
  0
POINT
  5
8459
  8
DEFPOINTS
 62
     0
 10
1094.72105546635
 20
2548.5162160607319
 30
0.0
  0
ENDBLK
  5
7FAC
  8
0
  0
BLOCK
  8
0
  2
*D8
 70
     1
 10
0.0
 20
0.0
 30
0.0
  3
*D8
  1

  0
LINE
  5
845A
  8
3
 62
     2
 10
733.67306465849015
 20
1977.6797421827571
 30
0.0
 11
733.67306465849015
 21
2568.5162160607319
 31
0.0
  0
LINE
  5
845B
  8
3
 62
     2
 10
1054.72105546635
 20
2548.5162160607319
 30
0.0
 11
773.67306465849015
 21
2548.5162160607319
 31
0.0
  0
INSERT
  5
845C
  8
3
 62
     2
  2
ARROW
 10
1094.72105546635
 20
2548.5162160607319
 30
0.0
 41
40.0
 42
40.0
 43
40.0
  0
INSERT
  5
845D
  8
3
 62
     2
  2
ARROW
 10
733.67306465849015
 20
2548.5162160607319
 30
0.0
 41
40.0
 42
40.0
 43
40.0
 50
180.0
  0
TEXT
  8
3
  40
50
  5
853E
  62
2
  72
0
  71
0
 10
814.197
 20
2515.02
 30
0.000000
  1
361
  0
POINT
  5
845F
  8
DEFPOINTS
 62
     0
 10
1094.72105546635
 20
2382.582265088839
 30
0.0
  0
POINT
  5
8460
  8
DEFPOINTS
 62
     0
 10
733.67306465849015
 20
1957.6797421827559
 30
0.0
  0
POINT
  5
8461
  8
DEFPOINTS
 62
     0
 10
733.67306465849015
 20
2548.5162160607319
 30
0.0
  0
ENDBLK
  5
7FB6
  8
0
  0
BLOCK
  8
0
  2
*D9
 70
     1
 10
0.0
 20
0.0
 30
0.0
  3
*D9
  1

  0
LINE
  5
8462
  8
3
 62
     2
 10
1924.72105546635
 20
1351.6797421827559
 30
0.0
 11
1924.72105546635
 21
1163.1008552622229
 31
0.0
  0
LINE
  5
8463
  8
3
 62
     2
 10
1134.72105546635
 20
1183.1008552622229
 30
0.0
 11
1884.72105546635
 21
1183.1008552622229
 31
0.0
  0
INSERT
  5
8464
  8
3
 62
     2
  2
ARROW
 10
1094.72105546635
 20
1183.1008552622229
 30
0.0
 41
40.0
 42
40.0
 43
40.0
 50
180.0
  0
INSERT
  5
8465
  8
3
 62
     2
  2
ARROW
 10
1924.72105546635
 20
1183.1008552622229
 30
0.0
 41
40.0
 42
40.0
 43
40.0
  0
TEXT
  8
3
  40
50
  5
853F
  62
2
  72
0
  71
0
 10
1409.72
 20
1149.60
 30
0.000000
  1
830
  0
POINT
  5
8467
  8
DEFPOINTS
 62
     0
 10
1094.72105546635
 20
1343.201855650276
 30
0.0
  0
POINT
  5
8468
  8
DEFPOINTS
 62
     0
 10
1924.72105546635
 20
1371.6797421827559
 30
0.0
  0
POINT
  5
8469
  8
DEFPOINTS
 62
     0
 10
1924.72105546635
 20
1183.1008552622229
 30
0.0
  0
ENDBLK
  5
7FCB
  8
0
  0
BLOCK
  8
0
  2
*D10
 70
     1
 10
0.0
 20
0.0
 30
0.0
  3
*D10
  1

  0
LINE
  5
846A
  8
3
 62
     2
 10
824.72105546635066
 20
1446.6797421827559
 30
0.0
 11
525.90580175639434
 21
1446.6797421827559
 31
0.0
  0
LINE
  5
846B
  8
3
 62
     2
 10
824.72105546635066
 20
1371.6797421827559
 30
0.0
 11
525.90580175639434
 21
1371.6797421827559
 31
0.0
  0
LINE
  5
846C
  8
3
 62
     2
 10
545.90580175639434
 20
1486.6797421827559
 30
0.0
 11
545.90580175639434
 21
1526.6797421827559
 31
0.0
  0
LINE
  5
846D
  8
3
 62
     2
 10
545.90580175639434
 20
1331.6797421827571
 30
0.0
 11
545.90580175639423
 21
1150.727361230375
 31
0.0
  0
LINE
  5
846E
  8
3
 62
     2
 10
545.90580175639434
 20
1446.6797421827559
 30
0.0
 11
545.90580175639434
 21
1371.6797421827559
 31
0.0
  0
INSERT
  5
846F
  8
3
 62
     2
  2
YA_N
 10
545.90580175639434
 20
1446.6797421827559
 30
0.0
 41
40.0
 42
40.0
 43
40.0
 50
270.0
  0
INSERT
  5
8470
  8
3
 62
     2
  2
_OPEN
 10
545.90580175639434
 20
1371.6797421827559
 30
0.0
 41
40.0
 42
40.0
 43
40.0
 50
90.0
  0
TEXT
  8
3
  40
50
  5
8540
  62
2
  72
0
  71
0
 10
390.906
 20
1132.70
 30
0.000000
  1
75
  0
POINT
  5
8472
  8
DEFPOINTS
 62
     0
 10
844.72105546635055
 20
1446.6797421827559
 30
0.0
  0
POINT
  5
8473
  8
DEFPOINTS
 62
     0
 10
844.72105546635055
 20
1371.6797421827559
 30
0.0
  0
POINT
  5
8474
  8
DEFPOINTS
 62
     0
 10
545.90580175639434
 20
1371.6797421827559
 30
0.0
  0
ENDBLK
  5
7FD8
  8
0
  0
BLOCK
  8
0
  2
*D11
 70
     1
 10
0.0
 20
0.0
 30
0.0
  3
*D11
  1

  0
LINE
  5
8475
  8
3
 62
     2
 10
844.72105546635055
 20
1351.6797421827559
 30
0.0
 11
844.72105546635055
 21
1163.1008552622229
 31
0.0
  0
LINE
  5
8476
  8
3
 62
     2
 10
1094.72105546635
 20
1323.201855650276
 30
0.0
 11
1094.72105546635
 21
1163.1008552622229
 31
0.0
  0
LINE
  5
8477
  8
3
 62
     2
 10
884.72105546635055
 20
1183.1008552622229
 30
0.0
 11
1054.72105546635
 21
1183.1008552622229
 31
0.0
  0
INSERT
  5
8478
  8
3
 62
     2
  2
ARROW
 10
844.72105546635055
 20
1183.1008552622229
 30
0.0
 41
40.0
 42
40.0
 43
40.0
 50
180.0
  0
INSERT
  5
8479
  8
3
 62
     2
  2
ARROW
 10
1094.72105546635
 20
1183.1008552622229
 30
0.0
 41
40.0
 42
40.0
 43
40.0
  0
TEXT
  8
3
  40
50
  5
8541
  62
2
  72
0
  71
0
 10
869.721
 20
1149.60
 30
0.000000
  1
250
  0
POINT
  5
847B
  8
DEFPOINTS
 62
     0
 10
844.72105546635055
 20
1371.6797421827559
 30
0.0
  0
POINT
  5
847C
  8
DEFPOINTS
 62
     0
 10
1094.72105546635
 20
1343.201855650276
 30
0.0
  0
POINT
  5
847D
  8
DEFPOINTS
 62
     0
 10
1094.72105546635
 20
1183.1008552622229
 30
0.0
  0
ENDBLK
  5
7FE5
  8
0
  0
BLOCK
  8
0
  2
*D12
 70
     1
 10
0.0
 20
0.0
 30
0.0
  3
*D12
  1

  0
LINE
  5
847E
  8
3
 62
     2
 10
824.72105546635066
 20
1484.6797421827559
 30
0.0
 11
525.90580175639434
 21
1484.6797421827559
 31
0.0
  0
LINE
  5
847F
  8
3
 62
     2
 10
545.90580175639445
 20
1954.6797421827559
 30
0.0
 11
545.90580175639434
 21
1524.6797421827559
 31
0.0
  0
INSERT
  5
8480
  8
3
 62
     2
  2
ARROW
 10
545.90580175639445
 20
1994.6797421827559
 30
0.0
 41
40.0
 42
40.0
 43
40.0
 50
90.0
  0
INSERT
  5
8481
  8
3
 62
     2
  2
ARROW
 10
545.90580175639434
 20
1484.6797421827559
 30
0.0
 41
40.0
 42
40.0
 43
40.0
 50
270.0
  0
TEXT
  8
3
  40
50
  5
8542
  62
2
  72
0
  71
0
 10
390.906
 20
1651.18
 30
0.000000
  1
510
  0
POINT
  5
8483
  8
DEFPOINTS
 62
     0
 10
651.57456215010643
 20
1994.6797421827559
 30
0.0
  0
POINT
  5
8484
  8
DEFPOINTS
 62
     0
 10
844.72105546635055
 20
1484.6797421827559
 30
0.0
  0
POINT
  5
8485
  8
DEFPOINTS
 62
     0
 10
545.90580175639434
 20
1484.6797421827559
 30
0.0
  0
ENDBLK
  5
7FEF
  8
0
  0
BLOCK
  8
0
  2
*D13
 70
     1
 10
0.0
 20
0.0
 30
0.0
  3
*D13
  1

  0
LINE
  5
8486
  8
3
 62
     2
 10
824.72105546635066
 20
1446.6797421827559
 30
0.0
 11
525.90580175639434
 21
1446.6797421827559
 31
0.0
  0
LINE
  5
8487
  8
3
 62
     2
 10
545.90580175639434
 20
1524.6797421827559
 30
0.0
 11
545.90580175639434
 21
1564.6797421827559
 31
0.0
  0
LINE
  5
8488
  8
3
 62
     2
 10
545.90580175639434
 20
1406.6797421827571
 30
0.0
 11
545.90580175639434
 21
1366.6797421827571
 31
0.0
  0
LINE
  5
8489
  8
3
 62
     2
 10
545.90580175639434
 20
1465.6797421827559
 30
0.0
 11
442.81056366115621
 21
1496.608313611328
 31
0.0
  0
LINE
  5
848A
  8
3
 62
     2
 10
442.81056366115621
 20
1496.608313611328
 30
0.0
 11
442.81056366115621
 21
1701.8464088494229
 31
0.0
  0
TEXT
  8
3
  40
50
  5
8543
  62
2
  72
0
  71
0
 10
274.715
 20
1510.73
 30
0.000000
  1
(38)
  0
LINE
  5
848C
  8
3
 62
     2
 10
545.90580175639434
 20
1484.6797421827559
 30
0.0
 11
545.90580175639434
 21
1446.6797421827559
 31
0.0
  0
LINE
  5
848D
  8
3
 62
     2
 10
545.90580175639434
 20
1484.6797421827559
 30
0.0
 11
545.90580175639434
 21
1446.6797421827559
 31
0.0
  0
INSERT
  5
848E
  8
3
 62
     2
  2
_OPEN
 10
545.90580175639434
 20
1484.6797421827559
 30
0.0
 41
40.0
 42
40.0
 43
40.0
 50
270.0
  0
INSERT
  5
848F
  8
3
 62
     2
  2
YA_N
 10
545.90580175639434
 20
1446.6797421827559
 30
0.0
 41
40.0
 42
40.0
 43
40.0
 50
90.0
  0
POINT
  5
8490
  8
DEFPOINTS
 62
     0
 10
844.72105546635055
 20
1484.6797421827559
 30
0.0
  0
POINT
  5
8491
  8
DEFPOINTS
 62
     0
 10
844.72105546635055
 20
1446.6797421827559
 30
0.0
  0
POINT
  5
8492
  8
DEFPOINTS
 62
     0
 10
545.90580175639434
 20
1446.6797421827559
 30
0.0
  0
ENDBLK
  5
7FFD
  8
0
  0
BLOCK
  8
0
  2
*D14
 70
     1
 10
0.0
 20
0.0
 30
0.0
  3
*D14
  1

  0
LINE
  5
8493
  8
3
 62
     2
 10
1074.121055466351
 20
2354.6797421827569
 30
0.0
 11
525.90580175639445
 21
2354.6797421827569
 31
0.0
  0
LINE
  5
8494
  8
3
 62
     2
 10
631.57456215010643
 20
1994.6797421827559
 30
0.0
 11
525.90580175639434
 21
1994.6797421827559
 31
0.0
  0
LINE
  5
8495
  8
3
 62
     2
 10
545.90580175639445
 20
2314.6797421827569
 30
0.0
 11
545.90580175639434
 21
2034.6797421827571
 31
0.0
  0
INSERT
  5
8496
  8
3
 62
     2
  2
ARROW
 10
545.90580175639445
 20
2354.6797421827569
 30
0.0
 41
40.0
 42
40.0
 43
40.0
 50
90.0
  0
INSERT
  5
8497
  8
3
 62
     2
  2
ARROW
 10
545.90580175639434
 20
1994.6797421827559
 30
0.0
 41
40.0
 42
40.0
 43
40.0
 50
270.0
  0
TEXT
  8
3
  40
50
  5
8544
  62
2
  72
0
  71
0
 10
390.906
 20
2086.18
 30
0.000000
  1
360
  0
POINT
  5
8499
  8
DEFPOINTS
 62
     0
 10
1094.121055466351
 20
2354.6797421827569
 30
0.0
  0
POINT
  5
849A
  8
DEFPOINTS
 62
     0
 10
651.57456215010643
 20
1994.6797421827559
 30
0.0
  0
POINT
  5
849B
  8
DEFPOINTS
 62
     0
 10
545.90580175639434
 20
1994.6797421827559
 30
0.0
  0
ENDBLK
  5
8008
  8
0
  0
BLOCK
  8
0
  2
*D15
 70
     1
 10
0.0
 20
0.0
 30
0.0
  3
*D15
  1

  0
LINE
  5
849C
  8
3
 62
     2
 10
1924.72105546635
 20
3906.1541628245909
 30
0.0
 11
1924.72105546635
 21
4489.4389140303074
 31
0.0
  0
LINE
  5
849D
  8
3
 62
     2
 10
1384.72105546635
 20
4469.4389140303056
 30
0.0
 11
1884.72105546635
 21
4469.4389140303056
 31
0.0
  0
INSERT
  5
849E
  8
3
 62
     2
  2
ARROW
 10
1344.72105546635
 20
4469.4389140303056
 30
0.0
 41
40.0
 42
40.0
 43
40.0
 50
180.0
  0
INSERT
  5
849F
  8
3
 62
     2
  2
ARROW
 10
1924.72105546635
 20
4469.4389140303056
 30
0.0
 41
40.0
 42
40.0
 43
40.0
  0
TEXT
  8
3
  40
50
  5
8545
  62
2
  72
0
  71
0
 10
1534.72
 20
4435.94
 30
0.000000
  1
580
  0
POINT
  5
84A1
  8
DEFPOINTS
 62
     0
 10
1344.72105546635
 20
4326.1541628245923
 30
0.0
  0
POINT
  5
84A2
  8
DEFPOINTS
 62
     0
 10
1924.72105546635
 20
3886.1541628245918
 30
0.0
  0
POINT
  5
84A3
  8
DEFPOINTS
 62
     0
 10
1924.72105546635
 20
4469.4389140303056
 30
0.0
  0
ENDBLK
  5
8012
  8
0
  0
BLOCK
  8
0
  2
*D16
 70
     1
 10
0.0
 20
0.0
 30
0.0
  3
*D16
  1

  0
LINE
  5
84A4
  8
3
 62
     2
 10
844.72105546635055
 20
3306.1541628245918
 30
0.0
 11
844.72105546635055
 21
2989.3359103246339
 31
0.0
  0
LINE
  5
84A5
  8
3
 62
     2
 10
1924.72105546635
 20
3306.1541628245918
 30
0.0
 11
1924.72105546635
 21
2989.3359103246339
 31
0.0
  0
LINE
  5
84A6
  8
3
 62
     2
 10
884.72105546635055
 20
3009.3359103246339
 30
0.0
 11
1884.72105546635
 21
3009.3359103246339
 31
0.0
  0
INSERT
  5
84A7
  8
3
 62
     2
  2
ARROW
 10
844.72105546635055
 20
3009.3359103246339
 30
0.0
 41
40.0
 42
40.0
 43
40.0
 50
180.0
  0
INSERT
  5
84A8
  8
3
 62
     2
  2
ARROW
 10
1924.72105546635
 20
3009.3359103246339
 30
0.0
 41
40.0
 42
40.0
 43
40.0
  0
TEXT
  8
3
  40
50
  5
8546
  62
2
  72
0
  71
0
 10
1284.72
 20
2975.84
 30
0.000000
  1
1080
  0
POINT
  5
84AA
  8
DEFPOINTS
 62
     0
 10
844.72105546635055
 20
3326.1541628245918
 30
0.0
  0
POINT
  5
84AB
  8
DEFPOINTS
 62
     0
 10
1924.72105546635
 20
3326.1541628245918
 30
0.0
  0
POINT
  5
84AC
  8
DEFPOINTS
 62
     0
 10
1924.72105546635
 20
3009.3359103246339
 30
0.0
  0
ENDBLK
  5
801D
  8
0
  0
BLOCK
  8
0
  2
*D17
 70
     1
 10
0.0
 20
0.0
 30
0.0
  3
*D17
  1

  0
LINE
  5
84AD
  8
3
 62
     2
 10
1944.72105546635
 20
3886.1541628245918
 30
0.0
 11
2131.355640025105
 21
3886.1541628245918
 31
0.0
  0
LINE
  5
84AE
  8
3
 62
     2
 10
1944.72105546635
 20
3326.1541628245918
 30
0.0
 11
2131.355640025105
 21
3326.1541628245918
 31
0.0
  0
LINE
  5
84AF
  8
3
 62
     2
 10
2111.355640025105
 20
3846.1541628245909
 30
0.0
 11
2111.355640025105
 21
3366.1541628245918
 31
0.0
  0
INSERT
  5
84B0
  8
3
 62
     2
  2
ARROW
 10
2111.355640025105
 20
3886.1541628245918
 30
0.0
 41
40.0
 42
40.0
 43
40.0
 50
90.0
  0
INSERT
  5
84B1
  8
3
 62
     2
  2
ARROW
 10
2111.355640025105
 20
3326.1541628245918
 30
0.0
 41
40.0
 42
40.0
 43
40.0
 50
270.0
  0
TEXT
  8
3
  40
50
  5
8547
  62
2
  72
0
  71
0
 10
1956.36
 20
3517.65
 30
0.000000
  1
560
  0
POINT
  5
84B3
  8
DEFPOINTS
 62
     0
 10
1924.72105546635
 20
3886.1541628245918
 30
0.0
  0
POINT
  5
84B4
  8
DEFPOINTS
 62
     0
 10
1924.72105546635
 20
3326.1541628245918
 30
0.0
  0
POINT
  5
84B5
  8
DEFPOINTS
 62
     0
 10
2111.355640025105
 20
3326.1541628245918
 30
0.0
  0
ENDBLK
  5
8028
  8
0
  0
BLOCK
  8
0
  2
*D18
 70
     1
 10
0.0
 20
0.0
 30
0.0
  3
*D18
  1

  0
LINE
  5
84B6
  8
3
 62
     2
 10
824.72105546635066
 20
3326.1541628245918
 30
0.0
 11
519.90332367784606
 21
3326.1541628245918
 31
0.0
  0
LINE
  5
84B7
  8
3
 62
     2
 10
824.72105546635066
 20
4326.1541628245923
 30
0.0
 11
519.9033236778464
 21
4326.1541628245923
 31
0.0
  0
LINE
  5
84B8
  8
3
 62
     2
 10
539.90332367784617
 20
3366.1541628245918
 30
0.0
 11
539.90332367784629
 21
4286.1541628245923
 31
0.0
  0
INSERT
  5
84B9
  8
3
 62
     2
  2
ARROW
 10
539.90332367784606
 20
3326.1541628245918
 30
0.0
 41
40.0
 42
40.0
 43
40.0
 50
270.0
  0
INSERT
  5
84BA
  8
3
 62
     2
  2
ARROW
 10
539.90332367784629
 20
4326.1541628245923
 30
0.0
 41
40.0
 42
40.0
 43
40.0
 50
90.0
  0
TEXT
  8
3
  40
50
  5
8548
  62
2
  72
0
  71
0
 10
384.903
 20
3737.65
 30
0.000000
  1
1000
  0
POINT
  5
84BC
  8
DEFPOINTS
 62
     0
 10
844.72105546635055
 20
3326.1541628245918
 30
0.0
  0
POINT
  5
84BD
  8
DEFPOINTS
 62
     0
 10
844.72105546635055
 20
4326.1541628245923
 30
0.0
  0
POINT
  5
84BE
  8
DEFPOINTS
 62
     0
 10
539.90332367784629
 20
4326.1541628245923
 30
0.0
  0
ENDBLK
  5
8033
  8
0
  0
BLOCK
  8
0
  2
*D19
 70
     1
 10
0.0
 20
0.0
 30
0.0
  3
*D19
  1

  0
LINE
  5
84BF
  8
3
 62
     2
 10
844.72105546635055
 20
4346.1541628245923
 30
0.0
 11
844.72105546635055
 21
4489.4389140303074
 31
0.0
  0
LINE
  5
84C0
  8
3
 62
     2
 10
1344.72105546635
 20
4346.1541628245923
 30
0.0
 11
1344.72105546635
 21
4489.4389140303074
 31
0.0
  0
LINE
  5
84C1
  8
3
 62
     2
 10
884.72105546635055
 20
4469.4389140303056
 30
0.0
 11
1304.72105546635
 21
4469.4389140303056
 31
0.0
  0
INSERT
  5
84C2
  8
3
 62
     2
  2
ARROW
 10
844.72105546635055
 20
4469.4389140303056
 30
0.0
 41
40.0
 42
40.0
 43
40.0
 50
180.0
  0
INSERT
  5
84C3
  8
3
 62
     2
  2
ARROW
 10
1344.72105546635
 20
4469.4389140303056
 30
0.0
 41
40.0
 42
40.0
 43
40.0
  0
TEXT
  8
3
  40
50
  5
8549
  62
2
  72
0
  71
0
 10
994.721
 20
4435.94
 30
0.000000
  1
500
  0
POINT
  5
84C5
  8
DEFPOINTS
 62
     0
 10
844.72105546635055
 20
4326.1541628245923
 30
0.0
  0
POINT
  5
84C6
  8
DEFPOINTS
 62
     0
 10
1344.72105546635
 20
4326.1541628245923
 30
0.0
  0
POINT
  5
84C7
  8
DEFPOINTS
 62
     0
 10
1344.72105546635
 20
4469.4389140303056
 30
0.0
  0
ENDBLK
  5
803E
  8
0
  0
BLOCK
  8
0
  2
*D20
 70
     1
 10
0.0
 20
0.0
 30
0.0
  3
*D20
  1

  0
LINE
  5
84C8
  8
3
 62
     2
 10
3308.7762554624592
 20
2404.3112346064622
 30
0.0
 11
3308.7762554624592
 21
2580.4278103853931
 31
0.0
  0
LINE
  5
84C9
  8
3
 62
     2
 10
3500.7762554624592
 20
2289.6797421827569
 30
0.0
 11
3500.7762554624592
 21
2580.4278103853931
 31
0.0
  0
LINE
  5
84CA
  8
3
 62
     2
 10
3348.7762554624592
 20
2560.4278103853931
 30
0.0
 11
3460.7762554624592
 21
2560.4278103853931
 31
0.0
  0
INSERT
  5
84CB
  8
3
 62
     2
  2
ARROW
 10
3308.7762554624592
 20
2560.4278103853931
 30
0.0
 41
40.0
 42
40.0
 43
40.0
 50
180.0
  0
INSERT
  5
84CC
  8
3
 62
     2
  2
ARROW
 10
3500.7762554624592
 20
2560.4278103853931
 30
0.0
 41
40.0
 42
40.0
 43
40.0
  0
TEXT
  8
3
  40
50
  5
854A
  62
2
  72
0
  71
0
 10
3304.78
 20
2526.93
 30
0.000000
  1
192
  0
POINT
  5
84CE
  8
DEFPOINTS
 62
     0
 10
3308.7762554624592
 20
2384.3112346064622
 30
0.0
  0
POINT
  5
84CF
  8
DEFPOINTS
 62
     0
 10
3500.7762554624592
 20
2269.6797421827569
 30
0.0
  0
POINT
  5
84D0
  8
DEFPOINTS
 62
     0
 10
3500.7762554624592
 20
2560.4278103853931
 30
0.0
  0
ENDBLK
  5
804B
  8
0
  0
BLOCK
  8
0
  2
*D21
 70
     1
 10
0.0
 20
0.0
 30
0.0
  3
*D21
  1

  0
LINE
  5
84D1
  8
3
 62
     2
 10
3121.2762554624592
 20
2374.6797421827569
 30
0.0
 11
3121.2762554624592
 21
2464.1436902347282
 31
0.0
  0
LINE
  5
84D2
  8
3
 62
     2
 10
3496.2762554624592
 20
2374.6797421827569
 30
0.0
 11
3496.2762554624592
 21
2464.1436902347282
 31
0.0
  0
LINE
  5
84D3
  8
3
 62
     2
 10
3161.2762554624592
 20
2444.1436902347282
 30
0.0
 11
3456.2762554624592
 21
2444.1436902347282
 31
0.0
  0
INSERT
  5
84D4
  8
3
 62
     2
  2
ARROW
 10
3121.2762554624592
 20
2444.1436902347282
 30
0.0
 41
40.0
 42
40.0
 43
40.0
 50
180.0
  0
INSERT
  5
84D5
  8
3
 62
     2
  2
ARROW
 10
3496.2762554624592
 20
2444.1436902347282
 30
0.0
 41
40.0
 42
40.0
 43
40.0
  0
TEXT
  8
3
  40
50
  5
854B
  62
2
  72
0
  71
0
 10
3208.78
 20
2410.64
 30
0.000000
  1
375
  0
POINT
  5
84D7
  8
DEFPOINTS
 62
     0
 10
3121.2762554624592
 20
2354.6797421827559
 30
0.0
  0
POINT
  5
84D8
  8
DEFPOINTS
 62
     0
 10
3496.2762554624592
 20
2354.6797421827559
 30
0.0
  0
POINT
  5
84D9
  8
DEFPOINTS
 62
     0
 10
3496.2762554624592
 20
2444.1436902347282
 30
0.0
  0
ENDBLK
  5
8056
  8
0
  0
BLOCK
  8
0
  2
*D22
 70
     1
 10
0.0
 20
0.0
 30
0.0
  3
*D22
  1

  0
LINE
  5
84DA
  8
3
 62
     2
 10
3308.7762554624592
 20
1323.201855650276
 30
0.0
 11
3308.7762554624592
 21
1162.7752338568939
 31
0.0
  0
LINE
  5
84DB
  8
3
 62
     2
 10
3538.7762554624578
 20
1351.6797421827559
 30
0.0
 11
3538.7762554624578
 21
1162.7752338568939
 31
0.0
  0
LINE
  5
84DC
  8
3
 62
     2
 10
3348.7762554624592
 20
1182.7752338568939
 30
0.0
 11
3498.7762554624592
 21
1182.7752338568939
 31
0.0
  0
INSERT
  5
84DD
  8
3
 62
     2
  2
ARROW
 10
3308.7762554624592
 20
1182.7752338568939
 30
0.0
 41
40.0
 42
40.0
 43
40.0
 50
180.0
  0
INSERT
  5
84DE
  8
3
 62
     2
  2
ARROW
 10
3538.7762554624578
 20
1182.7752338568939
 30
0.0
 41
40.0
 42
40.0
 43
40.0
  0
TEXT
  8
3
  40
50
  5
854C
  62
2
  72
0
  71
0
 10
3323.78
 20
1149.28
 30
0.000000
  1
230
  0
POINT
  5
84E0
  8
DEFPOINTS
 62
     0
 10
3308.7762554624592
 20
1343.201855650276
 30
0.0
  0
POINT
  5
84E1
  8
DEFPOINTS
 62
     0
 10
3538.7762554624578
 20
1371.6797421827559
 30
0.0
  0
POINT
  5
84E2
  8
DEFPOINTS
 62
     0
 10
3538.7762554624578
 20
1182.7752338568939
 30
0.0
  0
ENDBLK
  5
8063
  8
0
  0
BLOCK
  8
0
  2
*D23
 70
     1
 10
0.0
 20
0.0
 30
0.0
  3
*D23
  1

  0
LINE
  5
850B
  8
3
 62
     2
 10
3544.7762554624592
 20
2244.6797421827569
 30
0.0
 11
3734.5503481469082
 21
2244.6797421827569
 31
0.0
  0
LINE
  5
850C
  8
3
 62
     2
 10
3544.7762554624592
 20
1744.6797421827559
 30
0.0
 11
3734.5503481469082
 21
1744.6797421827559
 31
0.0
  0
LINE
  5
850D
  8
3
 62
     2
 10
3714.5503481469082
 20
2204.6797421827569
 30
0.0
 11
3714.5503481469082
 21
1784.6797421827559
 31
0.0
  0
INSERT
  5
850E
  8
3
 62
     2
  2
ARROW
 10
3714.5503481469082
 20
2244.6797421827569
 30
0.0
 41
40.0
 42
40.0
 43
40.0
 50
90.0
  0
INSERT
  5
850F
  8
3
 62
     2
  2
ARROW
 10
3714.5503481469082
 20
1744.6797421827559
 30
0.0
 41
40.0
 42
40.0
 43
40.0
 50
270.0
  0
TEXT
  8
3
  40
50
  5
854D
  62
2
  72
0
  71
0
 10
3559.55
 20
1906.18
 30
0.000000
  1
φ500
  0
POINT
  5
8511
  8
DEFPOINTS
 62
     0
 10
3524.7762554624592
 20
2244.6797421827569
 30
0.0
  0
POINT
  5
8512
  8
DEFPOINTS
 62
     0
 10
3524.7762554624592
 20
1744.6797421827559
 30
0.0
  0
POINT
  5
8513
  8
DEFPOINTS
 62
     0
 10
3714.5503481469082
 20
1744.6797421827559
 30
0.0
  0
ENDBLK
  5
806E
  8
0
  0
BLOCK
  8
0
  2
*D24
 70
     1
 10
0.0
 20
0.0
 30
0.0
  3
*D24
  1

  0
LINE
  5
8528
  8
3
 62
     0
 10
1084.121055466351
 20
2354.6797421827569
 30
0.0
 11
294.28949239081362
 21
2354.6797421827569
 31
0.0
  0
LINE
  5
8529
  8
3
 62
     0
 10
834.72105546635055
 20
1371.6797421827559
 30
0.0
 11
294.28949239081328
 21
1371.6797421827571
 31
0.0
  0
LINE
  5
852A
  8
3
 62
     0
 10
314.28949239081362
 20
2314.6797421827569
 30
0.0
 11
314.28949239081339
 21
1411.6797421827571
 31
0.0
  0
INSERT
  5
852B
  8
3
 62
     0
  2
_OPEN
 10
314.28949239081362
 20
2354.6797421827569
 30
0.0
 41
40.0
 42
40.0
 43
40.0
 50
90.0
  0
INSERT
  5
852C
  8
3
 62
     0
  2
_OPEN
 10
314.28949239081339
 20
1371.6797421827571
 30
0.0
 41
40.0
 42
40.0
 43
40.0
 50
270.0
  0
TEXT
  8
3
  40
60
  5
854E
  62
0
  72
0
  71
0
 10
144.289
 20
1756.98
 30
0.000000
  1
983
  0
POINT
  5
852E
  8
DEFPOINTS
 62
     0
 10
1094.121055466351
 20
2354.6797421827569
 30
0.0
  0
POINT
  5
852F
  8
DEFPOINTS
 62
     0
 10
844.72105546635055
 20
1371.6797421827559
 30
0.0
  0
POINT
  5
8530
  8
DEFPOINTS
 62
     0
 10
314.28949239081339
 20
1371.6797421827571
 30
0.0
  0
ENDBLK
  5
8411
  8
0
  0
BLOCK
  8
0
  2
*D25
 70
     1
 10
0.0
 20
0.0
 30
0.0
  3
*D25
  1

  0
LINE
  5
8531
  8
3
 62
     0
 10
733.67306465849015
 20
1987.6797421827571
 30
0.0
 11
733.67306465849015
 21
2680.4828789229318
 31
0.0
  0
LINE
  5
8532
  8
3
 62
     0
 10
1924.72105546635
 20
1569.6797421827559
 30
0.0
 11
1924.72105546635
 21
2680.4828789229318
 31
0.0
  0
LINE
  5
8533
  8
3
 62
     0
 10
773.67306465849015
 20
2660.4828789229318
 30
0.0
 11
1884.72105546635
 21
2660.4828789229318
 31
0.0
  0
INSERT
  5
8534
  8
3
 62
     0
  2
_OPEN
 10
733.67306465849015
 20
2660.4828789229318
 30
0.0
 41
40.0
 42
40.0
 43
40.0
 50
180.0
  0
INSERT
  5
8535
  8
3
 62
     0
  2
_OPEN
 10
1924.72105546635
 20
2660.4828789229318
 30
0.0
 41
40.0
 42
40.0
 43
40.0
  0
TEXT
  8
3
  40
60
  5
854F
  62
0
  72
0
  71
0
 10
1209.20
 20
2604.28
 30
0.000000
  1
1191
  0
POINT
  5
8537
  8
DEFPOINTS
 62
     0
 10
733.67306465849015
 20
1977.6797421827571
 30
0.0
  0
POINT
  5
8538
  8
DEFPOINTS
 62
     0
 10
1924.72105546635
 20
1559.6797421827571
 30
0.0
  0
POINT
  5
8539
  8
DEFPOINTS
 62
     0
 10
1924.72105546635
 20
2660.4828789229318
 30
0.0
  0
ENDBLK
  5
841E
  8
0
  0
ENDSEC
  0
SECTION
  2
ENTITIES
  0
DIMENSION
  5
7CD2
  8
3
  2
*D4
 10
3308.7762554624592
 20
2560.4278103853931
 30
0.0
 11
2881.2762554624578
 21
2615.4278103853931
 31
0.0
 70
     0
 13
2453.7762554624592
 23
2144.6797421827559
 33
0.0
 14
3308.7762554624592
 24
2384.3112346064622
 34
0.0
1001
ACAD
1000
DSTYLE
1002
{
1070
   287
1070
     3
1070
   287
1070
     3
1070
    40
1040
20.0
1070
   147
1040
1.5
1070
   173
1070
     1
1070
   272
1070
     4
1070
   279
1070
     0
1070
   284
1070
     0
1070
   285
1070
     0
1070
   286
1070
     0
1070
     6
1000
ARROW
1070
     7
1000
ARROW
1002
}
  0
LINE
  5
7CD3
  8
1
 10
2453.7762554624592
 20
1591.679442182756
 30
0.0
 11
2575.7762554624592
 21
1591.679442182756
 31
0.0
  0
LINE
  5
7CD4
  8
1
 10
2453.7762554624592
 20
2144.6797421827559
 30
0.0
 11
2575.7762554624592
 21
2144.6797421827559
 31
0.0
  0
DIMENSION
  5
7CD5
  8
3
  2
*D5
 10
3308.7762554624592
 20
1182.7752338568939
 30
0.0
 11
2923.7762554624592
 21
1237.7752338568939
 31
0.0
 70
     0
 13
2538.7762554624592
 23
1371.6797421827559
 33
0.0
 14
3308.7762554624592
 24
1343.201855650276
 34
0.0
1001
ACAD
1000
DSTYLE
1002
{
1070
   287
1070
     3
1070
   287
1070
     3
1070
    40
1040
20.0
1070
   147
1040
1.5
1070
   173
1070
     1
1070
   272
1070
     4
1070
   279
1070
     0
1070
   284
1070
     0
1070
   285
1070
     0
1070
   286
1070
     0
1070
     6
1000
ARROW
1070
     7
1000
ARROW
1002
}
  0
LINE
  5
7CD6
  8
1
 10
2533.7762554624592
 20
1972.1797421827571
 30
0.0
 11
2600.6478381005631
 21
1972.1797421827571
 31
0.0
  0
LINE
  5
7CD7
  8
1
 10
2533.7762554624592
 20
2017.1797421827571
 30
0.0
 11
2602.3762554624591
 21
2017.1797421827571
 31
0.0
  0
LINE
  5
7CD8
  8
2
 10
2480.186255462459
 20
1741.679442182756
 30
0.0
 11
2870.3020554624582
 21
1741.679442182756
 31
0.0
  0
LINE
  5
7CD9
  8
1
 10
2575.7762554624592
 20
1642.6797421827559
 30
0.0
 11
2561.7762554624578
 21
1642.6797421827559
 31
0.0
  0
LINE
  5
7CDA
  8
1
 10
2559.7762554624592
 20
1862.679442182756
 30
0.0
 11
2575.7762554624592
 21
1862.679442182756
 31
0.0
  0
LINE
  5
7CDB
  8
1
 10
2538.7762554624592
 20
1446.6797421827559
 30
0.0
 11
3538.7762554624592
 21
1446.6797421827559
 31
0.0
  0
LINE
  5
7CDC
  8
1
 10
2538.7762554624592
 20
1371.6797421827559
 30
0.0
 11
3538.7762554624592
 21
1371.6797421827559
 31
0.0
  0
LINE
  5
7CDD
  8
2
 10
2526.7771989362609
 20
1994.6797421827559
 30
0.0
 11
3582.4103512588322
 21
1994.6797421827559
 31
0.0
  0
LINE
  5
7CDE
  8
1
 10
2568.7762554624592
 20
1931.479742182757
 30
0.0
 11
3053.7762554624592
 21
1931.479742182757
 31
0.0
  0
LINE
  5
7CDF
  8
1
 10
2538.7762554624592
 20
1484.6797421827559
 30
0.0
 11
3538.7762554624592
 21
1484.6797421827559
 31
0.0
  0
LINE
  5
7CE0
  8
1
 10
2538.7762554624592
 20
1559.6797421827571
 30
0.0
 11
3538.7762554624592
 21
1559.6797421827571
 31
0.0
  0
LINE
  5
7CE1
  8
1
 10
2568.7762554624592
 20
1934.6797421827571
 30
0.0
 11
3053.7762554624592
 21
1934.6797421827571
 31
0.0
  0
DIMENSION
  5
7CE2
  8
3
  2
*D6
 10
1632.72105546635
 20
2442.3586998725432
 30
0.0
 11
1376.72105546635
 21
2497.3586998725441
 31
0.0
 70
     0
 13
1120.72105546635
 23
2354.6797421827569
 33
0.0
 14
1632.72105546635
 24
2354.6797421827569
 34
0.0
 50
180.0
1001
ACAD
1000
DSTYLE
1002
{
1070
   287
1070
     3
1070
   287
1070
     3
1070
    40
1040
20.0
1070
   147
1040
1.5
1070
   173
1070
     1
1070
   272
1070
     4
1070
   279
1070
     0
1070
   284
1070
     0
1070
   285
1070
     0
1070
   286
1070
     0
1070
     6
1000
ARROW
1070
     7
1000
ARROW
1002
}
  0
DIMENSION
  5
7CE3
  8
3
  2
*D7
 10
1094.72105546635
 20
2548.5162160607319
 30
0.0
 11
1363.72105546635
 21
2603.5162160607319
 31
0.0
 70
     0
 13
1632.72105546635
 23
2354.6797421827569
 33
0.0
 14
1094.72105546635
 24
2382.582265088839
 34
0.0
 50
180.0
1001
ACAD
1000
DSTYLE
1002
{
1070
   287
1070
     3
1070
   287
1070
     3
1070
    40
1040
20.0
1070
   147
1040
1.5
1070
   173
1070
     1
1070
   272
1070
     4
1070
   279
1070
     0
1070
   284
1070
     0
1070
   285
1070
     0
1070
   286
1070
     0
1070
     6
1000
ARROW
1070
     7
1000
ARROW
1002
}
  0
DIMENSION
  5
7CE4
  8
3
  2
*D8
 10
733.67306465849015
 20
2548.5162160607319
 30
0.0
 11
914.19706006242029
 21
2603.5162160607319
 31
0.0
 70
     0
 13
1094.72105546635
 23
2382.582265088839
 33
0.0
 14
733.67306465849015
 24
1957.6797421827559
 34
0.0
 50
180.0
1001
ACAD
1000
DSTYLE
1002
{
1070
   287
1070
     4
1070
   287
1070
     4
1070
    40
1040
20.0
1070
    75
1070
     1
1070
   147
1040
1.5
1070
   173
1070
     1
1070
   272
1070
     4
1070
   279
1070
     1
1070
   284
1070
     0
1070
   285
1070
     0
1070
   286
1070
     0
1070
     6
1000
ARROW
1070
     7
1000
ARROW
1002
}
  0
LINE
  5
7CE6
  8
1
 10
1632.72105546635
 20
2354.6797421827569
 30
0.0
 11
1120.7210554663509
 21
2354.6797421827569
 31
0.0
  0
LINE
  5
7CE7
  8
1
 10
1110.72105546635
 20
2354.6797421827569
 30
0.0
 11
1642.753448986995
 21
2354.6797421827569
 31
0.0
  0
LINE
  5
7CE8
  8
1
 10
1103.1487602708301
 20
2354.6797421827569
 30
0.0
 11
1651.4591010011929
 21
2354.6797421827569
 31
0.0
  0
LINE
  5
7CE9
  8
1
 10
1653.8674564793059
 20
2351.6797421827569
 30
0.0
 11
1101.4489633928199
 21
2351.6797421827569
 31
0.0
  0
LINE
  5
7CEA
  8
1
 10
1640.739560098106
 20
2329.6797421827569
 30
0.0
 11
1118.121055466351
 21
2329.6797421827569
 31
0.0
  0
LINE
  5
7CEB
  8
1
 10
1316.7210554663479
 20
1875.4797421827559
 30
0.0
 11
1589.2399291930601
 21
1875.4797421827559
 31
0.0
  0
LINE
  5
7CEC
  8
1
 10
1316.7210554663479
 20
1881.4797421827559
 30
0.0
 11
1591.24463463956
 21
1881.4797421827559
 31
0.0
  0
ARC
  5
7CED
  8
1
 10
1131.72105546635
 20
2031.6797421827571
 30
0.0
 40
483.44799080786061
 50
294.82829886993011
 51
355.51647766714427
  0
ARC
  5
7CEE
  8
1
 10
1131.72105546635
 20
2031.6797421827571
 30
0.0
 40
473.44799080786078
 50
270.0
 51
355.5177596295751
  0
LINE
  5
7CEF
  8
1
 10
1071.2388000938431
 20
1935.6811516689111
 30
0.0
 11
1736.5423490193409
 21
1670.8811335661419
 31
0.0
  0
LINE
  5
7CF0
  8
1
 10
1041.7312809988441
 20
1854.3512568282749
 30
0.0
 11
1711.7312809988441
 21
1601.350956828275
 31
0.0
  0
DIMENSION
  5
7CF1
  8
3
  2
*D9
 10
1924.72105546635
 20
1183.1008552622229
 30
0.0
 11
1509.72105546635
 21
1238.1008552622229
 31
0.0
 70
     0
 13
1094.72105546635
 23
1343.201855650276
 33
0.0
 14
1924.72105546635
 24
1371.6797421827559
 34
0.0
 50
180.0
1001
ACAD
1000
DSTYLE
1002
{
1070
   287
1070
     4
1070
   287
1070
     4
1070
    40
1040
20.0
1070
    75
1070
     1
1070
   147
1040
1.5
1070
   173
1070
     1
1070
   272
1070
     4
1070
   279
1070
     1
1070
   284
1070
     0
1070
   285
1070
     0
1070
   286
1070
     0
1070
     6
1000
ARROW
1070
     7
1000
ARROW
1002
}
  0
LINE
  5
7CF2
  8
1
 10
844.72105546635055
 20
1559.6797421827571
 30
0.0
 11
1924.72105546635
 21
1559.6797421827571
 31
0.0
  0
LINE
  5
7CF3
  8
1
 10
844.72105546635055
 20
1484.6797421827559
 30
0.0
 11
1924.72105546635
 21
1484.6797421827559
 31
0.0
  0
LINE
  5
7CF4
  8
2
 10
1670.162732814827
 20
1994.6797421827559
 30
0.0
 11
651.57456215010643
 21
1994.6797421827559
 31
0.0
  0
LINE
  5
7CF5
  8
1
 10
844.72105546635055
 20
1446.6797421827559
 30
0.0
 11
1924.72105546635
 21
1446.6797421827559
 31
0.0
  0
LINE
  5
7CF6
  8
1
 10
844.72105546635055
 20
1371.6797421827559
 30
0.0
 11
1924.72105546635
 21
1371.6797421827559
 31
0.0
  0
LINE
  5
7CF7
  8
1
 10
1116.096421156333
 20
2054.4739203409981
 30
0.0
 11
1790.3714942943291
 21
1813.432455972646
 31
0.0
  0
LINE
  5
7CF8
  8
1
 10
1147.7108299338561
 20
2135.008227537237
 30
0.0
 11
1817.7108299338561
 21
1882.007927537237
 31
0.0
  0
LINE
  5
7CF9
  8
2
 10
1764.72105546635
 20
1630.314442182756
 30
0.0
 11
1764.72105546635
 21
1867.2624421827561
 31
0.0
  0
ARC
  5
7CFA
  8
1
 10
1764.72105546635
 20
1741.679442182756
 30
0.0
 40
117.0
 50
0.000000000000007
 51
246.69449999999989
  0
ARC
  5
7CFB
  8
1
 10
1764.72105546635
 20
1741.679442182756
 30
0.0
 40
121.5
 50
0.000000000000007
 51
243.8151
  0
ARC
  5
7CFC
  8
1
 10
1764.72105546635
 20
1741.679442182756
 30
0.0
 40
150.0
 50
249.3128423593229
 51
69.312842359323042
  0
LINE
  5
7CFD
  8
1
 10
1924.72105546635
 20
1484.6797421827559
 30
0.0
 11
1924.72105546635
 21
1559.6797421827571
 31
0.0
  0
LINE
  5
7CFE
  8
1
 10
1924.72105546635
 20
1446.6797421827559
 30
0.0
 11
1924.72105546635
 21
1371.6797421827559
 31
0.0
  0
LINE
  5
7CFF
  8
1
 10
1718.5393554663499
 20
1634.1797421827559
 30
0.0
 11
1810.9027554663501
 21
1634.1797421827559
 31
0.0
  0
LINE
  5
7D00
  8
1
 10
1711.0437554663499
 20
1632.6797421827559
 30
0.0
 11
1818.39835546635
 21
1632.6797421827559
 31
0.0
  0
LINE
  5
7D01
  8
2
 10
1890.59145546635
 20
1741.679442182756
 30
0.0
 11
1638.88845546635
 21
1741.679442182756
 31
0.0
  0
LINE
  5
7D02
  8
1
 10
1614.72105546635
 20
1589.6797421827571
 30
0.0
 11
1914.7210554663491
 21
1589.6797421827571
 31
0.0
  0
LINE
  5
7D03
  8
1
 10
1633.2086046977181
 20
1629.6797421827571
 30
0.0
 11
1896.2335062349821
 21
1629.6797421827559
 31
0.0
  0
CIRCLE
  5
7D04
  8
1
 10
1764.72105546635
 20
1741.679442182756
 30
0.0
 40
76.200000000000003
  0
ARC
  5
7D05
  8
1
 10
1764.72105546635
 20
1741.679442182756
 30
0.0
 40
117.0
 50
293.30739999999992
 51
0.000000000000007
  0
ARC
  5
7D06
  8
1
 10
1764.72105546635
 20
1741.679442182756
 30
0.0
 40
121.5
 50
296.24970000000002
 51
0.000000000000007
  0
LINE
  5
7D07
  8
1
 10
1865.5536554663499
 20
1673.8929421827561
 30
0.0
 11
1874.72105546635
 21
1639.6797421827559
 31
0.0
  0
LINE
  5
7D08
  8
1
 10
1874.72105546635
 20
1629.6797421827559
 30
0.0
 11
1834.72105546635
 21
1629.6797421827559
 31
0.0
  0
LINE
  5
7D09
  8
1
 10
1907.22105546635
 20
1589.6797421827571
 30
0.0
 11
1896.2335062349821
 21
1629.6797421827571
 31
0.0
  0
LINE
  5
7D0A
  8
1
 10
1914.7210554663491
 20
1559.6797421827571
 30
0.0
 11
1914.7210554663491
 21
1589.6797421827571
 31
0.0
  0
LINE
  5
7D0B
  8
1
 10
1874.72105546635
 20
1629.6797421827559
 30
0.0
 11
1874.72105546635
 21
1639.6797421827559
 31
0.0
  0
LINE
  5
7D0C
  8
1
 10
1834.72105546635
 20
1629.6797421827559
 30
0.0
 11
1834.72105546635
 21
1634.6086421827561
 31
0.0
  0
LINE
  5
7D0D
  8
1
 10
1831.33335546635
 20
1640.0674421827559
 30
0.0
 11
1833.2565554663499
 21
1638.144142182756
 31
0.0
  0
ARC
  5
7D0E
  8
1
 10
1829.72115546635
 20
1634.6086421827561
 30
0.0
 40
4.9999000000000002
 50
0.000000000000007
 51
45.000500000000002
  0
LINE
  5
7D0F
  8
1
 10
1663.88845546635
 20
1673.8929421827561
 30
0.0
 11
1654.72105546635
 21
1639.6797421827559
 31
0.0
  0
LINE
  5
7D10
  8
1
 10
1654.72105546635
 20
1629.6797421827559
 30
0.0
 11
1694.72105546635
 21
1629.6797421827559
 31
0.0
  0
LINE
  5
7D11
  8
1
 10
1694.72105546635
 20
1629.6797421827559
 30
0.0
 11
1694.72105546635
 21
1634.6086421827561
 31
0.0
  0
ARC
  5
7D12
  8
1
 10
1699.72095546635
 20
1634.6086421827561
 30
0.0
 40
4.9999000000000002
 50
134.99950000000001
 51
180.0
  0
LINE
  5
7D13
  8
1
 10
1698.10875546635
 20
1640.0674421827559
 30
0.0
 11
1696.18555546635
 21
1638.144142182756
 31
0.0
  0
LINE
  5
7D14
  8
1
 10
1654.72105546635
 20
1629.6797421827559
 30
0.0
 11
1654.72105546635
 21
1639.6797421827559
 31
0.0
  0
LINE
  5
7D15
  8
1
 10
1622.22105546635
 20
1589.6797421827571
 30
0.0
 11
1633.2086046977181
 21
1629.6797421827571
 31
0.0
  0
LINE
  5
7D16
  8
1
 10
1614.72105546635
 20
1559.6797421827571
 30
0.0
 11
1614.72105546635
 21
1589.6797421827571
 31
0.0
  0
LINE
  5
7D17
  8
1
 10
1632.72105546635
 20
2354.6797421827569
 30
0.0
 11
1603.72105546635
 21
1994.6797421827571
 31
0.0
  0
LINE
  5
7D18
  8
1
 10
1640.739560098106
 20
2329.6797421827569
 30
0.0
 11
1613.6896260582089
 21
1993.887457549544
 31
0.0
  0
LINE
  5
7D19
  8
1
 10
1634.727534170479
 20
2354.6797421827559
 30
0.0
 11
1605.7145976812601
 21
1994.5191512821109
 31
0.0
  0
INSERT
  5
7D1A
  8
1
  2
L02503
 10
1553.424870684875
 20
2439.9602720388011
 30
0.0
 41
-1.0
 50
180.0
  0
POINT
  5
7D1B
  8
1
 10
1632.6210554663501
 20
2354.6797421827569
 30
0.0
  0
POINT
  5
7D1C
  8
1
 10
1634.2262384296539
 20
2354.6797421827569
 30
0.0
  0
DIMENSION
  5
7D1D
  8
3
  2
*D10
 10
545.90580175639434
 20
1371.6797421827559
 30
0.0
 11
490.905801756394
 21
1221.203551706566
 31
0.0
 70
     0
 13
844.72105546635055
 23
1446.6797421827559
 33
0.0
 14
844.72105546635055
 24
1371.6797421827559
 34
0.0
 50
270.0
1001
ACAD
1000
DSTYLE
1002
{
1070
   287
1070
     3
1070
   287
1070
     3
1070
    40
1040
20.0
1070
   147
1040
1.5
1070
   173
1070
     1
1070
   272
1070
     4
1070
   279
1070
     0
1070
   284
1070
     0
1070
   285
1070
     0
1070
   286
1070
     0
1070
     6
1000
YA_N
1070
     7
1000
OPEN
1002
}
  0
DIMENSION
  5
7D1E
  8
3
  2
*D11
 10
1094.72105546635
 20
1183.1008552622229
 30
0.0
 11
969.72105546635055
 21
1238.1008552622229
 31
0.0
 70
     0
 13
844.72105546635055
 23
1371.6797421827559
 33
0.0
 14
1094.72105546635
 24
1343.201855650276
 34
0.0
 50
180.0
1001
ACAD
1000
DSTYLE
1002
{
1070
   287
1070
     3
1070
   287
1070
     3
1070
    40
1040
20.0
1070
   147
1040
1.5
1070
   173
1070
     1
1070
   272
1070
     4
1070
   279
1070
     0
1070
   284
1070
     0
1070
   285
1070
     0
1070
   286
1070
     0
1070
     6
1000
ARROW
1070
     7
1000
ARROW
1002
}
  0
LINE
  5
7D1F
  8
1
 10
729.42611742139695
 20
1881.4797421827559
 30
0.0
 11
872.72105546635066
 21
1881.4797421827559
 31
0.0
  0
LINE
  5
7D20
  8
1
 10
730.60907960849499
 20
1875.4797421827559
 30
0.0
 11
872.72105546635066
 21
1875.4797421827559
 31
0.0
  0
ARC
  5
7D21
  8
1
 10
1131.7210554663509
 20
1957.6797421827571
 30
0.0
 40
409.44799080786049
 50
174.95754893082901
 51
206.8610166762515
  0
DIMENSION
  5
7D22
  8
3
  2
*D12
 10
545.90580175639434
 20
1484.6797421827559
 30
0.0
 11
490.90580175639411
 21
1739.6797421827571
 31
0.0
 70
     0
 13
651.57456215010643
 23
1994.6797421827559
 33
0.0
 14
844.72105546635055
 24
1484.6797421827559
 34
0.0
 50
270.0
1001
ACAD
1000
DSTYLE
1002
{
1070
   287
1070
     4
1070
   287
1070
     4
1070
    40
1040
20.0
1070
    75
1070
     1
1070
   147
1040
1.5
1070
   173
1070
     1
1070
   272
1070
     4
1070
   279
1070
     1
1070
   284
1070
     0
1070
   285
1070
     0
1070
   286
1070
     0
1070
     6
1000
ARROW
1070
     7
1000
ARROW
1002
}
  0
DIMENSION
  5
7D23
  8
3
  2
*D13
 10
545.90580175639434
 20
1446.6797421827559
 30
0.0
 11
374.71532556591791
 21
1526.608313611328
 31
0.0
 70
     0
  1
(38)
 13
844.72105546635055
 23
1484.6797421827559
 33
0.0
 14
844.72105546635055
 24
1446.6797421827559
 34
0.0
 50
270.0
1001
ACAD
1000
DSTYLE
1002
{
1070
   287
1070
     4
1070
   287
1070
     4
1070
    40
1040
20.0
1070
    75
1070
     1
1070
   147
1040
1.5
1070
   173
1070
     1
1070
   272
1070
     4
1070
   279
1070
     1
1070
   284
1070
     0
1070
   285
1070
     0
1070
   286
1070
     0
1070
     6
1000
OPEN
1070
     7
1000
YA_N
1002
}
  0
ARC
  5
7D24
  8
1
 10
1131.72105546635
 20
1957.6797421827559
 30
0.0
 40
398.04799080786057
 50
174.95754893082901
 51
270.0
  0
ARC
  5
7D25
  8
1
 10
1063.7210554663509
 20
1963.6797421827571
 30
0.0
 40
341.18379814435662
 50
132.1375931672826
 51
174.95754893082909
  0
ARC
  5
7D26
  8
1
 10
1063.72105546635
 20
1963.6797421827559
 30
0.0
 40
329.7837981443563
 50
90.0
 51
174.95754893082901
  0
DIMENSION
  5
7D27
  8
3
  2
*D14
 10
545.90580175639434
 20
1994.6797421827559
 30
0.0
 11
490.905801756394
 21
2174.6797421827569
 31
0.0
 70
     0
 13
1094.121055466351
 23
2354.6797421827569
 33
0.0
 14
651.57456215010643
 24
1994.6797421827559
 34
0.0
 50
270.0
1001
ACAD
1000
DSTYLE
1002
{
1070
   287
1070
     3
1070
   287
1070
     3
1070
    40
1040
20.0
1070
   147
1040
1.5
1070
   173
1070
     1
1070
   272
1070
     4
1070
   279
1070
     0
1070
   284
1070
     0
1070
   285
1070
     0
1070
   286
1070
     0
1070
     6
1000
ARROW
1070
     7
1000
ARROW
1002
}
  0
LINE
  5
7D28
  8
1
 10
1316.72105546633
 20
1559.6797421827571
 30
0.0
 11
1316.72105546635
 21
1931.4797421827559
 31
0.0
  0
LINE
  5
7D29
  8
1
 10
872.72105546635066
 20
1559.6797421827571
 30
0.0
 11
872.72105546635066
 21
1931.479742182757
 31
0.0
  0
LINE
  5
7D2A
  8
2
 10
1094.72105546635
 20
1343.201855650276
 30
0.0
 11
1094.72105546635
 21
2382.582265088839
 31
0.0
  0
LINE
  5
7D2B
  8
1
 10
1334.72105546635
 20
1559.6797421827571
 30
0.0
 11
1334.72105546635
 21
1599.6797421827571
 31
0.0
  0
LINE
  5
7D2C
  8
1
 10
1316.72105546633
 20
1564.6797421827559
 30
0.0
 11
1334.72105546635
 21
1564.6797421827559
 31
0.0
  0
LINE
  5
7D2D
  8
1
 10
1316.7210554663329
 20
1599.6797421827571
 30
0.0
 11
1334.72105546635
 21
1599.6797421827571
 31
0.0
  0
LINE
  5
7D2E
  8
1
 10
844.72105546635055
 20
1484.6797421827559
 30
0.0
 11
844.72105546635055
 21
1559.6797421827571
 31
0.0
  0
LINE
  5
7D2F
  8
1
 10
844.72105546635055
 20
1446.6797421827559
 30
0.0
 11
844.72105546635055
 21
1371.6797421827559
 31
0.0
  0
ARC
  5
7D30
  8
1
 10
1131.7210554663509
 20
1957.6797421827571
 30
0.0
 40
409.44799080786049
 50
206.8610166762515
 51
230.7608278242385
  0
LINE
  5
7D31
  8
1
 10
854.72105546635055
 20
1564.6797421827559
 30
0.0
 11
872.72105546635066
 21
1564.6797421827559
 31
0.0
  0
LINE
  5
7D32
  8
1
 10
854.72105546635055
 20
1599.6797421827571
 30
0.0
 11
872.72105546635066
 21
1599.6797421827571
 31
0.0
  0
LINE
  5
7D33
  8
1
 10
854.72105546635055
 20
1559.6797421827571
 30
0.0
 11
854.72105546635055
 21
1599.6797421827571
 31
0.0
  0
ARC
  5
7D34
  8
1
 10
1063.7210554663509
 20
2025.6797421827559
 30
0.0
 40
269.18379814435679
 50
57.013309525179601
 51
90.000000000000256
  0
LINE
  5
7D35
  8
1
 10
1326.72105546635
 20
1934.6797421827571
 30
0.0
 11
862.72105546635055
 21
1934.6797421827571
 31
0.0
  0
LINE
  5
7D36
  8
1
 10
1359.72105546635
 20
1931.479742182757
 30
0.0
 11
829.72105546635055
 21
1931.479742182757
 31
0.0
  0
CIRCLE
  5
7D37
  8
1
 10
1094.72105546635
 20
1994.6797421827559
 30
0.0
 40
63.5
  0
LINE
  5
7D38
  8
1
 10
1359.72105546635
 20
1881.4797421827559
 30
0.0
 11
1359.72105546635
 21
1931.4797421827559
 31
0.0
  0
LINE
  5
7D39
  8
1
 10
1326.72105546635
 20
1931.4797421827559
 30
0.0
 11
1326.72105546635
 21
1934.6797421827559
 31
0.0
  0
LINE
  5
7D3A
  8
1
 10
1269.72105546635
 20
2354.6797421827569
 30
0.0
 11
1288.5381496445
 21
2305.0519579617112
 31
0.0
  0
ARC
  5
7D3B
  8
1
 10
1242.72105546635
 20
2287.6797421827569
 30
0.0
 40
49.0
 50
225.68249193757549
 51
20.764949276736491
  0
ARC
  5
7D3C
  8
1
 10
1094.72105546635
 20
1994.6797421827559
 30
0.0
 40
150.0
 50
69.312842359323042
 51
249.3128423593229
  0
LINE
  5
7D3D
  8
1
 10
862.72105546635055
 20
1931.479742182757
 30
0.0
 11
862.72105546635055
 21
1934.6797421827571
 31
0.0
  0
LINE
  5
7D3E
  8
1
 10
829.72105546635055
 20
1881.4797421827559
 30
0.0
 11
829.72105546635055
 21
1931.4797421827559
 31
0.0
  0
ARC
  5
7D3F
  8
1
 10
1063.7210554663509
 20
1963.6797421827571
 30
0.0
 40
341.18379814435662
 50
90.000000000000298
 51
132.1375931672826
  0
LINE
  5
7D40
  8
1
 10
1120.72105546635
 20
2288.759420575866
 30
0.0
 11
1120.72105546635
 21
2354.6797421827569
 31
0.0
  0
LINE
  5
7D41
  8
1
 10
1110.72105546635
 20
2300.8789303107551
 30
0.0
 11
1110.72105546635
 21
2329.6797421827569
 31
0.0
  0
LINE
  5
7D42
  8
1
 10
1119.121055466351
 20
2288.759420575866
 30
0.0
 11
1119.121055466351
 21
2354.6797421827569
 31
0.0
  0
ARC
  5
7D43
  8
1
 10
1063.7210554663491
 20
2025.6797421827571
 30
0.0
 40
279.1837981443565
 50
80.30822492884009
 51
90.0
  0
INSERT
  5
7D44
  8
1
  2
L02503
 10
1200.323718951955
 20
2439.9602720388011
 30
0.0
 50
180.0
  0
LINE
  5
7D45
  8
1
 10
1110.72105546635
 20
2329.6797421827569
 30
0.0
 11
1119.121055466351
 21
2329.6797421827569
 31
0.0
  0
LINE
  5
7D46
  8
1
 10
2453.7762554624592
 20
2144.6797421827569
 30
0.0
 11
2453.7762554624592
 21
1591.679442182756
 31
0.0
  0
LINE
  5
7D47
  8
1
 10
2533.7762554624592
 20
1931.1797421827571
 30
0.0
 11
2533.7762554624592
 21
1817.8794421827561
 31
0.0
  0
LINE
  5
7D48
  8
1
 10
2483.7762554624578
 20
1931.1797421827559
 30
0.0
 11
2483.7762554624578
 21
1809.6113556103601
 31
0.0
  0
LINE
  5
7D49
  8
1
 10
2559.7762554624592
 20
1644.6797421827559
 30
0.0
 11
2559.7762554624592
 21
1862.679442182756
 31
0.0
  0
CIRCLE
  5
7D4A
  8
3
 10
545.90580175639434
 20
1446.6797421827559
 30
0.0
 40
4.0
  0
LINE
  5
7D4B
  8
1
 10
2538.7762554624592
 20
1559.6797421827571
 30
0.0
 11
2538.7762554624592
 21
1484.6797421827559
 31
0.0
  0
LINE
  5
7D4C
  8
1
 10
2538.7762554624592
 20
1446.6797421827559
 30
0.0
 11
2538.7762554624592
 21
1371.6797421827559
 31
0.0
  0
LINE
  5
7D4D
  8
1
 10
2533.7762554624592
 20
1665.479442182756
 30
0.0
 11
2533.7762554624592
 21
1817.8794421827561
 31
0.0
  0
LINE
  5
7D4E
  8
1
 10
2483.7762554624578
 20
1665.479442182756
 30
0.0
 11
2483.7762554624578
 21
1817.8794421827561
 31
0.0
  0
LINE
  5
7D4F
  8
1
 10
2483.7762554624578
 20
1665.479442182756
 30
0.0
 11
2533.7762554624578
 21
1665.479442182756
 31
0.0
  0
ARC
  5
7D50
  8
1
 10
2561.7762554624578
 20
1644.6798421827559
 30
0.0
 40
2.0001000000000002
 50
180.00349999999989
 51
270.0
  0
LINE
  5
7D51
  8
1
 10
2543.7762554624592
 20
1726.179442182756
 30
0.0
 11
2543.7762554624592
 21
1757.179442182756
 31
0.0
  0
LINE
  5
7D52
  8
1
 10
2549.7762554624578
 20
1699.179442182756
 30
0.0
 11
2549.7762554624578
 21
1784.179442182756
 31
0.0
  0
LINE
  5
7D53
  8
1
 10
2549.7762554624578
 20
1726.179442182756
 30
0.0
 11
2543.7762554624592
 21
1726.179442182756
 31
0.0
  0
LINE
  5
7D54
  8
1
 10
2559.7762554624592
 20
1699.179442182756
 30
0.0
 11
2549.7762554624578
 21
1699.179442182756
 31
0.0
  0
LINE
  5
7D55
  8
1
 10
2543.7762554624592
 20
1727.679442182756
 30
0.0
 11
2533.7762554624592
 21
1727.679442182756
 31
0.0
  0
LINE
  5
7D56
  8
1
 10
2483.7762554624578
 20
1817.8794421827561
 30
0.0
 11
2533.7762554624578
 21
1817.8794421827561
 31
0.0
  0
LINE
  5
7D57
  8
1
 10
2543.7762554624592
 20
1757.179442182756
 30
0.0
 11
2549.7762554624578
 21
1757.179442182756
 31
0.0
  0
LINE
  5
7D58
  8
1
 10
2559.7762554624592
 20
1784.179442182756
 30
0.0
 11
2549.7762554624578
 21
1784.179442182756
 31
0.0
  0
LINE
  5
7D59
  8
1
 10
2543.7762554624592
 20
1755.679442182756
 30
0.0
 11
2533.7762554624592
 21
1755.679442182756
 31
0.0
  0
LINE
  5
7D5A
  8
1
 10
2533.7762554624592
 20
2058.1797421827559
 30
0.0
 11
2533.7762554624592
 21
1931.1797421827571
 31
0.0
  0
LINE
  5
7D5B
  8
1
 10
2483.7762554624578
 20
2058.1797421827559
 30
0.0
 11
2483.7762554624578
 21
1931.1797421827571
 31
0.0
  0
LINE
  5
7D5C
  8
1
 10
2483.7762554624578
 20
1931.1797421827559
 30
0.0
 11
2533.7762554624592
 21
1931.1797421827571
 31
0.0
  0
POINT
  5
7D5D
  8
1
 10
2568.7762554624592
 20
1934.6797421827571
 30
0.0
  0
LINE
  5
7D5E
  8
1
 10
2568.7762554624592
 20
1934.6797421827571
 30
0.0
 11
2568.7762554624592
 21
1931.479742182757
 31
0.0
  0
LINE
  5
7D5F
  8
1
 10
2483.7762554624578
 20
2058.1797421827569
 30
0.0
 11
2533.7762554624592
 21
2058.1797421827559
 31
0.0
  0
LINE
  5
7D60
  8
1
 10
1639.326238429654
 20
4286.1541628245941
 30
0.0
 11
1123.326238429654
 21
3906.1541628245941
 31
0.0
  0
LINE
  5
7D61
  8
1
 10
1123.326238429654
 20
4286.1541628245941
 30
0.0
 11
1639.326238429654
 21
3906.1541628245941
 31
0.0
  0
LINE
  5
7D62
  8
1
 10
1123.326238429654
 20
3906.1541628245941
 30
0.0
 11
1639.326238429654
 21
3906.1541628245941
 31
0.0
  0
LINE
  5
7D63
  8
1
 10
1123.326238429654
 20
4286.1541628245941
 30
0.0
 11
1639.326238429654
 21
4286.1541628245941
 31
0.0
  0
LINE
  5
7D64
  8
1
 10
1098.326238429654
 20
3881.1541628245941
 30
0.0
 11
1664.326238429654
 21
3881.1541628245941
 31
0.0
  0
LINE
  5
7D65
  8
1
 10
1098.326238429654
 20
4311.1541628245941
 30
0.0
 11
1664.326238429654
 21
4311.1541628245941
 31
0.0
  0
DIMENSION
  5
7D66
  8
3
  2
*D15
 10
1924.72105546635
 20
4469.4389140303056
 30
0.0
 11
1634.72105546635
 21
4524.4389140303056
 31
0.0
 70
     0
 13
1344.72105546635
 23
4326.1541628245923
 33
0.0
 14
1924.72105546635
 24
3886.1541628245918
 34
0.0
 50
180.0
1001
ACAD
1000
DSTYLE
1002
{
1070
   287
1070
     4
1070
   287
1070
     4
1070
    40
1040
20.0
1070
    75
1070
     1
1070
   147
1040
1.5
1070
   173
1070
     1
1070
   272
1070
     4
1070
   279
1070
     1
1070
   284
1070
     0
1070
   285
1070
     0
1070
   286
1070
     0
1070
     6
1000
ARROW
1070
     7
1000
ARROW
1002
}
  0
LINE
  5
7D67
  8
1
 10
1344.72105546635
 20
3846.1541628245909
 30
0.0
 11
1924.72105546635
 21
3846.1541628245909
 31
0.0
  0
LINE
  5
7D68
  8
1
 10
1326.72105546635
 20
3366.1541628245909
 30
0.0
 11
1643.72105546635
 21
3366.1541628245918
 31
0.0
  0
LINE
  5
7D69
  8
1
 10
1170.92105546635
 20
3271.1541628245932
 30
0.0
 11
1701.22105546635
 21
3271.1541628245932
 31
0.0
  0
LINE
  5
7D6A
  8
1
 10
1170.92105546635
 20
3321.1541628245932
 30
0.0
 11
1701.2210554663509
 21
3321.1541628245932
 31
0.0
  0
LINE
  5
7D6B
  8
1
 10
944.72105546635055
 20
3241.1541628245932
 30
0.0
 11
1914.72105546635
 21
3241.1541628245932
 31
0.0
  0
LINE
  5
7D6C
  8
1
 10
944.72105546635055
 20
3363.1541628245932
 30
0.0
 11
1914.72105546635
 21
3363.1541628245932
 31
0.0
  0
LINE
  5
7D6D
  8
1
 10
1117.22105546635
 20
3326.1541628245909
 30
0.0
 11
1924.72105546635
 21
3326.1541628245918
 31
0.0
  0
LINE
  5
7D6E
  8
2
 10
695.56545079281705
 20
4096.1541628245941
 30
0.0
 11
1675.8408813845431
 21
4096.1541628245941
 31
0.0
  0
DIMENSION
  5
7D6F
  8
3
  2
*D16
 10
1924.72105546635
 20
3009.3359103246339
 30
0.0
 11
1384.72105546635
 21
3064.3359103246339
 31
0.0
 70
     0
 13
844.72105546635055
 23
3326.1541628245918
 33
0.0
 14
1924.72105546635
 24
3326.1541628245918
 34
0.0
 50
180.0
1001
ACAD
1000
DSTYLE
1002
{
1070
   287
1070
     3
1070
   287
1070
     3
1070
    40
1040
20.0
1070
   147
1040
1.5
1070
   173
1070
     1
1070
   272
1070
     4
1070
   279
1070
     0
1070
   284
1070
     0
1070
   285
1070
     0
1070
   286
1070
     0
1070
     6
1000
ARROW
1070
     7
1000
ARROW
1002
}
  0
DIMENSION
  5
7D70
  8
3
  2
*D17
 10
2111.355640025105
 20
3326.1541628245918
 30
0.0
 11
2056.3556400251041
 21
3606.1541628245932
 31
0.0
 70
     0
 13
1924.72105546635
 23
3886.1541628245918
 33
0.0
 14
1924.72105546635
 24
3326.1541628245918
 34
0.0
 50
270.0
1001
ACAD
1000
DSTYLE
1002
{
1070
   287
1070
     3
1070
   287
1070
     3
1070
    40
1040
20.0
1070
   147
1040
1.5
1070
   173
1070
     1
1070
   272
1070
     4
1070
   279
1070
     0
1070
   284
1070
     0
1070
   285
1070
     0
1070
   286
1070
     0
1070
     6
1000
ARROW
1070
     7
1000
ARROW
1002
}
  0
LINE
  5
7D71
  8
2
 10
1764.72105546635
 20
3267.564162824594
 30
0.0
 11
1764.72105546635
 21
3657.6799628245931
 31
0.0
  0
LINE
  5
7D72
  8
1
 10
1643.72105546635
 20
3347.1541628245932
 30
0.0
 11
1643.72105546635
 21
3654.1541628245932
 31
0.0
  0
LINE
  5
7D73
  8
1
 10
1885.72105546635
 20
3347.1541628245932
 30
0.0
 11
1885.72105546635
 21
3654.1541628245932
 31
0.0
  0
LINE
  5
7D74
  8
1
 10
1807.22105546635
 20
3337.1541628245932
 30
0.0
 11
1722.22105546635
 21
3337.1541628245932
 31
0.0
  0
LINE
  5
7D75
  8
1
 10
1828.22105546635
 20
3271.1541628245932
 30
0.0
 11
1701.22105546635
 21
3271.1541628245932
 31
0.0
  0
LINE
  5
7D76
  8
1
 10
1828.22105546635
 20
3321.1541628245941
 30
0.0
 11
1701.22105546635
 21
3321.1541628245932
 31
0.0
  0
LINE
  5
7D77
  8
1
 10
1885.72105546635
 20
3347.1541628245932
 30
0.0
 11
1643.72105546635
 21
3347.1541628245932
 31
0.0
  0
LINE
  5
7D78
  8
1
 10
1914.72105546635
 20
3241.1541628245932
 30
0.0
 11
1914.72105546635
 21
3363.1541628245932
 31
0.0
  0
LINE
  5
7D79
  8
1
 10
1828.22105546635
 20
3271.1541628245932
 30
0.0
 11
1828.2210554663509
 21
3321.1541628245941
 31
0.0
  0
LINE
  5
7D7A
  8
1
 10
1885.7210554663509
 20
3366.1541628245918
 30
0.0
 11
1924.72105546635
 21
3366.1541628245918
 31
0.0
  0
LINE
  5
7D7B
  8
1
 10
1924.72105546635
 20
3326.1541628245918
 30
0.0
 11
1924.72105546635
 21
3366.1541628245918
 31
0.0
  0
POINT
  5
7D7C
  8
1
 10
1924.72105546635
 20
3326.1541628245918
 30
0.0
  0
POINT
  5
7D7D
  8
1
 10
1924.72105546635
 20
3326.1541628245918
 30
0.0
  0
POINT
  5
7D7E
  8
1
 10
1924.72105546635
 20
3326.1541628245918
 30
0.0
  0
LINE
  5
7D7F
  8
1
 10
1807.22105546635
 20
3347.1541628245932
 30
0.0
 11
1807.22105546635
 21
3337.1541628245932
 31
0.0
  0
LINE
  5
7D80
  8
1
 10
1780.22105546635
 20
3337.1541628245932
 30
0.0
 11
1780.22105546635
 21
3331.1541628245932
 31
0.0
  0
LINE
  5
7D81
  8
1
 10
1778.72105546635
 20
3331.1541628245932
 30
0.0
 11
1778.7210554663509
 21
3321.1541628245941
 31
0.0
  0
LINE
  5
7D82
  8
1
 10
1749.22105546635
 20
3331.1541628245932
 30
0.0
 11
1749.22105546635
 21
3337.1541628245932
 31
0.0
  0
LINE
  5
7D83
  8
1
 10
1750.7210554663509
 20
3331.1541628245932
 30
0.0
 11
1750.7210554663509
 21
3321.1541628245941
 31
0.0
  0
LINE
  5
7D84
  8
1
 10
1780.22105546635
 20
3331.1541628245932
 30
0.0
 11
1749.22105546635
 21
3331.1541628245932
 31
0.0
  0
LINE
  5
7D85
  8
1
 10
1701.22105546635
 20
3271.1541628245932
 30
0.0
 11
1701.2210554663509
 21
3321.1541628245932
 31
0.0
  0
LINE
  5
7D86
  8
1
 10
1722.22105546635
 20
3347.1541628245932
 30
0.0
 11
1722.22105546635
 21
3337.1541628245932
 31
0.0
  0
LINE
  5
7D87
  8
1
 10
1885.72105546635
 20
3654.1541628245932
 30
0.0
 11
1643.72105546635
 21
3654.1541628245932
 31
0.0
  0
LINE
  5
7D88
  8
1
 10
1639.326238429654
 20
3906.1541628245941
 30
0.0
 11
1639.326238429654
 21
4286.1541628245941
 31
0.0
  0
LINE
  5
7D89
  8
1
 10
1664.326238429654
 20
3881.1541628245941
 30
0.0
 11
1664.326238429654
 21
4311.1541628245941
 31
0.0
  0
LINE
  5
7D8A
  8
1
 10
1664.326238429654
 20
3886.1541628245918
 30
0.0
 11
1924.72105546635
 21
3886.1541628245918
 31
0.0
  0
LINE
  5
7D8B
  8
1
 10
1924.72105546635
 20
3846.1541628245909
 30
0.0
 11
1924.72105546635
 21
3886.1541628245918
 31
0.0
  0
LINE
  5
7D8C
  8
1
 10
1189.72105546635
 20
3757.954162824592
 30
0.0
 11
1189.72105546635
 21
3814.354162824593
 31
0.0
  0
LINE
  5
7D8D
  8
1
 10
1194.72105546635
 20
3753.6541628245932
 30
0.0
 11
1194.72105546635
 21
3818.6541628245941
 31
0.0
  0
LINE
  5
7D8E
  8
1
 10
999.72105546635066
 20
3757.954162824592
 30
0.0
 11
999.72105546635066
 21
3814.354162824593
 31
0.0
  0
LINE
  5
7D8F
  8
1
 10
994.72105546635055
 20
3753.6541628245932
 30
0.0
 11
994.72105546635055
 21
3818.6541628245941
 31
0.0
  0
LINE
  5
7D90
  8
2
 10
1094.72105546635
 20
3238.6715517134012
 30
0.0
 11
1094.72105546635
 21
3970.9637990288579
 31
0.0
  0
LINE
  5
7D91
  8
1
 10
1344.72105546635
 20
3366.1541628245918
 30
0.0
 11
1344.72105546635
 21
3881.1541628245941
 31
0.0
  0
LINE
  5
7D92
  8
1
 10
1326.72105546635
 20
3356.1541628245932
 30
0.0
 11
1326.72105546635
 21
3841.1541628245932
 31
0.0
  0
LINE
  5
7D93
  8
1
 10
844.72105546635055
 20
3326.1541628245918
 30
0.0
 11
844.72105546635055
 21
3908.6541628245941
 31
0.0
  0
DIMENSION
  5
7D94
  8
3
  2
*D18
 10
539.90332367784629
 20
4326.1541628245923
 30
0.0
 11
484.90332367784572
 21
3826.1541628245918
 31
0.0
 70
     0
 13
844.72105546635055
 23
3326.1541628245918
 33
0.0
 14
844.72105546635055
 24
4326.1541628245923
 34
0.0
 50
270.0
1001
ACAD
1000
DSTYLE
1002
{
1070
   287
1070
     3
1070
   287
1070
     3
1070
    40
1040
20.0
1070
   147
1040
1.5
1070
   173
1070
     1
1070
   272
1070
     4
1070
   279
1070
     0
1070
   284
1070
     0
1070
   285
1070
     0
1070
   286
1070
     0
1070
     6
1000
ARROW
1070
     7
1000
ARROW
1002
}
  0
LINE
  5
7D95
  8
1
 10
862.72105546635055
 20
3356.1541628245932
 30
0.0
 11
862.72105546635055
 21
3841.1541628245932
 31
0.0
  0
LINE
  5
7D96
  8
1
 10
1117.22105546635
 20
3753.654162824595
 30
0.0
 11
1194.72105546635
 21
3753.6541628245941
 31
0.0
  0
LINE
  5
7D97
  8
1
 10
999.72105546635066
 20
3757.954162824592
 30
0.0
 11
1189.72105546635
 21
3757.9541628245929
 31
0.0
  0
LINE
  5
7D98
  8
1
 10
1018.521055466351
 20
3271.1541628245932
 30
0.0
 11
1170.92105546635
 21
3271.1541628245932
 31
0.0
  0
LINE
  5
7D99
  8
1
 10
1117.22105546635
 20
3378.6541628245932
 30
0.0
 11
1194.72105546635
 21
3378.6541628245941
 31
0.0
  0
LINE
  5
7D9A
  8
1
 10
1117.22105546635
 20
3443.6541628245941
 30
0.0
 11
1194.72105546635
 21
3443.6541628245941
 31
0.0
  0
LINE
  5
7D9B
  8
1
 10
999.72105546635066
 20
3382.954162824592
 30
0.0
 11
1189.72105546635
 21
3382.9541628245929
 31
0.0
  0
LINE
  5
7D9C
  8
1
 10
999.72105546635066
 20
3439.354162824593
 30
0.0
 11
1189.72105546635
 21
3439.354162824593
 31
0.0
  0
LINE
  5
7D9D
  8
1
 10
1018.521055466351
 20
3321.1541628245932
 30
0.0
 11
1170.92105546635
 21
3321.1541628245932
 31
0.0
  0
LINE
  5
7D9E
  8
2
 10
979.60923095460146
 20
3411.1541628245932
 30
0.0
 11
1209.8328799780991
 21
3411.1541628245932
 31
0.0
  0
LINE
  5
7D9F
  8
1
 10
1117.22105546635
 20
3356.1541628245932
 30
0.0
 11
1326.72105546635
 21
3356.1541628245932
 31
0.0
  0
LINE
  5
7DA0
  8
1
 10
1170.92105546635
 20
3271.1541628245932
 30
0.0
 11
1170.92105546635
 21
3321.1541628245932
 31
0.0
  0
LINE
  5
7DA1
  8
1
 10
1189.72105546635
 20
3382.954162824592
 30
0.0
 11
1189.72105546635
 21
3439.354162824593
 31
0.0
  0
LINE
  5
7DA2
  8
1
 10
1194.72105546635
 20
3378.6541628245932
 30
0.0
 11
1194.72105546635
 21
3443.6541628245941
 31
0.0
  0
LINE
  5
7DA3
  8
1
 10
1072.22105546635
 20
3439.354162824593
 30
0.0
 11
1072.22105546635
 21
3757.9541628245929
 31
0.0
  0
LINE
  5
7DA4
  8
1
 10
1117.22105546635
 20
3439.354162824593
 30
0.0
 11
1117.22105546635
 21
3757.9541628245929
 31
0.0
  0
LINE
  5
7DA5
  8
1
 10
862.72105546635055
 20
3356.1541628245932
 30
0.0
 11
1072.22105546635
 21
3356.1541628245932
 31
0.0
  0
LINE
  5
7DA6
  8
1
 10
844.72105546635055
 20
3326.1541628245918
 30
0.0
 11
1072.22105546635
 21
3326.1541628245909
 31
0.0
  0
LINE
  5
7DA7
  8
1
 10
1018.521055466351
 20
3271.1541628245932
 30
0.0
 11
1018.521055466351
 21
3321.1541628245932
 31
0.0
  0
LINE
  5
7DA8
  8
1
 10
994.72105546635055
 20
3443.6541628245941
 30
0.0
 11
1072.22105546635
 21
3443.6541628245941
 31
0.0
  0
LINE
  5
7DA9
  8
1
 10
994.72105546635055
 20
3378.6541628245932
 30
0.0
 11
1072.22105546635
 21
3378.6541628245932
 31
0.0
  0
LINE
  5
7DAA
  8
1
 10
1117.22105546635
 20
3321.1541628245932
 30
0.0
 11
1117.22105546635
 21
3382.9541628245929
 31
0.0
  0
LINE
  5
7DAB
  8
1
 10
1072.22105546635
 20
3321.1541628245932
 30
0.0
 11
1072.22105546635
 21
3382.9541628245929
 31
0.0
  0
LINE
  5
7DAC
  8
1
 10
999.72105546635066
 20
3382.954162824592
 30
0.0
 11
999.72105546635066
 21
3439.354162824593
 31
0.0
  0
LINE
  5
7DAD
  8
1
 10
994.72105546635055
 20
3378.6541628245932
 30
0.0
 11
994.72105546635055
 21
3443.6541628245941
 31
0.0
  0
LINE
  5
7DAE
  8
1
 10
944.72105546635055
 20
3241.1541628245918
 30
0.0
 11
944.72105546635055
 21
3363.1541628245918
 31
0.0
  0
LINE
  5
7DAF
  8
1
 10
844.72105546635055
 20
3366.1541628245918
 30
0.0
 11
862.72105546635055
 21
3366.1541628245909
 31
0.0
  0
LINE
  5
7DB0
  8
1
 10
994.72105546635055
 20
3753.6541628245932
 30
0.0
 11
1072.22105546635
 21
3753.6541628245941
 31
0.0
  0
LINE
  5
7DB1
  8
1
 10
733.67306465849015
 20
3908.6541628245932
 30
0.0
 11
1098.326238429654
 21
3908.6541628245941
 31
0.0
  0
LINE
  5
7DB2
  8
1
 10
733.67306465849015
 20
4283.6541628245941
 30
0.0
 11
1098.326238429654
 21
4283.6541628245941
 31
0.0
  0
DIMENSION
  5
7DB3
  8
3
  2
*D19
 10
1344.72105546635
 20
4469.4389140303056
 30
0.0
 11
1094.72105546635
 21
4524.4389140303056
 31
0.0
 70
     0
 13
844.72105546635055
 23
4326.1541628245923
 33
0.0
 14
1344.72105546635
 24
4326.1541628245923
 34
0.0
 50
180.0
1001
ACAD
1000
DSTYLE
1002
{
1070
   287
1070
     3
1070
   287
1070
     3
1070
    40
1040
20.0
1070
   147
1040
1.5
1070
   173
1070
     1
1070
   272
1070
     4
1070
   279
1070
     0
1070
   284
1070
     0
1070
   285
1070
     0
1070
   286
1070
     0
1070
     6
1000
ARROW
1070
     7
1000
ARROW
1002
}
  0
LINE
  5
7DB4
  8
1
 10
1117.22105546635
 20
3818.6541628245941
 30
0.0
 11
1194.72105546635
 21
3818.6541628245941
 31
0.0
  0
LINE
  5
7DB5
  8
1
 10
999.72105546635066
 20
3814.354162824593
 30
0.0
 11
1189.72105546635
 21
3814.354162824593
 31
0.0
  0
LINE
  5
7DB6
  8
1
 10
979.60923095460146
 20
3786.1541628245932
 30
0.0
 11
1209.8328799780991
 21
3786.1541628245932
 31
0.0
  0
LINE
  5
7DB7
  8
1
 10
862.72105546635055
 20
3841.1541628245932
 30
0.0
 11
1326.72105546635
 21
3841.1541628245932
 31
0.0
  0
LINE
  5
7DB8
  8
1
 10
844.72105546635055
 20
4326.1541628245923
 30
0.0
 11
1344.72105546635
 21
4326.1541628245923
 31
0.0
  0
LINE
  5
7DB9
  8
1
 10
1304.72105546635
 20
3841.1541628245932
 30
0.0
 11
1304.72105546635
 21
3881.1541628245941
 31
0.0
  0
LINE
  5
7DBA
  8
1
 10
1304.72105546635
 20
3841.1541628245932
 30
0.0
 11
1304.72105546635
 21
3867.1541628245918
 31
0.0
  0
LINE
  5
7DBB
  8
1
 10
1344.72105546635
 20
4311.1541628245941
 30
0.0
 11
1344.72105546635
 21
4326.1541628245923
 31
0.0
  0
LINE
  5
7DBC
  8
1
 10
1304.72105546635
 20
4311.1541628245941
 30
0.0
 11
1304.72105546635
 21
4326.1541628245923
 31
0.0
  0
LINE
  5
7DBD
  8
1
 10
1094.72105546635
 20
4025.5804066427759
 30
0.0
 11
1094.72105546635
 21
4335.2743838353272
 31
0.0
  0
LINE
  5
7DBE
  8
1
 10
1123.326238429654
 20
3906.1541628245941
 30
0.0
 11
1123.326238429654
 21
4286.1541628245941
 31
0.0
  0
LINE
  5
7DBF
  8
2
 10
1098.326238429654
 20
3881.1541628245941
 30
0.0
 11
1098.326238429654
 21
4311.1541628245941
 31
0.0
  0
LINE
  5
7DC0
  8
1
 10
994.72105546635055
 20
3818.6541628245941
 30
0.0
 11
1072.22105546635
 21
3818.6541628245941
 31
0.0
  0
LINE
  5
7DC1
  8
1
 10
1117.22105546635
 20
3814.354162824593
 30
0.0
 11
1117.22105546635
 21
3881.1541628245941
 31
0.0
  0
LINE
  5
7DC2
  8
1
 10
1072.22105546635
 20
3814.354162824593
 30
0.0
 11
1072.22105546635
 21
3908.6541628245941
 31
0.0
  0
LINE
  5
7DC3
  8
1
 10
884.72105546635055
 20
3841.1541628245932
 30
0.0
 11
884.72105546635055
 21
3867.1541628245941
 31
0.0
  0
LINE
  5
7DC4
  8
1
 10
884.72105546635055
 20
3841.1541628245932
 30
0.0
 11
884.72105546635055
 21
3908.6541628245941
 31
0.0
  0
LINE
  5
7DC5
  8
1
 10
884.72105546635055
 20
4286.1541628245941
 30
0.0
 11
1098.326238429654
 21
4286.1541628245932
 31
0.0
  0
LINE
  5
7DC6
  8
1
 10
884.72105546635055
 20
4283.6541628245941
 30
0.0
 11
884.72105546635055
 21
4326.1541628245923
 31
0.0
  0
LINE
  5
7DC7
  8
1
 10
844.72105546635055
 20
4283.6541628245941
 30
0.0
 11
844.72105546635055
 21
4326.1541628245923
 31
0.0
  0
LINE
  5
7DC8
  8
1
 10
733.67306465849015
 20
3908.6541628245941
 30
0.0
 11
733.67306465849015
 21
4283.6541628245941
 31
0.0
  0
DIMENSION
  5
7DC9
  8
3
  2
*D20
 10
3500.7762554624592
 20
2560.4278103853931
 30
0.0
 11
3404.7762554624592
 21
2615.4278103853931
 31
0.0
 70
     0
 13
3308.7762554624592
 23
2384.3112346064622
 33
0.0
 14
3500.7762554624592
 24
2269.6797421827569
 34
0.0
1001
ACAD
1000
DSTYLE
1002
{
1070
   287
1070
     3
1070
   287
1070
     3
1070
    40
1040
20.0
1070
   147
1040
1.5
1070
   173
1070
     1
1070
   272
1070
     4
1070
   279
1070
     0
1070
   284
1070
     0
1070
   285
1070
     0
1070
   286
1070
     0
1070
     6
1000
ARROW
1070
     7
1000
ARROW
1002
}
  0
DIMENSION
  5
7DCA
  8
3
  2
*D21
 10
3496.2762554624592
 20
2444.1436902347282
 30
0.0
 11
3308.7762554624592
 21
2499.1436902347282
 31
0.0
 70
     0
 13
3121.2762554624592
 23
2354.6797421827559
 33
0.0
 14
3496.2762554624592
 24
2354.6797421827559
 34
0.0
1001
ACAD
1000
DSTYLE
1002
{
1070
   287
1070
     3
1070
   287
1070
     3
1070
    40
1040
20.0
1070
   147
1040
1.5
1070
   173
1070
     1
1070
   272
1070
     4
1070
   279
1070
     0
1070
   284
1070
     0
1070
   285
1070
     0
1070
   286
1070
     0
1070
     6
1000
ARROW
1070
     7
1000
ARROW
1002
}
  0
DIMENSION
  5
7DCB
  8
3
  2
*D22
 10
3538.7762554624578
 20
1182.7752338568939
 30
0.0
 11
3423.7762554624578
 21
1237.7752338568939
 31
0.0
 70
     0
 13
3308.7762554624592
 23
1343.201855650276
 33
0.0
 14
3538.7762554624578
 24
1371.6797421827559
 34
0.0
1001
ACAD
1000
DSTYLE
1002
{
1070
   287
1070
     3
1070
   287
1070
     3
1070
    40
1040
20.0
1070
   147
1040
1.5
1070
   173
1070
     1
1070
   272
1070
     4
1070
   279
1070
     0
1070
   284
1070
     0
1070
   285
1070
     0
1070
   286
1070
     0
1070
     6
1000
ARROW
1070
     7
1000
ARROW
1002
}
  0
LINE
  5
7DCC
  8
1
 10
3119.2762554624592
 20
2351.6797421827559
 30
0.0
 11
3498.2762554624601
 21
2351.6797421827559
 31
0.0
  0
LINE
  5
7DCD
  8
1
 10
3119.2762554624592
 20
2329.6797421827569
 30
0.0
 11
3498.2762554624601
 21
2329.6797421827569
 31
0.0
  0
LINE
  5
7DCE
  8
1
 10
3119.2762554624592
 20
2354.6797421827559
 30
0.0
 11
3498.2762554624601
 21
2354.6797421827559
 31
0.0
  0
LINE
  5
7DCF
  8
1
 10
2575.7762554624592
 20
2144.6797421827569
 30
0.0
 11
2575.7762554624592
 21
1591.679442182756
 31
0.0
  0
LINE
  5
7DD0
  8
2
 10
3308.7762554624592
 20
2384.3112346064622
 30
0.0
 11
3308.7762554624592
 21
1343.201855650276
 31
0.0
  0
LINE
  5
7DD1
  8
1
 10
3121.2762554624592
 20
1994.6797421827559
 30
0.0
 11
3121.2762554624592
 21
1559.6797421827571
 31
0.0
  0
LINE
  5
7DD2
  8
1
 10
3119.2762554624592
 20
1994.6797421827559
 30
0.0
 11
3119.2762554624578
 21
1559.6797421827571
 31
0.0
  0
LINE
  5
7DD3
  8
1
 10
3043.7762554624592
 20
1931.479742182757
 30
0.0
 11
3043.7762554624592
 21
1662.29185323569
 31
0.0
  0
LINE
  5
7DD4
  8
1
 10
2578.7762554624592
 20
1931.479742182757
 30
0.0
 11
2578.7762554624592
 21
1559.6797421827571
 31
0.0
  0
LINE
  5
7DD5
  8
1
 10
2575.5762554624589
 20
1642.679742182755
 30
0.0
 11
2575.5762554624598
 21
1559.6797421827571
 31
0.0
  0
LINE
  5
7DD6
  8
1
 10
3043.7762554624592
 20
1680.4620745727209
 30
0.0
 11
3043.7762554624592
 21
1559.6797421827571
 31
0.0
  0
POLYLINE
  5
7DD7
  8
1
 66
     1
 10
0.0
 20
0.0
 30
0.0
 70
     1
  0
VERTEX
  5
84E3
  8
1
 10
3119.2762554624592
 20
1559.6797421827571
 30
0.0
  0
VERTEX
  5
84E4
  8
1
 10
3119.2762554624592
 20
1599.6797421827571
 30
0.0
  0
VERTEX
  5
84E5
  8
1
 10
3117.2762554624592
 20
1599.6797421827571
 30
0.0
 42
0.4142135623730951
  0
VERTEX
  5
84E6
  8
1
 10
3114.2762554624592
 20
1596.6797421827559
 30
0.0
  0
VERTEX
  5
84E7
  8
1
 10
3114.2762554624592
 20
1569.1797421827571
 30
0.0
 42
-0.4142135623730951
  0
VERTEX
  5
84E8
  8
1
 10
3109.7762554624592
 20
1564.6797421827559
 30
0.0
  0
VERTEX
  5
84E9
  8
1
 10
3082.2762554624592
 20
1564.6797421827559
 30
0.0
 42
0.4142135623730951
  0
VERTEX
  5
84EA
  8
1
 10
3079.2762554624592
 20
1561.6797421827559
 30
0.0
  0
VERTEX
  5
84EB
  8
1
 10
3079.2762554624592
 20
1559.6797421827571
 30
0.0
  0
SEQEND
  5
84EC
  8
1
  0
LINE
  5
7DE2
  8
1
 10
3121.2762554624592
 20
1559.6797421827571
 30
0.0
 11
3121.2762554624592
 21
1548.231751374896
 31
0.0
  0
LINE
  5
7DE3
  8
1
 10
3119.2762554624578
 20
1559.6797421827571
 30
0.0
 11
3119.2762554624578
 21
1548.231751374896
 31
0.0
  0
LINE
  5
7DE4
  8
1
 10
3119.2762554624578
 20
1548.231751374896
 30
0.0
 11
3121.2762554624592
 21
1548.231751374896
 31
0.0
  0
LINE
  5
7DE5
  8
1
 10
2963.8762554624582
 20
2024.6797421827559
 30
0.0
 11
2985.1287737344919
 21
2024.6797421827559
 31
0.0
  0
LINE
  5
7DE6
  8
1
 10
2963.8762554624582
 20
1964.6797421827559
 30
0.0
 11
2973.2015884617649
 21
1964.6797421827559
 31
0.0
  0
LINE
  5
7DE7
  8
1
 10
2966.2762554624592
 20
1940.6797421827571
 30
0.0
 11
3031.2762554624592
 21
1940.6797421827571
 31
0.0
  0
LINE
  5
7DE8
  8
1
 10
2658.6762554624602
 20
1972.1797421827571
 30
0.0
 11
2963.8762554624582
 21
1972.1797421827571
 31
0.0
  0
LINE
  5
7DE9
  8
1
 10
2658.6762554624588
 20
2017.1797421827571
 30
0.0
 11
2963.8762554624591
 21
2017.1797421827571
 31
0.0
  0
LINE
  5
7DEA
  8
1
 10
2602.37625546246
 20
1978.1014913254851
 30
0.0
 11
2602.3762554624591
 21
2024.6797421827559
 31
0.0
  0
ARC
  5
7DEB
  8
1
 10
2385.9508671896729
 20
2038.0577847018769
 30
0.0
 40
224.57672587439311
 50
339.84563570863128
 51
1.250487140871362
  0
LINE
  5
7DEC
  8
1
 10
2658.6762554624602
 20
1964.6797421827559
 30
0.0
 11
2658.6762554624588
 21
2024.6797421827559
 31
0.0
  0
ARC
  5
7DED
  8
1
 10
2861.6016437352469
 20
2038.0577847018769
 30
0.0
 40
224.57672587439311
 50
178.75196597161769
 51
200.15436429136861
  0
LINE
  5
7DEE
  8
2
 10
2623.7762554624592
 20
2068.1601522503702
 30
0.0
 11
2623.7762554624592
 21
1919.487202399951
 31
0.0
  0
LINE
  5
7DEF
  8
1
 10
2575.5762554624589
 20
1931.479742182757
 30
0.0
 11
2575.5762554624589
 21
1862.6794421827569
 31
0.0
  0
LINE
  5
7DF0
  8
1
 10
2596.7762554624592
 20
1940.6797421827571
 30
0.0
 11
2650.7762554624592
 21
1940.6797421827571
 31
0.0
  0
LINE
  5
7DF1
  8
1
 10
2650.7762554624601
 20
1940.6797421827571
 30
0.0
 11
2596.7762554624601
 21
1940.6797421827571
 31
0.0
  0
LINE
  5
7DF2
  8
1
 10
2650.7762554624601
 20
1960.6797421827559
 30
0.0
 11
2596.7762554624601
 21
1960.6797421827559
 31
0.0
  0
LINE
  5
7DF3
  8
1
 10
2656.2762554624592
 20
1940.6797421827571
 30
0.0
 11
2591.2762554624592
 21
1940.6797421827571
 31
0.0
  0
LINE
  5
7DF4
  8
1
 10
2596.7762554624592
 20
1940.6797421827571
 30
0.0
 11
2650.7762554624592
 21
1940.6797421827571
 31
0.0
  0
LINE
  5
7DF5
  8
1
 10
2596.7762554624601
 20
1940.6797421827571
 30
0.0
 11
2596.7762554624601
 21
1960.6797421827559
 31
0.0
  0
LINE
  5
7DF6
  8
1
 10
2591.2762554624592
 20
1940.6797421827571
 30
0.0
 11
2591.2762554624592
 21
1934.6797421827571
 31
0.0
  0
LINE
  5
7DF7
  8
1
 10
2658.6762554624602
 20
1964.6797421827559
 30
0.0
 11
2649.350922463153
 21
1964.6797421827559
 31
0.0
  0
LINE
  5
7DF8
  8
1
 10
2650.7762554624601
 20
1940.6797421827571
 30
0.0
 11
2650.7762554624601
 21
1960.6797421827559
 31
0.0
  0
LINE
  5
7DF9
  8
1
 10
2656.2762554624592
 20
1940.6797421827571
 30
0.0
 11
2656.2762554624592
 21
1934.6797421827571
 31
0.0
  0
ARC
  5
7DFA
  8
1
 10
2623.743254832767
 20
1987.4767478499909
 30
0.0
 40
61.203003229727571
 50
81.470321513412159
 51
98.461868303637843
  0
LINE
  5
7DFB
  8
1
 10
2610.128773734496
 20
2024.6797421827559
 30
0.0
 11
2602.3762554624591
 21
2024.6797421827559
 31
0.0
  0
ARC
  5
7DFC
  8
1
 10
2615.472917431237
 20
2043.0679260287779
 30
0.0
 40
5.0
 50
98.461868303636777
 51
181.25048714087211
  0
POLYLINE
  5
7DFD
  8
1
 66
     1
 10
0.0
 20
0.0
 30
0.0
 70
     1
  0
VERTEX
  5
84ED
  8
1
 10
2631.52978045788
 20
2059.8838547325872
 30
0.0
  0
VERTEX
  5
84EE
  8
1
 10
2624.6207894305949
 20
2059.8838547325872
 30
0.0
  0
VERTEX
  5
84EF
  8
1
 10
2624.6207894305949
 20
2048.6797421827559
 30
0.0
  0
VERTEX
  5
84F0
  8
1
 10
2631.52978045788
 20
2048.6797421827559
 30
0.0
  0
SEQEND
  5
84F1
  8
1
  0
LINE
  5
7E03
  8
1
 10
2658.6762554624602
 20
2024.6797421827559
 30
0.0
 11
2637.423737190426
 21
2024.6797421827559
 31
0.0
  0
ARC
  5
7E04
  8
1
 10
2632.0793791954052
 20
2043.058099062888
 30
0.0
 40
5.0
 50
358.75196597161698
 51
81.470321513410241
  0
POINT
  5
7E05
  8
1
 10
2623.7762554624592
 20
2068.1601522503702
 30
0.0
  0
LINE
  5
7E06
  8
1
 10
2963.8762554624582
 20
1964.6797421827559
 30
0.0
 11
2963.8762554624591
 21
2024.6797421827559
 31
0.0
  0
LINE
  5
7E07
  8
1
 10
2966.2762554624592
 20
1940.6797421827571
 30
0.0
 11
2966.2762554624592
 21
1934.6797421827571
 31
0.0
  0
LINE
  5
7E08
  8
1
 10
3119.2762554624592
 20
2354.6797421827559
 30
0.0
 11
3119.2762554624592
 21
1994.6797421827559
 31
0.0
  0
LINE
  5
7E09
  8
1
 10
3121.2762554624592
 20
2354.6797421827559
 30
0.0
 11
3121.2762554624592
 21
1994.6797421827559
 31
0.0
  0
ARC
  5
7E0A
  8
1
 10
2760.950867189671
 20
2038.0577847018769
 30
0.0
 40
224.57672587439311
 50
339.84563570863122
 51
1.2480340283822391
  0
ARC
  5
7E0B
  8
1
 10
3236.6016437352441
 20
2038.0577847018769
 30
0.0
 40
224.57672587439311
 50
178.7495128591286
 51
200.15436429136861
  0
LINE
  5
7E0C
  8
1
 10
3020.1762554624579
 20
1978.1014913254851
 30
0.0
 11
3020.1762554624588
 21
2024.6797421827559
 31
0.0
  0
LINE
  5
7E0D
  8
2
 10
2998.7762554624578
 20
2070.5735454932701
 30
0.0
 11
2998.7762554624578
 21
1918.785938872242
 31
0.0
  0
LINE
  5
7E0E
  8
1
 10
3021.9046728243552
 20
1972.1797421827571
 30
0.0
 11
3119.2762554624592
 21
1972.1797421827571
 31
0.0
  0
POLYLINE
  5
7E0F
  8
1
 66
     1
 10
0.0
 20
0.0
 30
0.0
 70
     1
  0
VERTEX
  5
84F2
  8
1
 10
3043.7762554624592
 20
1881.479742182757
 30
0.0
  0
VERTEX
  5
84F3
  8
1
 10
3093.7762554624578
 20
1881.479742182757
 30
0.0
  0
VERTEX
  5
84F4
  8
1
 10
3093.7762554624578
 20
1882.979742182757
 30
0.0
 42
0.4142135623730942
  0
VERTEX
  5
84F5
  8
1
 10
3089.2762554624592
 20
1887.4797421827559
 30
0.0
  0
VERTEX
  5
84F6
  8
1
 10
3056.2762554624578
 20
1887.4797421827559
 30
0.0
 42
-0.4142135623730951
  0
VERTEX
  5
84F7
  8
1
 10
3049.7762554624578
 20
1893.979742182757
 30
0.0
  0
VERTEX
  5
84F8
  8
1
 10
3049.7762554624578
 20
1926.979742182757
 30
0.0
 42
0.4142135623730951
  0
VERTEX
  5
84F9
  8
1
 10
3045.2762554624592
 20
1931.479742182757
 30
0.0
  0
VERTEX
  5
84FA
  8
1
 10
3043.7762554624592
 20
1931.479742182757
 30
0.0
  0
SEQEND
  5
84FB
  8
1
  0
LINE
  5
7E1A
  8
1
 10
3046.976255462459
 20
1881.4797421827559
 30
0.0
 11
3119.2762554624578
 21
1881.4797421827559
 31
0.0
  0
LINE
  5
7E1B
  8
1
 10
3054.2762554624592
 20
1875.479742182757
 30
0.0
 11
3119.2762554624592
 21
1875.4797421827559
 31
0.0
  0
LINE
  5
7E1C
  8
1
 10
3054.2762554624592
 20
1881.4797421827559
 30
0.0
 11
3054.2762554624592
 21
1875.479742182757
 31
0.0
  0
LINE
  5
7E1D
  8
1
 10
2971.7762554624578
 20
1940.6797421827571
 30
0.0
 11
3025.7762554624578
 21
1940.6797421827571
 31
0.0
  0
LINE
  5
7E1E
  8
1
 10
2971.7762554624578
 20
1960.6797421827559
 30
0.0
 11
3025.7762554624578
 21
1960.6797421827559
 31
0.0
  0
LINE
  5
7E1F
  8
1
 10
3025.7762554624592
 20
1940.6797421827571
 30
0.0
 11
2971.7762554624592
 21
1940.6797421827571
 31
0.0
  0
LINE
  5
7E20
  8
1
 10
2971.7762554624578
 20
1940.6797421827571
 30
0.0
 11
2971.7762554624578
 21
1960.6797421827559
 31
0.0
  0
LINE
  5
7E21
  8
1
 10
3025.7762554624578
 20
1940.6797421827571
 30
0.0
 11
3025.7762554624578
 21
1960.6797421827559
 31
0.0
  0
LINE
  5
7E22
  8
1
 10
3053.7762554624592
 20
1934.6797421827571
 30
0.0
 11
3053.7762554624592
 21
1931.479742182757
 31
0.0
  0
LINE
  5
7E23
  8
1
 10
3031.2762554624592
 20
1940.6797421827571
 30
0.0
 11
3031.2762554624569
 21
1934.6797421827571
 31
0.0
  0
LINE
  5
7E24
  8
1
 10
3020.1762554624588
 20
2017.1797421827571
 30
0.0
 11
3119.2762554624592
 21
2017.1797421827571
 31
0.0
  0
LINE
  5
7E25
  8
1
 10
3012.4237371904228
 20
2024.6797421827559
 30
0.0
 11
3020.1762554624588
 21
2024.6797421827559
 31
0.0
  0
ARC
  5
7E26
  8
1
 10
2998.8092560921509
 20
1987.4767478499909
 30
0.0
 40
61.203003229727571
 50
81.538131696362171
 51
98.529678486587855
  0
ARC
  5
7E27
  8
1
 10
2990.4731317295132
 20
2043.058099062888
 30
0.0
 40
5.0
 50
98.529678486589773
 51
181.24803402838279
  0
ARC
  5
7E28
  8
1
 10
3007.0795934936809
 20
2043.0679260287779
 30
0.0
 40
5.0
 50
358.74951285912778
 51
81.538131696363237
  0
POLYLINE
  5
7E29
  8
1
 66
     1
 10
0.0
 20
0.0
 30
0.0
 70
     1
  0
VERTEX
  5
84FC
  8
1
 10
2991.0227304670379
 20
2059.8838547325872
 30
0.0
  0
VERTEX
  5
84FD
  8
1
 10
2997.9317214943221
 20
2059.8838547325872
 30
0.0
  0
VERTEX
  5
84FE
  8
1
 10
2997.9317214943221
 20
2048.6797421827559
 30
0.0
  0
VERTEX
  5
84FF
  8
1
 10
2991.0227304670379
 20
2048.6797421827559
 30
0.0
  0
SEQEND
  5
8500
  8
1
  0
POLYLINE
  5
7E2F
  8
1
 66
     1
 10
0.0
 20
0.0
 30
0.0
 70
     1
  0
VERTEX
  5
8501
  8
1
 10
3119.2762554624592
 20
2354.6797421827559
 30
0.0
  0
VERTEX
  5
8502
  8
1
 10
3119.2762554624592
 20
2329.6797421827569
 30
0.0
  0
VERTEX
  5
8503
  8
1
 10
3118.2762554624592
 20
2329.6797421827569
 30
0.0
 42
-0.4142135623730951
  0
VERTEX
  5
8504
  8
1
 10
3116.2762554624592
 20
2331.6797421827559
 30
0.0
  0
VERTEX
  5
8505
  8
1
 10
3116.2762554624592
 20
2347.6797421827559
 30
0.0
 42
0.4142135623730951
  0
VERTEX
  5
8506
  8
1
 10
3112.2762554624592
 20
2351.6797421827559
 30
0.0
  0
VERTEX
  5
8507
  8
1
 10
3096.2762554624592
 20
2351.6797421827559
 30
0.0
 42
-0.4142135623730951
  0
VERTEX
  5
8508
  8
1
 10
3094.2762554624592
 20
2353.6797421827569
 30
0.0
  0
VERTEX
  5
8509
  8
1
 10
3094.2762554624592
 20
2354.6797421827559
 30
0.0
  0
SEQEND
  5
850A
  8
1
  0
POINT
  5
7E3A
  8
1
 10
3121.2762554624592
 20
2354.6797421827559
 30
0.0
  0
POINT
  5
7E3B
  8
1
 10
3119.2762554624592
 20
2354.6797421827559
 30
0.0
  0
DIMENSION
  5
7E3C
  8
3
  2
*D23
 10
3714.5503481469082
 20
1744.6797421827559
 30
0.0
 11
3659.5503481469082
 21
1994.6797421827571
 31
0.0
 70
     0
 13
3524.7762554624592
 23
2244.6797421827569
 33
0.0
 14
3524.7762554624592
 24
1744.6797421827559
 34
0.0
 50
90.0
1001
ACAD
1000
DSTYLE
1002
{
1070
   287
1070
     3
1070
   287
1070
     3
1070
     3
1000
φ<>
1070
    40
1040
20.0
1070
   147
1040
1.5
1070
   173
1070
     1
1070
   272
1070
     4
1070
   279
1070
     0
1070
   284
1070
     0
1070
   285
1070
     0
1070
   286
1070
     0
1070
     6
1000
ARROW
1070
     7
1000
ARROW
1002
}
  0
LINE
  5
7E3D
  8
1
 10
3503.7762554624592
 20
1988.6797421827571
 30
0.0
 11
3503.7762554624592
 21
1737.6797421827571
 31
0.0
  0
LINE
  5
7E3E
  8
1
 10
3525.7762554624592
 20
1988.6797421827571
 30
0.0
 11
3525.7762554624592
 21
1744.6797421827559
 31
0.0
  0
LINE
  5
7E3F
  8
1
 10
3500.7762554624592
 20
1744.6797421827559
 30
0.0
 11
3500.7762554624592
 21
1988.6797421827571
 31
0.0
  0
LINE
  5
7E40
  8
1
 10
3496.2762554624592
 20
1994.6797421827559
 30
0.0
 11
3496.2762554624592
 21
1559.6797421827571
 31
0.0
  0
LINE
  5
7E41
  8
1
 10
3498.2762554624601
 20
1994.6797421827559
 30
0.0
 11
3498.2762554624578
 21
1559.6797421827571
 31
0.0
  0
LINE
  5
7E42
  8
1
 10
3538.7762554624592
 20
1559.6797421827571
 30
0.0
 11
3538.7762554624592
 21
1484.6797421827559
 31
0.0
  0
LINE
  5
7E43
  8
1
 10
3538.7762554624592
 20
1446.6797421827559
 30
0.0
 11
3538.7762554624578
 21
1371.6797421827559
 31
0.0
  0
LINE
  5
7E44
  8
1
 10
3503.7762554624578
 20
1596.6797421827559
 30
0.0
 11
3503.7762554624578
 21
1569.1797421827571
 31
0.0
  0
LINE
  5
7E45
  8
1
 10
3538.7762554624578
 20
1559.6797421827571
 30
0.0
 11
3498.2762554624578
 21
1559.6797421827571
 31
0.0
  0
LINE
  5
7E46
  8
1
 10
3508.2762554624578
 20
1564.6797421827559
 30
0.0
 11
3535.7762554624578
 21
1564.6797421827559
 31
0.0
  0
ARC
  5
7E47
  8
1
 10
3508.2762554624578
 20
1569.1797421827571
 30
0.0
 40
4.5
 50
180.0
 51
270.0
  0
LINE
  5
7E48
  8
1
 10
3498.2762554624592
 20
1548.231751374896
 30
0.0
 11
3498.2762554624592
 21
1589.6797421827571
 31
0.0
  0
LINE
  5
7E49
  8
1
 10
3498.2762554624578
 20
1559.6797421827571
 30
0.0
 11
3498.2762554624578
 21
1548.231751374896
 31
0.0
  0
LINE
  5
7E4A
  8
1
 10
3496.2762554624592
 20
1559.6797421827571
 30
0.0
 11
3496.2762554624592
 21
1548.231751374896
 31
0.0
  0
LINE
  5
7E4B
  8
1
 10
3496.2762554624578
 20
1548.231751374896
 30
0.0
 11
3498.2762554624578
 21
1548.231751374896
 31
0.0
  0
LINE
  5
7E4C
  8
1
 10
3538.7762554624578
 20
1557.6797421827571
 30
0.0
 11
3538.7762554624578
 21
1559.6797421827571
 31
0.0
  0
LINE
  5
7E4D
  8
1
 10
3538.7762554624578
 20
1561.6797421827559
 30
0.0
 11
3538.7762554624578
 21
1559.6797421827571
 31
0.0
  0
ARC
  5
7E4E
  8
1
 10
3535.7762554624578
 20
1561.6797421827559
 30
0.0
 40
3.0
 50
0.0
 51
90.0
  0
ARC
  5
7E4F
  8
1
 10
3500.7762554624592
 20
1596.6797421827559
 30
0.0
 40
3.0
 50
0.0
 51
90.0
  0
LINE
  5
7E50
  8
1
 10
3498.7762554624592
 20
1599.6797421827571
 30
0.0
 11
3500.7762554624592
 21
1599.6797421827571
 31
0.0
  0
LINE
  5
7E51
  8
1
 10
3523.7762554624592
 20
1741.6797421827559
 30
0.0
 11
3507.7762554624592
 21
1741.6797421827559
 31
0.0
  0
LINE
  5
7E52
  8
1
 10
3500.7762554624592
 20
1744.6797421827559
 30
0.0
 11
3525.7762554624592
 21
1744.6797421827559
 31
0.0
  0
LINE
  5
7E53
  8
1
 10
3500.7762554624592
 20
1719.6797421827571
 30
0.0
 11
3499.2762554624592
 21
1719.6797421827571
 31
0.0
  0
LINE
  5
7E54
  8
1
 10
3500.7762554624592
 20
1719.6797421827571
 30
0.0
 11
3500.7762554624592
 21
1744.6797421827559
 31
0.0
  0
LINE
  5
7E55
  8
1
 10
3501.7762554624592
 20
1719.6797421827571
 30
0.0
 11
3500.7762554624592
 21
1719.6797421827571
 31
0.0
  0
ARC
  5
7E56
  8
1
 10
3501.7762554624592
 20
1721.6797421827559
 30
0.0
 40
2.0
 50
270.0
 51
0.0
  0
LINE
  5
7E57
  8
1
 10
3503.7762554624592
 20
1737.6797421827571
 30
0.0
 11
3503.7762554624592
 21
1721.6797421827559
 31
0.0
  0
ARC
  5
7E58
  8
1
 10
3507.7762554624592
 20
1737.6797421827571
 30
0.0
 40
4.0
 50
90.0
 51
180.0
  0
ARC
  5
7E59
  8
1
 10
3523.7762554624592
 20
1743.6797421827571
 30
0.0
 40
2.0
 50
270.0
 51
0.0
  0
LINE
  5
7E5A
  8
1
 10
3525.7762554624592
 20
1744.6797421827559
 30
0.0
 11
3525.7762554624592
 21
1743.6797421827571
 31
0.0
  0
LINE
  5
7E5B
  8
1
 10
3500.7762554624592
 20
1988.6797421827571
 30
0.0
 11
3500.7762554624592
 21
2244.6797421827569
 31
0.0
  0
LINE
  5
7E5C
  8
1
 10
3498.2762554624601
 20
2354.6797421827559
 30
0.0
 11
3498.2762554624592
 21
1994.6797421827559
 31
0.0
  0
LINE
  5
7E5D
  8
1
 10
3496.2762554624592
 20
2354.6797421827559
 30
0.0
 11
3496.2762554624592
 21
1994.6797421827559
 31
0.0
  0
LINE
  5
7E5E
  8
1
 10
3525.7762554624592
 20
2244.6797421827569
 30
0.0
 11
3525.7762554624592
 21
1988.6797421827571
 31
0.0
  0
LINE
  5
7E5F
  8
1
 10
3503.7762554624592
 20
2251.679703152894
 30
0.0
 11
3503.7762554624592
 21
1988.6797421827571
 31
0.0
  0
POLYLINE
  5
7E60
  8
1
 66
     1
 10
0.0
 20
0.0
 30
0.0
 70
     1
  0
VERTEX
  5
8514
  8
1
 10
3500.7762554624592
 20
2244.6797421827569
 30
0.0
  0
VERTEX
  5
8515
  8
1
 10
3525.7762554624592
 20
2244.6797421827569
 30
0.0
  0
VERTEX
  5
8516
  8
1
 10
3525.7762554624592
 20
2245.6797421827569
 30
0.0
 42
0.4142135623730951
  0
VERTEX
  5
8517
  8
1
 10
3523.7762554624592
 20
2247.6797421827569
 30
0.0
  0
VERTEX
  5
8518
  8
1
 10
3507.7762554624592
 20
2247.6797421827569
 30
0.0
 42
-0.4142135623730951
  0
VERTEX
  5
8519
  8
1
 10
3503.7762554624592
 20
2251.6797421827559
 30
0.0
  0
VERTEX
  5
851A
  8
1
 10
3503.7762554624592
 20
2267.6797421827559
 30
0.0
 42
0.4142135623730951
  0
VERTEX
  5
851B
  8
1
 10
3501.7762554624592
 20
2269.6797421827569
 30
0.0
  0
VERTEX
  5
851C
  8
1
 10
3500.7762554624592
 20
2269.6797421827569
 30
0.0
  0
SEQEND
  5
851D
  8
1
  0
LINE
  5
7E6B
  8
1
 10
3501.5762554624589
 20
2269.6797421827569
 30
0.0
 11
3499.2762554624592
 21
2269.6797421827569
 31
0.0
  0
POLYLINE
  5
7E6C
  8
1
 66
     1
 10
0.0
 20
0.0
 30
0.0
 70
     1
  0
VERTEX
  5
851E
  8
1
 10
3498.2762554624592
 20
2354.6797421827559
 30
0.0
  0
VERTEX
  5
851F
  8
1
 10
3498.2762554624592
 20
2329.6797421827569
 30
0.0
  0
VERTEX
  5
8520
  8
1
 10
3499.2762554624592
 20
2329.6797421827569
 30
0.0
 42
0.4142135623730951
  0
VERTEX
  5
8521
  8
1
 10
3501.2762554624592
 20
2331.6797421827559
 30
0.0
  0
VERTEX
  5
8522
  8
1
 10
3501.2762554624592
 20
2347.6797421827559
 30
0.0
 42
-0.4142135623730951
  0
VERTEX
  5
8523
  8
1
 10
3505.2762554624592
 20
2351.6797421827559
 30
0.0
  0
VERTEX
  5
8524
  8
1
 10
3521.2762554624592
 20
2351.6797421827559
 30
0.0
 42
0.4142135623730951
  0
VERTEX
  5
8525
  8
1
 10
3523.2762554624592
 20
2353.6797421827569
 30
0.0
  0
VERTEX
  5
8526
  8
1
 10
3523.2762554624592
 20
2354.6797421827559
 30
0.0
  0
SEQEND
  5
8527
  8
1
  0
POINT
  5
7E77
  8
1
 10
3498.2762554624592
 20
2354.6797421827559
 30
0.0
  0
POINT
  5
7E78
  8
1
 10
3496.2762554624592
 20
2354.6797421827559
 30
0.0
  0
LINE
  5
806F
  8
4
 10
3700.0
 20
1000.0
 30
0.0
 11
3700.0
 21
600.0
 31
0.0
  0
LINE
  5
8070
  8
4
 10
2300.0
 20
1000.0
 30
0.0
 11
2300.0
 21
600.0
 31
0.0
  0
LINE
  5
8071
  8
4
 10
1300.0
 20
1000.0
 30
0.0
 11
1300.0
 21
600.0
 31
0.0
  0
LINE
  5
8074
  8
4
 10
1300.0
 20
600.0
 30
0.0
 11
3700.0
 21
600.0
 31
0.0
  0
LINE
  5
8075
  8
4
 10
1300.0
 20
800.0
 30
0.0
 11
3700.0
 21
800.0
 31
0.0
  0
TEXT
  5
8076
  8
4
 10
1377.0041616938031
 20
863.08605173322564
 30
0.0
 40
100.0
  1
機器名称
  0
TEXT
  5
8077
  8
4
 10
1372.516212049595
 20
643.29031346402189
 30
0.0
 40
100.0
  1
機器型番
  0
TEXT
  5
8078
  8
4
 10
2309.586123402084
 20
844.3746047138942
 30
0.0
 40
90.0
  1
ミツヤ多翼送風機
  0
TEXT
  5
8079
  8
4
 10
2373.3089911709608
 20
634.31916855988675
 30
0.0
 40
100.0
  1
MF#3-1
  0
TEXT
  5
807B
  8
4
 10
1539.251891789397
 20
4766.8576826650306
 30
0.0
 40
107.9999999999999
  1
床置防振ベット
  0
TEXT
  5
807C
  8
4
 10
632.33518665889278
 20
5067.7619523985959
 30
0.0
 40
144.0
  1
遠心式片吸込片持多翼ファン
  0
LINE
  5
807D
  8
4
 10
500.0
 20
4938.8175085296089
 30
0.0
 11
3700.0
 21
4938.8175085296089
 31
0.0
  0
LINE
  5
807E
  8
4
 10
500.0
 20
5338.8175085296098
 30
0.0
 11
3700.0
 21
5338.8175085296098
 31
0.0
  0
LINE
  5
807F
  8
4
 10
1300.0
 20
1000.0
 30
0.0
 11
3700.0
 21
1000.0
 31
0.0
  0
LINE
  5
8080
  8
4
 10
500.0
 20
5338.8175085296098
 30
0.0
 11
500.0
 21
4938.8175085296089
 31
0.0
  0
TEXT
  5
8081
  8
4
 10
667.53422730399325
 20
4764.638955092687
 30
0.0
 40
107.9999999999999
  1
左回転上向
  0
TEXT
  5
8082
  8
4
 10
2937.9391184985789
 20
5412.1221629906177
 30
0.0
 40
112.0
  1
No.
  0
TEXT
  5
8083
  8
4
 10
2622.5921252000262
 20
4766.8576826650306
 30
0.0
 40
107.9999999999999
  1
縮尺：1/20
  0
LINE
  5
8084
  8
4
 10
3700.0
 20
5338.8175085296098
 30
0.0
 11
3700.0
 21
4938.8175085296089
 31
0.0
  0
LINE
  5
8085
  8
4
 10
4200.0
 20
5900.0
 30
0.0
 11
4200.0
 21
5900.0
 31
0.0
  0
LINE
  5
8086
  8
4
 10
2881.2348447197292
 20
5362.5271662508021
 30
0.0
 11
2881.2348447197292
 21
5573.3045230995049
 31
0.0
  0
LINE
  5
8087
  8
4
 10
2881.2348447197292
 20
5573.3045230995049
 30
0.0
 11
3700.0
 21
5573.3045230995049
 31
0.0
  0
LINE
  5
8088
  8
4
 10
3700.0
 20
5573.3045230995049
 30
0.0
 11
3700.0
 21
5362.5271662508021
 31
0.0
  0
LINE
  5
8089
  8
4
 10
3700.0
 20
5362.5271662508021
 30
0.0
 11
2881.2348447197292
 21
5362.5271662508021
 31
0.0
  0
LINE
  5
808A
  8
4
 10
0.0
 20
0.0
 30
0.0
 11
0.0
 21
5900.0
 31
0.0
  0
LINE
  5
808B
  8
4
 10
0.0
 20
5900.0
 30
0.0
 11
4200.0
 21
5900.0
 31
0.0
  0
LINE
  5
808C
  8
4
 10
4200.0
 20
5900.0
 30
0.0
 11
4200.0
 21
0.0
 31
0.0
  0
LINE
  5
808D
  8
4
 10
4200.0
 20
0.0
 30
0.0
 11
0.0
 21
0.0
 31
0.0
  0
DIMENSION
  5
8412
  8
3
  2
*D24
 10
314.28949239081339
 20
1371.6797421827571
 30
0.0
 11
264.28949239081322
 21
1863.1797421827571
 31
0.0
 70
     0
 13
1094.121055466351
 23
2354.6797421827569
 33
0.0
 14
844.72105546635055
 24
1371.6797421827559
 34
0.0
 50
90.0
1001
ACAD
1000
DSTYLE
1002
{
1070
   287
1070
     3
1070
    40
1040
20.0
1070
   143
1040
0.039
1070
   172
1070
     1
1070
   271
1070
     0
1070
   279
1070
     0
1002
}
  0
DIMENSION
  5
841F
  8
3
  2
*D25
 10
1924.72105546635
 20
2660.4828789229318
 30
0.0
 11
1329.19706006242
 21
2710.4828789229318
 31
0.0
 70
     0
 13
733.67306465849015
 23
1977.6797421827571
 33
0.0
 14
1924.72105546635
 24
1559.6797421827571
 34
0.0
1001
ACAD
1000
DSTYLE
1002
{
1070
   287
1070
     3
1070
    40
1040
20.0
1070
   143
1040
0.039
1070
   172
1070
     1
1070
   271
1070
     0
1070
   279
1070
     0
1002
}
  0
ENDSEC
  0
EOF
