  0
SECTION
  2
HEADER
  9
$ACADVER
  1
AC1009
  9
$INSBASE
 10
0.0
 20
0.0
 30
0.0
  9
$EXTMIN
 10
0.0
 20
0.0
 30
0.0
  9
$EXTMAX
 10
4200.0
 20
5900.0
 30
0.0
  9
$LIMMIN
 10
0.0
 20
0.0
  9
$LIMMAX
 10
297.0
 20
210.0
  9
$ORTHOMODE
 70
     0
  9
$REGENMODE
 70
     1
  9
$FILLMODE
 70
     0
  9
$QTEXTMODE
 70
     0
  9
$MIRRTEXT
 70
     1
  9
$DRAGMODE
 70
     2
  9
$LTSCALE
 40
100.0
  9
$OSMODE
 70
    37
  9
$ATTMODE
 70
     1
  9
$TEXTSIZE
 40
180.0
  9
$TRACEWID
 40
0.05
  9
$TEXTSTYLE
  7
STANDARD
  9
$CLAYER
  8
1
  9
$CELTYPE
  6
BYLAYER
  9
$CECOLOR
 62
   256
  9
$DIMSCALE
 40
20.0
  9
$DIMASZ
 40
2.0
  9
$DIMEXO
 40
0.5
  9
$DIMDLI
 40
10.0
  9
$DIMRND
 40
0.0
  9
$DIMDLE
 40
0.0
  9
$DIMEXE
 40
1.0
  9
$DIMTP
 40
1.0
  9
$DIMTM
 40
1.0
  9
$DIMTXT
 40
3.0
  9
$DIMCEN
 40
0.0
  9
$DIMTSZ
 40
0.0
  9
$DIMTOL
 70
     0
  9
$DIMLIM
 70
     0
  9
$DIMTIH
 70
     0
  9
$DIMTOH
 70
     0
  9
$DIMSE1
 70
     0
  9
$DIMSE2
 70
     0
  9
$DIMTAD
 70
     1
  9
$DIMZIN
 70
     8
  9
$DIMBLK
  1

  9
$DIMASO
 70
     1
  9
$DIMSHO
 70
     1
  9
$DIMPOST
  1

  9
$DIMAPOST
  1

  9
$DIMALT
 70
     0
  9
$DIMALTD
 70
     2
  9
$DIMALTF
 40
0.039
  9
$DIMLFAC
 40
1.0
  9
$DIMTOFL
 70
     1
  9
$DIMTVP
 40
0.0
  9
$DIMTIX
 70
     0
  9
$DIMSOXD
 70
     0
  9
$DIMSAH
 70
     1
  9
$DIMBLK1
  1
OPEN
  9
$DIMBLK2
  1
OPEN
  9
$DIMSTYLE
  2
IGA
  9
$DIMCLRD
 70
     0
  9
$DIMCLRE
 70
     0
  9
$DIMCLRT
 70
     0
  9
$DIMTFAC
 40
10.0
  9
$DIMGAP
 40
1.0
  9
$LUNITS
 70
     2
  9
$LUPREC
 70
     3
  9
$SKETCHINC
 40
0.1
  9
$FILLETRAD
 40
50.0
  9
$AUNITS
 70
     0
  9
$AUPREC
 70
     0
  9
$MENU
  1
acad
  9
$ELEVATION
 40
0.0
  9
$PELEVATION
 40
0.0
  9
$THICKNESS
 40
0.0
  9
$LIMCHECK
 70
     0
  9
$BLIPMODE
 70
     0
  9
$CHAMFERA
 40
0.0
  9
$CHAMFERB
 40
0.0
  9
$SKPOLY
 70
     0
  9
$TDCREATE
 40
2451019.6417248831
  9
$TDUPDATE
 40
2454953.7543117008
  9
$TDINDWG
 40
0.0346626157
  9
$TDUSRTIMER
 40
0.0346626157
  9
$USRTIMER
 70
     1
  9
$ANGBASE
 50
0.0
  9
$ANGDIR
 70
     0
  9
$PDMODE
 70
     0
  9
$PDSIZE
 40
0.0
  9
$PLINEWID
 40
0.0
  9
$COORDS
 70
     1
  9
$SPLFRAME
 70
     0
  9
$SPLINETYPE
 70
     6
  9
$SPLINESEGS
 70
     8
  9
$ATTDIA
 70
     0
  9
$ATTREQ
 70
     1
  9
$HANDLING
 70
 10241
  9
$HANDSEED
  5
84BD
  9
$SURFTAB1
 70
     6
  9
$SURFTAB2
 70
     6
  9
$SURFTYPE
 70
     6
  9
$SURFU
 70
     6
  9
$SURFV
 70
     6
  9
$UCSNAME
  2

  9
$UCSORG
 10
0.0
 20
0.0
 30
0.0
  9
$UCSXDIR
 10
1.0
 20
0.0
 30
0.0
  9
$UCSYDIR
 10
0.0
 20
1.0
 30
0.0
  9
$PUCSNAME
  2

  9
$PUCSORG
 10
0.0
 20
0.0
 30
0.0
  9
$PUCSXDIR
 10
1.0
 20
0.0
 30
0.0
  9
$PUCSYDIR
 10
0.0
 20
1.0
 30
0.0
  9
$USERI1
 70
     0
  9
$USERI2
 70
     0
  9
$USERI3
 70
     0
  9
$USERI4
 70
     0
  9
$USERI5
 70
     0
  9
$USERR1
 40
0.0
  9
$USERR2
 40
0.0
  9
$USERR3
 40
0.0
  9
$USERR4
 40
0.0
  9
$USERR5
 40
0.0
  9
$WORLDVIEW
 70
     1
  9
$SHADEDGE
 70
     3
  9
$SHADEDIF
 70
    70
  9
$TILEMODE
 70
     1
  9
$MAXACTVP
 70
    16
  9
$PLIMCHECK
 70
     0
  9
$PEXTMIN
 10
1.0000000000000000E+020
 20
1.0000000000000000E+020
 30
1.0000000000000000E+020
  9
$PEXTMAX
 10
-1.0000000000000000E+020
 20
-1.0000000000000000E+020
 30
-1.0000000000000000E+020
  9
$PLIMMIN
 10
0.0
 20
0.0
  9
$PLIMMAX
 10
12.0
 20
9.0
  9
$UNITMODE
 70
     0
  9
$VISRETAIN
 70
     0
  9
$PLINEGEN
 70
     0
  9
$PSLTSCALE
 70
     1
  0
ENDSEC
  0
SECTION
  2
TABLES
  0
TABLE
  2
VPORT
 70
     2
  0
VPORT
  2
*ACTIVE
 70
     0
 10
0.0
 20
0.0
 11
1.0
 21
1.0
 12
7073.2199177027342
 22
2950.0000137370062
 13
0.0
 23
0.0
 14
10.0
 24
10.0
 15
10.0
 25
10.0
 16
0.0
 26
0.0
 36
1.0
 17
0.0
 27
0.0
 37
0.0
 40
5945.22976603387
 41
3.1666666666666661
 42
50.0
 43
0.0
 44
0.0
 50
0.0
 51
0.0
 71
     0
 72
   100
 73
     1
 74
     0
 75
     0
 76
     0
 77
     0
 78
     0
  0
ENDTAB
  0
TABLE
  2
LTYPE
 70
     2
  0
LTYPE
  2
CONTINUOUS
 70
     0
  3
Solid line
 72
    65
 73
     0
 40
0.0
  0
LTYPE
  2
CENTER
 70
     0
  3
____ _ ____ _ ____ _ ____ _ ____ _ ____ _ ____ 
 72
    65
 73
     4
 40
2.0
 49
1.25
 49
-0.25
 49
0.25
 49
-0.25
  0
ENDTAB
  0
TABLE
  2
LAYER
 70
     6
  0
LAYER
  2
0
 70
     0
 62
     7
  6
CONTINUOUS
  0
LAYER
  2
3
 70
     0
 62
     2
  6
CONTINUOUS
  0
LAYER
  2
2
 70
     0
 62
     3
  6
CENTER
  0
LAYER
  2
1
 70
     0
 62
     4
  6
CONTINUOUS
  0
LAYER
  2
4
 70
     0
 62
     7
  6
CONTINUOUS
  0
LAYER
  2
DEFPOINTS
 70
     0
 62
     7
  6
CONTINUOUS
  0
ENDTAB
  0
TABLE
  2
STYLE
 70
     1
  0
STYLE
  2
STANDARD
 70
     0
 40
0.0
 41
1.0
 50
0.0
 71
     0
 42
180.0
  3
simplex.shx
  4
extfont.shx
  0
ENDTAB
  0
TABLE
  2
VIEW
 70
     0
  0
ENDTAB
  0
TABLE
  2
UCS
 70
     0
  0
ENDTAB
  0
TABLE
  2
APPID
 70
     1
  0
APPID
  2
ACAD
 70
     0
  0
ENDTAB
  0
TABLE
  2
DIMSTYLE
 70
     1
  0
DIMSTYLE
  2
IGA
 70
     0
  3

  4

  5

  6
OPEN
  7
OPEN
 40
2.0
 41
2.0
 42
0.5
 43
10.0
 44
1.0
 45
0.0
 46
0.0
 47
1.0
 48
1.0
140
3.0
141
0.0
142
0.0
143
0.03937
144
1.0
145
0.0
146
10.0
147
1.0
 71
     0
 72
     0
 73
     0
 74
     0
 75
     0
 76
     0
 77
     1
 78
     8
170
     0
171
     2
172
     0
173
     1
174
     0
175
     0
176
     0
177
     0
178
     0
  0
ENDTAB
  0
ENDSEC
  0
SECTION
  2
BLOCKS
  0
BLOCK
  8
0
  2
$MODEL_SPACE
 70
     0
 10
0.0
 20
0.0
 30
0.0
  3
$MODEL_SPACE
  1

  0
ENDBLK
  5
1B
  8
0
  0
BLOCK
 67
     1
  8
0
  2
$PAPER_SPACE
 70
     0
 10
0.0
 20
0.0
 30
0.0
  3
$PAPER_SPACE
  1

  0
ENDBLK
  5
18
 67
     1
  8
0
  0
BLOCK
  8
0
  2
_OPEN
 70
     0
 10
0.0
 20
0.0
 30
0.0
  3
_OPEN
  1

  0
LINE
  5
7A06
  8
0
  6
BYBLOCK
 62
     0
 10
-1.0
 20
0.1666666666666666
 30
0.0
 11
0.0
 21
0.0
 31
0.0
  0
LINE
  5
7A07
  8
0
  6
BYBLOCK
 62
     0
 10
0.0
 20
0.0
 30
0.0
 11
-1.0
 21
-0.1666666666666666
 31
0.0
  0
LINE
  5
7A08
  8
0
  6
BYBLOCK
 62
     0
 10
0.0
 20
0.0
 30
0.0
 11
-1.0
 21
0.0
 31
0.0
  0
ENDBLK
  5
7A0A
  8
0
  0
BLOCK
  8
0
  2
*D1
 70
     1
 10
0.0
 20
0.0
 30
0.0
  3
*D1
  1

  0
LINE
  5
83E5
  8
3
 62
     0
 10
1152.4842942070311
 20
2619.0047230375048
 30
0.0
 11
1152.4842942070311
 21
2721.3464134879041
 31
0.0
  0
LINE
  5
83E6
  8
3
 62
     0
 10
1587.5322850148909
 20
2045.0792938593991
 30
0.0
 11
1587.5322850148909
 21
2721.3464134879041
 31
0.0
  0
LINE
  5
83E7
  8
3
 62
     0
 10
1192.4842942070311
 20
2701.3464134879041
 30
0.0
 11
1547.5322850148909
 21
2701.3464134879041
 31
0.0
  0
INSERT
  5
83E8
  8
3
 62
     0
  2
_OPEN
 10
1152.4842942070311
 20
2701.3464134879041
 30
0.0
 41
40.0
 42
40.0
 43
40.0
 50
180.0
  0
INSERT
  5
83E9
  8
3
 62
     0
  2
_OPEN
 10
1587.5322850148909
 20
2701.3464134879041
 30
0.0
 41
40.0
 42
40.0
 43
40.0
  0
TEXT
  8
3
  40
60
  5
84AA
  62
0
  72
0
  71
0
 10
1250.01
 20
2645.15
 30
0.000000
  1
435
  0
POINT
  5
83EB
  8
DEFPOINTS
 62
     0
 10
1152.4842942070311
 20
2609.0047230375048
 30
0.0
  0
POINT
  5
83EC
  8
DEFPOINTS
 62
     0
 10
1587.5322850148909
 20
2035.0792938593991
 30
0.0
  0
POINT
  5
83ED
  8
DEFPOINTS
 62
     0
 10
1587.5322850148909
 20
2701.3464134879041
 30
0.0
  0
ENDBLK
  5
8344
  8
0
  0
BLOCK
  8
0
  2
*D2
 70
     1
 10
0.0
 20
0.0
 30
0.0
  3
*D2
  1

  0
LINE
  5
83EE
  8
3
 62
     0
 10
782.48429420703087
 20
2536.0792938593991
 30
0.0
 11
492.32721748413047
 21
2536.0792938593991
 31
0.0
  0
LINE
  5
83EF
  8
3
 62
     0
 10
699.33780089078755
 20
1998.0792938593991
 30
0.0
 11
492.3272174841303
 21
1998.0792938593991
 31
0.0
  0
LINE
  5
83F0
  8
3
 62
     0
 10
512.32721748413053
 20
2496.0792938593991
 30
0.0
 11
512.32721748413041
 21
2038.0792938593991
 31
0.0
  0
INSERT
  5
83F1
  8
3
 62
     0
  2
_OPEN
 10
512.32721748413053
 20
2536.0792938593991
 30
0.0
 41
40.0
 42
40.0
 43
40.0
 50
90.0
  0
INSERT
  5
83F2
  8
3
 62
     0
  2
_OPEN
 10
512.32721748413041
 20
1998.0792938593991
 30
0.0
 41
40.0
 42
40.0
 43
40.0
 50
270.0
  0
TEXT
  8
3
  40
60
  5
84AB
  62
0
  72
0
  71
0
 10
342.327
 20
2160.88
 30
0.000000
  1
538
  0
POINT
  5
83F4
  8
DEFPOINTS
 62
     0
 10
792.48429420703076
 20
2536.0792938593991
 30
0.0
  0
POINT
  5
83F5
  8
DEFPOINTS
 62
     0
 10
709.33780089078755
 20
1998.0792938593991
 30
0.0
  0
POINT
  5
83F6
  8
DEFPOINTS
 62
     0
 10
512.32721748413041
 20
1998.0792938593991
 30
0.0
  0
ENDBLK
  5
8367
  8
0
  0
BLOCK
  8
0
  2
*D3
 70
     1
 10
0.0
 20
0.0
 30
0.0
  3
*D3
  1

  0
LINE
  5
83F7
  8
3
 62
     0
 10
782.48429420703087
 20
2536.0792938593991
 30
0.0
 11
630.47905894261305
 21
2536.0792938593991
 31
0.0
  0
LINE
  5
83F8
  8
3
 62
     0
 10
782.48429420703087
 20
2024.0792938593991
 30
0.0
 11
630.47905894261294
 21
2024.0792938593991
 31
0.0
  0
LINE
  5
83F9
  8
3
 62
     0
 10
650.47905894261305
 20
2496.0792938593991
 30
0.0
 11
650.47905894261294
 21
2064.0792938593991
 31
0.0
  0
INSERT
  5
83FA
  8
3
 62
     0
  2
_OPEN
 10
650.47905894261305
 20
2536.0792938593991
 30
0.0
 41
40.0
 42
40.0
 43
40.0
 50
90.0
  0
INSERT
  5
83FB
  8
3
 62
     0
  2
_OPEN
 10
650.47905894261294
 20
2024.0792938593991
 30
0.0
 41
40.0
 42
40.0
 43
40.0
 50
270.0
  0
TEXT
  8
3
  40
60
  5
84AC
  62
0
  72
0
  71
0
 10
480.479
 20
2173.88
 30
0.000000
  1
512
  0
POINT
  5
83FD
  8
DEFPOINTS
 62
     0
 10
792.48429420703076
 20
2536.0792938593991
 30
0.0
  0
POINT
  5
83FE
  8
DEFPOINTS
 62
     0
 10
792.48429420703076
 20
2024.0792938593991
 30
0.0
  0
POINT
  5
83FF
  8
DEFPOINTS
 62
     0
 10
650.47905894261294
 20
2024.0792938593991
 30
0.0
  0
ENDBLK
  5
8372
  8
0
  0
BLOCK
  8
0
  2
*D4
 70
     1
 10
0.0
 20
0.0
 30
0.0
  3
*D4
  1

  0
LINE
  5
8400
  8
3
 62
     0
 10
1982.48429420703
 20
1425.0792938593991
 30
0.0
 11
1982.48429420703
 21
1262.7360982347459
 31
0.0
  0
LINE
  5
8401
  8
3
 62
     0
 10
1152.4842942070311
 20
1392.5480223721991
 30
0.0
 11
1152.4842942070311
 21
1262.7360982347459
 31
0.0
  0
LINE
  5
8402
  8
3
 62
     0
 10
1942.48429420703
 20
1282.7360982347459
 30
0.0
 11
1192.4842942070311
 21
1282.7360982347459
 31
0.0
  0
INSERT
  5
8403
  8
3
 62
     0
  2
_OPEN
 10
1982.48429420703
 20
1282.7360982347459
 30
0.0
 41
40.0
 42
40.0
 43
40.0
  0
INSERT
  5
8404
  8
3
 62
     0
  2
_OPEN
 10
1152.4842942070311
 20
1282.7360982347459
 30
0.0
 41
40.0
 42
40.0
 43
40.0
 50
180.0
  0
TEXT
  8
3
  40
60
  5
84AD
  62
0
  72
0
  71
0
 10
1447.48
 20
1226.54
 30
0.000000
  1
830
  0
POINT
  5
8406
  8
DEFPOINTS
 62
     0
 10
1982.48429420703
 20
1435.0792938593991
 30
0.0
  0
POINT
  5
8407
  8
DEFPOINTS
 62
     0
 10
1152.4842942070311
 20
1402.5480223721991
 30
0.0
  0
POINT
  5
8408
  8
DEFPOINTS
 62
     0
 10
1152.4842942070311
 20
1282.7360982347459
 30
0.0
  0
ENDBLK
  5
8318
  8
0
  0
BLOCK
  8
0
  2
*D5
 70
     1
 10
0.0
 20
0.0
 30
0.0
  3
*D5
  1

  0
LINE
  5
8409
  8
3
 62
     0
 10
892.48429420703178
 20
1510.0792938593991
 30
0.0
 11
492.3272174841303
 21
1510.0792938593991
 31
0.0
  0
LINE
  5
840A
  8
3
 62
     0
 10
892.48429420703178
 20
1435.0792938593991
 30
0.0
 11
492.3272174841303
 21
1435.0792938593991
 31
0.0
  0
LINE
  5
840B
  8
3
 62
     0
 10
512.32721748413041
 20
1550.0792938593991
 30
0.0
 11
512.32721748413041
 21
1590.0792938593991
 31
0.0
  0
LINE
  5
840C
  8
3
 62
     0
 10
512.32721748413041
 20
1395.0792938593991
 30
0.0
 11
512.3272174841303
 21
1217.9364367165419
 31
0.0
  0
LINE
  5
840D
  8
3
 62
     0
 10
512.32721748413041
 20
1510.0792938593991
 30
0.0
 11
512.32721748413041
 21
1435.0792938593991
 31
0.0
  0
INSERT
  5
840E
  8
3
 62
     0
  2
_DOT
 10
512.32721748413041
 20
1510.0792938593991
 30
0.0
 41
40.0
 42
40.0
 43
40.0
 50
270.0
  0
INSERT
  5
840F
  8
3
 62
     0
  2
_OPEN
 10
512.32721748413041
 20
1435.0792938593991
 30
0.0
 41
40.0
 42
40.0
 43
40.0
 50
90.0
  0
TEXT
  8
3
  40
60
  5
84AE
  62
0
  72
0
  71
0
 10
342.327
 20
1180.31
 30
0.000000
  1
75
  0
POINT
  5
8411
  8
DEFPOINTS
 62
     0
 10
902.48429420703178
 20
1510.0792938593991
 30
0.0
  0
POINT
  5
8412
  8
DEFPOINTS
 62
     0
 10
902.48429420703178
 20
1435.0792938593991
 30
0.0
  0
POINT
  5
8413
  8
DEFPOINTS
 62
     0
 10
512.32721748413041
 20
1435.0792938593991
 30
0.0
  0
ENDBLK
  5
835C
  8
0
  0
BLOCK
  8
0
  2
*D6
 70
     1
 10
0.0
 20
0.0
 30
0.0
  3
*D6
  1

  0
LINE
  5
82F7
  8
0
  6
BYBLOCK
 62
     0
 10
6366.4295766118921
 20
1594.6276124862691
 30
0.0
 11
5966.2724998889898
 21
1594.6276124862691
 31
0.0
  0
LINE
  5
82F8
  8
0
  6
BYBLOCK
 62
     0
 10
6366.4295766118921
 20
1556.6276124862691
 30
0.0
 11
5966.2724998889898
 21
1556.6276124862691
 31
0.0
  0
LINE
  5
82F9
  8
0
  6
BYBLOCK
 62
     0
 10
5986.2724998889908
 20
1634.6276124862691
 30
0.0
 11
5986.2724998889908
 21
1674.6276124862691
 31
0.0
  0
LINE
  5
82FA
  8
0
  6
BYBLOCK
 62
     0
 10
5986.2724998889908
 20
1516.6276124862691
 30
0.0
 11
5986.2724998889908
 21
1476.6276124862691
 31
0.0
  0
TEXT
  5
82FB
  8
1
 62
     0
 10
5920.4135837222502
 20
1491.9852953655441
 30
0.0
 40
60.0
  1
(38)
 50
90.0
  0
LINE
  5
82FC
  8
0
  6
BYBLOCK
 62
     0
 10
5986.2724998889908
 20
1594.6276124862691
 30
0.0
 11
5986.2724998889908
 21
1556.6276124862691
 31
0.0
  0
INSERT
  5
82FD
  8
0
  6
BYBLOCK
 62
     0
  2
_OPEN
 10
5986.2724998889908
 20
1594.6276124862691
 30
0.0
 41
40.0
 42
40.0
 43
40.0
 50
270.0
  0
INSERT
  5
82FE
  8
0
  6
BYBLOCK
 62
     0
  2
_DOT
 10
5986.2724998889908
 20
1556.6276124862691
 30
0.0
 41
40.0
 42
40.0
 43
40.0
 50
90.0
  0
POINT
  5
82FF
  8
DEFPOINTS
  6
BYBLOCK
 62
     0
 10
6376.4295766118921
 20
1594.6276124862691
 30
0.0
  0
POINT
  5
8300
  8
DEFPOINTS
  6
BYBLOCK
 62
     0
 10
6376.4295766118921
 20
1556.6276124862691
 30
0.0
  0
POINT
  5
8301
  8
DEFPOINTS
  6
BYBLOCK
 62
     0
 10
5986.2724998889908
 20
1556.6276124862691
 30
0.0
  0
ENDBLK
  5
8302
  8
0
  0
BLOCK
  8
0
  2
*D7
 70
     1
 10
0.0
 20
0.0
 30
0.0
  3
*D7
  1

  0
LINE
  5
8414
  8
3
 62
     0
 10
699.33780089078755
 20
1998.0792938593991
 30
0.0
 11
492.32721748413047
 21
1998.0792938593991
 31
0.0
  0
LINE
  5
8415
  8
3
 62
     0
 10
892.48429420703178
 20
1548.0792938593991
 30
0.0
 11
492.3272174841303
 21
1548.0792938593991
 31
0.0
  0
LINE
  5
8416
  8
3
 62
     0
 10
512.32721748413053
 20
1958.0792938593991
 30
0.0
 11
512.32721748413041
 21
1588.0792938593991
 31
0.0
  0
INSERT
  5
8417
  8
3
 62
     0
  2
_OPEN
 10
512.32721748413053
 20
1998.0792938593991
 30
0.0
 41
40.0
 42
40.0
 43
40.0
 50
90.0
  0
INSERT
  5
8418
  8
3
 62
     0
  2
_OPEN
 10
512.32721748413041
 20
1548.0792938593991
 30
0.0
 41
40.0
 42
40.0
 43
40.0
 50
270.0
  0
TEXT
  8
3
  40
60
  5
84AF
  62
0
  72
0
  71
0
 10
342.327
 20
1666.88
 30
0.000000
  1
450
  0
POINT
  5
841A
  8
DEFPOINTS
 62
     0
 10
709.33780089078755
 20
1998.0792938593991
 30
0.0
  0
POINT
  5
841B
  8
DEFPOINTS
 62
     0
 10
902.48429420703178
 20
1548.0792938593991
 30
0.0
  0
POINT
  5
841C
  8
DEFPOINTS
 62
     0
 10
512.32721748413041
 20
1548.0792938593991
 30
0.0
  0
ENDBLK
  5
834F
  8
0
  0
BLOCK
  8
0
  2
*D8
 70
     1
 10
0.0
 20
0.0
 30
0.0
  3
*D8
  1

  0
LINE
  5
8325
  8
0
  6
BYBLOCK
 62
     0
 10
6626.4295766118921
 20
1439.09634099907
 30
0.0
 11
6626.4295766118921
 21
1309.284416861617
 31
0.0
  0
LINE
  5
8326
  8
0
  6
BYBLOCK
 62
     0
 10
6376.4295766118921
 20
1471.6276124862691
 30
0.0
 11
6376.4295766118921
 21
1309.284416861617
 31
0.0
  0
LINE
  5
8327
  8
0
  6
BYBLOCK
 62
     0
 10
6586.429576611893
 20
1329.284416861617
 30
0.0
 11
6416.429576611893
 21
1329.284416861617
 31
0.0
  0
TEXT
  5
8328
  8
1
 62
     0
 10
6424.2867194690343
 20
1348.4546841433689
 30
0.0
 40
60.0
  1
250
  0
INSERT
  5
8329
  8
0
  6
BYBLOCK
 62
     0
  2
_OPEN
 10
6626.4295766118921
 20
1329.284416861617
 30
0.0
 41
40.0
 42
40.0
 43
40.0
  0
INSERT
  5
832A
  8
0
  6
BYBLOCK
 62
     0
  2
_OPEN
 10
6376.4295766118921
 20
1329.284416861617
 30
0.0
 41
40.0
 42
40.0
 43
40.0
 50
180.0
  0
POINT
  5
832B
  8
DEFPOINTS
  6
BYBLOCK
 62
     0
 10
6626.4295766118921
 20
1449.0963409990691
 30
0.0
  0
POINT
  5
832C
  8
DEFPOINTS
  6
BYBLOCK
 62
     0
 10
6376.4295766118921
 20
1481.6276124862691
 30
0.0
  0
POINT
  5
832D
  8
DEFPOINTS
  6
BYBLOCK
 62
     0
 10
6376.4295766118921
 20
1329.284416861617
 30
0.0
  0
ENDBLK
  5
832E
  8
0
  0
BLOCK
  8
0
  2
*D9
 70
     1
 10
0.0
 20
0.0
 30
0.0
  3
*D9
  1

  0
LINE
  5
841D
  8
3
 62
     0
 10
1402.4842942070311
 20
4339.553714501234
 30
0.0
 11
1402.4842942070311
 21
4492.8384657069491
 31
0.0
  0
LINE
  5
841E
  8
3
 62
     0
 10
1982.48429420703
 20
3899.553714501234
 30
0.0
 11
1982.48429420703
 21
4492.8384657069491
 31
0.0
  0
LINE
  5
841F
  8
3
 62
     0
 10
1442.4842942070311
 20
4472.8384657069482
 30
0.0
 11
1942.48429420703
 21
4472.8384657069482
 31
0.0
  0
INSERT
  5
8420
  8
3
 62
     0
  2
_OPEN
 10
1402.4842942070311
 20
4472.8384657069482
 30
0.0
 41
40.0
 42
40.0
 43
40.0
 50
180.0
  0
INSERT
  5
8421
  8
3
 62
     0
  2
_OPEN
 10
1982.48429420703
 20
4472.8384657069482
 30
0.0
 41
40.0
 42
40.0
 43
40.0
  0
TEXT
  8
3
  40
60
  5
84B0
  62
0
  72
0
  71
0
 10
1572.48
 20
4416.64
 30
0.000000
  1
580
  0
POINT
  5
8423
  8
DEFPOINTS
 62
     0
 10
1402.4842942070311
 20
4329.5537145012349
 30
0.0
  0
POINT
  5
8424
  8
DEFPOINTS
 62
     0
 10
1982.48429420703
 20
3889.553714501234
 30
0.0
  0
POINT
  5
8425
  8
DEFPOINTS
 62
     0
 10
1982.48429420703
 20
4472.8384657069482
 30
0.0
  0
ENDBLK
  5
82C9
  8
0
  0
BLOCK
  8
0
  2
*D10
 70
     1
 10
0.0
 20
0.0
 30
0.0
  3
*D10
  1

  0
LINE
  5
8426
  8
3
 62
     0
 10
902.48429420703178
 20
3319.553714501234
 30
0.0
 11
902.48429420703178
 21
2992.735462001277
 31
0.0
  0
LINE
  5
8427
  8
3
 62
     0
 10
1982.48429420703
 20
3319.553714501234
 30
0.0
 11
1982.48429420703
 21
2992.735462001277
 31
0.0
  0
LINE
  5
8428
  8
3
 62
     0
 10
942.48429420703178
 20
3012.735462001277
 30
0.0
 11
1942.48429420703
 21
3012.735462001277
 31
0.0
  0
INSERT
  5
8429
  8
3
 62
     0
  2
_OPEN
 10
902.48429420703178
 20
3012.735462001277
 30
0.0
 41
40.0
 42
40.0
 43
40.0
 50
180.0
  0
INSERT
  5
842A
  8
3
 62
     0
  2
_OPEN
 10
1982.48429420703
 20
3012.735462001277
 30
0.0
 41
40.0
 42
40.0
 43
40.0
  0
TEXT
  8
3
  40
60
  5
84B1
  62
0
  72
0
  71
0
 10
1322.48
 20
2956.54
 30
0.000000
  1
1080
  0
POINT
  5
842C
  8
DEFPOINTS
 62
     0
 10
902.48429420703178
 20
3329.553714501234
 30
0.0
  0
POINT
  5
842D
  8
DEFPOINTS
 62
     0
 10
1982.48429420703
 20
3329.553714501234
 30
0.0
  0
POINT
  5
842E
  8
DEFPOINTS
 62
     0
 10
1982.48429420703
 20
3012.735462001277
 30
0.0
  0
ENDBLK
  5
82D4
  8
0
  0
BLOCK
  8
0
  2
*D11
 70
     1
 10
0.0
 20
0.0
 30
0.0
  3
*D11
  1

  0
LINE
  5
842F
  8
3
 62
     0
 10
1992.4842942070311
 20
3889.553714501234
 30
0.0
 11
2189.1188787657852
 21
3889.553714501234
 31
0.0
  0
LINE
  5
8430
  8
3
 62
     0
 10
1992.4842942070311
 20
3329.553714501234
 30
0.0
 11
2189.1188787657852
 21
3329.553714501234
 31
0.0
  0
LINE
  5
8431
  8
3
 62
     0
 10
2169.1188787657861
 20
3849.553714501234
 30
0.0
 11
2169.1188787657861
 21
3369.553714501234
 31
0.0
  0
INSERT
  5
8432
  8
3
 62
     0
  2
_OPEN
 10
2169.1188787657861
 20
3889.553714501234
 30
0.0
 41
40.0
 42
40.0
 43
40.0
 50
90.0
  0
INSERT
  5
8433
  8
3
 62
     0
  2
_OPEN
 10
2169.1188787657861
 20
3329.553714501234
 30
0.0
 41
40.0
 42
40.0
 43
40.0
 50
270.0
  0
TEXT
  8
3
  40
60
  5
84B2
  62
0
  72
0
  71
0
 10
1999.12
 20
3503.35
 30
0.000000
  1
560
  0
POINT
  5
8435
  8
DEFPOINTS
 62
     0
 10
1982.48429420703
 20
3889.553714501234
 30
0.0
  0
POINT
  5
8436
  8
DEFPOINTS
 62
     0
 10
1982.48429420703
 20
3329.553714501234
 30
0.0
  0
POINT
  5
8437
  8
DEFPOINTS
 62
     0
 10
2169.1188787657861
 20
3329.553714501234
 30
0.0
  0
ENDBLK
  5
82DF
  8
0
  0
BLOCK
  8
0
  2
*D12
 70
     1
 10
0.0
 20
0.0
 30
0.0
  3
*D12
  1

  0
LINE
  5
8438
  8
3
 62
     0
 10
892.48429420703178
 20
3329.553714501234
 30
0.0
 11
577.66656241852695
 21
3329.553714501234
 31
0.0
  0
LINE
  5
8439
  8
3
 62
     0
 10
892.48429420703178
 20
4329.5537145012349
 30
0.0
 11
577.66656241852695
 21
4329.5537145012349
 31
0.0
  0
LINE
  5
843A
  8
3
 62
     0
 10
597.66656241852695
 20
3369.553714501234
 30
0.0
 11
597.66656241852706
 21
4289.553714501234
 31
0.0
  0
INSERT
  5
843B
  8
3
 62
     0
  2
_OPEN
 10
597.66656241852695
 20
3329.553714501234
 30
0.0
 41
40.0
 42
40.0
 43
40.0
 50
270.0
  0
INSERT
  5
843C
  8
3
 62
     0
  2
_OPEN
 10
597.66656241852706
 20
4329.5537145012349
 30
0.0
 41
40.0
 42
40.0
 43
40.0
 50
90.0
  0
TEXT
  8
3
  40
60
  5
84B3
  62
0
  72
0
  71
0
 10
427.667
 20
3723.35
 30
0.000000
  1
1000
  0
POINT
  5
843E
  8
DEFPOINTS
 62
     0
 10
902.48429420703178
 20
3329.553714501234
 30
0.0
  0
POINT
  5
843F
  8
DEFPOINTS
 62
     0
 10
902.48429420703178
 20
4329.5537145012349
 30
0.0
  0
POINT
  5
8440
  8
DEFPOINTS
 62
     0
 10
597.66656241852706
 20
4329.5537145012349
 30
0.0
  0
ENDBLK
  5
82F5
  8
0
  0
BLOCK
  8
0
  2
*D13
 70
     1
 10
0.0
 20
0.0
 30
0.0
  3
*D13
  1

  0
LINE
  5
8441
  8
3
 62
     0
 10
792.48429420703076
 20
2573.0857725635278
 30
0.0
 11
792.48429420703076
 21
2721.3464134879041
 31
0.0
  0
LINE
  5
8442
  8
3
 62
     0
 10
1152.4842942070311
 20
2619.0047230375048
 30
0.0
 11
1152.4842942070311
 21
2721.3464134879041
 31
0.0
  0
LINE
  5
8443
  8
3
 62
     0
 10
832.48429420703076
 20
2701.3464134879041
 30
0.0
 11
1112.4842942070311
 21
2701.3464134879041
 31
0.0
  0
INSERT
  5
8444
  8
3
 62
     0
  2
_OPEN
 10
792.48429420703076
 20
2701.3464134879041
 30
0.0
 41
40.0
 42
40.0
 43
40.0
 50
180.0
  0
INSERT
  5
8445
  8
3
 62
     0
  2
_OPEN
 10
1152.4842942070311
 20
2701.3464134879041
 30
0.0
 41
40.0
 42
40.0
 43
40.0
  0
TEXT
  8
3
  40
60
  5
84B4
  62
0
  72
0
  71
0
 10
852.484
 20
2645.15
 30
0.000000
  1
360
  0
POINT
  5
8447
  8
DEFPOINTS
 62
     0
 10
792.48429420703076
 20
2563.0857725635278
 30
0.0
  0
POINT
  5
8448
  8
DEFPOINTS
 62
     0
 10
1152.4842942070311
 20
2609.0047230375048
 30
0.0
  0
POINT
  5
8449
  8
DEFPOINTS
 62
     0
 10
1152.4842942070311
 20
2701.3464134879041
 30
0.0
  0
ENDBLK
  5
8339
  8
0
  0
BLOCK
  8
0
  2
*D14
 70
     1
 10
0.0
 20
0.0
 30
0.0
  3
*D14
  1

  0
LINE
  5
844A
  8
3
 62
     0
 10
902.48429420703178
 20
4339.553714501234
 30
0.0
 11
902.48429420703178
 21
4492.8384657069491
 31
0.0
  0
LINE
  5
844B
  8
3
 62
     0
 10
1402.4842942070311
 20
4339.553714501234
 30
0.0
 11
1402.4842942070311
 21
4492.8384657069491
 31
0.0
  0
LINE
  5
844C
  8
3
 62
     0
 10
942.48429420703178
 20
4472.8384657069482
 30
0.0
 11
1362.4842942070311
 21
4472.8384657069482
 31
0.0
  0
INSERT
  5
844D
  8
3
 62
     0
  2
_OPEN
 10
902.48429420703178
 20
4472.8384657069482
 30
0.0
 41
40.0
 42
40.0
 43
40.0
 50
180.0
  0
INSERT
  5
844E
  8
3
 62
     0
  2
_OPEN
 10
1402.4842942070311
 20
4472.8384657069482
 30
0.0
 41
40.0
 42
40.0
 43
40.0
  0
TEXT
  8
3
  40
60
  5
84B5
  62
0
  72
0
  71
0
 10
1032.48
 20
4416.64
 30
0.000000
  1
500
  0
POINT
  5
8450
  8
DEFPOINTS
 62
     0
 10
902.48429420703178
 20
4329.5537145012349
 30
0.0
  0
POINT
  5
8451
  8
DEFPOINTS
 62
     0
 10
1402.4842942070311
 20
4329.5537145012349
 30
0.0
  0
POINT
  5
8452
  8
DEFPOINTS
 62
     0
 10
1402.4842942070311
 20
4472.8384657069482
 30
0.0
  0
ENDBLK
  5
82EA
  8
0
  0
BLOCK
  8
0
  2
*D15
 70
     1
 10
0.0
 20
0.0
 30
0.0
  3
*D15
  1

  0
LINE
  5
8250
  8
0
  6
BYBLOCK
 62
     0
 10
3522.5155854576942
 20
2769.6800842225371
 30
0.0
 11
3522.5155854576942
 21
2819.361904703007
 31
0.0
  0
LINE
  5
8251
  8
0
  6
BYBLOCK
 62
     0
 10
3714.5155854576942
 20
1972.0745267248731
 30
0.0
 11
3714.5155854576942
 21
2819.361904703007
 31
0.0
  0
LINE
  5
8252
  8
0
  6
BYBLOCK
 62
     0
 10
3562.5155854576942
 20
2799.361904703007
 30
0.0
 11
3674.5155854576942
 21
2799.361904703007
 31
0.0
  0
TEXT
  5
8253
  8
1
 62
     0
 10
3547.0870140291222
 20
2829.1642063894892
 30
0.0
 40
60.0
  1
192
  0
INSERT
  5
8254
  8
0
  6
BYBLOCK
 62
     0
  2
_OPEN
 10
3522.5155854576942
 20
2799.361904703007
 30
0.0
 41
40.0
 42
40.0
 43
40.0
 50
180.0
  0
INSERT
  5
8255
  8
0
  6
BYBLOCK
 62
     0
  2
_OPEN
 10
3714.5155854576942
 20
2799.361904703007
 30
0.0
 41
40.0
 42
40.0
 43
40.0
  0
POINT
  5
8256
  8
DEFPOINTS
  6
BYBLOCK
 62
     0
 10
3522.5155854576942
 20
2759.6800842225371
 30
0.0
  0
POINT
  5
8257
  8
DEFPOINTS
  6
BYBLOCK
 62
     0
 10
3714.5155854576942
 20
1962.0745267248731
 30
0.0
  0
POINT
  5
8258
  8
DEFPOINTS
  6
BYBLOCK
 62
     0
 10
3714.5155854576942
 20
2799.361904703007
 30
0.0
  0
ENDBLK
  5
8259
  8
0
  0
BLOCK
  8
0
  2
*D16
 70
     1
 10
0.0
 20
0.0
 30
0.0
  3
*D16
  1

  0
LINE
  5
8453
  8
3
 62
     0
 10
2422.9350484473121
 20
2158.0792938593991
 30
0.0
 11
2422.9350484473121
 21
2854.2731505416632
 31
0.0
  0
LINE
  5
8454
  8
3
 62
     0
 10
3277.9350484473139
 20
2804.5913300611919
 30
0.0
 11
3277.9350484473139
 21
2854.2731505416632
 31
0.0
  0
LINE
  5
8455
  8
3
 62
     0
 10
2462.9350484473121
 20
2834.2731505416618
 30
0.0
 11
3237.9350484473139
 21
2834.2731505416618
 31
0.0
  0
INSERT
  5
8456
  8
3
 62
     0
  2
_OPEN
 10
2422.9350484473121
 20
2834.2731505416618
 30
0.0
 41
40.0
 42
40.0
 43
40.0
 50
180.0
  0
INSERT
  5
8457
  8
3
 62
     0
  2
_OPEN
 10
3277.9350484473139
 20
2834.2731505416618
 30
0.0
 41
40.0
 42
40.0
 43
40.0
  0
TEXT
  8
3
  40
60
  5
84B6
  62
0
  72
0
  71
0
 10
2730.44
 20
2828.07
 30
0.000000
  1
MAX
  0
TEXT
  8
3
  40
60
  5
84B7
  62
0
  72
0
  71
0
 10
2730.44
 20
2750.07
 30
0.000000
  1
930
  0
POINT
  5
8459
  8
DEFPOINTS
 62
     0
 10
2422.9350484473121
 20
2148.0792938593991
 30
0.0
  0
POINT
  5
845A
  8
DEFPOINTS
 62
     0
 10
3277.9350484473139
 20
2794.5913300611928
 30
0.0
  0
POINT
  5
845B
  8
DEFPOINTS
 62
     0
 10
3277.9350484473139
 20
2834.2731505416618
 30
0.0
  0
ENDBLK
  5
828D
  8
0
  0
BLOCK
  8
0
  2
*D17
 70
     1
 10
0.0
 20
0.0
 30
0.0
  3
*D17
  1

  0
LINE
  5
845C
  8
3
 62
     0
 10
2507.9350484473139
 20
1425.0792938593991
 30
0.0
 11
2507.9350484473139
 21
1258.4822566946359
 31
0.0
  0
LINE
  5
845D
  8
3
 62
     0
 10
3277.9350484473139
 20
1392.5480223722
 30
0.0
 11
3277.9350484473139
 21
1258.4822566946359
 31
0.0
  0
LINE
  5
845E
  8
3
 62
     0
 10
2547.9350484473139
 20
1278.4822566946359
 30
0.0
 11
3237.9350484473139
 21
1278.4822566946359
 31
0.0
  0
INSERT
  5
845F
  8
3
 62
     0
  2
_OPEN
 10
2507.9350484473139
 20
1278.4822566946359
 30
0.0
 41
40.0
 42
40.0
 43
40.0
 50
180.0
  0
INSERT
  5
8460
  8
3
 62
     0
  2
_OPEN
 10
3277.9350484473139
 20
1278.4822566946359
 30
0.0
 41
40.0
 42
40.0
 43
40.0
  0
TEXT
  8
3
  40
60
  5
84B8
  62
0
  72
0
  71
0
 10
2772.94
 20
1222.28
 30
0.000000
  1
770
  0
POINT
  5
8462
  8
DEFPOINTS
 62
     0
 10
2507.9350484473139
 20
1435.0792938593991
 30
0.0
  0
POINT
  5
8463
  8
DEFPOINTS
 62
     0
 10
3277.9350484473139
 20
1402.5480223722
 30
0.0
  0
POINT
  5
8464
  8
DEFPOINTS
 62
     0
 10
3277.9350484473139
 20
1278.4822566946359
 30
0.0
  0
ENDBLK
  5
80B8
  8
0
  0
BLOCK
  8
0
  2
*D18
 70
     1
 10
0.0
 20
0.0
 30
0.0
  3
*D18
  1

  0
LINE
  5
8479
  8
3
 62
     0
 10
3504.9350484473139
 20
2248.0792938593991
 30
0.0
 11
3690.0158228669061
 21
2248.0792938593991
 31
0.0
  0
LINE
  5
847A
  8
3
 62
     0
 10
3504.9350484473139
 20
1748.0792938593991
 30
0.0
 11
3690.0158228669061
 21
1748.0792938593991
 31
0.0
  0
LINE
  5
847B
  8
3
 62
     0
 10
3670.0158228669061
 20
2208.0792938593991
 30
0.0
 11
3670.0158228669061
 21
1788.0792938593991
 31
0.0
  0
INSERT
  5
847C
  8
3
 62
     0
  2
_OPEN
 10
3670.0158228669061
 20
2248.0792938593991
 30
0.0
 41
40.0
 42
40.0
 43
40.0
 50
90.0
  0
INSERT
  5
847D
  8
3
 62
     0
  2
_OPEN
 10
3670.0158228669061
 20
1748.0792938593991
 30
0.0
 41
40.0
 42
40.0
 43
40.0
 50
270.0
  0
TEXT
  8
3
  40
60
  5
84B9
  62
0
  72
0
  71
0
 10
3500.02
 20
1891.88
 30
0.000000
  1
φ500
  0
POINT
  5
847F
  8
DEFPOINTS
 62
     0
 10
3494.9350484473139
 20
2248.0792938593991
 30
0.0
  0
POINT
  5
8480
  8
DEFPOINTS
 62
     0
 10
3494.9350484473139
 20
1748.0792938593991
 30
0.0
  0
POINT
  5
8481
  8
DEFPOINTS
 62
     0
 10
3670.0158228669061
 20
1748.0792938593991
 30
0.0
  0
ENDBLK
  5
8243
  8
0
  0
BLOCK
  8
0
  2
*D19
 70
     1
 10
0.0
 20
0.0
 30
0.0
  3
*D19
  1

  0
LINE
  5
81B6
  8
0
  6
BYBLOCK
 62
     0
 10
3522.5155854576942
 20
1357.6367765335449
 30
0.0
 11
3522.5155854576942
 21
1223.5710108559811
 31
0.0
  0
LINE
  5
81B7
  8
0
  6
BYBLOCK
 62
     0
 10
3752.5155854576942
 20
1390.168048020744
 30
0.0
 11
3752.5155854576942
 21
1223.5710108559811
 31
0.0
  0
LINE
  5
81B8
  8
0
  6
BYBLOCK
 62
     0
 10
3562.5155854576942
 20
1243.5710108559811
 30
0.0
 11
3712.5155854576942
 21
1243.5710108559811
 31
0.0
  0
TEXT
  5
81B9
  8
1
 62
     0
 10
3560.372728314836
 20
1262.289782331587
 30
0.0
 40
60.0
  1
230
  0
INSERT
  5
81BA
  8
0
  6
BYBLOCK
 62
     0
  2
_OPEN
 10
3522.5155854576942
 20
1243.5710108559811
 30
0.0
 41
40.0
 42
40.0
 43
40.0
 50
180.0
  0
INSERT
  5
81BB
  8
0
  6
BYBLOCK
 62
     0
  2
_OPEN
 10
3752.5155854576942
 20
1243.5710108559811
 30
0.0
 41
40.0
 42
40.0
 43
40.0
  0
POINT
  5
81BC
  8
DEFPOINTS
  6
BYBLOCK
 62
     0
 10
3522.5155854576942
 20
1367.6367765335449
 30
0.0
  0
POINT
  5
81BD
  8
DEFPOINTS
  6
BYBLOCK
 62
     0
 10
3752.5155854576942
 20
1400.168048020744
 30
0.0
  0
POINT
  5
81BE
  8
DEFPOINTS
  6
BYBLOCK
 62
     0
 10
3752.5155854576942
 20
1243.5710108559811
 30
0.0
  0
ENDBLK
  5
81BF
  8
0
  0
BLOCK
  8
0
  2
*D20
 70
     1
 10
0.0
 20
0.0
 30
0.0
  3
*D20
  1

  0
LINE
  5
848C
  8
3
 62
     0
 10
3090.4350484473139
 20
2547.9857725635279
 30
0.0
 11
3090.4350484473139
 21
2722.8117772393261
 31
0.0
  0
LINE
  5
848D
  8
3
 62
     0
 10
3465.4350484473139
 20
2547.9857725635279
 30
0.0
 11
3465.4350484473139
 21
2722.8117772393261
 31
0.0
  0
LINE
  5
848E
  8
3
 62
     0
 10
3130.4350484473139
 20
2702.8117772393261
 30
0.0
 11
3425.4350484473139
 21
2702.8117772393261
 31
0.0
  0
INSERT
  5
848F
  8
3
 62
     0
  2
_OPEN
 10
3090.4350484473139
 20
2702.8117772393261
 30
0.0
 41
40.0
 42
40.0
 43
40.0
 50
180.0
  0
INSERT
  5
8490
  8
3
 62
     0
  2
_OPEN
 10
3465.4350484473139
 20
2702.8117772393261
 30
0.0
 41
40.0
 42
40.0
 43
40.0
  0
TEXT
  8
3
  40
60
  5
84BA
  62
0
  72
0
  71
0
 10
3157.94
 20
2646.61
 30
0.000000
  1
375
  0
POINT
  5
8492
  8
DEFPOINTS
 62
     0
 10
3090.4350484473139
 20
2537.9857725635288
 30
0.0
  0
POINT
  5
8493
  8
DEFPOINTS
 62
     0
 10
3465.4350484473139
 20
2537.9857725635288
 30
0.0
  0
POINT
  5
8494
  8
DEFPOINTS
 62
     0
 10
3465.4350484473139
 20
2702.8117772393261
 30
0.0
  0
ENDBLK
  5
83A7
  8
0
  0
BLOCK
  8
0
  2
_DOT
 70
     0
 10
0.0
 20
0.0
 30
0.0
  3
_DOT
  1

  0
LINE
  5
8234
  8
0
  6
BYBLOCK
 62
     0
 10
0.0
 20
0.0
 30
0.0
 11
-1.0
 21
-0.0000000000000284
 31
0.0
  0
POLYLINE
  5
8235
  8
0
  6
BYBLOCK
 62
     0
 66
     1
 10
0.0
 20
0.0
 30
0.0
 70
     1
 40
0.1666666666666666
 41
0.1666666666666666
  0
VERTEX
  5
8495
  8
0
  6
BYBLOCK
 62
     0
 10
-0.0833333333333286
 20
-0.0000000000000284
 30
0.0
 42
1.0
  0
VERTEX
  5
8496
  8
0
  6
BYBLOCK
 62
     0
 10
0.0833333333333286
 20
-0.0000000000000284
 30
0.0
 42
1.0
  0
SEQEND
  5
8497
  8
0
  6
BYBLOCK
 62
     0
  0
ENDBLK
  5
81F4
  8
0
  0
BLOCK
  8
0
  2
*D22
 70
     1
 10
0.0
 20
0.0
 30
0.0
  3
*D22
  1

  0
LINE
  5
8498
  8
3
 62
     0
 10
792.48429420703076
 20
2573.0857725635278
 30
0.0
 11
792.48429420703076
 21
2837.2753160281791
 31
0.0
  0
LINE
  5
8499
  8
3
 62
     0
 10
1982.48429420703
 20
1633.0792938593991
 30
0.0
 11
1982.48429420703
 21
2837.2753160281791
 31
0.0
  0
LINE
  5
849A
  8
3
 62
     0
 10
832.48429420703076
 20
2817.2753160281791
 30
0.0
 11
1942.48429420703
 21
2817.2753160281791
 31
0.0
  0
INSERT
  5
849B
  8
3
 62
     0
  2
_OPEN
 10
792.48429420703076
 20
2817.2753160281791
 30
0.0
 41
40.0
 42
40.0
 43
40.0
 50
180.0
  0
INSERT
  5
849C
  8
3
 62
     0
  2
_OPEN
 10
1982.48429420703
 20
2817.2753160281791
 30
0.0
 41
40.0
 42
40.0
 43
40.0
  0
TEXT
  8
3
  40
60
  5
84BB
  62
0
  72
0
  71
0
 10
1260.75
 20
2761.08
 30
0.000000
  1
1190
  0
POINT
  5
849E
  8
DEFPOINTS
 62
     0
 10
792.48429420703076
 20
2563.0857725635278
 30
0.0
  0
POINT
  5
849F
  8
DEFPOINTS
 62
     0
 10
1982.48429420703
 20
1623.0792938593991
 30
0.0
  0
POINT
  5
84A0
  8
DEFPOINTS
 62
     0
 10
1982.48429420703
 20
2817.2753160281791
 30
0.0
  0
ENDBLK
  5
8323
  8
0
  0
BLOCK
  8
0
  2
L-30-3
 70
     0
 10
0.0
 20
0.0
 30
0.0
  3
L-30-3
  1

  0
LINE
  5
8293
  8
0
 10
115.2488417492448
 20
98.116970357453638
 30
0.0
 11
145.2488417492448
 21
98.116970357453638
 31
0.0
  0
LINE
  5
8294
  8
0
 10
115.2488417492448
 20
98.116970357453638
 30
0.0
 11
115.2488417492448
 21
128.1169703574536
 31
0.0
  0
LINE
  5
8295
  8
0
 10
145.2488417492448
 20
98.116970357453638
 30
0.0
 11
145.2488417492448
 21
99.116970357453638
 31
0.0
  0
LINE
  5
8296
  8
0
 10
115.2488417492448
 20
128.1169703574536
 30
0.0
 11
116.2488417492448
 21
128.1169703574536
 31
0.0
  0
LINE
  5
8297
  8
0
 10
122.2488417492448
 20
101.1169703574536
 30
0.0
 11
143.2488417492448
 21
101.1169703574536
 31
0.0
  0
LINE
  5
8298
  8
0
 10
118.2488417492448
 20
105.1169703574536
 30
0.0
 11
118.2488417492448
 21
126.1169703574536
 31
0.0
  0
ARC
  5
8299
  8
0
 10
143.2488417492448
 20
99.116970357453638
 30
0.0
 40
2.0
 50
0.0
 51
90.0
  0
ARC
  5
829A
  8
0
 10
116.2488417492448
 20
126.1169703574536
 30
0.0
 40
2.0
 50
0.0
 51
90.0
  0
ARC
  5
829B
  8
0
 10
122.2488417492448
 20
105.1169703574536
 30
0.0
 40
4.0
 50
180.0
 51
270.0
  0
ENDBLK
  5
829D
  8
0
  0
BLOCK
  8
0
  2
*D24
 70
     1
 10
0.0
 20
0.0
 30
0.0
  3
*D24
  1

  0
LINE
  5
84A1
  8
3
 62
     0
 10
782.48429420703087
 20
2566.0792938593991
 30
0.0
 11
332.14451605505059
 21
2566.0792938593991
 31
0.0
  0
LINE
  5
84A2
  8
3
 62
     0
 10
892.48429420703178
 20
1435.0792938593991
 30
0.0
 11
332.14451605505042
 21
1435.0792938593991
 31
0.0
  0
LINE
  5
84A3
  8
3
 62
     0
 10
352.14451605505059
 20
2526.0792938593991
 30
0.0
 11
352.14451605505042
 21
1475.0792938593991
 31
0.0
  0
INSERT
  5
84A4
  8
3
 62
     0
  2
_OPEN
 10
352.14451605505059
 20
2566.0792938593991
 30
0.0
 41
40.0
 42
40.0
 43
40.0
 50
90.0
  0
INSERT
  5
84A5
  8
3
 62
     0
  2
_OPEN
 10
352.14451605505042
 20
1435.0792938593991
 30
0.0
 41
40.0
 42
40.0
 43
40.0
 50
270.0
  0
TEXT
  8
3
  40
60
  5
84BC
  62
0
  72
0
  71
0
 10
182.145
 20
1829.42
 30
0.000000
  1
1131
  0
POINT
  5
84A7
  8
DEFPOINTS
 62
     0
 10
792.48429420703076
 20
2566.0792938593991
 30
0.0
  0
POINT
  5
84A8
  8
DEFPOINTS
 62
     0
 10
902.48429420703178
 20
1435.0792938593991
 30
0.0
  0
POINT
  5
84A9
  8
DEFPOINTS
 62
     0
 10
352.14451605505042
 20
1435.0792938593991
 30
0.0
  0
ENDBLK
  5
830D
  8
0
  0
ENDSEC
  0
SECTION
  2
ENTITIES
  0
DIMENSION
  5
7CA6
  8
3
  2
*D1
 10
1587.5322850148909
 20
2701.3464134879041
 30
0.0
 11
1370.0082896109609
 21
2751.346413487905
 31
0.0
 70
     0
 13
1152.4842942070311
 23
2609.0047230375048
 33
0.0
 14
1587.5322850148909
 24
2035.0792938593991
 34
0.0
1001
ACAD
1000
DSTYLE
1002
{
1070
   287
1070
     3
1070
    40
1040
20.0
1070
   143
1040
0.039
1070
   172
1070
     1
1070
   271
1070
     0
1070
   279
1070
     0
1070
   288
1070
     1
1002
}
  0
DIMENSION
  5
7CA8
  8
3
  2
*D2
 10
512.32721748413041
 20
1998.0792938593991
 30
0.0
 11
462.32721748413002
 21
2267.0792938593991
 31
0.0
 70
     0
 13
792.48429420703076
 23
2536.0792938593991
 33
0.0
 14
709.33780089078755
 24
1998.0792938593991
 34
0.0
 50
270.0
1001
ACAD
1000
DSTYLE
1002
{
1070
   287
1070
     3
1070
    40
1040
20.0
1070
   143
1040
0.039
1070
   172
1070
     1
1070
   271
1070
     0
1070
   279
1070
     0
1070
   288
1070
     1
1002
}
  0
DIMENSION
  5
7CA9
  8
3
  2
*D3
 10
650.47905894261294
 20
2024.0792938593991
 30
0.0
 11
600.4790589426126
 21
2280.0792938593991
 31
0.0
 70
     0
 13
792.48429420703076
 23
2536.0792938593991
 33
0.0
 14
792.48429420703076
 24
2024.0792938593991
 34
0.0
 50
270.0
1001
ACAD
1000
DSTYLE
1002
{
1070
   287
1070
     3
1070
    40
1040
20.0
1070
   143
1040
0.039
1070
   172
1070
     1
1070
   271
1070
     0
1070
   279
1070
     0
1070
   288
1070
     1
1002
}
  0
LINE
  5
7CAA
  8
1
 10
792.48429420703076
 20
2536.0792938593991
 30
0.0
 11
792.48429420703076
 21
2024.0792938594
 31
0.0
  0
LINE
  5
7CAB
  8
1
 10
792.48429420703076
 20
2014.0792938593991
 30
0.0
 11
792.48429420703076
 21
2546.1116873800452
 31
0.0
  0
LINE
  5
7CAC
  8
1
 10
792.48429420703076
 20
2006.5069986638789
 30
0.0
 11
792.48429420703076
 21
2554.817339394242
 31
0.0
  0
LINE
  5
7CAD
  8
1
 10
795.48429420703087
 20
2557.2256948723548
 30
0.0
 11
795.48429420703087
 21
2004.8072017858681
 31
0.0
  0
LINE
  5
7CAE
  8
1
 10
822.45996962382196
 20
2536.1248226939879
 30
0.0
 11
822.48429420703076
 21
2024.0792938593991
 31
0.0
  0
ARC
  5
7CB0
  8
1
 10
1115.48429420703
 20
2035.0792938593991
 30
0.0
 40
473.44799080786078
 50
0.0
 51
85.517759629575124
  0
LINE
  5
7CB1
  8
2
 10
1152.4842942070311
 20
1402.5480223721991
 30
0.0
 11
1152.4842942070311
 21
2609.0047230375048
 31
0.0
  0
LINE
  5
7CB2
  8
1
 10
1780.9636108105069
 20
1660.9400579319899
 30
0.0
 11
1110.9636108105069
 21
1853.9403579319901
 31
0.0
  0
LINE
  5
7CB3
  8
1
 10
1864.0049776035539
 20
1949.2179297868081
 30
0.0
 11
1194.0049776035539
 21
2142.2182297868071
 31
0.0
  0
LINE
  5
7CB4
  8
1
 10
1800.0615683234439
 20
1732.2527529571689
 30
0.0
 11
1133.7986893040429
 21
1937.3907597742079
 31
0.0
  0
LINE
  5
7CB5
  8
1
 10
1842.239584199335
 20
1878.6736167425961
 30
0.0
 11
1168.947035867285
 21
2059.4081462620629
 31
0.0
  0
DIMENSION
  5
7CB6
  8
3
  2
*D4
 10
1152.4842942070311
 20
1282.7360982347459
 30
0.0
 11
1567.4842942070311
 21
1332.7360982347459
 31
0.0
 70
     0
 13
1982.48429420703
 23
1435.0792938593991
 33
0.0
 14
1152.4842942070311
 24
1402.5480223721991
 34
0.0
1001
ACAD
1000
DSTYLE
1002
{
1070
   287
1070
     3
1070
    40
1040
20.0
1070
   143
1040
0.039
1070
   172
1070
     1
1070
   271
1070
     0
1070
   279
1070
     0
1070
   288
1070
     1
1002
}
  0
LINE
  5
7CB8
  8
1
 10
902.48429420703178
 20
1623.0792938593991
 30
0.0
 11
1982.48429420703
 21
1623.0792938593991
 31
0.0
  0
LINE
  5
7CB9
  8
1
 10
902.48429420703178
 20
1548.0792938593991
 30
0.0
 11
1982.48429420703
 21
1548.0792938593991
 31
0.0
  0
LINE
  5
7CBA
  8
2
 10
1727.9259715555081
 20
1998.0792938593991
 30
0.0
 11
709.33780089078755
 21
1998.0792938593991
 31
0.0
  0
ARC
  5
7CBB
  8
1
 10
1189.4842942070311
 20
2035.0792938593991
 30
0.0
 40
398.04799080786057
 50
264.95754893082898
 51
0.0
  0
LINE
  5
7CBC
  8
1
 10
902.48429420703178
 20
1510.0792938593991
 30
0.0
 11
1982.48429420703
 21
1510.0792938593991
 31
0.0
  0
LINE
  5
7CBD
  8
1
 10
902.48429420703178
 20
1435.0792938593991
 30
0.0
 11
1982.48429420703
 21
1435.0792938593991
 31
0.0
  0
ARC
  5
7CBE
  8
1
 10
1822.4842942070311
 20
1805.0789938593989
 30
0.0
 40
150.0
 50
253.93041717352199
 51
73.930417173522031
  0
LINE
  5
7CBF
  8
2
 10
1822.4842942070311
 20
1693.7139938593989
 30
0.0
 11
1822.4842942070311
 21
1930.661993859399
 31
0.0
  0
ARC
  5
7CC1
  8
1
 10
1822.4842942070311
 20
1805.0789938593989
 30
0.0
 40
121.5
 50
0.0
 51
243.81509999999989
  0
CIRCLE
  5
7CC2
  8
1
 10
1822.4842942070311
 20
1805.0789938593989
 30
0.0
 40
76.200000000000003
  0
LINE
  5
7CC3
  8
1
 10
1982.48429420703
 20
1510.0792938593991
 30
0.0
 11
1982.48429420703
 21
1435.0792938593991
 31
0.0
  0
LINE
  5
7CC5
  8
1
 10
1768.8069942070299
 20
1696.0792938593991
 30
0.0
 11
1876.1615942070309
 21
1696.0792938593991
 31
0.0
  0
LINE
  5
7CC6
  8
2
 10
1948.35469420703
 20
1805.0789938593989
 30
0.0
 11
1696.6516942070309
 21
1805.0789938593989
 31
0.0
  0
LINE
  5
7CC7
  8
1
 10
1672.4842942070311
 20
1653.0792938593991
 30
0.0
 11
1972.4842942070291
 21
1653.0792938593991
 31
0.0
  0
LINE
  5
7CC8
  8
1
 10
1690.971843438399
 20
1693.0792938593991
 30
0.0
 11
1953.9967449756621
 21
1693.0792938593991
 31
0.0
  0
LINE
  5
7CC9
  8
1
 10
1964.98429420703
 20
1653.0792938593991
 30
0.0
 11
1953.9967449756621
 21
1693.0792938593991
 31
0.0
  0
LINE
  5
7CCA
  8
1
 10
1982.48429420703
 20
1548.0792938593991
 30
0.0
 11
1982.48429420703
 21
1623.0792938593991
 31
0.0
  0
LINE
  5
7CCB
  8
1
 10
1972.4842942070291
 20
1623.0792938593991
 30
0.0
 11
1972.4842942070291
 21
1653.0792938593991
 31
0.0
  0
LINE
  5
7CCC
  8
1
 10
1932.48429420703
 20
1693.0792938593991
 30
0.0
 11
1892.48429420703
 21
1693.0792938593991
 31
0.0
  0
ARC
  5
7CCE
  8
1
 10
1822.4842942070311
 20
1805.0789938593989
 30
0.0
 40
121.5
 50
296.24970000000002
 51
0.0
  0
LINE
  5
7CCF
  8
1
 10
1932.48429420703
 20
1693.0792938593991
 30
0.0
 11
1932.48429420703
 21
1703.0792938593991
 31
0.0
  0
LINE
  5
7CD0
  8
1
 10
1923.3168942070311
 20
1737.292493859399
 30
0.0
 11
1932.48429420703
 21
1703.0792938593991
 31
0.0
  0
LINE
  5
7CD1
  8
1
 10
1892.48429420703
 20
1693.0792938593991
 30
0.0
 11
1892.48429420703
 21
1698.0081938593989
 31
0.0
  0
LINE
  5
7CD2
  8
1
 10
1889.09659420703
 20
1703.4669938593991
 30
0.0
 11
1891.0197942070299
 21
1701.5436938593989
 31
0.0
  0
ARC
  5
7CD3
  8
1
 10
1887.4843942070311
 20
1698.0081938593989
 30
0.0
 40
4.9999000000000002
 50
0.0
 51
45.000500000000002
  0
LINE
  5
7CD4
  8
1
 10
1679.9842942070311
 20
1653.0792938593991
 30
0.0
 11
1690.971843438399
 21
1693.0792938593991
 31
0.0
  0
LINE
  5
7CD5
  8
1
 10
1672.4842942070311
 20
1623.0792938593991
 30
0.0
 11
1672.4842942070311
 21
1653.0792938593991
 31
0.0
  0
LINE
  5
7CD6
  8
1
 10
1712.4842942070311
 20
1693.0792938593991
 30
0.0
 11
1752.48429420703
 21
1693.0792938593991
 31
0.0
  0
LINE
  5
7CD7
  8
1
 10
1752.48429420703
 20
1693.0792938593991
 30
0.0
 11
1752.48429420703
 21
1698.0081938593989
 31
0.0
  0
ARC
  5
7CD8
  8
1
 10
1757.48419420703
 20
1698.0081938593989
 30
0.0
 40
4.9999000000000002
 50
134.99950000000001
 51
180.0
  0
LINE
  5
7CD9
  8
1
 10
1755.8719942070311
 20
1703.4669938593991
 30
0.0
 11
1753.9487942070309
 21
1701.5436938593989
 31
0.0
  0
LINE
  5
7CDA
  8
1
 10
1712.4842942070311
 20
1693.0792938593991
 30
0.0
 11
1712.4842942070311
 21
1703.0792938593991
 31
0.0
  0
LINE
  5
7CDB
  8
1
 10
1721.6516942070309
 20
1737.292493859399
 30
0.0
 11
1712.4842942070311
 21
1703.0792938593991
 31
0.0
  0
DIMENSION
  5
7CDC
  8
3
  2
*D5
 10
512.32721748413041
 20
1435.0792938593991
 30
0.0
 11
462.32721748413007
 21
1286.5078652879711
 31
0.0
 70
     0
 13
902.48429420703178
 23
1510.0792938593991
 33
0.0
 14
902.48429420703178
 24
1435.0792938593991
 34
0.0
 50
270.0
1001
ACAD
1000
DSTYLE
1002
{
1070
   287
1070
     3
1070
    40
1040
20.0
1070
   143
1040
0.039
1070
   172
1070
     1
1070
   271
1070
     0
1070
   279
1070
     0
1070
   288
1070
     1
1070
     6
1000
DOT
1002
}
  0
DIMENSION
  5
7CDD
  8
3
  2
*D6
 10
512.32721748413041
 20
1510.0792938593991
 30
0.0
 11
426.46830131738898
 21
1532.5798338815309
 31
0.0
 12
-5473.9452824048603
 22
-46.548318626870241
 32
0.0
 70
   128
  1
(38)
 13
902.48429420703178
 23
1548.0792938593991
 33
0.0
 14
902.48429420703178
 24
1510.0792938593991
 34
0.0
 50
270.0
1001
ACAD
1000
DSTYLE
1002
{
1070
   288
1070
     1
1070
   172
1070
     1
1070
    40
1040
20.0
1070
   271
1070
     0
1070
     7
1000
_DOT
1070
   143
1040
0.039
1002
}
  0
DIMENSION
  5
7CDE
  8
3
  2
*D7
 10
512.32721748413041
 20
1548.0792938593991
 30
0.0
 11
462.32721748413019
 21
1773.0792938593991
 31
0.0
 70
     0
 13
709.33780089078755
 23
1998.0792938593991
 33
0.0
 14
902.48429420703178
 24
1548.0792938593991
 34
0.0
 50
270.0
1001
ACAD
1000
DSTYLE
1002
{
1070
   287
1070
     3
1070
    40
1040
20.0
1070
   143
1040
0.039
1070
   172
1070
     1
1070
   271
1070
     0
1070
   279
1070
     0
1070
   288
1070
     1
1002
}
  0
LINE
  5
7CE0
  8
1
 10
858.40461581392185
 20
2024.0792938593991
 30
0.0
 11
792.48429420703076
 21
2024.0792938593991
 31
0.0
  0
ARC
  5
7CE3
  8
1
 10
1183.4842942070311
 20
1967.0792938593991
 30
0.0
 40
329.7837981443563
 50
180.0
 51
264.95754893082898
  0
LINE
  5
7CE5
  8
1
 10
1374.484294207014
 20
1623.0792938593991
 30
0.0
 11
1374.48429420703
 21
1934.879293859399
 31
0.0
  0
LINE
  5
7CE6
  8
1
 10
930.48429420703167
 20
1623.0792938593991
 30
0.0
 11
930.48429420703167
 21
1934.879293859399
 31
0.0
  0
DIMENSION
  5
7CE7
  8
3
  2
*D8
 10
902.48429420703178
 20
1282.7360982347459
 30
0.0
 11
1027.4842942070311
 21
1331.9063655164989
 31
0.0
 12
-5473.9452824048603
 22
-46.548318626870241
 32
0.0
 70
   128
 13
1152.4842942070311
 23
1402.5480223721991
 33
0.0
 14
902.48429420703178
 24
1435.0792938593991
 34
0.0
1001
ACAD
1000
DSTYLE
1002
{
1070
   288
1070
     1
1070
   172
1070
     1
1070
    40
1040
20.0
1070
   271
1070
     0
1070
   143
1040
0.039
1002
}
  0
LINE
  5
7CE8
  8
1
 10
1392.4842942070311
 20
1623.0792938593991
 30
0.0
 11
1392.4842942070311
 21
1663.0792938593991
 31
0.0
  0
LINE
  5
7CE9
  8
1
 10
1374.4842942070111
 20
1628.0792938593991
 30
0.0
 11
1392.4842942070311
 21
1628.0792938593991
 31
0.0
  0
LINE
  5
7CEA
  8
1
 10
1374.4842942070129
 20
1663.0792938593991
 30
0.0
 11
1392.4842942070311
 21
1663.0792938593991
 31
0.0
  0
LINE
  5
7CEB
  8
1
 10
902.48429420703178
 20
1510.0792938593991
 30
0.0
 11
902.48429420703178
 21
1435.0792938593991
 31
0.0
  0
LINE
  5
7CEC
  8
1
 10
912.48429420703167
 20
1628.0792938593991
 30
0.0
 11
930.48429420703167
 21
1628.0792938593991
 31
0.0
  0
LINE
  5
7CED
  8
1
 10
912.48429420703167
 20
1663.0792938593991
 30
0.0
 11
930.48429420703167
 21
1663.0792938593991
 31
0.0
  0
LINE
  5
7CEE
  8
1
 10
902.48429420703178
 20
1548.0792938593991
 30
0.0
 11
902.48429420703178
 21
1623.0792938593991
 31
0.0
  0
LINE
  5
7CEF
  8
1
 10
912.48429420703167
 20
1623.0792938593991
 30
0.0
 11
912.48429420703167
 21
1663.0792938593991
 31
0.0
  0
LINE
  5
7CF0
  8
1
 10
1384.4842942070311
 20
1938.0792938593991
 30
0.0
 11
920.48429420703167
 21
1938.0792938593991
 31
0.0
  0
LINE
  5
7CF1
  8
1
 10
1417.4842942070311
 20
1934.879293859399
 30
0.0
 11
887.48429420703167
 21
1934.879293859399
 31
0.0
  0
CIRCLE
  5
7CF2
  8
1
 10
1152.4842942070311
 20
1998.0792938593991
 30
0.0
 40
63.5
  0
LINE
  5
7CF3
  8
1
 10
1374.4842942070279
 20
1878.879293859399
 30
0.0
 11
1555.6041693656659
 21
1878.879293859399
 31
0.0
  0
LINE
  5
7CF4
  8
1
 10
1374.4842942070279
 20
1884.879293859399
 30
0.0
 11
1558.1062726431719
 21
1884.879293859399
 31
0.0
  0
LINE
  5
7CF5
  8
1
 10
1417.4842942070311
 20
1884.879293859399
 30
0.0
 11
1417.4842942070311
 21
1934.879293859399
 31
0.0
  0
LINE
  5
7CF6
  8
1
 10
1384.48429420703
 20
1934.879293859399
 30
0.0
 11
1384.4842942070311
 21
1938.0792938593991
 31
0.0
  0
ARC
  5
7CF7
  8
1
 10
1152.4842942070311
 20
1998.0792938593991
 30
0.0
 40
150.0
 50
73.930417173521988
 51
253.9304171735219
  0
ARC
  5
7CFA
  8
1
 10
1121.4842942070311
 20
1967.0792938594
 30
0.0
 40
269.18379814435679
 50
167.77500151106619
 51
180.0000000000002
  0
LINE
  5
7CFB
  8
1
 10
864.10910181019244
 20
1884.879293859399
 30
0.0
 11
930.48429420703167
 21
1884.879293859399
 31
0.0
  0
LINE
  5
7CFC
  8
1
 10
865.71375825613893
 20
1878.879293859399
 30
0.0
 11
930.48429420703167
 21
1878.879293859399
 31
0.0
  0
LINE
  5
7CFD
  8
1
 10
920.48429420703167
 20
1934.879293859399
 30
0.0
 11
920.48429420703167
 21
1938.0792938593991
 31
0.0
  0
LINE
  5
7CFE
  8
1
 10
887.48429420703167
 20
1884.879293859399
 30
0.0
 11
887.48429420703167
 21
1934.879293859399
 31
0.0
  0
DIMENSION
  5
7D02
  8
3
  2
*D9
 10
1982.48429420703
 20
4472.8384657069482
 30
0.0
 11
1692.4842942070311
 21
4522.8384657069491
 31
0.0
 70
     0
 13
1402.4842942070311
 23
4329.5537145012349
 33
0.0
 14
1982.48429420703
 24
3889.553714501234
 34
0.0
1001
ACAD
1000
DSTYLE
1002
{
1070
   287
1070
     3
1070
    40
1040
20.0
1070
   143
1040
0.039
1070
   172
1070
     1
1070
   271
1070
     0
1070
   279
1070
     0
1070
   288
1070
     1
1002
}
  0
LINE
  5
7D03
  8
1
 10
1402.4842942070311
 20
3849.553714501234
 30
0.0
 11
1982.48429420703
 21
3849.553714501234
 31
0.0
  0
LINE
  5
7D04
  8
1
 10
1402.4842942070311
 20
3889.553714501234
 30
0.0
 11
1982.48429420703
 21
3889.553714501234
 31
0.0
  0
LINE
  5
7D05
  8
1
 10
1384.4842942070311
 20
3369.5537145012331
 30
0.0
 11
1701.4842942070311
 21
3369.553714501234
 31
0.0
  0
LINE
  5
7D06
  8
1
 10
1228.68429420703
 20
3274.5537145012358
 30
0.0
 11
1758.9842942070311
 21
3274.5537145012358
 31
0.0
  0
LINE
  5
7D07
  8
1
 10
1228.68429420703
 20
3324.5537145012349
 30
0.0
 11
1758.9842942070311
 21
3324.5537145012349
 31
0.0
  0
LINE
  5
7D08
  8
1
 10
1002.484294207031
 20
3244.5537145012358
 30
0.0
 11
1972.4842942070311
 21
3244.5537145012358
 31
0.0
  0
LINE
  5
7D09
  8
1
 10
1002.484294207031
 20
3366.5537145012358
 30
0.0
 11
1972.4842942070311
 21
3366.5537145012358
 31
0.0
  0
LINE
  5
7D0A
  8
1
 10
1174.98429420703
 20
3329.5537145012331
 30
0.0
 11
1982.48429420703
 21
3329.553714501234
 31
0.0
  0
LINE
  5
7D0B
  8
2
 10
753.32868953349771
 20
4099.5537145012368
 30
0.0
 11
1659.653605871219
 21
4099.5537145012368
 31
0.0
  0
DIMENSION
  5
7D0C
  8
3
  2
*D10
 10
1982.48429420703
 20
3012.735462001277
 30
0.0
 11
1442.4842942070311
 21
3062.735462001277
 31
0.0
 70
     0
 13
902.48429420703178
 23
3329.553714501234
 33
0.0
 14
1982.48429420703
 24
3329.553714501234
 34
0.0
1001
ACAD
1000
DSTYLE
1002
{
1070
   287
1070
     3
1070
    40
1040
20.0
1070
   143
1040
0.039
1070
   172
1070
     1
1070
   271
1070
     0
1070
   279
1070
     0
1070
   288
1070
     1
1002
}
  0
DIMENSION
  5
7D0D
  8
3
  2
*D11
 10
2169.1188787657861
 20
3329.553714501234
 30
0.0
 11
2119.1188787657838
 21
3609.5537145012349
 31
0.0
 70
     0
 13
1982.48429420703
 23
3889.553714501234
 33
0.0
 14
1982.48429420703
 24
3329.553714501234
 34
0.0
 50
90.0
1001
ACAD
1000
DSTYLE
1002
{
1070
   287
1070
     3
1070
    40
1040
20.0
1070
   143
1040
0.039
1070
   172
1070
     1
1070
   271
1070
     0
1070
   279
1070
     0
1070
   288
1070
     1
1002
}
  0
LINE
  5
7D0E
  8
2
 10
1822.4842942070311
 20
3270.9637145012362
 30
0.0
 11
1822.4842942070311
 21
3661.0795145012362
 31
0.0
  0
LINE
  5
7D0F
  8
1
 10
1701.4842942070311
 20
3350.5537145012358
 30
0.0
 11
1701.4842942070311
 21
3657.5537145012358
 31
0.0
  0
LINE
  5
7D10
  8
1
 10
1943.4842942070311
 20
3350.5537145012358
 30
0.0
 11
1943.4842942070311
 21
3657.5537145012358
 31
0.0
  0
LINE
  5
7D11
  8
1
 10
1864.9842942070311
 20
3340.5537145012358
 30
0.0
 11
1779.9842942070311
 21
3340.5537145012358
 31
0.0
  0
LINE
  5
7D12
  8
1
 10
1885.9842942070311
 20
3274.5537145012372
 30
0.0
 11
1758.9842942070311
 21
3274.5537145012358
 31
0.0
  0
LINE
  5
7D13
  8
1
 10
1885.98429420703
 20
3324.5537145012372
 30
0.0
 11
1758.9842942070311
 21
3324.5537145012349
 31
0.0
  0
LINE
  5
7D14
  8
1
 10
1943.4842942070311
 20
3350.5537145012358
 30
0.0
 11
1701.4842942070311
 21
3350.5537145012358
 31
0.0
  0
LINE
  5
7D15
  8
1
 10
1972.4842942070311
 20
3244.5537145012358
 30
0.0
 11
1972.4842942070311
 21
3366.5537145012358
 31
0.0
  0
LINE
  5
7D16
  8
1
 10
1885.9842942070311
 20
3274.5537145012372
 30
0.0
 11
1885.9842942070311
 21
3324.5537145012372
 31
0.0
  0
LINE
  5
7D17
  8
1
 10
1943.4842942070311
 20
3369.553714501234
 30
0.0
 11
1982.48429420703
 21
3369.553714501234
 31
0.0
  0
LINE
  5
7D18
  8
1
 10
1982.48429420703
 20
3329.553714501234
 30
0.0
 11
1982.48429420703
 21
3369.553714501234
 31
0.0
  0
POINT
  5
7D19
  8
1
 10
1982.48429420703
 20
3329.553714501234
 30
0.0
  0
POINT
  5
7D1A
  8
1
 10
1982.48429420703
 20
3329.553714501234
 30
0.0
  0
POINT
  5
7D1B
  8
1
 10
1982.48429420703
 20
3329.553714501234
 30
0.0
  0
LINE
  5
7D1C
  8
1
 10
1864.9842942070311
 20
3350.5537145012358
 30
0.0
 11
1864.9842942070311
 21
3340.5537145012358
 31
0.0
  0
LINE
  5
7D1D
  8
1
 10
1837.9842942070311
 20
3340.5537145012358
 30
0.0
 11
1837.9842942070311
 21
3334.5537145012358
 31
0.0
  0
LINE
  5
7D1E
  8
1
 10
1836.4842942070311
 20
3334.5537145012358
 30
0.0
 11
1836.4842942070311
 21
3324.5537145012358
 31
0.0
  0
LINE
  5
7D1F
  8
1
 10
1806.9842942070311
 20
3334.5537145012358
 30
0.0
 11
1806.9842942070311
 21
3340.5537145012358
 31
0.0
  0
LINE
  5
7D20
  8
1
 10
1808.4842942070311
 20
3334.5537145012358
 30
0.0
 11
1808.4842942070311
 21
3324.5537145012358
 31
0.0
  0
LINE
  5
7D21
  8
1
 10
1837.9842942070311
 20
3334.5537145012358
 30
0.0
 11
1806.9842942070311
 21
3334.5537145012358
 31
0.0
  0
LINE
  5
7D22
  8
1
 10
1758.9842942070311
 20
3274.5537145012358
 30
0.0
 11
1758.9842942070311
 21
3324.5537145012349
 31
0.0
  0
LINE
  5
7D23
  8
1
 10
1779.9842942070311
 20
3350.5537145012358
 30
0.0
 11
1779.9842942070311
 21
3340.5537145012358
 31
0.0
  0
LINE
  5
7D24
  8
1
 10
1943.4842942070311
 20
3657.5537145012358
 30
0.0
 11
1701.4842942070311
 21
3657.5537145012358
 31
0.0
  0
LINE
  5
7D25
  8
1
 10
1982.48429420703
 20
3849.553714501234
 30
0.0
 11
1982.48429420703
 21
3889.553714501234
 31
0.0
  0
LINE
  5
7D2A
  8
2
 10
1152.4842942070311
 20
3242.0711033900438
 30
0.0
 11
1152.4842942070311
 21
3974.3633507055001
 31
0.0
  0
LINE
  5
7D2B
  8
1
 10
1402.4842942070311
 20
3369.553714501234
 30
0.0
 11
1402.4842942070311
 21
3912.0537145012358
 31
0.0
  0
LINE
  5
7D2C
  8
1
 10
1384.4842942070311
 20
3359.5537145012349
 30
0.0
 11
1384.4842942070311
 21
3844.5537145012358
 31
0.0
  0
LINE
  5
7D2D
  8
1
 10
902.48429420703178
 20
3329.553714501234
 30
0.0
 11
902.48429420703178
 21
3912.0537145012358
 31
0.0
  0
DIMENSION
  5
7D2E
  8
3
  2
*D12
 10
597.66656241852706
 20
4329.5537145012349
 30
0.0
 11
547.66656241852638
 21
3829.5537145012349
 31
0.0
 70
     0
 13
902.48429420703178
 23
3329.553714501234
 33
0.0
 14
902.48429420703178
 24
4329.5537145012349
 34
0.0
 50
90.0
1001
ACAD
1000
DSTYLE
1002
{
1070
   287
1070
     3
1070
    40
1040
20.0
1070
   143
1040
0.039
1070
   172
1070
     1
1070
   271
1070
     0
1070
   279
1070
     0
1070
   288
1070
     1
1002
}
  0
LINE
  5
7D2F
  8
1
 10
920.48429420703167
 20
3359.5537145012349
 30
0.0
 11
920.48429420703087
 21
3844.5537145012358
 31
0.0
  0
DIMENSION
  5
7D30
  8
3
  2
*D13
 10
1152.4842942070311
 20
2701.3464134879041
 30
0.0
 11
972.48429420703133
 21
2751.346413487905
 31
0.0
 70
     0
 13
792.48429420703076
 23
2563.0857725635278
 33
0.0
 14
1152.4842942070311
 24
2609.0047230375048
 34
0.0
1001
ACAD
1000
DSTYLE
1002
{
1070
   287
1070
     3
1070
    40
1040
20.0
1070
   143
1040
0.039
1070
   172
1070
     1
1070
   271
1070
     0
1070
   279
1070
     0
1070
   288
1070
     1
1002
}
  0
LINE
  5
7D32
  8
1
 10
792.48429420703076
 20
2536.0792938593991
 30
0.0
 11
1152.4842942070311
 21
2507.0792938593991
 31
0.0
  0
LINE
  5
7D37
  8
1
 10
1076.2842942070311
 20
3274.5537145012358
 30
0.0
 11
1228.6842942070309
 21
3274.5537145012358
 31
0.0
  0
LINE
  5
7D3C
  8
1
 10
1076.2842942070311
 20
3324.5537145012349
 30
0.0
 11
1228.68429420703
 21
3324.5537145012349
 31
0.0
  0
LINE
  5
7D3E
  8
1
 10
1174.9842942070311
 20
3359.5537145012349
 30
0.0
 11
1384.4842942070311
 21
3359.5537145012349
 31
0.0
  0
LINE
  5
7D3F
  8
1
 10
1228.68429420703
 20
3274.5537145012358
 30
0.0
 11
1228.68429420703
 21
3324.5537145012349
 31
0.0
  0
LINE
  5
7D44
  8
1
 10
920.48429420703167
 20
3359.5537145012349
 30
0.0
 11
1129.9842942070311
 21
3359.5537145012349
 31
0.0
  0
LINE
  5
7D45
  8
1
 10
902.48429420703178
 20
3329.553714501234
 30
0.0
 11
1129.9842942070311
 21
3329.5537145012331
 31
0.0
  0
LINE
  5
7D46
  8
1
 10
1076.2842942070311
 20
3274.5537145012358
 30
0.0
 11
1076.2842942070311
 21
3324.5537145012349
 31
0.0
  0
LINE
  5
7D49
  8
1
 10
1174.9842942070311
 20
3324.5537145012349
 30
0.0
 11
1174.9842942070311
 21
3912.0537145012349
 31
0.0
  0
LINE
  5
7D4A
  8
1
 10
1129.9842942070311
 20
3324.5537145012349
 30
0.0
 11
1129.9842942070311
 21
3912.0537145012349
 31
0.0
  0
LINE
  5
7D4D
  8
1
 10
1002.484294207031
 20
3244.5537145012349
 30
0.0
 11
1002.484294207031
 21
3366.5537145012349
 31
0.0
  0
LINE
  5
7D4E
  8
1
 10
902.48429420703178
 20
3369.553714501234
 30
0.0
 11
920.48429420703167
 21
3369.5537145012331
 31
0.0
  0
POINT
  5
7D50
  8
1
 10
792.48429420703076
 20
2536.0792938593991
 30
0.0
  0
POINT
  5
7D51
  8
1
 10
792.48429420703076
 20
2537.6844768227029
 30
0.0
  0
LINE
  5
7D52
  8
1
 10
795.48429420703087
 20
3912.0537145012349
 30
0.0
 11
1587.5322850148909
 21
3912.0537145012372
 31
0.0
  0
LINE
  5
7D53
  8
1
 10
795.48429420703087
 20
4287.0537145012368
 30
0.0
 11
1587.5322850148909
 21
4287.0537145012368
 31
0.0
  0
DIMENSION
  5
7D54
  8
3
  2
*D14
 10
1402.4842942070311
 20
4472.8384657069482
 30
0.0
 11
1152.4842942070311
 21
4522.8384657069491
 31
0.0
 70
     0
 13
902.48429420703178
 23
4329.5537145012349
 33
0.0
 14
1402.4842942070311
 24
4329.5537145012349
 34
0.0
1001
ACAD
1000
DSTYLE
1002
{
1070
   287
1070
     3
1070
    40
1040
20.0
1070
   143
1040
0.039
1070
   172
1070
     1
1070
   271
1070
     0
1070
   279
1070
     0
1070
   288
1070
     1
1002
}
  0
LINE
  5
7D58
  8
1
 10
920.48429420703167
 20
3844.5537145012358
 30
0.0
 11
1129.9842942070311
 21
3844.5537145012358
 31
0.0
  0
LINE
  5
7D59
  8
1
 10
902.48429420703178
 20
4329.5537145012349
 30
0.0
 11
1402.4842942070311
 21
4329.5537145012349
 31
0.0
  0
LINE
  5
7D5A
  8
1
 10
942.48429420703178
 20
4289.5537145012368
 30
0.0
 11
1362.48429420703
 21
4289.553714501234
 31
0.0
  0
LINE
  5
7D5B
  8
1
 10
1587.5322850148909
 20
3912.0537145012358
 30
0.0
 11
1587.5322850148909
 21
4287.0537145012368
 31
0.0
  0
LINE
  5
7D5C
  8
1
 10
1362.4842942070311
 20
3844.5537145012358
 30
0.0
 11
1362.4842942070311
 21
3884.5537145012358
 31
0.0
  0
LINE
  5
7D5D
  8
1
 10
1362.4842942070311
 20
3844.5537145012358
 30
0.0
 11
1362.4842942070311
 21
3912.0537145012358
 31
0.0
  0
LINE
  5
7D5E
  8
1
 10
1402.4842942070311
 20
4287.0537145012368
 30
0.0
 11
1402.4842942070311
 21
4329.5537145012349
 31
0.0
  0
LINE
  5
7D5F
  8
1
 10
1362.4842942070311
 20
4287.0537145012368
 30
0.0
 11
1362.4842942070311
 21
4329.5537145012349
 31
0.0
  0
LINE
  5
7D60
  8
2
 10
1152.4842942070311
 20
4028.979958319419
 30
0.0
 11
1152.4842942070311
 21
4338.6739355119698
 31
0.0
  0
LINE
  5
7D64
  8
1
 10
942.48429420703178
 20
3844.5537145012358
 30
0.0
 11
942.48429420703178
 21
3870.5537145012358
 31
0.0
  0
LINE
  5
7D65
  8
1
 10
942.48429420703178
 20
3844.5537145012358
 30
0.0
 11
942.48429420703178
 21
3912.0537145012372
 31
0.0
  0
LINE
  5
7D66
  8
1
 10
942.48429420703178
 20
4287.0537145012368
 30
0.0
 11
942.48429420703178
 21
4329.5537145012349
 31
0.0
  0
LINE
  5
7D67
  8
1
 10
902.48429420703178
 20
4287.0537145012368
 30
0.0
 11
902.48429420703178
 21
4329.5537145012349
 31
0.0
  0
LINE
  5
7D68
  8
1
 10
795.48429420703087
 20
3884.5537145012358
 30
0.0
 11
795.48429420703087
 21
4314.5537145012358
 31
0.0
  0
LINE
  5
7D69
  8
1
 10
792.48429420703076
 20
3884.5537145012358
 30
0.0
 11
792.48429420703076
 21
4314.5537145012358
 31
0.0
  0
LINE
  5
7D6A
  8
1
 10
792.48429420703076
 20
3884.5537145012358
 30
0.0
 11
795.48429420703087
 21
3884.5537145012358
 31
0.0
  0
LINE
  5
7D6B
  8
1
 10
792.48429420703076
 20
4314.5537145012358
 30
0.0
 11
795.48429420703087
 21
4314.5537145012358
 31
0.0
  0
LINE
  5
7D6C
  8
1
 10
3090.4350484473139
 20
2537.9857725635288
 30
0.0
 11
3465.4350484473139
 21
2021.9857725635279
 31
0.0
  0
LINE
  5
7D6D
  8
1
 10
3465.4350484473139
 20
2537.9857725635288
 30
0.0
 11
3090.435048447313
 21
2021.9857725635279
 31
0.0
  0
DIMENSION
  5
7D6E
  8
3
  2
*D15
 10
3469.9350484473139
 20
2834.2731505416618
 30
0.0
 11
3373.9350484473139
 21
2894.0754522281441
 31
0.0
 12
-244.58053701038079
 22
34.911245838655297
 32
0.0
 70
   128
 13
3277.9350484473139
 23
2794.5913300611928
 33
0.0
 14
3469.9350484473139
 24
1996.9857725635291
 34
0.0
1001
ACAD
1000
DSTYLE
1002
{
1070
   288
1070
     1
1070
   172
1070
     1
1070
    40
1040
20.0
1070
   271
1070
     0
1070
   143
1040
0.039
1002
}
  0
DIMENSION
  5
7D6F
  8
3
  2
*D16
 10
3277.9350484473139
 20
2834.2731505416618
 30
0.0
 11
2850.435048447313
 21
2934.2731505416618
 31
0.0
 70
     0
  1
MAX\P930
 13
2422.9350484473121
 23
2148.0792938593991
 33
0.0
 14
3277.9350484473139
 24
2794.5913300611928
 34
0.0
1001
ACAD
1000
DSTYLE
1002
{
1070
   287
1070
     3
1070
    40
1040
20.0
1070
   143
1040
0.039
1070
   172
1070
     1
1070
   271
1070
     0
1070
   279
1070
     0
1070
   288
1070
     1
1002
}
  0
LINE
  5
7D72
  8
1
 10
3492.9350484473139
 20
2562.9857725635279
 30
0.0
 11
3492.9350484473139
 21
2251.0792938593991
 31
0.0
  0
LINE
  5
7D73
  8
1
 10
3062.9350484473139
 20
2562.9857725635279
 30
0.0
 11
3062.9350484473121
 21
2020.5792938593991
 31
0.0
  0
LINE
  5
7D74
  8
2
 10
3277.9350484473139
 20
2696.124947323578
 30
0.0
 11
3277.9350484473139
 21
1402.5480223722
 31
0.0
  0
DIMENSION
  5
7D75
  8
3
  2
*D17
 10
3277.9350484473139
 20
1278.4822566946359
 30
0.0
 11
2892.9350484473139
 21
1328.4822566946359
 31
0.0
 70
     0
 13
2507.9350484473139
 23
1435.0792938593991
 33
0.0
 14
3277.9350484473139
 24
1402.5480223722
 34
0.0
1001
ACAD
1000
DSTYLE
1002
{
1070
   287
1070
     3
1070
    40
1040
20.0
1070
   143
1040
0.039
1070
   172
1070
     1
1070
   271
1070
     0
1070
   279
1070
     0
1070
   288
1070
     1
1002
}
  0
LINE
  5
7D77
  8
1
 10
2502.935048447313
 20
1975.5792938593991
 30
0.0
 11
3090.4350484473139
 21
1975.5792938593991
 31
0.0
  0
LINE
  5
7D78
  8
1
 10
2507.9350484473139
 20
1510.0792938593991
 30
0.0
 11
3507.9350484473139
 21
1510.0792938593991
 31
0.0
  0
LINE
  5
7D79
  8
1
 10
2507.9350484473139
 20
1435.0792938593991
 30
0.0
 11
3507.9350484473139
 21
1435.0792938593991
 31
0.0
  0
LINE
  5
7D7A
  8
2
 10
2436.719959173322
 20
1998.0792938593991
 30
0.0
 11
3551.5691442436869
 21
1998.0792938593991
 31
0.0
  0
POLYLINE
  5
7D7B
  8
1
 66
     1
 10
0.0
 20
0.0
 30
0.0
 70
     1
  0
VERTEX
  5
8465
  8
1
 10
3088.4350484473139
 20
1623.0792938593991
 30
0.0
  0
VERTEX
  5
8466
  8
1
 10
3088.4350484473139
 20
1663.0792938593991
 30
0.0
  0
VERTEX
  5
8467
  8
1
 10
3086.4350484473139
 20
1663.0792938593991
 30
0.0
 42
0.4142135623730951
  0
VERTEX
  5
8468
  8
1
 10
3083.4350484473139
 20
1660.0792938593991
 30
0.0
  0
VERTEX
  5
8469
  8
1
 10
3083.4350484473139
 20
1632.5792938593991
 30
0.0
 42
-0.4142135623730951
  0
VERTEX
  5
846A
  8
1
 10
3078.9350484473139
 20
1628.0792938593991
 30
0.0
  0
VERTEX
  5
846B
  8
1
 10
3051.4350484473139
 20
1628.0792938593991
 30
0.0
 42
0.4142135623730951
  0
VERTEX
  5
846C
  8
1
 10
3048.4350484473139
 20
1625.0792938593991
 30
0.0
  0
VERTEX
  5
846D
  8
1
 10
3048.4350484473139
 20
1623.0792938593991
 30
0.0
  0
SEQEND
  5
846E
  8
1
  0
LINE
  5
7D86
  8
1
 10
2507.9350484473139
 20
1548.0792938593991
 30
0.0
 11
3507.9350484473139
 21
1548.0792938593991
 31
0.0
  0
LINE
  5
7D87
  8
1
 10
2507.9350484473139
 20
1623.0792938593991
 30
0.0
 11
3507.9350484473139
 21
1623.0792938593991
 31
0.0
  0
LINE
  5
7D88
  8
1
 10
3016.1350484473128
 20
1884.879293859399
 30
0.0
 11
3090.4350484473139
 21
1884.879293859399
 31
0.0
  0
LINE
  5
7D89
  8
1
 10
3023.4350484473139
 20
1878.879293859399
 30
0.0
 11
3090.4350484473139
 21
1878.8792938593981
 31
0.0
  0
LINE
  5
7D8B
  8
1
 10
2544.9350484473121
 20
2148.0792938593991
 30
0.0
 11
2544.9350484473121
 21
2101.8638362426841
 31
0.0
  0
LINE
  5
7D8C
  8
1
 10
2422.9350484473121
 20
2148.0792938593991
 30
0.0
 11
2422.9350484473121
 21
1655.0789938593989
 31
0.0
  0
LINE
  5
7D8D
  8
1
 10
2502.935048447313
 20
1934.5792938593991
 30
0.0
 11
2502.9350484473121
 21
1821.278993859399
 31
0.0
  0
LINE
  5
7D8E
  8
1
 10
2452.9350484473121
 20
1934.5792938593991
 30
0.0
 11
2452.9350484473121
 21
1813.010907287003
 31
0.0
  0
LINE
  5
7D8F
  8
1
 10
2502.9350484473121
 20
1728.8789938593991
 30
0.0
 11
2502.9350484473121
 21
1881.278993859399
 31
0.0
  0
LINE
  5
7D90
  8
1
 10
2452.9350484473121
 20
1728.8789938593991
 30
0.0
 11
2452.9350484473121
 21
1881.278993859399
 31
0.0
  0
LINE
  5
7D91
  8
1
 10
2518.9350484473121
 20
1762.5789938593989
 30
0.0
 11
2518.9350484473121
 21
1847.5789938593989
 31
0.0
  0
LINE
  5
7D92
  8
1
 10
2528.9350484473121
 20
1693.0792938593991
 30
0.0
 11
2528.9350484473121
 21
1926.0789938593989
 31
0.0
  0
LINE
  5
7D93
  8
1
 10
3012.9350484473121
 20
1934.879293859399
 30
0.0
 11
3012.9350484473139
 21
1665.691404912332
 31
0.0
  0
LINE
  5
7D94
  8
1
 10
2547.935048447313
 20
1934.879293859399
 30
0.0
 11
2547.935048447313
 21
1926.0789938593989
 31
0.0
  0
LINE
  5
7D95
  8
2
 10
2436.719959173322
 20
1805.0789938593989
 30
0.0
 11
2855.4610851583561
 21
1805.0789938593989
 31
0.0
  0
LINE
  5
7D96
  8
1
 10
2507.9350484473139
 20
1510.0792938593991
 30
0.0
 11
2507.9350484473139
 21
1435.0792938593991
 31
0.0
  0
LINE
  5
7D97
  8
1
 10
2422.935048447313
 20
1655.0789938593989
 30
0.0
 11
2544.9350484473121
 21
1655.0789938593989
 31
0.0
  0
LINE
  5
7D98
  8
1
 10
2452.9350484473121
 20
1728.8789938593991
 30
0.0
 11
2502.9350484473121
 21
1728.8789938593991
 31
0.0
  0
LINE
  5
7D99
  8
1
 10
2507.9350484473139
 20
1623.0792938593991
 30
0.0
 11
2507.9350484473139
 21
1548.0792938593991
 31
0.0
  0
LINE
  5
7D9C
  8
1
 10
2528.9350484473121
 20
1762.5789938593989
 30
0.0
 11
2518.9350484473121
 21
1762.5789938593989
 31
0.0
  0
LINE
  5
7D9D
  8
1
 10
2512.9350484473121
 20
1789.5789938593989
 30
0.0
 11
2512.9350484473121
 21
1820.5789938593989
 31
0.0
  0
LINE
  5
7D9E
  8
1
 10
2518.9350484473121
 20
1789.5789938593989
 30
0.0
 11
2512.9350484473121
 21
1789.5789938593989
 31
0.0
  0
LINE
  5
7D9F
  8
1
 10
2512.9350484473121
 20
1820.5789938593989
 30
0.0
 11
2518.9350484473121
 21
1820.5789938593989
 31
0.0
  0
LINE
  5
7DA0
  8
1
 10
2512.9350484473121
 20
1791.0789938593989
 30
0.0
 11
2502.9350484473121
 21
1791.0789938593989
 31
0.0
  0
LINE
  5
7DA1
  8
1
 10
2512.9350484473121
 20
1819.0789938593989
 30
0.0
 11
2502.9350484473121
 21
1819.0789938593989
 31
0.0
  0
LINE
  5
7DA2
  8
1
 10
3012.9350484473139
 20
1683.861626249364
 30
0.0
 11
3012.9350484473121
 21
1623.0792938593979
 31
0.0
  0
LINE
  5
7DA5
  8
1
 10
2537.935048447313
 20
1934.879293859399
 30
0.0
 11
3022.9350484473139
 21
1934.879293859399
 31
0.0
  0
LINE
  5
7DA6
  8
1
 10
2537.935048447313
 20
1938.0792938593991
 30
0.0
 11
3022.9350484473139
 21
1938.0792938593991
 31
0.0
  0
LINE
  5
7DA7
  8
1
 10
2422.9350484473121
 20
2148.0792938593991
 30
0.0
 11
2544.9350484473121
 21
2148.0792938593991
 31
0.0
  0
LINE
  5
7DA8
  8
1
 10
2452.9350484473121
 20
1881.278993859399
 30
0.0
 11
2502.9350484473121
 21
1881.278993859399
 31
0.0
  0
LINE
  5
7DA9
  8
1
 10
2452.9350484473121
 20
1934.5792938593991
 30
0.0
 11
2502.935048447313
 21
1934.5792938593991
 31
0.0
  0
LINE
  5
7DAA
  8
1
 10
2452.9350484473121
 20
2061.5792938593991
 30
0.0
 11
2502.9350484473121
 21
2061.5792938593991
 31
0.0
  0
LINE
  5
7DAB
  8
1
 10
2452.9350484473121
 20
2061.5792938593991
 30
0.0
 11
2452.9350484473121
 21
1934.5792938593991
 31
0.0
  0
LINE
  5
7DAC
  8
1
 10
2502.9350484473121
 20
2061.5792938593991
 30
0.0
 11
2502.935048447313
 21
1934.5792938593991
 31
0.0
  0
LINE
  5
7DB8
  8
1
 10
2528.9350484473121
 20
1847.5789938593989
 30
0.0
 11
2518.9350484473121
 21
1847.5789938593989
 31
0.0
  0
LINE
  5
7DBB
  8
1
 10
2528.9350484473121
 20
1926.0789938593989
 30
0.0
 11
2835.9350484473121
 21
1926.078993859403
 31
0.0
  0
POINT
  5
7DBC
  8
1
 10
2537.935048447313
 20
1938.0792938593991
 30
0.0
  0
LINE
  5
7DBD
  8
1
 10
2537.935048447313
 20
1938.0792938593991
 30
0.0
 11
2537.935048447313
 21
1934.879293859399
 31
0.0
  0
POLYLINE
  5
7DDB
  8
1
 66
     1
 10
0.0
 20
0.0
 30
0.0
 70
     1
  0
VERTEX
  5
846F
  8
1
 10
3012.9350484473121
 20
1884.879293859399
 30
0.0
  0
VERTEX
  5
8470
  8
1
 10
3062.9350484473121
 20
1884.879293859399
 30
0.0
  0
VERTEX
  5
8471
  8
1
 10
3062.9350484473121
 20
1886.379293859399
 30
0.0
 42
0.4142135623730942
  0
VERTEX
  5
8472
  8
1
 10
3058.435048447313
 20
1890.879293859399
 30
0.0
  0
VERTEX
  5
8473
  8
1
 10
3025.4350484473121
 20
1890.879293859399
 30
0.0
 42
-0.4142135623730951
  0
VERTEX
  5
8474
  8
1
 10
3018.9350484473121
 20
1897.379293859399
 30
0.0
  0
VERTEX
  5
8475
  8
1
 10
3018.9350484473121
 20
1930.379293859399
 30
0.0
 42
0.4142135623730951
  0
VERTEX
  5
8476
  8
1
 10
3014.4350484473121
 20
1934.879293859399
 30
0.0
  0
VERTEX
  5
8477
  8
1
 10
3012.9350484473121
 20
1934.879293859399
 30
0.0
  0
SEQEND
  5
8478
  8
1
  0
LINE
  5
7DE6
  8
1
 10
3023.4350484473139
 20
1884.879293859399
 30
0.0
 11
3023.4350484473139
 21
1878.879293859399
 31
0.0
  0
LINE
  5
7DE9
  8
1
 10
3022.9350484473139
 20
1938.0792938593991
 30
0.0
 11
3022.9350484473139
 21
1934.879293859399
 31
0.0
  0
LINE
  5
7DF3
  8
1
 10
2502.935048447313
 20
2020.579293859402
 30
0.0
 11
3090.435048447313
 21
2020.5792938593991
 31
0.0
  0
DIMENSION
  5
7DF6
  8
3
  2
*D18
 10
3670.0158228669061
 20
1748.0792938593991
 30
0.0
 11
3620.0158228669061
 21
1998.0792938594
 31
0.0
 70
     0
 13
3494.9350484473139
 23
2248.0792938593991
 33
0.0
 14
3494.9350484473139
 24
1748.0792938593991
 34
0.0
 50
90.0
1001
ACAD
1000
DSTYLE
1002
{
1070
   287
1070
     3
1070
     3
1000
φ<>
1070
    40
1040
20.0
1070
   143
1040
0.039
1070
   172
1070
     1
1070
   271
1070
     0
1070
   279
1070
     0
1070
   288
1070
     1
1002
}
  0
LINE
  5
7DF8
  8
1
 10
3494.9350484473139
 20
1992.0792938593991
 30
0.0
 11
3494.9350484473139
 21
1748.0792938593991
 31
0.0
  0
LINE
  5
7DF9
  8
1
 10
3469.9350484473139
 20
1748.0792938593991
 30
0.0
 11
3469.9350484473139
 21
1992.0792938593991
 31
0.0
  0
DIMENSION
  5
7DFE
  8
3
  2
*D19
 10
3507.9350484473139
 20
1278.4822566946359
 30
0.0
 11
3392.9350484473148
 21
1327.2010281702419
 31
0.0
 12
-244.58053701038079
 22
34.911245838655297
 32
0.0
 70
   128
 13
3277.9350484473139
 23
1402.5480223722
 33
0.0
 14
3507.9350484473139
 24
1435.0792938593991
 34
0.0
1001
ACAD
1000
DSTYLE
1002
{
1070
   288
1070
     1
1070
   172
1070
     1
1070
    40
1040
20.0
1070
   271
1070
     0
1070
   143
1040
0.039
1002
}
  0
LINE
  5
7DFF
  8
1
 10
3088.4350484473139
 20
1637.031303051539
 30
0.0
 11
3467.4350484473139
 21
1637.031303051539
 31
0.0
  0
LINE
  5
7E01
  8
1
 10
3507.9350484473139
 20
1510.0792938593991
 30
0.0
 11
3507.9350484473139
 21
1435.0792938593991
 31
0.0
  0
LINE
  5
7E02
  8
1
 10
3507.9350484473139
 20
1623.0792938593991
 30
0.0
 11
3507.9350484473139
 21
1548.0792938593991
 31
0.0
  0
POLYLINE
  5
7E03
  8
1
 66
     1
 10
0.0
 20
0.0
 30
0.0
 70
     1
  0
VERTEX
  5
8482
  8
1
 10
3467.4350484473139
 20
1623.0792938593991
 30
0.0
  0
VERTEX
  5
8483
  8
1
 10
3467.4350484473139
 20
1663.0792938593991
 30
0.0
  0
VERTEX
  5
8484
  8
1
 10
3469.4350484473139
 20
1663.0792938593991
 30
0.0
 42
-0.4142135623730951
  0
VERTEX
  5
8485
  8
1
 10
3472.4350484473139
 20
1660.0792938593991
 30
0.0
  0
VERTEX
  5
8486
  8
1
 10
3472.4350484473139
 20
1632.5792938593991
 30
0.0
 42
0.4142135623730951
  0
VERTEX
  5
8487
  8
1
 10
3476.9350484473139
 20
1628.0792938593991
 30
0.0
  0
VERTEX
  5
8488
  8
1
 10
3504.4350484473139
 20
1628.0792938593991
 30
0.0
 42
-0.4142135623730951
  0
VERTEX
  5
8489
  8
1
 10
3507.4350484473139
 20
1625.0792938593991
 30
0.0
  0
VERTEX
  5
848A
  8
1
 10
3507.4350484473139
 20
1623.0792938593991
 30
0.0
  0
SEQEND
  5
848B
  8
1
  0
LINE
  5
7E0F
  8
1
 10
3469.9350484473139
 20
1723.0792938593991
 30
0.0
 11
3468.4350484473139
 21
1723.0792938593991
 31
0.0
  0
LINE
  5
7E10
  8
1
 10
3469.9350484473139
 20
1723.0792938593991
 30
0.0
 11
3469.9350484473139
 21
1748.0792938593991
 31
0.0
  0
LINE
  5
7E11
  8
1
 10
3470.9350484473139
 20
1723.0792938593991
 30
0.0
 11
3469.9350484473139
 21
1723.0792938593991
 31
0.0
  0
ARC
  5
7E12
  8
1
 10
3470.9350484473139
 20
1725.0792938593991
 30
0.0
 40
2.0
 50
270.0
 51
0.0
  0
LINE
  5
7E13
  8
1
 10
3472.9350484473139
 20
1741.0792938593991
 30
0.0
 11
3472.9350484473139
 21
1725.0792938593991
 31
0.0
  0
ARC
  5
7E14
  8
1
 10
3476.9350484473139
 20
1741.0792938593991
 30
0.0
 40
4.0
 50
90.0
 51
180.0
  0
LINE
  5
7E15
  8
1
 10
3492.9350484473139
 20
1745.0792938593991
 30
0.0
 11
3476.9350484473139
 21
1745.0792938593991
 31
0.0
  0
ARC
  5
7E16
  8
1
 10
3492.9350484473139
 20
1747.0792938593991
 30
0.0
 40
2.0
 50
270.0
 51
0.0
  0
LINE
  5
7E17
  8
1
 10
3494.9350484473139
 20
1748.0792938593991
 30
0.0
 11
3494.9350484473139
 21
1747.0792938593991
 31
0.0
  0
LINE
  5
7E18
  8
1
 10
3469.9350484473139
 20
1748.0792938593991
 30
0.0
 11
3494.9350484473139
 21
1748.0792938593991
 31
0.0
  0
LINE
  5
7E19
  8
1
 10
3090.435048447313
 20
2021.9857725635279
 30
0.0
 11
3465.4350484473139
 21
2021.9857725635279
 31
0.0
  0
LINE
  5
7E1A
  8
1
 10
3494.9350484473139
 20
2248.0792938593991
 30
0.0
 11
3494.9350484473139
 21
1992.0792938593991
 31
0.0
  0
LINE
  5
7E1B
  8
1
 10
3469.9350484473139
 20
1992.0792938593991
 30
0.0
 11
3469.9350484473139
 21
1996.9857725635291
 31
0.0
  0
LINE
  5
7E1F
  8
1
 10
3062.9350484473139
 20
2562.9857725635279
 30
0.0
 11
3492.9350484473121
 21
2562.9857725635279
 31
0.0
  0
DIMENSION
  5
7E23
  8
3
  2
*D20
 10
3465.4350484473139
 20
2702.8117772393261
 30
0.0
 11
3277.9350484473139
 21
2752.8117772393261
 31
0.0
 70
     0
 13
3090.4350484473139
 23
2537.9857725635288
 33
0.0
 14
3465.4350484473139
 24
2537.9857725635288
 34
0.0
1001
ACAD
1000
DSTYLE
1002
{
1070
   287
1070
     3
1070
    40
1040
20.0
1070
   143
1040
0.039
1070
   172
1070
     1
1070
   271
1070
     0
1070
   279
1070
     0
1070
   288
1070
     1
1002
}
  0
LINE
  5
7E24
  8
1
 10
3090.4350484473139
 20
2537.9857725635288
 30
0.0
 11
3465.4350484473139
 21
2537.9857725635288
 31
0.0
  0
LINE
  5
8018
  8
4
 10
3700.0
 20
1000.0
 30
0.0
 11
3700.0
 21
600.0
 31
0.0
  0
LINE
  5
8019
  8
4
 10
2300.0
 20
1000.0
 30
0.0
 11
2300.0
 21
600.0
 31
0.0
  0
LINE
  5
801A
  8
4
 10
1300.0
 20
1000.0
 30
0.0
 11
1300.0
 21
600.0
 31
0.0
  0
LINE
  5
801D
  8
4
 10
1300.0
 20
600.0
 30
0.0
 11
3700.0
 21
600.0
 31
0.0
  0
LINE
  5
801E
  8
4
 10
1300.0
 20
800.0
 30
0.0
 11
3700.0
 21
800.0
 31
0.0
  0
TEXT
  5
801F
  8
4
 10
1377.0041616938031
 20
863.08605173322564
 30
0.0
 40
100.0
  1
機器名称
  0
TEXT
  5
8020
  8
4
 10
1372.516212049595
 20
643.29031346402189
 30
0.0
 40
100.0
  1
機器型番
  0
TEXT
  5
8021
  8
4
 10
2319.3176373393071
 20
844.3746047138942
 30
0.0
 40
90.0
  1
ミツヤ多翼送風機
  0
TEXT
  5
8022
  8
4
 10
2373.3089911709608
 20
634.31916855988675
 30
0.0
 40
100.0
  1
MF#3-1
  0
TEXT
  5
8024
  8
4
 10
1528.4391079134689
 20
4766.8576826650306
 30
0.0
 40
107.9999999999999
  1
床置防振ベット
  0
TEXT
  5
8025
  8
4
 10
632.33518665889278
 20
5067.7619523985959
 30
0.0
 40
144.0
  1
遠心式片吸込片持多翼ファン
  0
LINE
  5
8026
  8
4
 10
500.0
 20
4938.8175085296089
 30
0.0
 11
3700.0
 21
4938.8175085296089
 31
0.0
  0
LINE
  5
8027
  8
4
 10
500.0
 20
5338.8175085296098
 30
0.0
 11
3700.0
 21
5338.8175085296098
 31
0.0
  0
LINE
  5
8028
  8
4
 10
1300.0
 20
1000.0
 30
0.0
 11
3700.0
 21
1000.0
 31
0.0
  0
LINE
  5
8029
  8
4
 10
500.0
 20
5338.8175085296098
 30
0.0
 11
500.0
 21
4938.8175085296089
 31
0.0
  0
TEXT
  5
802A
  8
4
 10
656.72144342806484
 20
4764.638955092687
 30
0.0
 40
107.9999999999999
  1
左回転左横向
  0
TEXT
  5
802B
  8
4
 10
2937.9391184985789
 20
5412.1221629906177
 30
0.0
 40
112.0
  1
No.
  0
TEXT
  5
802C
  8
4
 10
2622.5921252000262
 20
4766.8576826650306
 30
0.0
 40
107.9999999999999
  1
縮尺：1/20
  0
LINE
  5
802D
  8
4
 10
3700.0
 20
5338.8175085296098
 30
0.0
 11
3700.0
 21
4938.8175085296089
 31
0.0
  0
LINE
  5
802E
  8
4
 10
4200.0
 20
5900.0
 30
0.0
 11
4200.0
 21
5900.0
 31
0.0
  0
LINE
  5
802F
  8
4
 10
2881.2348447197292
 20
5362.5271662508021
 30
0.0
 11
2881.2348447197292
 21
5573.3045230995049
 31
0.0
  0
LINE
  5
8030
  8
4
 10
2881.2348447197292
 20
5573.3045230995049
 30
0.0
 11
3700.0
 21
5573.3045230995049
 31
0.0
  0
LINE
  5
8031
  8
4
 10
3700.0
 20
5573.3045230995049
 30
0.0
 11
3700.0
 21
5362.5271662508021
 31
0.0
  0
LINE
  5
8032
  8
4
 10
3700.0
 20
5362.5271662508021
 30
0.0
 11
2881.2348447197292
 21
5362.5271662508021
 31
0.0
  0
LINE
  5
8033
  8
4
 10
0.0
 20
0.0
 30
0.0
 11
0.0
 21
5900.0
 31
0.0
  0
LINE
  5
8034
  8
4
 10
0.0
 20
5900.0
 30
0.0
 11
4200.0
 21
5900.0
 31
0.0
  0
LINE
  5
8035
  8
4
 10
4200.0
 20
5900.0
 30
0.0
 11
4200.0
 21
0.0
 31
0.0
  0
LINE
  5
8036
  8
4
 10
4200.0
 20
0.0
 30
0.0
 11
0.0
 21
0.0
 31
0.0
  0
DIMENSION
  5
8266
  8
3
  2
*D22
 10
1982.48429420703
 20
2817.2753160281791
 30
0.0
 11
1380.745020180133
 21
2817.2753160281791
 31
0.0
 70
   128
 13
792.48429420703076
 23
2563.0857725635278
 33
0.0
 14
1982.48429420703
 24
1623.0792938593991
 34
0.0
1001
ACAD
1000
DSTYLE
1002
{
1070
   287
1070
     3
1070
    40
1040
20.0
1070
   143
1040
0.039
1070
   172
1070
     1
1070
   271
1070
     0
1070
   279
1070
     0
1070
   288
1070
     1
1002
}
  0
INSERT
  5
829E
  8
1
  2
L-30-3
 10
694.36732384957759
 20
2420.8304521101541
 30
0.0
 41
-1.0
 50
270.0
  0
INSERT
  5
829F
  8
1
  2
L-30-3
 10
677.23545245778575
 20
2122.1962642168528
 30
0.0
 41
-1.0
 50
180.0
  0
DIMENSION
  5
82AD
  8
3
  2
*D24
 10
352.14451605505042
 20
1435.0792938593991
 30
0.0
 11
352.14451605505019
 21
1935.622961409962
 31
0.0
 70
   128
 13
792.48429420703076
 23
2566.0792938593991
 33
0.0
 14
902.48429420703178
 24
1435.0792938593991
 34
0.0
 50
270.0
1001
ACAD
1000
DSTYLE
1002
{
1070
   287
1070
     3
1070
    40
1040
20.0
1070
   143
1040
0.039
1070
   172
1070
     1
1070
   271
1070
     0
1070
   279
1070
     0
1070
   288
1070
     1
1002
}
  0
LINE
  5
82BD
  8
1
 10
2544.9350484473121
 20
1689.8147674880979
 30
0.0
 11
2544.9350484473121
 21
1655.0789938593989
 31
0.0
  0
LINE
  5
8373
  8
1
 10
2835.9350484473121
 20
1693.0792938593991
 30
0.0
 11
2835.9350484473121
 21
1926.0789938593989
 31
0.0
  0
LINE
  5
8376
  8
1
 10
2577.5738140538629
 20
1653.0792938593991
 30
0.0
 11
2777.432428841551
 21
1653.0792938593991
 31
0.0
  0
LINE
  5
8377
  8
1
 10
2528.9350484473121
 20
1693.0792938593991
 30
0.0
 11
2835.9350484473111
 21
1693.0792938593991
 31
0.0
  0
LINE
  5
8378
  8
1
 10
2577.5738140538629
 20
1693.0792938593991
 30
0.0
 11
2577.5738140538629
 21
1623.0792938593991
 31
0.0
  0
LINE
  5
8379
  8
1
 10
2777.4324288415519
 20
1693.0792938593991
 30
0.0
 11
2777.4324288415519
 21
1623.0792938593991
 31
0.0
  0
LINE
  5
837A
  8
1
 10
2547.935048447313
 20
1693.0792938593991
 30
0.0
 11
2547.935048447313
 21
1623.0792938593991
 31
0.0
  0
LINE
  5
8386
  8
1
 10
1174.9842942070311
 20
3844.5537145012358
 30
0.0
 11
1384.48429420703
 21
3844.5537145012358
 31
0.0
  0
LINE
  5
8390
  8
1
 10
3465.4350484473139
 20
2537.9857725635288
 30
0.0
 11
3465.4350484473139
 21
1637.031303051539
 31
0.0
  0
LINE
  5
8391
  8
1
 10
3090.4350484473139
 20
2537.9857725635288
 30
0.0
 11
3090.435048447313
 21
1637.031303051539
 31
0.0
  0
LINE
  5
83AC
  8
1
 10
3469.9350484473139
 20
2248.0792938593991
 30
0.0
 11
3494.9350484473139
 21
2248.0792938593991
 31
0.0
  0
ARC
  5
83AD
  8
1
 10
3492.9350484473139
 20
2249.0792938593991
 30
0.0
 40
2.0
 50
0.0
 51
90.0
  0
LINE
  5
83AE
  8
1
 10
3492.9350484473139
 20
2251.0792938593991
 30
0.0
 11
3476.9350484473139
 21
2251.0792938593991
 31
0.0
  0
ARC
  5
83AF
  8
1
 10
3476.9350484473139
 20
2255.0792938593991
 30
0.0
 40
4.0
 50
180.0
 51
270.0
  0
LINE
  5
83B0
  8
1
 10
3472.9350484473139
 20
2255.0792938593991
 30
0.0
 11
3472.9350484473139
 21
2271.0792938593991
 31
0.0
  0
ARC
  5
83B1
  8
1
 10
3470.9350484473139
 20
2271.0792938593991
 30
0.0
 40
2.0
 50
0.0
 51
90.0
  0
LINE
  5
83B2
  8
1
 10
3470.9350484473139
 20
2273.0792938593991
 30
0.0
 11
3469.9350484473139
 21
2273.0792938593991
 31
0.0
  0
LINE
  5
83B3
  8
1
 10
3469.9350484473139
 20
2273.0792938593991
 30
0.0
 11
3469.9350484473139
 21
2248.0792938593991
 31
0.0
  0
LINE
  5
83B4
  8
1
 10
3469.9350484473139
 20
2273.0792938593991
 30
0.0
 11
3468.4350484473139
 21
2273.0792938593991
 31
0.0
  0
LINE
  5
83B5
  8
1
 10
3494.9350484473139
 20
2248.0792938593991
 30
0.0
 11
3494.9350484473139
 21
2249.0792938593991
 31
0.0
  0
LINE
  5
83B6
  8
1
 10
3469.9350484473139
 20
2248.0792938593991
 30
0.0
 11
3469.9350484473139
 21
2004.0792938593991
 31
0.0
  0
ENDSEC
  0
EOF
