  0
SECTION
  2
HEADER
  9
$ACADVER
  1
AC1009
  9
$INSBASE
 10
0.0
 20
0.0
 30
0.0
  9
$EXTMIN
 10
0.0
 20
0.0
 30
0.0
  9
$EXTMAX
 10
4200.0
 20
5900.0
 30
0.0
  9
$LIMMIN
 10
0.0
 20
0.0
  9
$LIMMAX
 10
297.0
 20
210.0
  9
$ORTHOMODE
 70
     0
  9
$REGENMODE
 70
     1
  9
$FILLMODE
 70
     0
  9
$QTEXTMODE
 70
     0
  9
$MIRRTEXT
 70
     1
  9
$DRAGMODE
 70
     2
  9
$LTSCALE
 40
100.0
  9
$OSMODE
 70
    37
  9
$ATTMODE
 70
     1
  9
$TEXTSIZE
 40
180.0
  9
$TRACEWID
 40
0.05
  9
$TEXTSTYLE
  7
STANDARD
  9
$CLAYER
  8
3
  9
$CELTYPE
  6
BYLAYER
  9
$CECOLOR
 62
   256
  9
$DIMSCALE
 40
20.0
  9
$DIMASZ
 40
2.0
  9
$DIMEXO
 40
0.5
  9
$DIMDLI
 40
10.0
  9
$DIMRND
 40
0.0
  9
$DIMDLE
 40
0.0
  9
$DIMEXE
 40
1.0
  9
$DIMTP
 40
1.0
  9
$DIMTM
 40
1.0
  9
$DIMTXT
 40
3.0
  9
$DIMCEN
 40
0.0
  9
$DIMTSZ
 40
0.0
  9
$DIMTOL
 70
     0
  9
$DIMLIM
 70
     0
  9
$DIMTIH
 70
     0
  9
$DIMTOH
 70
     0
  9
$DIMSE1
 70
     0
  9
$DIMSE2
 70
     0
  9
$DIMTAD
 70
     1
  9
$DIMZIN
 70
     8
  9
$DIMBLK
  1

  9
$DIMASO
 70
     1
  9
$DIMSHO
 70
     1
  9
$DIMPOST
  1

  9
$DIMAPOST
  1

  9
$DIMALT
 70
     0
  9
$DIMALTD
 70
     2
  9
$DIMALTF
 40
0.039
  9
$DIMLFAC
 40
1.0
  9
$DIMTOFL
 70
     1
  9
$DIMTVP
 40
0.0
  9
$DIMTIX
 70
     0
  9
$DIMSOXD
 70
     0
  9
$DIMSAH
 70
     1
  9
$DIMBLK1
  1
OPEN
  9
$DIMBLK2
  1
OPEN
  9
$DIMSTYLE
  2
IGA
  9
$DIMCLRD
 70
     0
  9
$DIMCLRE
 70
     0
  9
$DIMCLRT
 70
     0
  9
$DIMTFAC
 40
10.0
  9
$DIMGAP
 40
1.0
  9
$LUNITS
 70
     2
  9
$LUPREC
 70
     3
  9
$SKETCHINC
 40
0.1
  9
$FILLETRAD
 40
50.0
  9
$AUNITS
 70
     0
  9
$AUPREC
 70
     0
  9
$MENU
  1
acad
  9
$ELEVATION
 40
0.0
  9
$PELEVATION
 40
0.0
  9
$THICKNESS
 40
0.0
  9
$LIMCHECK
 70
     0
  9
$BLIPMODE
 70
     0
  9
$CHAMFERA
 40
0.5
  9
$CHAMFERB
 40
0.5
  9
$SKPOLY
 70
     0
  9
$TDCREATE
 40
2451988.6222841432
  9
$TDUPDATE
 40
2454953.754261238
  9
$TDINDWG
 40
0.0322518519
  9
$TDUSRTIMER
 40
0.0322518519
  9
$USRTIMER
 70
     1
  9
$ANGBASE
 50
0.0
  9
$ANGDIR
 70
     0
  9
$PDMODE
 70
     0
  9
$PDSIZE
 40
0.0
  9
$PLINEWID
 40
0.0
  9
$COORDS
 70
     1
  9
$SPLFRAME
 70
     0
  9
$SPLINETYPE
 70
     6
  9
$SPLINESEGS
 70
     8
  9
$ATTDIA
 70
     0
  9
$ATTREQ
 70
     1
  9
$HANDLING
 70
 10241
  9
$HANDSEED
  5
8315
  9
$SURFTAB1
 70
     6
  9
$SURFTAB2
 70
     6
  9
$SURFTYPE
 70
     6
  9
$SURFU
 70
     6
  9
$SURFV
 70
     6
  9
$UCSNAME
  2

  9
$UCSORG
 10
0.0
 20
0.0
 30
0.0
  9
$UCSXDIR
 10
1.0
 20
0.0
 30
0.0
  9
$UCSYDIR
 10
0.0
 20
1.0
 30
0.0
  9
$PUCSNAME
  2

  9
$PUCSORG
 10
0.0
 20
0.0
 30
0.0
  9
$PUCSXDIR
 10
1.0
 20
0.0
 30
0.0
  9
$PUCSYDIR
 10
0.0
 20
1.0
 30
0.0
  9
$USERI1
 70
     0
  9
$USERI2
 70
     0
  9
$USERI3
 70
     0
  9
$USERI4
 70
     0
  9
$USERI5
 70
     0
  9
$USERR1
 40
0.0
  9
$USERR2
 40
0.0
  9
$USERR3
 40
0.0
  9
$USERR4
 40
0.0
  9
$USERR5
 40
0.0
  9
$WORLDVIEW
 70
     1
  9
$SHADEDGE
 70
     3
  9
$SHADEDIF
 70
    70
  9
$TILEMODE
 70
     1
  9
$MAXACTVP
 70
    16
  9
$PLIMCHECK
 70
     0
  9
$PEXTMIN
 10
1.0000000000000000E+020
 20
1.0000000000000000E+020
 30
1.0000000000000000E+020
  9
$PEXTMAX
 10
-1.0000000000000000E+020
 20
-1.0000000000000000E+020
 30
-1.0000000000000000E+020
  9
$PLIMMIN
 10
0.0
 20
0.0
  9
$PLIMMAX
 10
12.0
 20
9.0
  9
$UNITMODE
 70
     0
  9
$VISRETAIN
 70
     0
  9
$PLINEGEN
 70
     0
  9
$PSLTSCALE
 70
     1
  0
ENDSEC
  0
SECTION
  2
TABLES
  0
TABLE
  2
VPORT
 70
     2
  0
VPORT
  2
*ACTIVE
 70
     0
 10
0.0
 20
0.0
 11
1.0
 21
1.0
 12
7073.2199177027342
 22
2950.0000137370062
 13
0.0
 23
0.0
 14
10.0
 24
10.0
 15
10.0
 25
10.0
 16
0.0
 26
0.0
 36
1.0
 17
0.0
 27
0.0
 37
0.0
 40
5945.22976603387
 41
3.1666666666666661
 42
50.0
 43
0.0
 44
0.0
 50
0.0
 51
0.0
 71
     0
 72
   100
 73
     1
 74
     0
 75
     0
 76
     0
 77
     0
 78
     0
  0
ENDTAB
  0
TABLE
  2
LTYPE
 70
     2
  0
LTYPE
  2
CONTINUOUS
 70
     0
  3
Solid line
 72
    65
 73
     0
 40
0.0
  0
LTYPE
  2
CENTER
 70
     0
  3
____ _ ____ _ ____ _ ____ _ ____ _ ____ _ ____ 
 72
    65
 73
     4
 40
2.0
 49
1.25
 49
-0.25
 49
0.25
 49
-0.25
  0
ENDTAB
  0
TABLE
  2
LAYER
 70
     6
  0
LAYER
  2
0
 70
     0
 62
     7
  6
CONTINUOUS
  0
LAYER
  2
3
 70
     0
 62
     2
  6
CONTINUOUS
  0
LAYER
  2
2
 70
     0
 62
     3
  6
CENTER
  0
LAYER
  2
1
 70
     0
 62
     4
  6
CONTINUOUS
  0
LAYER
  2
4
 70
     0
 62
     7
  6
CONTINUOUS
  0
LAYER
  2
DEFPOINTS
 70
     0
 62
     7
  6
CONTINUOUS
  0
ENDTAB
  0
TABLE
  2
STYLE
 70
     1
  0
STYLE
  2
STANDARD
 70
     0
 40
0.0
 41
1.0
 50
0.0
 71
     0
 42
180.0
  3
simplex.shx
  4
extfont.shx
  0
ENDTAB
  0
TABLE
  2
VIEW
 70
     0
  0
ENDTAB
  0
TABLE
  2
UCS
 70
     0
  0
ENDTAB
  0
TABLE
  2
APPID
 70
     1
  0
APPID
  2
ACAD
 70
     0
  0
ENDTAB
  0
TABLE
  2
DIMSTYLE
 70
     2
  0
DIMSTYLE
  2
IGA
 70
     0
  3

  4

  5

  6
OPEN
  7
OPEN
 40
2.0
 41
2.0
 42
0.5
 43
10.0
 44
1.0
 45
0.0
 46
0.0
 47
1.0
 48
1.0
140
3.0
141
0.0
142
0.0
143
0.03937
144
1.0
145
0.0
146
10.0
147
1.0
 71
     0
 72
     0
 73
     0
 74
     0
 75
     0
 76
     0
 77
     1
 78
     8
170
     0
171
     2
172
     0
173
     1
174
     0
175
     0
176
     0
177
     0
178
     0
  0
DIMSTYLE
  2
DIA1
 70
     0
  3

  4

  5

  6

  7

 40
1.0
 41
2.0
 42
1.0
 43
10.0
 44
1.0
 45
0.0
 46
0.0
 47
0.0
 48
0.0
140
2.5
141
0.0
142
0.0
143
25.399999999999999
144
1.0
145
0.0
146
1.0
147
0.09
 71
     0
 72
     0
 73
     0
 74
     0
 75
     0
 76
     0
 77
     1
 78
     8
170
     0
171
     2
172
     1
173
     0
174
     0
175
     0
176
     2
177
     2
178
     2
  0
ENDTAB
  0
ENDSEC
  0
SECTION
  2
BLOCKS
  0
BLOCK
  8
0
  2
$MODEL_SPACE
 70
     0
 10
0.0
 20
0.0
 30
0.0
  3
$MODEL_SPACE
  1

  0
ENDBLK
  5
1B
  8
0
  0
BLOCK
 67
     1
  8
0
  2
$PAPER_SPACE
 70
     0
 10
0.0
 20
0.0
 30
0.0
  3
$PAPER_SPACE
  1

  0
ENDBLK
  5
18
 67
     1
  8
0
  0
BLOCK
  8
0
  2
YA_N
 70
     0
 10
0.0
 20
0.0
 30
0.0
  3
YA_N
  1

  0
ENDBLK
  5
79FE
  8
0
  0
BLOCK
  8
0
  2
_OPEN
 70
     0
 10
0.0
 20
0.0
 30
0.0
  3
_OPEN
  1

  0
LINE
  5
7A04
  8
0
  6
BYBLOCK
 62
     0
 10
-1.0
 20
0.1666666666666666
 30
0.0
 11
0.0
 21
0.0
 31
0.0
  0
LINE
  5
7A05
  8
0
  6
BYBLOCK
 62
     0
 10
0.0
 20
0.0
 30
0.0
 11
-1.0
 21
-0.1666666666666666
 31
0.0
  0
LINE
  5
7A06
  8
0
  6
BYBLOCK
 62
     0
 10
0.0
 20
0.0
 30
0.0
 11
-1.0
 21
0.0
 31
0.0
  0
ENDBLK
  5
7A08
  8
0
  0
BLOCK
  8
0
  2
*D2
 70
     1
 10
0.0
 20
0.0
 30
0.0
  3
*D2
  1

  0
LINE
  5
8283
  8
3
 62
     2
 10
963.0359178800436
 20
1674.2324274943519
 30
0.0
 11
867.21202130697282
 21
1674.2324274943519
 31
0.0
  0
LINE
  5
8284
  8
3
 62
     2
 10
963.0359178800436
 20
2186.2324274943521
 30
0.0
 11
867.21202130697304
 21
2186.2324274943521
 31
0.0
  0
LINE
  5
8285
  8
3
 62
     2
 10
887.2120213069727
 20
1714.2324274943519
 30
0.0
 11
887.21202130697293
 21
2146.2324274943521
 31
0.0
  0
INSERT
  5
8286
  8
3
 62
     2
  2
_OPEN
 10
887.2120213069727
 20
1674.2324274943519
 30
0.0
 41
40.0
 42
40.0
 43
40.0
 50
270.0
  0
INSERT
  5
8287
  8
3
 62
     2
  2
_OPEN
 10
887.21202130697293
 20
2186.2324274943521
 30
0.0
 41
40.0
 42
40.0
 43
40.0
 50
90.0
  0
TEXT
  8
3
  40
60
  5
8307
  62
2
  72
0
  71
0
 10
727.212
 20
1824.03
 30
0.000000
  1
512
  0
POINT
  5
8289
  8
DEFPOINTS
 62
     0
 10
983.03591788004348
 20
1674.2324274943519
 30
0.0
  0
POINT
  5
828A
  8
DEFPOINTS
 62
     0
 10
983.03591788004348
 20
2186.2324274943521
 30
0.0
  0
POINT
  5
828B
  8
DEFPOINTS
 62
     0
 10
887.21202130697293
 20
2186.2324274943521
 30
0.0
  0
ENDBLK
  5
7F6E
  8
0
  0
BLOCK
  8
0
  2
*D3
 70
     1
 10
0.0
 20
0.0
 30
0.0
  3
*D3
  1

  0
LINE
  5
7E59
  8
0
  6
BYBLOCK
 62
     2
 10
6065.5672897684317
 20
1392.227005790113
 30
0.0
 11
6065.5672897684317
 21
1494.4650260363539
 31
0.0
  0
LINE
  5
7E5A
  8
0
  6
BYBLOCK
 62
     2
 10
5690.5672897684317
 20
1392.2270057901119
 30
0.0
 11
5690.5672897684317
 21
1494.4650260363539
 31
0.0
  0
LINE
  5
7E5B
  8
0
  6
BYBLOCK
 62
     2
 10
6025.5672897684317
 20
1474.4650260363539
 30
0.0
 11
5730.5672897684317
 21
1474.4650260363539
 31
0.0
  0
INSERT
  5
7E5C
  8
0
  6
BYBLOCK
 62
     2
  2
_OPEN
 10
6065.5672897684317
 20
1474.4650260363539
 30
0.0
 41
40.0
 42
40.0
 43
40.0
  0
INSERT
  5
7E5D
  8
0
  6
BYBLOCK
 62
     2
  2
_OPEN
 10
5690.5672897684317
 20
1474.4650260363539
 30
0.0
 41
40.0
 42
40.0
 43
40.0
 50
180.0
  0
TEXT
  5
7E5E
  8
3
 62
     2
 10
5800.9244326255757
 20
1484.4650260363539
 30
0.0
 40
60.0
  1
375
  0
POINT
  5
7E5F
  8
DEFPOINTS
  6
BYBLOCK
 62
     0
 10
6065.5672897684317
 20
1372.227005790113
 30
0.0
  0
POINT
  5
7E60
  8
DEFPOINTS
  6
BYBLOCK
 62
     0
 10
5690.5672897684317
 20
1372.2270057901119
 30
0.0
  0
POINT
  5
7E61
  8
DEFPOINTS
  6
BYBLOCK
 62
     0
 10
5690.5672897684317
 20
1474.4650260363539
 30
0.0
  0
ENDBLK
  5
7E62
  8
0
  0
BLOCK
  8
0
  2
*D4
 70
     1
 10
0.0
 20
0.0
 30
0.0
  3
*D4
  1

  0
LINE
  5
7E64
  8
0
  6
BYBLOCK
 62
     2
 10
6069.8672897684328
 20
1306.227005790113
 30
0.0
 11
6069.8672897684328
 21
1647.912452961451
 31
0.0
  0
LINE
  5
7E65
  8
0
  6
BYBLOCK
 62
     2
 10
5878.0672897684317
 20
1576.1403189597179
 30
0.0
 11
5878.0672897684317
 21
1647.912452961451
 31
0.0
  0
LINE
  5
7E66
  8
0
  6
BYBLOCK
 62
     2
 10
6029.8672897684319
 20
1627.9124529614501
 30
0.0
 11
5918.0672897684317
 21
1627.9124529614501
 31
0.0
  0
TEXT
  5
7E67
  8
3
 62
     2
 10
5902.5387183398607
 20
1662.912452961451
 30
0.0
 40
60.0
  1
192
  0
INSERT
  5
7E68
  8
0
  6
BYBLOCK
 62
     2
  2
_OPEN
 10
6069.8672897684328
 20
1627.9124529614501
 30
0.0
 41
40.0
 42
40.0
 43
40.0
  0
INSERT
  5
7E69
  8
0
  6
BYBLOCK
 62
     2
  2
_OPEN
 10
5878.0672897684317
 20
1627.9124529614501
 30
0.0
 41
40.0
 42
40.0
 43
40.0
 50
180.0
  0
POINT
  5
7E6A
  8
DEFPOINTS
  6
BYBLOCK
 62
     0
 10
6069.8672897684328
 20
1286.2270057901119
 30
0.0
  0
POINT
  5
7E6B
  8
DEFPOINTS
  6
BYBLOCK
 62
     0
 10
5878.0672897684317
 20
1556.1403189597179
 30
0.0
  0
POINT
  5
7E6C
  8
DEFPOINTS
  6
BYBLOCK
 62
     0
 10
5878.0672897684317
 20
1627.9124529614501
 30
0.0
  0
ENDBLK
  5
7E6D
  8
0
  0
BLOCK
  8
0
  2
*D5
 70
     1
 10
0.0
 20
0.0
 30
0.0
  3
*D5
  1

  0
LINE
  5
819E
  8
0
  6
BYBLOCK
 62
     2
 10
2512.4473810321301
 20
2421.9324274943519
 30
0.0
 11
2512.4473810321301
 21
2848.9178746656912
 31
0.0
  0
LINE
  5
819F
  8
0
  6
BYBLOCK
 62
     2
 10
3344.3876193816409
 20
2828.9178746656912
 30
0.0
 11
2552.447381032131
 21
2828.9178746656912
 31
0.0
  0
INSERT
  5
81A0
  8
0
  6
BYBLOCK
 62
     2
  2
_OPEN
 10
3384.3876193816409
 20
2828.9178746656912
 30
0.0
 41
40.0
 42
40.0
 43
40.0
  0
INSERT
  5
81A1
  8
0
  6
BYBLOCK
 62
     2
  2
_OPEN
 10
2512.4473810321301
 20
2828.9178746656912
 30
0.0
 41
40.0
 42
40.0
 43
40.0
 50
180.0
  0
INSERT
  5
81A2
  8
3
  2
*U23
 10
0.0
 20
0.0
 30
0.0
  0
POINT
  5
81A3
  8
DEFPOINTS
  6
BYBLOCK
 62
     0
 10
3384.3876193816409
 20
2757.1457406639579
 30
0.0
  0
POINT
  5
81A4
  8
DEFPOINTS
  6
BYBLOCK
 62
     0
 10
2512.4473810321301
 20
2401.9324274943519
 30
0.0
  0
POINT
  5
81A5
  8
DEFPOINTS
  6
BYBLOCK
 62
     0
 10
2512.4473810321301
 20
2828.9178746656912
 30
0.0
  0
ENDBLK
  5
81A6
  8
0
  0
BLOCK
  8
0
  2
*D6
 70
     1
 10
0.0
 20
0.0
 30
0.0
  3
*D6
  1

  0
LINE
  5
828C
  8
3
 62
     0
 10
3611.1876193816411
 20
2462.232427494353
 30
0.0
 11
3811.2608258534092
 21
2462.232427494353
 31
0.0
  0
LINE
  5
828D
  8
3
 62
     0
 10
3611.1876193816411
 20
1962.2324274943519
 30
0.0
 11
3811.2608258534092
 21
1962.2324274943519
 31
0.0
  0
LINE
  5
828E
  8
3
 62
     0
 10
3791.2608258534092
 20
2422.2324274943521
 30
0.0
 11
3791.2608258534092
 21
2002.2324274943519
 31
0.0
  0
INSERT
  5
828F
  8
3
 62
     0
  2
_OPEN
 10
3791.2608258534092
 20
2462.232427494353
 30
0.0
 41
40.0
 42
40.0
 43
40.0
 50
90.0
  0
INSERT
  5
8290
  8
3
 62
     0
  2
_OPEN
 10
3791.2608258534092
 20
1962.2324274943519
 30
0.0
 41
40.0
 42
40.0
 43
40.0
 50
270.0
  0
TEXT
  8
3
  40
60
  5
8308
  62
0
  72
0
  71
0
 10
3621.26
 20
2106.03
 30
0.000000
  1
φ500
  0
POINT
  5
8292
  8
DEFPOINTS
 62
     0
 10
3601.1876193816411
 20
2462.232427494353
 30
0.0
  0
POINT
  5
8293
  8
DEFPOINTS
 62
     0
 10
3601.1876193816411
 20
1962.2324274943519
 30
0.0
  0
POINT
  5
8294
  8
DEFPOINTS
 62
     0
 10
3791.2608258534092
 20
1962.2324274943519
 30
0.0
  0
ENDBLK
  5
80FA
  8
0
  0
BLOCK
  8
0
  2
*D7
 70
     1
 10
0.0
 20
0.0
 30
0.0
  3
*D7
  1

  0
LINE
  5
7F70
  8
0
  6
BYBLOCK
 62
     2
 10
618.86934545919848
 20
2212.2324274943521
 30
0.0
 11
441.00518929065862
 21
2212.2324274943521
 31
0.0
  0
LINE
  5
7F71
  8
0
  6
BYBLOCK
 62
     2
 10
660.22192192613954
 20
1674.2324274943519
 30
0.0
 11
441.00518929065862
 21
1674.2324274943519
 31
0.0
  0
LINE
  5
7F72
  8
0
  6
BYBLOCK
 62
     2
 10
461.00518929065851
 20
2172.2324274943521
 30
0.0
 11
461.00518929065851
 21
1714.2324274943519
 31
0.0
  0
INSERT
  5
7F73
  8
0
  6
BYBLOCK
 62
     2
  2
_OPEN
 10
461.00518929065851
 20
2212.2324274943521
 30
0.0
 41
40.0
 42
40.0
 43
40.0
 50
90.0
  0
INSERT
  5
7F74
  8
0
  6
BYBLOCK
 62
     2
  2
_OPEN
 10
461.00518929065851
 20
1674.2324274943519
 30
0.0
 41
40.0
 42
40.0
 43
40.0
 50
270.0
  0
TEXT
  5
7F75
  8
3
 62
     2
 10
451.00518929065851
 20
1866.089570351495
 30
0.0
 40
60.0
  1
538
 50
90.0
  0
POINT
  5
7F76
  8
DEFPOINTS
  6
BYBLOCK
 62
     0
 10
638.86934545919848
 20
2212.2324274943521
 30
0.0
  0
POINT
  5
7F77
  8
DEFPOINTS
  6
BYBLOCK
 62
     0
 10
680.22192192613954
 20
1674.2324274943519
 30
0.0
  0
POINT
  5
7F78
  8
DEFPOINTS
  6
BYBLOCK
 62
     0
 10
461.00518929065851
 20
1674.2324274943519
 30
0.0
  0
ENDBLK
  5
7F79
  8
0
  0
BLOCK
  8
0
  2
*D8
 70
     1
 10
0.0
 20
0.0
 30
0.0
  3
*D8
  1

  0
LINE
  5
7EAF
  8
0
  6
BYBLOCK
 62
     2
 10
2922.7396092949248
 20
1036.827005790112
 30
0.0
 11
2922.7396092949248
 21
1538.773848382152
 31
0.0
  0
LINE
  5
7EB0
  8
0
  6
BYBLOCK
 62
     2
 10
3282.7396092949248
 20
1452.4640834029981
 30
0.0
 11
3282.7396092949248
 21
1538.773848382152
 31
0.0
  0
LINE
  5
7EB1
  8
0
  6
BYBLOCK
 62
     2
 10
2962.7396092949239
 20
1518.773848382152
 30
0.0
 11
3242.7396092949248
 21
1518.773848382152
 31
0.0
  0
INSERT
  5
7EB2
  8
0
  6
BYBLOCK
 62
     2
  2
_OPEN
 10
2922.7396092949248
 20
1518.773848382152
 30
0.0
 41
40.0
 42
40.0
 43
40.0
 50
180.0
  0
INSERT
  5
7EB3
  8
0
  6
BYBLOCK
 62
     2
  2
_OPEN
 10
3282.7396092949248
 20
1518.773848382152
 30
0.0
 41
40.0
 42
40.0
 43
40.0
  0
TEXT
  5
7EB4
  8
3
 62
     2
 10
3025.5967521520679
 20
1528.773848382152
 30
0.0
 40
60.0
  1
360
  0
POINT
  5
7EB5
  8
DEFPOINTS
  6
BYBLOCK
 62
     0
 10
2922.7396092949248
 20
1016.827005790112
 30
0.0
  0
POINT
  5
7EB6
  8
DEFPOINTS
  6
BYBLOCK
 62
     0
 10
3282.7396092949248
 20
1432.4640834029969
 30
0.0
  0
POINT
  5
7EB7
  8
DEFPOINTS
  6
BYBLOCK
 62
     0
 10
3282.7396092949248
 20
1518.773848382152
 30
0.0
  0
ENDBLK
  5
7EB8
  8
0
  0
BLOCK
  8
0
  2
*D9
 70
     1
 10
0.0
 20
0.0
 30
0.0
  3
*D9
  1

  0
LINE
  5
7EBA
  8
0
  6
BYBLOCK
 62
     2
 10
3717.7396092949248
 20
994.22700579011325
 30
0.0
 11
3717.7396092949248
 21
1538.773848382152
 31
0.0
  0
LINE
  5
7EBB
  8
0
  6
BYBLOCK
 62
     2
 10
3322.7396092949248
 20
1518.773848382152
 30
0.0
 11
3677.7396092949248
 21
1518.773848382152
 31
0.0
  0
INSERT
  5
7EBC
  8
0
  6
BYBLOCK
 62
     2
  2
_OPEN
 10
3282.7396092949248
 20
1518.773848382152
 30
0.0
 41
40.0
 42
40.0
 43
40.0
 50
180.0
  0
INSERT
  5
7EBD
  8
0
  6
BYBLOCK
 62
     2
  2
_OPEN
 10
3717.7396092949248
 20
1518.773848382152
 30
0.0
 41
40.0
 42
40.0
 43
40.0
  0
TEXT
  5
7EBE
  8
3
 62
     2
 10
3423.0967521520679
 20
1528.773848382152
 30
0.0
 40
60.0
  1
435
  0
POINT
  5
7EBF
  8
DEFPOINTS
  6
BYBLOCK
 62
     0
 10
3282.7396092949248
 20
1432.4640834029969
 30
0.0
  0
POINT
  5
7EC0
  8
DEFPOINTS
  6
BYBLOCK
 62
     0
 10
3717.7396092949248
 20
974.22700579011325
 30
0.0
  0
POINT
  5
7EC1
  8
DEFPOINTS
  6
BYBLOCK
 62
     0
 10
3717.7396092949248
 20
1518.773848382152
 30
0.0
  0
ENDBLK
  5
7EC2
  8
0
  0
BLOCK
  8
0
  2
*D10
 70
     1
 10
0.0
 20
0.0
 30
0.0
  3
*D10
  1

  0
LINE
  5
8295
  8
3
 62
     0
 10
1370.9085769502431
 20
2573.3199150281312
 30
0.0
 11
629.19652591686145
 21
2573.3199150281321
 31
0.0
  0
LINE
  5
8296
  8
3
 62
     0
 10
911.68334141310243
 20
2212.2324274943521
 30
0.0
 11
629.19652591686133
 21
2212.2324274943521
 31
0.0
  0
LINE
  5
8297
  8
3
 62
     0
 10
649.19652591686145
 20
2533.3199150281321
 30
0.0
 11
649.19652591686133
 21
2252.2324274943521
 31
0.0
  0
INSERT
  5
8298
  8
3
 62
     0
  2
_OPEN
 10
649.19652591686145
 20
2573.3199150281321
 30
0.0
 41
40.0
 42
40.0
 43
40.0
 50
90.0
  0
INSERT
  5
8299
  8
3
 62
     0
  2
_OPEN
 10
649.19652591686133
 20
2212.2324274943521
 30
0.0
 41
40.0
 42
40.0
 43
40.0
 50
270.0
  0
TEXT
  8
3
  40
60
  5
8309
  62
0
  72
0
  71
0
 10
479.197
 20
2293.84
 30
0.000000
  1
361
  0
POINT
  5
829B
  8
DEFPOINTS
 62
     0
 10
1380.9085769502431
 20
2573.3199150281312
 30
0.0
  0
POINT
  5
829C
  8
DEFPOINTS
 62
     0
 10
921.68334141310231
 20
2212.2324274943521
 30
0.0
  0
POINT
  5
829D
  8
DEFPOINTS
 62
     0
 10
649.19652591686133
 20
2212.2324274943521
 30
0.0
  0
ENDBLK
  5
7F4D
  8
0
  0
BLOCK
  8
0
  2
*D11
 70
     1
 10
0.0
 20
0.0
 30
0.0
  3
*D11
  1

  0
LINE
  5
829E
  8
3
 62
     0
 10
1083.0359178800441
 20
1582.2324274943519
 30
0.0
 11
629.19652591686099
 21
1582.2324274943519
 31
0.0
  0
LINE
  5
829F
  8
3
 62
     0
 10
649.19652591686111
 20
2172.2324274943521
 30
0.0
 11
649.19652591686088
 21
1622.2324274943519
 31
0.0
  0
INSERT
  5
82A0
  8
3
 62
     0
  2
_OPEN
 10
649.19652591686111
 20
2212.2324274943521
 30
0.0
 41
40.0
 42
40.0
 43
40.0
 50
90.0
  0
INSERT
  5
82A1
  8
3
 62
     0
  2
_OPEN
 10
649.19652591686088
 20
1582.2324274943519
 30
0.0
 41
40.0
 42
40.0
 43
40.0
 50
270.0
  0
TEXT
  8
3
  40
60
  5
830A
  62
0
  72
0
  71
0
 10
479.197
 20
1791.03
 30
0.000000
  1
630
  0
POINT
  5
82A3
  8
DEFPOINTS
 62
     0
 10
921.68334141310231
 20
2212.2324274943521
 30
0.0
  0
POINT
  5
82A4
  8
DEFPOINTS
 62
     0
 10
1093.0359178800441
 20
1582.2324274943519
 30
0.0
  0
POINT
  5
82A5
  8
DEFPOINTS
 62
     0
 10
649.19652591686088
 20
1582.2324274943519
 30
0.0
  0
ENDBLK
  5
7F57
  8
0
  0
BLOCK
  8
0
  2
_DOT
 70
     0
 10
0.0
 20
0.0
 30
0.0
  3
_DOT
  1

  0
LINE
  5
8194
  8
0
  6
BYBLOCK
 62
     0
 10
0.0
 20
0.0
 30
0.0
 11
-1.0
 21
-0.0000000000000284
 31
0.0
  0
POLYLINE
  5
8195
  8
0
  6
BYBLOCK
 62
     0
 66
     1
 10
0.0
 20
0.0
 30
0.0
 70
     1
 40
0.1666666666666666
 41
0.1666666666666666
  0
VERTEX
  5
82D2
  8
0
  6
BYBLOCK
 62
     0
 10
-0.0833333333333286
 20
-0.0000000000000284
 30
0.0
 42
1.0
  0
VERTEX
  5
82D3
  8
0
  6
BYBLOCK
 62
     0
 10
0.0833333333333286
 20
-0.0000000000000284
 30
0.0
 42
1.0
  0
SEQEND
  5
82D4
  8
0
  6
BYBLOCK
 62
     0
  0
ENDBLK
  5
7F9B
  8
0
  0
BLOCK
  8
0
  2
*D13
 70
     1
 10
0.0
 20
0.0
 30
0.0
  3
*D13
  1

  0
LINE
  5
82A6
  8
3
 62
     0
 10
983.03591788004348
 20
2227.832427494352
 30
0.0
 11
983.03591788004348
 21
2845.4235596865619
 31
0.0
  0
LINE
  5
82A7
  8
3
 62
     0
 10
2173.0359178800441
 20
1667.2324274943519
 30
0.0
 11
2173.0359178800441
 21
2845.4235596865619
 31
0.0
  0
LINE
  5
82A8
  8
3
 62
     0
 10
1023.035917880043
 20
2825.4235596865619
 30
0.0
 11
2133.0359178800431
 21
2825.4235596865619
 31
0.0
  0
INSERT
  5
82A9
  8
3
 62
     0
  2
_OPEN
 10
983.03591788004348
 20
2825.4235596865619
 30
0.0
 41
40.0
 42
40.0
 43
40.0
 50
180.0
  0
INSERT
  5
82AA
  8
3
 62
     0
  2
_OPEN
 10
2173.0359178800441
 20
2825.4235596865619
 30
0.0
 41
40.0
 42
40.0
 43
40.0
  0
TEXT
  8
3
  40
60
  5
830B
  62
0
  72
0
  71
0
 10
1384.30
 20
2769.22
 30
0.000000
  1
1190
  0
POINT
  5
82AC
  8
DEFPOINTS
 62
     0
 10
983.03591788004348
 20
2217.8324274943511
 30
0.0
  0
POINT
  5
82AD
  8
DEFPOINTS
 62
     0
 10
2173.0359178800441
 20
1657.2324274943519
 30
0.0
  0
POINT
  5
82AE
  8
DEFPOINTS
 62
     0
 10
2173.0359178800441
 20
2825.4235596865619
 30
0.0
  0
ENDBLK
  5
8144
  8
0
  0
BLOCK
  8
0
  2
*D14
 70
     1
 10
0.0
 20
0.0
 30
0.0
  3
*D14
  1

  0
LINE
  5
82AF
  8
3
 62
     0
 10
1093.0359178800441
 20
4350.6535024364848
 30
0.0
 11
1093.0359178800441
 21
4475.4182304352717
 31
0.0
  0
LINE
  5
82B0
  8
3
 62
     0
 10
1593.0359178800441
 20
4350.6535024364848
 30
0.0
 11
1593.0359178800441
 21
4475.4182304352717
 31
0.0
  0
LINE
  5
82B1
  8
3
 62
     0
 10
1133.0359178800441
 20
4455.4182304352726
 30
0.0
 11
1553.0359178800441
 21
4455.4182304352726
 31
0.0
  0
INSERT
  5
82B2
  8
3
 62
     0
  2
_OPEN
 10
1093.0359178800441
 20
4455.4182304352726
 30
0.0
 41
40.0
 42
40.0
 43
40.0
 50
180.0
  0
INSERT
  5
82B3
  8
3
 62
     0
  2
_OPEN
 10
1593.0359178800441
 20
4455.4182304352726
 30
0.0
 41
40.0
 42
40.0
 43
40.0
  0
TEXT
  8
3
  40
60
  5
830C
  62
0
  72
0
  71
0
 10
1222.13
 20
4399.22
 30
0.000000
  1
500
  0
POINT
  5
82B5
  8
DEFPOINTS
 62
     0
 10
1093.0359178800441
 20
4340.6535024364848
 30
0.0
  0
POINT
  5
82B6
  8
DEFPOINTS
 62
     0
 10
1593.0359178800441
 20
4340.6535024364848
 30
0.0
  0
POINT
  5
82B7
  8
DEFPOINTS
 62
     0
 10
1593.0359178800441
 20
4455.4182304352726
 30
0.0
  0
ENDBLK
  5
8167
  8
0
  0
BLOCK
  8
0
  2
*D15
 70
     1
 10
0.0
 20
0.0
 30
0.0
  3
*D15
  1

  0
LINE
  5
82B8
  8
3
 62
     0
 10
2173.0359178800441
 20
3910.6535024364862
 30
0.0
 11
2173.0359178800441
 21
4475.4182304352717
 31
0.0
  0
LINE
  5
82B9
  8
3
 62
     0
 10
1633.0359178800441
 20
4455.4182304352726
 30
0.0
 11
2133.0359178800441
 21
4455.4182304352726
 31
0.0
  0
INSERT
  5
82BA
  8
3
 62
     0
  2
_OPEN
 10
1593.0359178800441
 20
4455.4182304352726
 30
0.0
 41
40.0
 42
40.0
 43
40.0
 50
180.0
  0
INSERT
  5
82BB
  8
3
 62
     0
  2
_OPEN
 10
2173.0359178800441
 20
4455.4182304352726
 30
0.0
 41
40.0
 42
40.0
 43
40.0
  0
TEXT
  8
3
  40
60
  5
830D
  62
0
  72
0
  71
0
 10
1763.04
 20
4399.22
 30
0.000000
  1
580
  0
POINT
  5
82BD
  8
DEFPOINTS
 62
     0
 10
1593.0359178800441
 20
4340.6535024364848
 30
0.0
  0
POINT
  5
82BE
  8
DEFPOINTS
 62
     0
 10
2173.0359178800441
 20
3900.6535024364862
 30
0.0
  0
POINT
  5
82BF
  8
DEFPOINTS
 62
     0
 10
2173.0359178800441
 20
4455.4182304352726
 30
0.0
  0
ENDBLK
  5
8173
  8
0
  0
BLOCK
  8
0
  2
*D16
 70
     1
 10
0.0
 20
0.0
 30
0.0
  3
*D16
  1

  0
LINE
  5
82C0
  8
3
 62
     0
 10
2183.0359178800441
 20
3900.6535024364862
 30
0.0
 11
2366.222661592853
 21
3900.6535024364862
 31
0.0
  0
LINE
  5
82C1
  8
3
 62
     0
 10
2183.0359178800441
 20
3340.6535024364862
 30
0.0
 11
2366.222661592853
 21
3340.6535024364862
 31
0.0
  0
LINE
  5
82C2
  8
3
 62
     0
 10
2346.2226615928521
 20
3860.6535024364862
 30
0.0
 11
2346.2226615928521
 21
3380.6535024364862
 31
0.0
  0
INSERT
  5
82C3
  8
3
 62
     0
  2
_OPEN
 10
2346.2226615928521
 20
3900.6535024364862
 30
0.0
 41
40.0
 42
40.0
 43
40.0
 50
90.0
  0
INSERT
  5
82C4
  8
3
 62
     0
  2
_OPEN
 10
2346.2226615928521
 20
3340.6535024364862
 30
0.0
 41
40.0
 42
40.0
 43
40.0
 50
270.0
  0
TEXT
  8
3
  40
60
  5
830E
  62
0
  72
0
  71
0
 10
2176.22
 20
3506.05
 30
0.000000
  1
560
  0
POINT
  5
82C6
  8
DEFPOINTS
 62
     0
 10
2173.0359178800441
 20
3900.6535024364862
 30
0.0
  0
POINT
  5
82C7
  8
DEFPOINTS
 62
     0
 10
2173.0359178800441
 20
3340.6535024364862
 30
0.0
  0
POINT
  5
82C8
  8
DEFPOINTS
 62
     0
 10
2346.2226615928521
 20
3340.6535024364862
 30
0.0
  0
ENDBLK
  5
8180
  8
0
  0
BLOCK
  8
0
  2
*D17
 70
     1
 10
0.0
 20
0.0
 30
0.0
  3
*D17
  1

  0
LINE
  5
82C9
  8
3
 62
     0
 10
1083.0359178800441
 20
4340.6535024364848
 30
0.0
 11
869.92670463432728
 21
4340.6535024364848
 31
0.0
  0
LINE
  5
82CA
  8
3
 62
     0
 10
1083.0359178800441
 20
3340.6535024364848
 30
0.0
 11
869.92670463432705
 21
3340.6535024364862
 31
0.0
  0
LINE
  5
82CB
  8
3
 62
     0
 10
889.92670463432717
 20
4300.6535024364848
 30
0.0
 11
889.92670463432717
 21
3380.6535024364862
 31
0.0
  0
INSERT
  5
82CC
  8
3
 62
     0
  2
_OPEN
 10
889.92670463432717
 20
4340.6535024364848
 30
0.0
 41
40.0
 42
40.0
 43
40.0
 50
90.0
  0
INSERT
  5
82CD
  8
3
 62
     0
  2
_OPEN
 10
889.92670463432717
 20
3340.6535024364862
 30
0.0
 41
40.0
 42
40.0
 43
40.0
 50
270.0
  0
TEXT
  8
3
  40
60
  5
830F
  62
0
  72
0
  71
0
 10
719.927
 20
3719.51
 30
0.000000
  1
1000
  0
POINT
  5
82CF
  8
DEFPOINTS
 62
     0
 10
1093.0359178800441
 20
4340.6535024364848
 30
0.0
  0
POINT
  5
82D0
  8
DEFPOINTS
 62
     0
 10
1093.0359178800441
 20
3340.6535024364848
 30
0.0
  0
POINT
  5
82D1
  8
DEFPOINTS
 62
     0
 10
889.92670463432717
 20
3340.6535024364862
 30
0.0
  0
ENDBLK
  5
818D
  8
0
  0
BLOCK
  8
0
  2
*D18
 70
     1
 10
0.0
 20
0.0
 30
0.0
  3
*D18
  1

  0
LINE
  5
82DA
  8
3
 62
     0
 10
1093.0359178800441
 20
1572.2324274943519
 30
0.0
 11
1093.0359178800441
 21
1423.5016973116381
 31
0.0
  0
LINE
  5
82DB
  8
3
 62
     0
 10
1343.0359178800441
 20
1572.2324274943519
 30
0.0
 11
1343.0359178800441
 21
1423.5016973116381
 31
0.0
  0
LINE
  5
82DC
  8
3
 62
     0
 10
1133.0359178800441
 20
1443.5016973116381
 30
0.0
 11
1303.0359178800441
 21
1443.5016973116381
 31
0.0
  0
INSERT
  5
82DD
  8
3
 62
     0
  2
_OPEN
 10
1093.0359178800441
 20
1443.5016973116381
 30
0.0
 41
40.0
 42
40.0
 43
40.0
 50
180.0
  0
INSERT
  5
82DE
  8
3
 62
     0
  2
_OPEN
 10
1343.0359178800441
 20
1443.5016973116381
 30
0.0
 41
40.0
 42
40.0
 43
40.0
  0
TEXT
  8
3
  40
60
  5
8310
  62
0
  72
0
  71
0
 10
1098.04
 20
1387.30
 30
0.000000
  1
250
  0
POINT
  5
82E0
  8
DEFPOINTS
 62
     0
 10
1093.0359178800441
 20
1582.2324274943519
 30
0.0
  0
POINT
  5
82E1
  8
DEFPOINTS
 62
     0
 10
1343.0359178800441
 20
1582.2324274943519
 30
0.0
  0
POINT
  5
82E2
  8
DEFPOINTS
 62
     0
 10
1343.0359178800441
 20
1443.5016973116381
 30
0.0
  0
ENDBLK
  5
821B
  8
0
  0
BLOCK
  8
0
  2
*D19
 70
     1
 10
0.0
 20
0.0
 30
0.0
  3
*D19
  1

  0
LINE
  5
82E3
  8
3
 62
     0
 10
1343.0359178800441
 20
1572.2324274943519
 30
0.0
 11
1343.0359178800441
 21
1423.5016973116381
 31
0.0
  0
LINE
  5
82E4
  8
3
 62
     0
 10
2173.0359178800441
 20
1572.2324274943519
 30
0.0
 11
2173.0359178800441
 21
1423.5016973116381
 31
0.0
  0
LINE
  5
82E5
  8
3
 62
     0
 10
1383.0359178800441
 20
1443.5016973116381
 30
0.0
 11
2133.0359178800431
 21
1443.5016973116381
 31
0.0
  0
INSERT
  5
82E6
  8
3
 62
     0
  2
_OPEN
 10
1343.0359178800441
 20
1443.5016973116381
 30
0.0
 41
40.0
 42
40.0
 43
40.0
 50
180.0
  0
INSERT
  5
82E7
  8
3
 62
     0
  2
_OPEN
 10
2173.0359178800441
 20
1443.5016973116381
 30
0.0
 41
40.0
 42
40.0
 43
40.0
  0
TEXT
  8
3
  40
60
  5
8311
  62
0
  72
0
  71
0
 10
1638.04
 20
1387.30
 30
0.000000
  1
830
  0
POINT
  5
82E9
  8
DEFPOINTS
 62
     0
 10
1343.0359178800441
 20
1582.2324274943519
 30
0.0
  0
POINT
  5
82EA
  8
DEFPOINTS
 62
     0
 10
2173.0359178800441
 20
1582.2324274943519
 30
0.0
  0
POINT
  5
82EB
  8
DEFPOINTS
 62
     0
 10
2173.0359178800441
 20
1443.5016973116381
 30
0.0
  0
ENDBLK
  5
8228
  8
0
  0
BLOCK
  8
0
  2
*D20
 70
     1
 10
0.0
 20
0.0
 30
0.0
  3
*D20
  1

  0
LINE
  5
82EC
  8
3
 62
     0
 10
2614.3876193816409
 20
1572.2324274943519
 30
0.0
 11
2614.3876193816409
 21
1423.5016973116381
 31
0.0
  0
LINE
  5
82ED
  8
3
 62
     0
 10
3384.38761938164
 20
1572.2324274943519
 30
0.0
 11
3384.38761938164
 21
1423.5016973116381
 31
0.0
  0
LINE
  5
82EE
  8
3
 62
     0
 10
2654.3876193816409
 20
1443.5016973116381
 30
0.0
 11
3344.38761938164
 21
1443.5016973116381
 31
0.0
  0
INSERT
  5
82EF
  8
3
 62
     0
  2
_OPEN
 10
2614.3876193816409
 20
1443.5016973116381
 30
0.0
 41
40.0
 42
40.0
 43
40.0
 50
180.0
  0
INSERT
  5
82F0
  8
3
 62
     0
  2
_OPEN
 10
3384.38761938164
 20
1443.5016973116381
 30
0.0
 41
40.0
 42
40.0
 43
40.0
  0
TEXT
  8
3
  40
60
  5
8312
  62
0
  72
0
  71
0
 10
2879.39
 20
1387.30
 30
0.000000
  1
770
  0
POINT
  5
82F2
  8
DEFPOINTS
 62
     0
 10
2614.3876193816409
 20
1582.2324274943519
 30
0.0
  0
POINT
  5
82F3
  8
DEFPOINTS
 62
     0
 10
3384.38761938164
 20
1582.2324274943519
 30
0.0
  0
POINT
  5
82F4
  8
DEFPOINTS
 62
     0
 10
3384.38761938164
 20
1443.5016973116381
 30
0.0
  0
ENDBLK
  5
8235
  8
0
  0
BLOCK
  8
0
  2
*D21
 70
     1
 10
0.0
 20
0.0
 30
0.0
  3
*D21
  1

  0
LINE
  5
82F5
  8
3
 62
     0
 10
3384.38761938164
 20
1572.2324274943519
 30
0.0
 11
3384.38761938164
 21
1423.5016973116381
 31
0.0
  0
LINE
  5
82F6
  8
3
 62
     0
 10
3614.3876193816409
 20
1572.2324274943519
 30
0.0
 11
3614.3876193816409
 21
1423.5016973116381
 31
0.0
  0
LINE
  5
82F7
  8
3
 62
     0
 10
3424.3876193816409
 20
1443.5016973116381
 30
0.0
 11
3574.3876193816409
 21
1443.5016973116381
 31
0.0
  0
INSERT
  5
82F8
  8
3
 62
     0
  2
_OPEN
 10
3384.38761938164
 20
1443.5016973116381
 30
0.0
 41
40.0
 42
40.0
 43
40.0
 50
180.0
  0
INSERT
  5
82F9
  8
3
 62
     0
  2
_OPEN
 10
3614.3876193816409
 20
1443.5016973116381
 30
0.0
 41
40.0
 42
40.0
 43
40.0
  0
TEXT
  8
3
  40
60
  5
8313
  62
0
  72
0
  71
0
 10
3379.39
 20
1387.30
 30
0.000000
  1
230
  0
POINT
  5
82FB
  8
DEFPOINTS
 62
     0
 10
3384.38761938164
 20
1582.2324274943519
 30
0.0
  0
POINT
  5
82FC
  8
DEFPOINTS
 62
     0
 10
3614.3876193816409
 20
1582.2324274943519
 30
0.0
  0
POINT
  5
82FD
  8
DEFPOINTS
 62
     0
 10
3614.3876193816409
 20
1443.5016973116381
 30
0.0
  0
ENDBLK
  5
8244
  8
0
  0
BLOCK
  8
0
  2
*D22
 70
     1
 10
0.0
 20
0.0
 30
0.0
  3
*D22
  1

  0
LINE
  5
82FE
  8
3
 62
     0
 10
1360.9085769502431
 20
2573.3199150281312
 30
0.0
 11
493.09322013243963
 21
2573.3199150281321
 31
0.0
  0
LINE
  5
82FF
  8
3
 62
     0
 10
1083.0359178800441
 20
1582.2324274943519
 30
0.0
 11
493.0932201324394
 21
1582.2324274943519
 31
0.0
  0
LINE
  5
8300
  8
3
 62
     0
 10
513.09322013243957
 20
2533.3199150281321
 30
0.0
 11
513.09322013243946
 21
1622.2324274943519
 31
0.0
  0
INSERT
  5
8301
  8
3
 62
     0
  2
_OPEN
 10
513.09322013243957
 20
2573.3199150281321
 30
0.0
 41
40.0
 42
40.0
 43
40.0
 50
90.0
  0
INSERT
  5
8302
  8
3
 62
     0
  2
_OPEN
 10
513.09322013243946
 20
1582.2324274943519
 30
0.0
 41
40.0
 42
40.0
 43
40.0
 50
270.0
  0
TEXT
  8
3
  40
60
  5
8314
  62
0
  72
0
  71
0
 10
343.093
 20
1971.58
 30
0.000000
  1
991
  0
POINT
  5
8304
  8
DEFPOINTS
 62
     0
 10
1370.9085769502431
 20
2573.3199150281312
 30
0.0
  0
POINT
  5
8305
  8
DEFPOINTS
 62
     0
 10
1093.0359178800441
 20
1582.2324274943519
 30
0.0
  0
POINT
  5
8306
  8
DEFPOINTS
 62
     0
 10
513.09322013243946
 20
1582.2324274943519
 30
0.0
  0
ENDBLK
  5
8251
  8
0
  0
BLOCK
  8
0
  2
*U23
 70
     1
 10
0.0
 20
0.0
 30
0.0
  3
*U23
  1

  0
TEXT
  5
82D6
  8
3
 62
     2
 10
2862.7032144926002
 20
2938.9178746656899
 30
0.0
 40
60.0
  1
MAX
  0
TEXT
  5
82D7
  8
3
 62
     2
 10
2871.2746430640282
 20
2838.9178746656912
 30
0.0
 40
60.0
  1
930
  0
ENDBLK
  5
82D9
  8
0
  0
ENDSEC
  0
SECTION
  2
ENTITIES
  0
INSERT
  5
7C12
  8
0
  2
YA_N
 10
6.0
 20
5.0
 30
0.0
  0
INSERT
  5
7C13
  8
0
  2
YA_N
 10
6.0
 20
5.0
 30
0.0
  0
INSERT
  5
7C14
  8
0
  2
YA_N
 10
6.0
 20
5.0
 30
0.0
  0
INSERT
  5
7C15
  8
0
  2
YA_N
 10
6.0
 20
5.0
 30
0.0
  0
INSERT
  5
7C16
  8
0
  2
YA_N
 10
6.0
 20
5.0
 30
0.0
  0
LINE
  5
7C17
  8
1
 10
2644.3876193816409
 20
2152.2324274943521
 30
0.0
 11
3129.3876193816418
 21
2152.2324274943521
 31
0.0
  0
LINE
  5
7C18
  8
1
 10
2651.1876193816411
 20
2149.0324274943532
 30
0.0
 11
2651.1876193816429
 21
1879.6892228484901
 31
0.0
  0
LINE
  5
7C19
  8
1
 10
2614.3876193816409
 20
1657.2324274943519
 30
0.0
 11
3614.3876193816409
 21
1657.2324274943519
 31
0.0
  0
LINE
  5
7C1A
  8
1
 10
2614.3876193816409
 20
1582.2324274943519
 30
0.0
 11
3614.3876193816409
 21
1582.2324274943519
 31
0.0
  0
LINE
  5
7C1B
  8
1
 10
3614.3876193816409
 20
1657.2324274943519
 30
0.0
 11
3614.3876193816409
 21
1582.2324274943519
 31
0.0
  0
LINE
  5
7C1E
  8
1
 10
1121.0359178800691
 20
1657.2324274943519
 30
0.0
 11
1121.0359178800441
 21
2149.0324274943519
 31
0.0
  0
LINE
  5
7C1F
  8
1
 10
1565.0359178800441
 20
1657.2324274943519
 30
0.0
 11
1565.0359178800441
 21
2149.0324274943519
 31
0.0
  0
LINE
  5
7C20
  8
1
 10
1111.0359178800441
 20
2152.2324274943521
 30
0.0
 11
1575.0359178800441
 21
2152.2324274943521
 31
0.0
  0
LINE
  5
7C21
  8
1
 10
1093.0359178800441
 20
1582.2324274943519
 30
0.0
 11
2173.0359178800441
 21
1582.2324274943519
 31
0.0
  0
INSERT
  5
7C22
  8
0
  2
YA_N
 10
6285.3947994874952
 20
6170.1179297020417
 30
0.0
  0
INSERT
  5
7C23
  8
0
  2
YA_N
 10
9310.6143563453425
 20
8479.3824956818644
 30
0.0
  0
INSERT
  5
7C24
  8
0
  2
YA_N
 10
6566.5323200881021
 20
7938.1589708423153
 30
0.0
  0
INSERT
  5
7C25
  8
0
  2
YA_N
 10
9396.3261307456396
 20
6429.6268749438577
 30
0.0
  0
POLYLINE
  5
7C26
  8
1
 66
     1
 10
0.0
 20
0.0
 30
0.0
 70
     1
  0
VERTEX
  5
8279
  8
1
 10
3576.1876193816411
 20
2462.232427494353
 30
0.0
  0
VERTEX
  5
827A
  8
1
 10
3601.1876193816411
 20
2462.232427494353
 30
0.0
  0
VERTEX
  5
827B
  8
1
 10
3601.1876193816411
 20
2463.2324274943521
 30
0.0
 42
0.4142135623730951
  0
VERTEX
  5
827C
  8
1
 10
3599.1876193816411
 20
2465.232427494353
 30
0.0
  0
VERTEX
  5
827D
  8
1
 10
3583.1876193816411
 20
2465.232427494353
 30
0.0
 42
-0.4142135623730951
  0
VERTEX
  5
827E
  8
1
 10
3579.1876193816411
 20
2469.2324274943521
 30
0.0
  0
VERTEX
  5
827F
  8
1
 10
3579.1876193816411
 20
2485.2324274943521
 30
0.0
 42
0.4142135623730951
  0
VERTEX
  5
8280
  8
1
 10
3577.1876193816411
 20
2487.2324274943521
 30
0.0
  0
VERTEX
  5
8281
  8
1
 10
3576.1876193816411
 20
2487.2324274943521
 30
0.0
  0
SEQEND
  5
8282
  8
1
  0
INSERT
  5
7C31
  8
0
  2
YA_N
 10
120.0
 20
100.0
 30
0.0
 41
20.0
 42
20.0
 43
20.0
  0
LINE
  5
7C34
  8
1
 10
3576.1876193816411
 20
1962.2324274943519
 30
0.0
 11
3601.1876193816411
 21
1962.2324274943519
 31
0.0
  0
LINE
  5
7C35
  8
1
 10
3601.1876193816411
 20
1962.2324274943519
 30
0.0
 11
3601.1876193816411
 21
1961.2324274943519
 31
0.0
  0
ARC
  5
7C36
  8
1
 10
3599.1876193816411
 20
1961.2324274943519
 30
0.0
 40
2.0
 50
270.0
 51
0.0
  0
LINE
  5
7C37
  8
1
 10
3599.1876193816411
 20
1959.2324274943519
 30
0.0
 11
3583.1876193816411
 21
1959.2324274943519
 31
0.0
  0
ARC
  5
7C38
  8
1
 10
3583.1876193816411
 20
1955.2324274943519
 30
0.0
 40
4.0
 50
90.0
 51
180.0
  0
LINE
  5
7C39
  8
1
 10
3579.1876193816411
 20
1955.2324274943519
 30
0.0
 11
3579.1876193816411
 21
1939.2324274943519
 31
0.0
  0
ARC
  5
7C3A
  8
1
 10
3577.1876193816411
 20
1939.2324274943519
 30
0.0
 40
2.0
 50
270.0
 51
0.0
  0
LINE
  5
7C3B
  8
1
 10
3577.1876193816411
 20
1937.2324274943519
 30
0.0
 11
3576.1876193816411
 21
1937.2324274943519
 31
0.0
  0
LINE
  5
7C3C
  8
1
 10
3576.1876193816411
 20
1937.2324274943519
 30
0.0
 11
3576.1876193816411
 21
1962.2324274943519
 31
0.0
  0
LINE
  5
7C3D
  8
1
 10
3579.1876193816411
 20
2469.2323884644902
 30
0.0
 11
3579.1876193816411
 21
2206.6324274943531
 31
0.0
  0
INSERT
  5
7C3E
  8
0
  2
YA_N
 10
120.0
 20
100.0
 30
0.0
 41
20.0
 42
20.0
 43
20.0
  0
INSERT
  5
7C41
  8
0
  2
YA_N
 10
120.0
 20
100.0
 30
0.0
 41
20.0
 42
20.0
 43
20.0
  0
INSERT
  5
7C42
  8
0
  2
YA_N
 10
120.0
 20
100.0
 30
0.0
 41
20.0
 42
20.0
 43
20.0
  0
INSERT
  5
7C43
  8
0
  2
YA_N
 10
120.0
 20
100.0
 30
0.0
 41
20.0
 42
20.0
 43
20.0
  0
LINE
  5
7C46
  8
1
 10
1111.0359178800441
 20
2149.0324274943519
 30
0.0
 11
1111.0359178800441
 21
2152.2324274943521
 31
0.0
  0
LINE
  5
7C47
  8
1
 10
1575.0359178800441
 20
2149.0324274943519
 30
0.0
 11
1575.0359178800441
 21
2152.2324274943521
 31
0.0
  0
LINE
  5
7C48
  8
1
 10
2644.3876193816409
 20
2149.0324274943519
 30
0.0
 11
3129.3876193816418
 21
2149.0324274943532
 31
0.0
  0
LINE
  5
7C49
  8
1
 10
3129.3876193816418
 20
2152.232427494353
 30
0.0
 11
3129.3876193816418
 21
2149.0324274943532
 31
0.0
  0
LINE
  5
7C4A
  8
1
 10
2644.3876193816409
 20
2152.2324274943521
 30
0.0
 11
2644.3876193816409
 21
2149.0324274943519
 31
0.0
  0
LINE
  5
7C4B
  8
1
 10
3119.3876193816409
 20
2149.0324274943532
 30
0.0
 11
3119.3876193816409
 21
2109.0324274943532
 31
0.0
  0
LINE
  5
7C4C
  8
2
 10
1343.0359178800441
 20
1582.2324274943519
 30
0.0
 11
1343.0359178800441
 21
2633.4695051072372
 31
0.0
  0
LINE
  5
7C4D
  8
1
 10
3196.8876193816409
 20
2212.2324274943521
 30
0.0
 11
3196.88761938164
 21
1674.232427494353
 31
0.0
  0
LINE
  5
7C4E
  8
1
 10
3571.8876193816409
 20
2212.2324274943521
 30
0.0
 11
3571.88761938164
 21
1674.232427494353
 31
0.0
  0
LINE
  5
7C4F
  8
1
 10
3196.88761938164
 20
2573.232427494353
 30
0.0
 11
3196.8876193816409
 21
2212.2324274943521
 31
0.0
  0
LINE
  5
7C50
  8
1
 10
3571.88761938164
 20
2573.232427494353
 30
0.0
 11
3571.8876193816409
 21
2212.2324274943521
 31
0.0
  0
LINE
  5
7C51
  8
1
 10
986.0359178800436
 20
1642.6272445310501
 30
0.0
 11
986.0359178800436
 21
2217.8324274943511
 31
0.0
  0
LINE
  5
7C52
  8
1
 10
983.03591788004348
 20
1674.2324274943519
 30
0.0
 11
983.03591788004348
 21
2186.2324274943512
 31
0.0
  0
LINE
  5
7C53
  8
1
 10
1048.956239486934
 20
2186.2324274943521
 30
0.0
 11
983.03591788004348
 21
2186.2324274943521
 31
0.0
  0
LINE
  5
7C54
  8
1
 10
983.03591788004348
 20
2196.2324274943521
 30
0.0
 11
983.03591788004348
 21
1664.2000339737069
 31
0.0
  0
LINE
  5
7C55
  8
1
 10
3576.1876193816411
 20
1962.2324274943519
 30
0.0
 11
3576.1876193816411
 21
2206.2324274943521
 31
0.0
  0
LINE
  5
7C56
  8
1
 10
3579.1876193816411
 20
2206.2324274943521
 30
0.0
 11
3579.1876193816411
 21
1955.2324274943519
 31
0.0
  0
LINE
  5
7C57
  8
1
 10
3576.1876193816411
 20
2206.2324274943521
 30
0.0
 11
3576.1876193816411
 21
2206.6324274943531
 31
0.0
  0
LINE
  5
7C58
  8
1
 10
983.03591788004348
 20
1674.2324274943519
 30
0.0
 11
1343.0359178800429
 21
1703.2324274943519
 31
0.0
  0
ARC
  5
7C59
  8
1
 10
1305.8431243444661
 20
2173.9598961129459
 30
0.0
 40
472.19450823050579
 50
274.51762927985902
 51
0.1544083305419665
  0
ARC
  5
7C5A
  8
1
 10
1380.9085769502431
 20
2176.1914162102662
 30
0.0
 40
397.12849881786531
 50
359.86164161074498
 51
95.198389681084208
  0
ARC
  5
7C5B
  8
1
 10
1372.6650319033811
 20
2243.0420303276801
 30
0.0
 40
329.81296712472692
 50
94.824421443223756
 51
179.9669238150864
  0
ARC
  5
7C5C
  8
1
 10
1312.0359178800441
 20
2243.2324274943512
 30
0.0
 40
269.18379814435679
 50
179.9999999999996
 51
212.98669047482039
  0
LINE
  5
7C5D
  8
2
 10
3384.3876193816409
 20
2679.3580345317459
 30
0.0
 11
3384.38761938164
 21
1582.2324274943519
 31
0.0
  0
LINE
  5
7C5E
  8
2
 10
2489.4947175617608
 20
2212.2324274943521
 30
0.0
 11
3628.2638792217572
 21
2212.232427494353
 31
0.0
1001
ACAD
1000
ASC_BOUNDS
1002
{
1070
    19
1002
}
  0
LINE
  5
7C5F
  8
1
 10
1013.035917880043
 20
1642.627244531049
 30
0.0
 11
1013.035917880043
 21
2217.8324274943511
 31
0.0
  0
LINE
  5
7C60
  8
1
 10
1013.035917880043
 20
2217.8324274943511
 30
0.0
 11
983.03591788004348
 21
2217.8324274943511
 31
0.0
  0
LINE
  5
7C61
  8
1
 10
983.03591788004348
 20
2217.8324274943511
 30
0.0
 11
983.03591788004348
 21
1642.627244531049
 31
0.0
  0
LINE
  5
7C62
  8
1
 10
983.03591788004348
 20
1642.627244531049
 30
0.0
 11
1013.035917880043
 21
1642.627244531049
 31
0.0
  0
ARC
  5
7C63
  8
1
 10
1050.0359178800429
 20
2064.2324274943521
 30
0.0
 40
49.0
 50
249.2350507232635
 51
44.317508062424452
  0
LINE
  5
7C64
  8
1
 10
983.03591788004348
 20
2037.2324274943519
 30
0.0
 11
1032.6637021010879
 21
2018.415333316203
 31
0.0
  0
LINE
  5
7C65
  8
1
 10
1093.0359178800441
 20
1582.2324274943519
 30
0.0
 11
2173.0359178800441
 21
1582.2324274943519
 31
0.0
  0
LINE
  5
7C66
  8
1
 10
3576.1876193816411
 20
2487.2324274943521
 30
0.0
 11
3571.88761938164
 21
2487.2324274943521
 31
0.0
  0
LINE
  5
7C67
  8
1
 10
3576.1876193816411
 20
1937.2324274943519
 30
0.0
 11
3571.8876193816409
 21
1937.2324274943519
 31
0.0
  0
LINE
  5
7C68
  8
1
 10
1575.0359178800441
 20
2149.0324274943519
 30
0.0
 11
1111.0359178800441
 21
2149.0324274943519
 31
0.0
  0
POINT
  5
7C69
  8
1
 10
983.03591788004348
 20
1672.627244531049
 30
0.0
  0
POINT
  5
7C6A
  8
1
 10
983.03591788004348
 20
1674.2324274943519
 30
0.0
  0
POINT
  5
7C6B
  8
1
 10
3576.1876193816411
 20
2487.2324274943521
 30
0.0
  0
LINE
  5
7C6C
  8
1
 10
3119.3876193816409
 20
2149.0324274943532
 30
0.0
 11
3119.3876193816432
 21
1657.2324274943519
 31
0.0
  0
LINE
  5
7C6D
  8
1
 10
3601.1876193816411
 20
1962.2324274943519
 30
0.0
 11
3601.1876193816411
 21
1961.2324274943519
 31
0.0
  0
INSERT
  5
7C6E
  8
0
  2
YA_N
 10
578.29819496493474
 20
667.15974685678236
 30
0.0
  0
INSERT
  5
7C6F
  8
0
  2
YA_N
 10
578.29819496493474
 20
667.15974685678236
 30
0.0
  0
INSERT
  5
7C70
  8
0
  2
YA_N
 10
578.29819496493474
 20
667.15974685678236
 30
0.0
  0
INSERT
  5
7C71
  8
0
  2
YA_N
 10
578.29819496493474
 20
667.15974685678236
 30
0.0
  0
INSERT
  5
7C72
  8
0
  2
YA_N
 10
2798.551811518767
 20
1662.02584223804
 30
0.0
  0
INSERT
  5
7C74
  8
0
  2
YA_N
 10
3145.897131625954
 20
1825.850693409124
 30
0.0
 41
3.191404879447199
 42
3.191404879447199
 43
3.191404879447199
  0
LINE
  5
7C75
  8
1
 10
3601.1876193816411
 20
1962.2324274943519
 30
0.0
 11
3601.1876193816411
 21
2462.232427494353
 31
0.0
  0
INSERT
  5
7C76
  8
0
  2
YA_N
 10
18.0
 20
4050.5577889263582
 30
0.0
  0
INSERT
  5
7C77
  8
0
  2
YA_N
 10
18.0
 20
4050.5577889263582
 30
0.0
  0
INSERT
  5
7C78
  8
0
  2
YA_N
 10
18.0
 20
4050.5577889263582
 30
0.0
  0
INSERT
  5
7C79
  8
0
  2
YA_N
 10
10018.0
 20
14050.55778892635
 30
0.0
  0
INSERT
  5
7C7A
  8
0
  2
YA_N
 10
10018.0
 20
14050.55778892635
 30
0.0
  0
INSERT
  5
7C7B
  8
0
  2
YA_N
 10
10018.0
 20
14050.55778892635
 30
0.0
  0
INSERT
  5
7C7C
  8
0
  2
YA_N
 10
10018.0
 20
14050.55778892635
 30
0.0
  0
INSERT
  5
7C7D
  8
0
  6
BYBLOCK
 62
     2
  2
YA_N
 10
3183.088503818366
 20
1711.274344822353
 30
0.0
 41
24.0
 42
24.0
 43
24.0
 50
270.0
  0
INSERT
  5
7C7E
  8
0
  6
BYBLOCK
 62
     2
  2
YA_N
 10
3290.1059722385171
 20
1726.595643880431
 30
0.0
 41
24.0
 42
24.0
 43
24.0
 50
270.0
  0
LINE
  5
7C7F
  8
1
 10
2559.38761938164
 20
2351.9324274943519
 30
0.0
 11
2559.3876193816432
 21
2072.5324274943519
 31
0.0
  0
LINE
  5
7C80
  8
1
 10
2599.3876193816409
 20
2231.2324274943521
 30
0.0
 11
2629.3876193816409
 21
2231.2324274943521
 31
0.0
1001
ACAD
1000
ASC_BOUNDS
1002
{
1070
    19
1002
}
  0
LINE
  5
7C81
  8
1
 10
2599.3876193816409
 20
2193.2324274943521
 30
0.0
 11
2629.3876193816409
 21
2193.2324274943521
 31
0.0
1001
ACAD
1000
ASC_BOUNDS
1002
{
1070
    19
1002
}
  0
LINE
  5
7C82
  8
1
 10
2629.3876193816409
 20
2234.7324274943521
 30
0.0
 11
2629.3876193816409
 21
2189.7324274943521
 31
0.0
  0
LINE
  5
7C83
  8
1
 10
2629.3876193816409
 20
2234.7324274943521
 30
0.0
 11
3196.8876193816409
 21
2234.7324274943521
 31
0.0
1001
ACAD
1000
ASC_BOUNDS
1002
{
1070
    19
1002
}
  0
LINE
  5
7C84
  8
1
 10
2629.3876193816409
 20
2189.7324274943521
 30
0.0
 11
3196.8876193816409
 21
2189.7324274943521
 31
0.0
1001
ACAD
1000
ASC_BOUNDS
1002
{
1070
    19
1002
}
  0
LINE
  5
7C85
  8
1
 10
2599.38761938164
 20
2351.9324274943519
 30
0.0
 11
2599.3876193816418
 21
2072.5324274943519
 31
0.0
  0
LINE
  5
7C86
  8
1
 10
2559.3876193816391
 20
2351.9324274943519
 30
0.0
 11
2599.38761938164
 21
2351.9324274943519
 31
0.0
1001
ACAD
1000
ASC_BOUNDS
1002
{
1070
    19
1002
}
  0
LINE
  5
7C87
  8
1
 10
2651.187619381642
 20
1903.2324274943519
 30
0.0
 11
2651.187619381642
 21
1853.2324274943519
 31
0.0
  0
LINE
  5
7C88
  8
1
 10
2559.3876193816432
 20
2072.5324274943519
 30
0.0
 11
2559.3876193816432
 21
1764.2324274943519
 31
0.0
  0
LINE
  5
7C89
  8
1
 10
2599.3876193816418
 20
2072.5324274943519
 30
0.0
 11
2599.3876193816418
 21
1764.2324274943519
 31
0.0
  0
LINE
  5
7C8A
  8
1
 10
2634.4473810321301
 20
2319.7728812645828
 30
0.0
 11
2634.4473810321301
 21
2401.9324274943529
 31
0.0
  0
LINE
  5
7C8B
  8
1
 10
2634.4473810321301
 20
2401.9324274943529
 30
0.0
 11
2512.4473810321301
 21
2401.9324274943529
 31
0.0
  0
LINE
  5
7C8C
  8
1
 10
2512.4473810321301
 20
2401.9324274943529
 30
0.0
 11
2512.4473810321301
 21
1711.7324274943519
 31
0.0
  0
CIRCLE
  5
7C8D
  8
1
 10
1343.0359178800441
 20
2212.2324274943521
 30
0.0
 40
139.69999999999999
  0
LINE
  5
7C8E
  8
1
 10
2512.4473810321301
 20
1711.7324274943519
 30
0.0
 11
2634.4473810321301
 21
1711.7324274943519
 31
0.0
  0
LINE
  5
7C8F
  8
1
 10
2634.4473810321301
 20
1767.2525481248699
 30
0.0
 11
2634.4473810321301
 21
1711.7324274943519
 31
0.0
  0
LINE
  5
7C90
  8
1
 10
2512.4473810321301
 20
2401.9324274943519
 30
0.0
 11
2634.4473810321301
 21
2401.9324274943519
 31
0.0
  0
INSERT
  5
7C91
  8
0
  6
BYBLOCK
 62
     2
  2
YA_N
 10
3220.312248982013
 20
845.60638416362042
 30
0.0
 41
24.0
 42
24.0
 43
24.0
 50
209.02222522655319
  0
LINE
  5
7C92
  8
1
 10
1121.035917880047
 20
2109.0324274943519
 30
0.0
 11
1013.035917880043
 21
2109.0324274943519
 31
0.0
  0
LINE
  5
7C93
  8
1
 10
1565.0359178800441
 20
2109.0324274943519
 30
0.0
 11
1774.832846197625
 21
2109.0324274943519
 31
0.0
  0
LINE
  5
7C94
  8
1
 10
1565.0359178800441
 20
2103.0324274943519
 30
0.0
 11
1773.946336656971
 21
2103.0324274943519
 31
0.0
  0
LINE
  5
7C95
  8
1
 10
1121.0359178800461
 20
2103.0324274943519
 30
0.0
 11
1013.035917880043
 21
2103.0324274943519
 31
0.0
  0
LINE
  5
7C96
  8
1
 10
3119.3876193816409
 20
2109.0324274943532
 30
0.0
 11
3196.8876193816409
 21
2109.0324274943532
 31
0.0
  0
LINE
  5
7C97
  8
1
 10
3119.3876193816409
 20
2109.0324274943532
 30
0.0
 11
3119.3876193816409
 21
2149.0324274943532
 31
0.0
  0
LINE
  5
7C98
  8
1
 10
3119.3876193816409
 20
2149.0324274943532
 30
0.0
 11
3121.3876193816409
 21
2149.0324274943532
 31
0.0
  0
LINE
  5
7C99
  8
1
 10
3119.3876193816409
 20
2103.0324274943519
 30
0.0
 11
3196.8876193816409
 21
2103.0324274943532
 31
0.0
  0
INSERT
  5
7C9A
  8
0
  2
YA_N
 10
1713.0203073866769
 20
330.47048422179881
 30
0.0
  0
INSERT
  5
7C9E
  8
0
  6
BYBLOCK
 62
     2
  2
YA_N
 10
362.7872676876068
 20
442.62049533921049
 30
0.0
 41
24.0
 42
24.0
 43
24.0
 50
270.0
  0
POINT
  5
7C9F
  8
1
 10
983.03591788004348
 20
1674.2324274943519
 30
0.0
  0
POINT
  5
7CA0
  8
1
 10
983.03591788004348
 20
2186.2324274943521
 30
0.0
  0
POINT
  5
7CA1
  8
1
 10
983.03591788004348
 20
1674.2324274943519
 30
0.0
  0
LINE
  5
7CA2
  8
1
 10
3576.1876193816411
 20
2206.6324274943531
 30
0.0
 11
3576.1876193816411
 21
2462.232427494353
 31
0.0
  0
LINE
  5
7CA3
  8
1
 10
3579.1876193816411
 20
2206.6324274943531
 30
0.0
 11
3579.1876193816411
 21
2206.2324274943521
 31
0.0
  0
LINE
  5
7CA4
  8
1
 10
2188.0359178800441
 20
1657.2324274943519
 30
0.0
 11
1838.0359178800429
 21
1657.2324274943519
 31
0.0
  0
LINE
  5
7CA6
  8
1
 10
2188.0359178800441
 20
1657.2324274943519
 30
0.0
 11
2188.0359178800441
 21
1702.2324274943519
 31
0.0
  0
LINE
  5
7CA7
  8
1
 10
1838.0359178800429
 20
1657.2324274943519
 30
0.0
 11
1838.0359178800429
 21
1702.2324274943519
 31
0.0
  0
LINE
  5
7CA8
  8
1
 10
2559.3876193816418
 20
1904.2324274943519
 30
0.0
 11
2599.3876193816409
 21
1904.2324274943519
 31
0.0
  0
LINE
  5
7CA9
  8
1
 10
2559.3876193816432
 20
1764.2324274943519
 30
0.0
 11
2599.3876193816418
 21
1764.2324274943519
 31
0.0
  0
LINE
  5
7CAA
  8
1
 10
1443.0359178800441
 20
2152.2324274943521
 30
0.0
 11
1243.0359178800441
 21
2152.2324274943521
 31
0.0
  0
LINE
  5
7CAB
  8
1
 10
2731.8876193816409
 20
2152.2324274943521
 30
0.0
 11
2666.8876193816409
 21
2152.2324274943521
 31
0.0
  0
LINE
  5
7CAC
  8
2
 10
2153.3054401367272
 20
1834.2324274943519
 30
0.0
 11
1892.0139786331699
 21
1834.2324274943519
 31
0.0
  0
CIRCLE
  5
7CAD
  8
1
 10
2013.0359178800429
 20
1834.2324274943519
 30
0.0
 40
72.5
  0
LINE
  5
7CAE
  8
1
 10
1391.8249600801171
 20
2343.1359009440639
 30
0.0
 11
2038.3559290432879
 21
1902.1673009739809
 31
0.0
  0
LINE
  5
7CAF
  8
1
 10
1320.4227483682
 20
2074.3747669722452
 30
0.0
 11
2001.300378942258
 21
1762.688544975721
 31
0.0
  0
ARC
  5
7CB0
  8
1
 10
1343.0359178800441
 20
2212.2324274943521
 30
0.0
 40
189.69999999999999
 50
69.559069074140154
 51
260.68457447893849
  0
LINE
  5
7CB1
  8
1
 10
1312.3292732386919
 20
2025.034158338706
 30
0.0
 11
1993.2069038127511
 21
1713.347936342182
 31
0.0
  0
ARC
  5
7CB2
  8
1
 10
2013.0359178800429
 20
1834.2324274943519
 30
0.0
 40
122.5
 50
260.68457447893849
 51
69.559069074140112
  0
DIMENSION
  5
7CB3
  8
3
  2
*D2
 10
887.21202130697293
 20
2186.2324274943521
 30
0.0
 11
847.21202130697247
 21
1930.2324274943519
 31
0.0
 70
     0
 13
983.03591788004348
 23
1674.2324274943519
 33
0.0
 14
983.03591788004348
 24
2186.2324274943521
 34
0.0
 50
270.0
1001
ACAD
1000
DSTYLE
1002
{
1070
   287
1070
     3
1070
    40
1040
20.0
1070
   140
1040
3.0
1070
   147
1040
0.5
1070
   173
1070
     1
1070
   272
1070
     4
1070
   279
1070
     0
1070
   284
1070
     0
1070
   285
1070
     0
1070
   286
1070
     0
1070
     6
1000
OPEN
1070
     7
1000
OPEN
1002
}
  0
LINE
  5
7CB4
  8
2
 10
1343.0359178800441
 20
3216.9452839248802
 30
0.0
 11
1343.0359178800441
 21
4412.7512963078971
 31
0.0
  0
LINE
  5
7CB5
  8
2
 10
2013.0359178800441
 20
3220.779237752573
 30
0.0
 11
2013.0359178800441
 21
3838.1126082497158
 31
0.0
  0
LINE
  5
7CB6
  8
2
 10
913.20217251124177
 20
4110.6535024364857
 30
0.0
 11
1846.0006839380801
 21
4110.6535024364857
 31
0.0
  0
LINE
  5
7CB7
  8
1
 10
2188.0359178800441
 20
1657.2324274943519
 30
0.0
 11
1093.0359178800441
 21
1657.2324274943519
 31
0.0
  0
DIMENSION
  5
7CD2
  8
3
  2
*D3
 10
3196.8876193816409
 20
2675.470447740594
 30
0.0
 11
3384.3876193816409
 21
2715.470447740594
 31
0.0
 12
-2493.6796703867908
 22
1201.0054217042391
 32
0.0
 70
     0
 13
3571.88761938164
 23
2573.232427494353
 33
0.0
 14
3196.8876193816409
 24
2573.2324274943521
 34
0.0
1001
ACAD
1000
DSTYLE
1002
{
1070
   284
1070
     0
1070
   140
1040
3.0
1070
   272
1070
     4
1070
    40
1040
20.0
1070
   173
1070
     1
1070
   147
1040
0.5
1070
     7
1000
_OPEN
1070
     6
1000
_OPEN
1070
   285
1070
     0
1070
   286
1070
     0
1002
}
  0
DIMENSION
  5
7CD3
  8
3
  2
*D4
 10
3384.3876193816409
 20
2828.9178746656912
 30
0.0
 11
3480.287619381641
 21
2893.9178746656912
 31
0.0
 12
-2493.6796703867908
 22
1201.0054217042391
 32
0.0
 70
     0
  1
192
 13
3576.1876193816411
 23
2487.2324274943521
 33
0.0
 14
3384.3876193816409
 24
2757.1457406639579
 34
0.0
1001
ACAD
1000
DSTYLE
1002
{
1070
   284
1070
     0
1070
   140
1040
3.0
1070
   272
1070
     4
1070
    40
1040
20.0
1070
   173
1070
     1
1070
   147
1040
0.5
1070
     7
1000
_OPEN
1070
     6
1000
_OPEN
1070
   285
1070
     0
1070
   286
1070
     0
1002
}
  0
DIMENSION
  5
7CD4
  8
3
  2
*D5
 10
2512.4473810321301
 20
2828.9178746656912
 30
0.0
 11
2948.417500206886
 21
2918.9178746656912
 31
0.0
 70
     0
  1
MAX\P930
 13
3384.3876193816409
 23
2757.1457406639579
 33
0.0
 14
2512.4473810321301
 24
2401.9324274943519
 34
0.0
1001
ACAD
1000
DSTYLE
1002
{
1070
   284
1070
     0
1070
   140
1040
3.0
1070
   272
1070
     4
1070
    75
1070
     1
1070
    40
1040
20.0
1070
   173
1070
     1
1070
   147
1040
0.5
1070
     7
1000
_OPEN
1070
     6
1000
_OPEN
1070
   285
1070
     0
1070
   286
1070
     0
1002
}
  0
DIMENSION
  5
7CD5
  8
3
  2
*D6
 10
3791.2608258534092
 20
1962.2324274943519
 30
0.0
 11
3741.2608258534078
 21
2212.232427494353
 31
0.0
 70
     0
 13
3601.1876193816411
 23
2462.232427494353
 33
0.0
 14
3601.1876193816411
 24
1962.2324274943519
 34
0.0
 50
90.0
1001
ACAD
1000
DSTYLE
1002
{
1070
   287
1070
     3
1070
     3
1000
φ<>
1070
    40
1040
20.0
1070
   143
1040
0.039
1070
   172
1070
     1
1070
   271
1070
     0
1070
   279
1070
     0
1070
   288
1070
     1
1002
}
  0
LINE
  5
7CD6
  8
1
 10
1409.2870367444229
 20
2389.9875378265669
 30
0.0
 11
2055.8180057075951
 21
1949.018937856483
 31
0.0
  0
LINE
  5
7CD7
  8
1
 10
2188.0359178800441
 20
1702.2324274943519
 30
0.0
 11
1838.0359178800429
 21
1702.2324274943519
 31
0.0
  0
ARC
  5
7CD8
  8
1
 10
2013.0359178800429
 20
1834.2324274943519
 30
0.0
 40
142.5
 50
180.0
 51
244.72540000000001
  0
ARC
  5
7CD9
  8
1
 10
2013.0359178800429
 20
1834.2324274943519
 30
0.0
 40
142.5
 50
295.00119999999998
 51
180.0
  0
LINE
  5
7CDA
  8
2
 10
2013.0359178800429
 20
2027.630427494352
 30
0.0
 11
2013.0359178800429
 21
1644.895244977891
 31
0.0
  0
LINE
  5
7CDB
  8
1
 10
1952.494517880044
 20
1705.2324274943519
 30
0.0
 11
2073.5772178800439
 21
1705.2324274943519
 31
0.0
  0
LINE
  5
7CDC
  8
1
 10
2143.0359178800441
 20
1702.2324274943519
 30
0.0
 11
2093.0359178800431
 21
1702.2324274943519
 31
0.0
  0
LINE
  5
7CDD
  8
1
 10
2132.5187178800429
 20
1756.483027494352
 30
0.0
 11
2143.0359178800441
 21
1717.2324274943519
 31
0.0
  0
LINE
  5
7CDE
  8
1
 10
2143.0359178800441
 20
1717.0350274943521
 30
0.0
 11
2143.0359178800441
 21
1702.2324274943519
 31
0.0
  0
ARC
  5
7CDF
  8
1
 10
2088.0359178800441
 20
1710.161427494352
 30
0.0
 40
4.9999000000000002
 50
0.0
 51
45.000500000000002
  0
LINE
  5
7CE0
  8
1
 10
2091.9157178800442
 20
1713.3526274943531
 30
0.0
 11
2090.544817880043
 21
1714.723527494353
 31
0.0
  0
LINE
  5
7CE1
  8
1
 10
2093.0359178800431
 20
1702.2324274943519
 30
0.0
 11
2093.0359178800431
 21
1710.161427494352
 31
0.0
  0
LINE
  5
7CE2
  8
1
 10
1893.5103178800441
 20
1756.3237274943519
 30
0.0
 11
1883.0359178800441
 21
1717.2324274943519
 31
0.0
  0
LINE
  5
7CE3
  8
1
 10
1883.0359178800441
 20
1702.2324274943519
 30
0.0
 11
1933.0359178800441
 21
1702.2324274943519
 31
0.0
  0
ARC
  5
7CE4
  8
1
 10
1938.0358178800429
 20
1710.161427494352
 30
0.0
 40
4.9999000000000002
 50
134.99950000000001
 51
180.0
  0
LINE
  5
7CE5
  8
1
 10
1934.660717880043
 20
1713.8574274943519
 30
0.0
 11
1935.462717880044
 21
1714.659427494352
 31
0.0
  0
LINE
  5
7CE6
  8
1
 10
1933.0359178800441
 20
1702.2324274943519
 30
0.0
 11
1933.0359178800441
 21
1710.161427494352
 31
0.0
  0
LINE
  5
7CE7
  8
1
 10
1883.0359178800441
 20
1717.0350274943521
 30
0.0
 11
1883.0359178800441
 21
1702.2324274943519
 31
0.0
  0
LINE
  5
7CEA
  8
1
 10
1324.0359178800441
 20
3325.6535024364862
 30
0.0
 11
1324.0359178800441
 21
3355.6535024364848
 31
0.0
1001
ACAD
1000
ASC_BOUNDS
1002
{
1070
    19
1002
}
  0
LINE
  5
7CEB
  8
1
 10
1362.0359178800441
 20
3325.6535024364862
 30
0.0
 11
1362.0359178800441
 21
3355.6535024364848
 31
0.0
1001
ACAD
1000
ASC_BOUNDS
1002
{
1070
    19
1002
}
  0
LINE
  5
7CEC
  8
1
 10
1123.0359178800441
 20
3360.713264086975
 30
0.0
 11
1123.0359178800441
 21
3238.713264086975
 31
0.0
  0
LINE
  5
7CED
  8
1
 10
1123.0359178800441
 20
3238.713264086975
 30
0.0
 11
1123.0359178800441
 21
3360.713264086975
 31
0.0
  0
LINE
  5
7CEF
  8
1
 10
2163.0359178800441
 20
3238.713264086975
 30
0.0
 11
2163.0359178800441
 21
3360.713264086975
 31
0.0
  0
LINE
  5
7CF0
  8
1
 10
1203.335917880044
 20
3325.6535024364848
 30
0.0
 11
1482.735917880045
 21
3325.6535024364862
 31
0.0
  0
LINE
  5
7CF1
  8
1
 10
1203.335917880044
 20
3285.6535024364839
 30
0.0
 11
1482.735917880045
 21
3285.6535024364871
 31
0.0
  0
LINE
  5
7CF2
  8
1
 10
1123.0359178800441
 20
3238.713264086975
 30
0.0
 11
2163.0359178800441
 21
3238.713264086975
 31
0.0
  0
LINE
  5
7CF3
  8
1
 10
1482.735917880045
 20
3325.6535024364862
 30
0.0
 11
2083.0359178800431
 21
3325.6535024364862
 31
0.0
  0
LINE
  5
7CF4
  8
1
 10
1482.735917880045
 20
3285.6535024364871
 30
0.0
 11
2083.0359178800431
 21
3285.6535024364871
 31
0.0
  0
LINE
  5
7CF5
  8
1
 10
2083.0359178800441
 20
3285.6535024364871
 30
0.0
 11
2083.0359178800441
 21
3325.6535024364862
 31
0.0
  0
LINE
  5
7CF6
  8
1
 10
1943.0359178800441
 20
3285.6535024364871
 30
0.0
 11
1943.0359178800441
 21
3325.6535024364862
 31
0.0
  0
LINE
  5
7CF7
  8
1
 10
1203.335917880044
 20
3285.653502436483
 30
0.0
 11
1203.335917880044
 21
3325.6535024364848
 31
0.0
1001
ACAD
1000
ASC_BOUNDS
1002
{
1070
    19
1002
}
  0
LINE
  5
7CF8
  8
1
 10
1365.5359178800441
 20
3377.453502436485
 30
0.0
 11
1562.7016867198879
 21
3377.4535024364859
 31
0.0
  0
LINE
  5
7CF9
  8
1
 10
1365.5359178800441
 20
3845.6535024364862
 30
0.0
 11
1562.7016867198879
 21
3845.6535024364871
 31
0.0
  0
LINE
  5
7CFA
  8
1
 10
1320.5359178800441
 20
3355.6535024364848
 30
0.0
 11
1320.5359178800441
 21
3923.1535024364862
 31
0.0
1001
ACAD
1000
ASC_BOUNDS
1002
{
1070
    19
1002
}
  0
LINE
  5
7CFB
  8
1
 10
1365.5359178800441
 20
3355.6535024364848
 30
0.0
 11
1365.5359178800429
 21
3923.1535024364862
 31
0.0
1001
ACAD
1000
ASC_BOUNDS
1002
{
1070
    19
1002
}
  0
LINE
  5
7CFC
  8
1
 10
1320.5359178800441
 20
3355.6535024364848
 30
0.0
 11
1365.5359178800441
 21
3355.6535024364848
 31
0.0
  0
LINE
  5
7CFD
  8
1
 10
1365.5359178800441
 20
3360.713264086975
 30
0.0
 11
2163.0359178800441
 21
3360.713264086975
 31
0.0
  0
LINE
  5
7CFE
  8
1
 10
1320.5359178800441
 20
3360.713264086975
 30
0.0
 11
1123.0359178800441
 21
3360.713264086975
 31
0.0
  0
LINE
  5
7CFF
  8
1
 10
1406.235917880043
 20
3845.6535024364862
 30
0.0
 11
1446.235917880043
 21
3845.6535024364862
 31
0.0
  0
LINE
  5
7D00
  8
1
 10
1446.235917880043
 20
3845.6535024364862
 30
0.0
 11
1406.235917880043
 21
3845.6535024364862
 31
0.0
  0
LINE
  5
7D01
  8
1
 10
1482.735917880043
 20
3285.653502436483
 30
0.0
 11
1482.735917880043
 21
3325.6535024364848
 31
0.0
1001
ACAD
1000
ASC_BOUNDS
1002
{
1070
    19
1002
}
  0
LINE
  5
7D02
  8
2
 10
855.00172582708183
 20
2212.2324274943521
 30
0.0
 11
1794.9678196588341
 21
2212.2324274943521
 31
0.0
  0
DIMENSION
  5
7D03
  8
3
  2
*D7
 10
763.8191852445625
 20
1674.2324274943519
 30
0.0
 11
723.81918524456239
 21
1943.2324274943519
 31
0.0
 12
302.81399595390388
 22
0.0
 32
0.0
 70
     0
 13
941.68334141310254
 23
2212.2324274943521
 33
0.0
 14
983.03591788004348
 24
1674.2324274943519
 34
0.0
 50
270.0
1001
ACAD
1000
DSTYLE
1002
{
1070
   284
1070
     0
1070
   140
1040
3.0
1070
   272
1070
     4
1070
    40
1040
20.0
1070
   173
1070
     1
1070
   147
1040
0.5
1070
     7
1000
_OPEN
1070
     6
1000
_OPEN
1070
   285
1070
     0
1070
   286
1070
     0
1002
}
  0
LINE
  5
7D04
  8
1
 10
1013.0359178800441
 20
4298.1535024364866
 30
0.0
 11
1778.0359178800441
 21
4298.1535024364857
 31
0.0
  0
LINE
  5
7D05
  8
1
 10
1013.0359178800441
 20
3923.1535024364871
 30
0.0
 11
1778.0359178800441
 21
3923.1535024364862
 31
0.0
  0
LINE
  5
7D08
  8
1
 10
1562.7016867198879
 20
3377.4535024364859
 30
0.0
 11
1562.7016867198879
 21
3845.6535024364871
 31
0.0
  0
LINE
  5
7D09
  8
1
 10
1320.5359178800441
 20
3845.6535024364862
 30
0.0
 11
1123.3701490401991
 21
3845.6535024364871
 31
0.0
  0
LINE
  5
7D0A
  8
1
 10
1123.3701490401991
 20
3377.4535024364859
 30
0.0
 11
1123.3701490401991
 21
3845.6535024364871
 31
0.0
  0
LINE
  5
7D0B
  8
1
 10
1320.5359178800441
 20
3377.453502436485
 30
0.0
 11
1123.3701490401991
 21
3377.4535024364859
 31
0.0
  0
LINE
  5
7D0C
  8
1
 10
1881.0359178800441
 20
3792.6532024364842
 30
0.0
 11
1881.0359178800441
 21
3402.6535024364839
 31
0.0
  0
LINE
  5
7D0D
  8
1
 10
2155.0359178800441
 20
3402.6535024364839
 30
0.0
 11
2155.0359178800441
 21
3792.6532024364842
 31
0.0
  0
LINE
  5
7D0E
  8
1
 10
2155.0359178800441
 20
3402.6535024364839
 30
0.0
 11
1881.0359178800441
 21
3402.6535024364839
 31
0.0
  0
LINE
  5
7D0F
  8
1
 10
1955.0359178800441
 20
3392.6535024364839
 30
0.0
 11
2071.0359178800441
 21
3392.6535024364839
 31
0.0
  0
LINE
  5
7D10
  8
1
 10
1881.0359178800441
 20
3402.6535024364839
 30
0.0
 11
1881.0359178800441
 21
3563.653502436483
 31
0.0
  0
LINE
  5
7D11
  8
1
 10
1954.0359178800441
 20
3402.6535024364839
 30
0.0
 11
1954.0359178800441
 21
3393.6535024364839
 31
0.0
  0
ARC
  5
7D12
  8
1
 10
1955.0359178800441
 20
3393.6535024364839
 30
0.0
 40
0.9999
 50
179.99299999999999
 51
270.00349999999992
  0
LINE
  5
7D13
  8
1
 10
1994.0359178800441
 20
3385.653502436483
 30
0.0
 11
1994.0359178800441
 21
3305.6535024364839
 31
0.0
  0
LINE
  5
7D14
  8
1
 10
2032.0359178800441
 20
3385.653502436483
 30
0.0
 11
2032.0359178800441
 21
3305.6535024364839
 31
0.0
  0
LINE
  5
7D15
  8
1
 10
1994.0359178800441
 20
3305.6535024364839
 30
0.0
 11
2032.0359178800441
 21
3305.6535024364839
 31
0.0
  0
LINE
  5
7D16
  8
1
 10
1993.0359178800441
 20
3385.653502436483
 30
0.0
 11
2033.0359178800441
 21
3385.653502436483
 31
0.0
  0
LINE
  5
7D17
  8
1
 10
1993.0359178800441
 20
3392.6535024364839
 30
0.0
 11
1993.0359178800441
 21
3385.653502436483
 31
0.0
  0
LINE
  5
7D18
  8
1
 10
2033.0359178800441
 20
3392.6535024364839
 30
0.0
 11
2033.0359178800441
 21
3385.653502436483
 31
0.0
  0
LINE
  5
7D19
  8
1
 10
2072.0359178800441
 20
3402.6535024364839
 30
0.0
 11
2072.0359178800441
 21
3393.6535024364839
 31
0.0
  0
ARC
  5
7D1A
  8
1
 10
2130.0359178800441
 20
3404.6535024364839
 30
0.0
 40
2.0001000000000002
 50
270.0
 51
359.99650000000003
  0
ARC
  5
7D1B
  8
1
 10
2071.0359178800441
 20
3393.6525024364842
 30
0.0
 40
0.9998000000000001
 50
269.99299999999999
 51
0.013999999999989
  0
ARC
  5
7D1C
  8
1
 10
2153.5359178800441
 20
3725.653102436484
 30
0.0
 40
2.0001000000000002
 50
0.0034999999999972
 51
89.996499999999997
  0
LINE
  5
7D1D
  8
1
 10
2155.0359178800441
 20
3792.6532024364842
 30
0.0
 11
1881.0359178800441
 21
3792.6532024364842
 31
0.0
  0
ARC
  5
7D1E
  8
1
 10
1889.9753178800429
 20
3790.6532024364842
 30
0.0
 40
2.0
 50
90.0
 51
178.23719999999989
  0
DIMENSION
  5
7D23
  8
3
  2
*D8
 10
1343.0359178800441
 20
2719.779270086392
 30
0.0
 11
1163.0359178800441
 21
2759.779270086392
 31
0.0
 12
-1939.703691414881
 22
1201.0054217042391
 32
0.0
 70
     0
 13
983.03591788004348
 23
2217.8324274943511
 33
0.0
 14
1343.0359178800441
 24
2633.4695051072372
 34
0.0
1001
ACAD
1000
DSTYLE
1002
{
1070
   284
1070
     0
1070
   140
1040
3.0
1070
   272
1070
     4
1070
    40
1040
20.0
1070
   173
1070
     1
1070
   147
1040
0.5
1070
     7
1000
_OPEN
1070
     6
1000
_OPEN
1070
   285
1070
     0
1070
   286
1070
     0
1002
}
  0
DIMENSION
  5
7D24
  8
3
  2
*D9
 10
1778.0359178800441
 20
2719.779270086392
 30
0.0
 11
1560.5359178800441
 21
2759.779270086392
 31
0.0
 12
-1939.703691414881
 22
1201.0054217042391
 32
0.0
 70
     0
 13
1343.0359178800441
 23
2633.4695051072372
 33
0.0
 14
1778.0359178800441
 24
2175.232427494353
 34
0.0
1001
ACAD
1000
DSTYLE
1002
{
1070
   284
1070
     0
1070
   140
1040
3.0
1070
   272
1070
     4
1070
    75
1070
     1
1070
    40
1040
20.0
1070
   173
1070
     1
1070
   147
1040
0.5
1070
     7
1000
_OPEN
1070
     6
1000
_OPEN
1070
   285
1070
     0
1070
   286
1070
     0
1002
}
  0
LINE
  5
7D25
  8
1
 10
983.03591788004462
 20
3893.1535024364871
 30
0.0
 11
983.03591788004348
 21
4328.1535024364857
 31
0.0
  0
LINE
  5
7D26
  8
1
 10
1778.0359178800441
 20
3923.1535024364862
 30
0.0
 11
1778.0359178800441
 21
4298.1535024364848
 31
0.0
  0
LINE
  5
7D27
  8
1
 10
983.03591788004462
 20
4328.1535024364885
 30
0.0
 11
1013.0359178800441
 21
4328.1535024364857
 31
0.0
  0
LINE
  5
7D28
  8
1
 10
983.03591788004462
 20
3893.1535024364862
 30
0.0
 11
1013.0359178800441
 21
3893.1535024364871
 31
0.0
  0
LINE
  5
7D29
  8
1
 10
1013.0359178800441
 20
3893.1535024364871
 30
0.0
 11
1013.0359178800441
 21
4328.1535024364857
 31
0.0
  0
LINE
  5
7D2A
  8
1
 10
3196.8876193816391
 20
2573.2324274943521
 30
0.0
 11
3571.88761938164
 21
2573.232427494353
 31
0.0
1001
ACAD
1000
ASC_BOUNDS
1002
{
1070
    19
1002
}
  0
LINE
  5
7D2B
  8
1
 10
2676.3876193816432
 20
1692.2324274943519
 30
0.0
 11
3066.387319381643
 21
1692.2324274943519
 31
0.0
  0
LINE
  5
7D2C
  8
1
 10
3066.3873193816421
 20
1966.2324274943519
 30
0.0
 11
2676.3876193816432
 21
1966.2324274943519
 31
0.0
  0
LINE
  5
7D2D
  8
2
 10
2487.1200462282859
 20
1834.2324274943519
 30
0.0
 11
3111.846725194875
 21
1834.2324274943519
 31
0.0
  0
LINE
  5
7D2E
  8
1
 10
2676.3876193816432
 20
1692.2324274943519
 30
0.0
 11
2676.3876193816432
 21
1966.2324274943519
 31
0.0
  0
LINE
  5
7D2F
  8
1
 10
2659.3876193816432
 20
1815.2324274943519
 30
0.0
 11
2579.3876193816432
 21
1815.2324274943519
 31
0.0
  0
LINE
  5
7D30
  8
1
 10
2659.3876193816432
 20
1853.2324274943519
 30
0.0
 11
2579.3876193816432
 21
1853.2324274943519
 31
0.0
  0
LINE
  5
7D31
  8
1
 10
2659.3876193816432
 20
1854.2324274943519
 30
0.0
 11
2659.3876193816432
 21
1814.2324274943519
 31
0.0
  0
LINE
  5
7D32
  8
1
 10
2666.3876193816432
 20
1892.2324274943519
 30
0.0
 11
2666.3876193816432
 21
1776.2324274943519
 31
0.0
  0
LINE
  5
7D33
  8
1
 10
2666.3876193816432
 20
1854.2324274943519
 30
0.0
 11
2659.3876193816432
 21
1854.2324274943519
 31
0.0
  0
ARC
  5
7D34
  8
1
 10
2667.3876193816432
 20
1892.2324274943519
 30
0.0
 40
0.9999
 50
89.993000000000023
 51
180.00349999999989
  0
LINE
  5
7D35
  8
1
 10
2676.3876193816432
 20
1893.2324274943519
 30
0.0
 11
2667.3876193816432
 21
1893.2324274943519
 31
0.0
  0
ARC
  5
7D36
  8
1
 10
2667.386619381643
 20
1776.2324274943519
 30
0.0
 40
0.9998000000000001
 50
179.99299999999991
 51
270.01400000000001
  0
LINE
  5
7D37
  8
1
 10
2676.3876193816432
 20
1775.2324274943519
 30
0.0
 11
2667.3876193816432
 21
1775.2324274943519
 31
0.0
  0
LINE
  5
7D38
  8
1
 10
2666.3876193816432
 20
1814.2324274943519
 30
0.0
 11
2659.3876193816432
 21
1814.2324274943519
 31
0.0
  0
LINE
  5
7D39
  8
1
 10
3066.387319381643
 20
1692.2324274943519
 30
0.0
 11
3066.387319381643
 21
1966.2324274943519
 31
0.0
  0
ARC
  5
7D3A
  8
1
 10
3064.3873193816421
 20
1957.2930274943531
 30
0.0
 40
2.0
 50
0.0
 51
88.237199999999959
  0
LINE
  5
7D3B
  8
1
 10
2579.3876193816432
 20
1853.2324274943519
 30
0.0
 11
2579.3876193816432
 21
1815.232427494353
 31
0.0
  0
LINE
  5
7D3C
  8
1
 10
2651.187619381642
 20
1815.2324274943519
 30
0.0
 11
2651.187619381642
 21
1657.2324274943519
 31
0.0
  0
LINE
  5
7D3D
  8
1
 10
3026.3874693816429
 20
1692.2324274943519
 30
0.0
 11
3026.3874693816429
 21
1657.2324274943519
 31
0.0
  0
LINE
  5
7D3E
  8
1
 10
2716.3874693816429
 20
1692.2324274943519
 30
0.0
 11
2716.3874693816429
 21
1657.2324274943519
 31
0.0
  0
LINE
  5
7D3F
  8
1
 10
3196.88761938164
 20
1674.232427494353
 30
0.0
 11
3571.8876193816418
 21
1674.232427494353
 31
0.0
1001
ACAD
1000
ASC_BOUNDS
1002
{
1070
    19
1002
}
  0
LINE
  5
7D40
  8
1
 10
3166.8876193816409
 20
2189.7324274943521
 30
0.0
 11
3166.8876193816409
 21
2109.0324274943532
 31
0.0
  0
LINE
  5
7D41
  8
1
 10
3601.8876193816418
 20
2212.2324274943521
 30
0.0
 11
3601.8876193816418
 21
1657.2324274943519
 31
0.0
  0
LINE
  5
7D42
  8
1
 10
3166.8876193816409
 20
2103.0324274943532
 30
0.0
 11
3166.8876193816409
 21
1657.2324274943519
 31
0.0
  0
LINE
  5
7D43
  8
1
 10
3196.88761938164
 20
2186.232427494353
 30
0.0
 11
3571.8876193816418
 21
2186.232427494353
 31
0.0
1001
ACAD
1000
ASC_BOUNDS
1002
{
1070
    19
1002
}
  0
LINE
  5
7D44
  8
1
 10
3571.8876193816409
 20
2186.232427494353
 30
0.0
 11
3196.88761938164
 21
1674.232427494353
 31
0.0
  0
LINE
  5
7D45
  8
1
 10
3196.8876193816409
 20
2186.232427494353
 30
0.0
 11
3571.88761938164
 21
1674.232427494353
 31
0.0
  0
DIMENSION
  5
7EE5
  8
3
  2
*D10
 10
649.19652591686133
 20
2212.2324274943521
 30
0.0
 11
649.19652591686088
 21
2400.0360809621252
 31
0.0
 70
   128
 13
1380.9085769502431
 23
2573.3199150281312
 33
0.0
 14
921.68334141310231
 24
2212.2324274943521
 34
0.0
 50
90.0
1001
ACAD
1000
DSTYLE
1002
{
1070
   287
1070
     3
1070
    40
1040
20.0
1070
   143
1040
0.039
1070
   172
1070
     1
1070
   271
1070
     0
1070
   279
1070
     0
1070
   288
1070
     1
1002
}
  0
DIMENSION
  5
7EFC
  8
3
  2
*D11
 10
649.19652591686088
 20
1582.2324274943519
 30
0.0
 11
599.19652591686065
 21
1897.2324274943519
 31
0.0
 70
     0
 13
921.68334141310231
 23
2212.2324274943521
 33
0.0
 14
1093.0359178800441
 24
1582.2324274943519
 34
0.0
 50
90.0
1001
ACAD
1000
DSTYLE
1002
{
1070
   287
1070
     4
1070
    40
1040
20.0
1070
    75
1070
     1
1070
   143
1040
0.039
1070
   172
1070
     1
1070
   271
1070
     0
1070
   279
1070
     1
1070
   288
1070
     1
1002
}
  0
LINE
  5
7FE5
  8
4
 10
3700.0
 20
1000.0
 30
0.0
 11
3700.0
 21
600.0
 31
0.0
  0
LINE
  5
7FE6
  8
4
 10
2300.0
 20
1000.0
 30
0.0
 11
2300.0
 21
600.0
 31
0.0
  0
LINE
  5
7FE7
  8
4
 10
1300.0
 20
1000.0
 30
0.0
 11
1300.0
 21
600.0
 31
0.0
  0
LINE
  5
7FEA
  8
4
 10
1300.0
 20
600.0
 30
0.0
 11
3700.0
 21
600.0
 31
0.0
  0
LINE
  5
7FEB
  8
4
 10
1300.0
 20
800.0
 30
0.0
 11
3700.0
 21
800.0
 31
0.0
  0
TEXT
  5
7FEC
  8
4
 10
1377.0041616938031
 20
863.08605173322564
 30
0.0
 40
100.0
  1
機器名称
  0
TEXT
  5
7FED
  8
4
 10
1372.516212049595
 20
643.29031346402189
 30
0.0
 40
100.0
  1
機器型番
  0
TEXT
  5
7FEE
  8
4
 10
2355.3574909753288
 20
845.14353791513713
 30
0.0
 40
85.0
  1
ミツヤ多翼送風機
  0
TEXT
  5
7FEF
  8
4
 10
2373.3089911709608
 20
634.31916855988675
 30
0.0
 40
100.0
  1
MF#3-1
  0
TEXT
  5
7FF1
  8
4
 10
1507.3556010775719
 20
4766.8576826650306
 30
0.0
 40
107.9999999999999
  1
床置ベット
  0
TEXT
  5
7FF2
  8
4
 10
582.33518665889278
 20
5067.7619523985959
 30
0.0
 40
144.0
  1
遠心式片吸込片持多翼ファン
  0
LINE
  5
7FF3
  8
4
 10
500.0
 20
4938.8175085296089
 30
0.0
 11
3700.0
 21
4938.8175085296089
 31
0.0
  0
LINE
  5
7FF4
  8
4
 10
500.0
 20
5338.8175085296098
 30
0.0
 11
3700.0
 21
5338.8175085296098
 31
0.0
  0
LINE
  5
7FF5
  8
4
 10
1300.0
 20
1000.0
 30
0.0
 11
3700.0
 21
1000.0
 31
0.0
  0
LINE
  5
7FF6
  8
4
 10
500.0
 20
5338.8175085296098
 30
0.0
 11
500.0
 21
4938.8175085296089
 31
0.0
  0
TEXT
  5
7FF7
  8
4
 10
635.63793659216753
 20
4764.638955092687
 30
0.0
 40
107.9999999999999
  1
右回転左横向
  0
TEXT
  5
7FF8
  8
4
 10
2937.9391184985789
 20
5412.1221629906177
 30
0.0
 40
112.0
  1
No.
  0
TEXT
  5
7FF9
  8
4
 10
2622.5921252000262
 20
4766.8576826650306
 30
0.0
 40
107.9999999999999
  1
縮尺：1/20
  0
LINE
  5
7FFA
  8
4
 10
3700.0
 20
5338.8175085296098
 30
0.0
 11
3700.0
 21
4938.8175085296089
 31
0.0
  0
LINE
  5
7FFB
  8
4
 10
4200.0
 20
5900.0
 30
0.0
 11
4200.0
 21
5900.0
 31
0.0
  0
LINE
  5
7FFC
  8
4
 10
2881.2348447197292
 20
5362.5271662508021
 30
0.0
 11
2881.2348447197292
 21
5573.3045230995049
 31
0.0
  0
LINE
  5
7FFD
  8
4
 10
2881.2348447197292
 20
5573.3045230995049
 30
0.0
 11
3700.0
 21
5573.3045230995049
 31
0.0
  0
LINE
  5
7FFE
  8
4
 10
3700.0
 20
5573.3045230995049
 30
0.0
 11
3700.0
 21
5362.5271662508021
 31
0.0
  0
LINE
  5
7FFF
  8
4
 10
3700.0
 20
5362.5271662508021
 30
0.0
 11
2881.2348447197292
 21
5362.5271662508021
 31
0.0
  0
LINE
  5
8000
  8
4
 10
0.0
 20
0.0
 30
0.0
 11
0.0
 21
5900.0
 31
0.0
  0
LINE
  5
8001
  8
4
 10
0.0
 20
5900.0
 30
0.0
 11
4200.0
 21
5900.0
 31
0.0
  0
LINE
  5
8002
  8
4
 10
4200.0
 20
5900.0
 30
0.0
 11
4200.0
 21
0.0
 31
0.0
  0
LINE
  5
8003
  8
4
 10
4200.0
 20
0.0
 30
0.0
 11
0.0
 21
0.0
 31
0.0
  0
LINE
  5
8020
  8
1
 10
2173.0359178800441
 20
1582.2324274943519
 30
0.0
 11
2173.0359178800441
 21
1657.2324274943519
 31
0.0
  0
LINE
  5
8021
  8
1
 10
1093.0359178800441
 20
1582.2324274943519
 30
0.0
 11
1093.0359178800441
 21
1657.2324274943519
 31
0.0
  0
LINE
  5
808C
  8
1
 10
2614.3876193816409
 20
1582.2324274943519
 30
0.0
 11
2614.3876193816409
 21
1657.2324274943519
 31
0.0
  0
DIMENSION
  5
8145
  8
3
  2
*D13
 10
2173.0359178800441
 20
2825.4235596865619
 30
0.0
 11
1504.3046496560489
 21
2825.4235596865619
 31
0.0
 70
   128
 13
983.03591788004348
 23
2217.8324274943511
 33
0.0
 14
2173.0359178800441
 24
1657.2324274943519
 34
0.0
1001
ACAD
1000
DSTYLE
1002
{
1070
   287
1070
     3
1070
    40
1040
20.0
1070
   143
1040
0.039
1070
   172
1070
     1
1070
   271
1070
     0
1070
   279
1070
     0
1070
   288
1070
     1
1002
}
  0
LINE
  5
8153
  8
1
 10
1093.0359178800441
 20
3340.6535024364848
 30
0.0
 11
1093.0359178800441
 21
3923.1535024364871
 31
0.0
  0
LINE
  5
8154
  8
1
 10
2173.0359178800441
 20
3340.6535024364862
 30
0.0
 11
2173.0359178800441
 21
3900.6535024364862
 31
0.0
  0
LINE
  5
8155
  8
1
 10
1093.0359178800441
 20
4340.6535024364848
 30
0.0
 11
1593.0359178800441
 21
4340.6535024364848
 31
0.0
  0
LINE
  5
8156
  8
1
 10
1093.0359178800441
 20
3340.6535024364848
 30
0.0
 11
1123.0359178800441
 21
3340.6535024364848
 31
0.0
  0
LINE
  5
8157
  8
1
 10
1593.0359178800441
 20
3900.6535024364862
 30
0.0
 11
1593.0359178800441
 21
3923.1535024364862
 31
0.0
  0
LINE
  5
8158
  8
1
 10
1593.0359178800441
 20
3900.6535024364862
 30
0.0
 11
2173.0359178800441
 21
3900.6535024364862
 31
0.0
  0
LINE
  5
8159
  8
1
 10
1593.0359178800441
 20
4298.1535024364866
 30
0.0
 11
1593.0359178800441
 21
4340.6535024364848
 31
0.0
  0
LINE
  5
815A
  8
1
 10
1093.0359178800441
 20
4298.1535024364866
 30
0.0
 11
1093.0359178800441
 21
4340.6535024364848
 31
0.0
  0
LINE
  5
815B
  8
1
 10
2163.0359178800441
 20
3340.6535024364862
 30
0.0
 11
2173.0359178800441
 21
3340.6535024364862
 31
0.0
  0
DIMENSION
  5
8168
  8
3
  2
*D14
 10
1593.0359178800441
 20
4455.4182304352726
 30
0.0
 11
1342.126174858174
 21
4455.4182304352726
 31
0.0
 70
   128
 13
1093.0359178800441
 23
4340.6535024364848
 33
0.0
 14
1593.0359178800441
 24
4340.6535024364848
 34
0.0
1001
ACAD
1000
DSTYLE
1002
{
1070
   287
1070
     3
1070
    40
1040
20.0
1070
   143
1040
0.039
1070
   172
1070
     1
1070
   271
1070
     0
1070
   279
1070
     0
1070
   288
1070
     1
1002
}
  0
DIMENSION
  5
8174
  8
3
  2
*D15
 10
2173.0359178800441
 20
4455.4182304352726
 30
0.0
 11
1883.0359178800441
 21
4505.4182304352726
 31
0.0
 70
     0
 13
1593.0359178800441
 23
4340.6535024364848
 33
0.0
 14
2173.0359178800441
 24
3900.6535024364862
 34
0.0
1001
ACAD
1000
DSTYLE
1002
{
1070
   287
1070
     4
1070
    40
1040
20.0
1070
    75
1070
     1
1070
   143
1040
0.039
1070
   172
1070
     1
1070
   271
1070
     0
1070
   279
1070
     1
1070
   288
1070
     1
1002
}
  0
DIMENSION
  5
8181
  8
3
  2
*D16
 10
2346.2226615928521
 20
3340.6535024364862
 30
0.0
 11
2346.2226615928521
 21
3612.2463122822769
 31
0.0
 70
   128
 13
2173.0359178800441
 23
3900.6535024364862
 33
0.0
 14
2173.0359178800441
 24
3340.6535024364862
 34
0.0
 50
90.0
1001
ACAD
1000
DSTYLE
1002
{
1070
   287
1070
     3
1070
    40
1040
20.0
1070
   143
1040
0.039
1070
   172
1070
     1
1070
   271
1070
     0
1070
   279
1070
     0
1070
   288
1070
     1
1002
}
  0
DIMENSION
  5
818E
  8
3
  2
*D17
 10
889.92670463432717
 20
3340.6535024364862
 30
0.0
 11
889.92670463432671
 21
3825.7075613836828
 31
0.0
 70
   128
 13
1093.0359178800441
 23
4340.6535024364848
 33
0.0
 14
1093.0359178800441
 24
3340.6535024364848
 34
0.0
 50
90.0
1001
ACAD
1000
DSTYLE
1002
{
1070
   287
1070
     3
1070
    40
1040
20.0
1070
   143
1040
0.039
1070
   172
1070
     1
1070
   271
1070
     0
1070
   279
1070
     0
1070
   288
1070
     1
1002
}
  0
DIMENSION
  5
821C
  8
3
  2
*D18
 10
1343.0359178800441
 20
1443.5016973116381
 30
0.0
 11
1218.0359178800441
 21
1493.5016973116381
 31
0.0
 70
     0
 13
1093.0359178800441
 23
1582.2324274943519
 33
0.0
 14
1343.0359178800441
 24
1582.2324274943519
 34
0.0
1001
ACAD
1000
DSTYLE
1002
{
1070
   287
1070
     3
1070
    40
1040
20.0
1070
   143
1040
0.039
1070
   172
1070
     1
1070
   271
1070
     0
1070
   279
1070
     0
1002
}
  0
DIMENSION
  5
8229
  8
3
  2
*D19
 10
2173.0359178800441
 20
1443.5016973116381
 30
0.0
 11
1758.0359178800441
 21
1493.5016973116381
 31
0.0
 70
     0
 13
1343.0359178800441
 23
1582.2324274943519
 33
0.0
 14
2173.0359178800441
 24
1582.2324274943519
 34
0.0
1001
ACAD
1000
DSTYLE
1002
{
1070
   287
1070
     3
1070
    40
1040
20.0
1070
   143
1040
0.039
1070
   172
1070
     1
1070
   271
1070
     0
1070
   279
1070
     0
1002
}
  0
DIMENSION
  5
8236
  8
3
  2
*D20
 10
3384.38761938164
 20
1443.5016973116381
 30
0.0
 11
2999.3876193816409
 21
1493.5016973116381
 31
0.0
 70
     0
 13
2614.3876193816409
 23
1582.2324274943519
 33
0.0
 14
3384.38761938164
 24
1582.2324274943519
 34
0.0
1001
ACAD
1000
DSTYLE
1002
{
1070
   287
1070
     3
1070
    40
1040
20.0
1070
   143
1040
0.039
1070
   172
1070
     1
1070
   271
1070
     0
1070
   279
1070
     0
1002
}
  0
DIMENSION
  5
8245
  8
3
  2
*D21
 10
3614.3876193816409
 20
1443.5016973116381
 30
0.0
 11
3499.3876193816409
 21
1493.5016973116381
 31
0.0
 70
     0
 13
3384.38761938164
 23
1582.2324274943519
 33
0.0
 14
3614.3876193816409
 24
1582.2324274943519
 34
0.0
1001
ACAD
1000
DSTYLE
1002
{
1070
   287
1070
     3
1070
    40
1040
20.0
1070
   143
1040
0.039
1070
   172
1070
     1
1070
   271
1070
     0
1070
   279
1070
     0
1002
}
  0
DIMENSION
  5
8252
  8
3
  2
*D22
 10
513.09322013243946
 20
1582.2324274943519
 30
0.0
 11
463.09322013243923
 21
2077.7761712612419
 31
0.0
 70
     0
 13
1370.9085769502431
 23
2573.3199150281312
 33
0.0
 14
1093.0359178800441
 24
1582.2324274943519
 34
0.0
 50
90.0
1001
ACAD
1000
DSTYLE
1002
{
1070
   287
1070
     3
1070
    40
1040
20.0
1070
   143
1040
0.039
1070
   172
1070
     1
1070
   271
1070
     0
1070
   279
1070
     0
1002
}
  0
ENDSEC
  0
EOF
