  0
SECTION
  2
HEADER
  9
$ACADVER
  1
AC1009
  9
$INSBASE
 10
0.0
 20
0.0
 30
0.0
  9
$EXTMIN
 10
0.0
 20
0.0
 30
0.0
  9
$EXTMAX
 10
4200.0
 20
5900.0
 30
0.0
  9
$LIMMIN
 10
0.0
 20
0.0
  9
$LIMMAX
 10
297.0
 20
210.0
  9
$ORTHOMODE
 70
     0
  9
$REGENMODE
 70
     1
  9
$FILLMODE
 70
     0
  9
$QTEXTMODE
 70
     0
  9
$MIRRTEXT
 70
     1
  9
$DRAGMODE
 70
     2
  9
$LTSCALE
 40
100.0
  9
$OSMODE
 70
    37
  9
$ATTMODE
 70
     1
  9
$TEXTSIZE
 40
180.0
  9
$TRACEWID
 40
0.05
  9
$TEXTSTYLE
  7
STANDARD
  9
$CLAYER
  8
3
  9
$CELTYPE
  6
BYLAYER
  9
$CECOLOR
 62
   256
  9
$DIMSCALE
 40
20.0
  9
$DIMASZ
 40
2.0
  9
$DIMEXO
 40
0.5
  9
$DIMDLI
 40
10.0
  9
$DIMRND
 40
0.0
  9
$DIMDLE
 40
0.0
  9
$DIMEXE
 40
1.0
  9
$DIMTP
 40
1.0
  9
$DIMTM
 40
1.0
  9
$DIMTXT
 40
3.0
  9
$DIMCEN
 40
0.0
  9
$DIMTSZ
 40
0.0
  9
$DIMTOL
 70
     0
  9
$DIMLIM
 70
     0
  9
$DIMTIH
 70
     0
  9
$DIMTOH
 70
     0
  9
$DIMSE1
 70
     0
  9
$DIMSE2
 70
     0
  9
$DIMTAD
 70
     1
  9
$DIMZIN
 70
     8
  9
$DIMBLK
  1

  9
$DIMASO
 70
     1
  9
$DIMSHO
 70
     1
  9
$DIMPOST
  1

  9
$DIMAPOST
  1

  9
$DIMALT
 70
     0
  9
$DIMALTD
 70
     2
  9
$DIMALTF
 40
0.039
  9
$DIMLFAC
 40
1.0
  9
$DIMTOFL
 70
     1
  9
$DIMTVP
 40
0.0
  9
$DIMTIX
 70
     0
  9
$DIMSOXD
 70
     0
  9
$DIMSAH
 70
     1
  9
$DIMBLK1
  1
OPEN
  9
$DIMBLK2
  1
OPEN
  9
$DIMSTYLE
  2
IGA
  9
$DIMCLRD
 70
     0
  9
$DIMCLRE
 70
     0
  9
$DIMCLRT
 70
     0
  9
$DIMTFAC
 40
10.0
  9
$DIMGAP
 40
1.0
  9
$LUNITS
 70
     2
  9
$LUPREC
 70
     3
  9
$SKETCHINC
 40
0.1
  9
$FILLETRAD
 40
50.0
  9
$AUNITS
 70
     0
  9
$AUPREC
 70
     0
  9
$MENU
  1
acad
  9
$ELEVATION
 40
0.0
  9
$PELEVATION
 40
0.0
  9
$THICKNESS
 40
0.0
  9
$LIMCHECK
 70
     0
  9
$BLIPMODE
 70
     0
  9
$CHAMFERA
 40
0.5
  9
$CHAMFERB
 40
0.5
  9
$SKPOLY
 70
     0
  9
$TDCREATE
 40
2451988.6426899298
  9
$TDUPDATE
 40
2454953.7541035409
  9
$TDINDWG
 40
0.0228133218
  9
$TDUSRTIMER
 40
0.0228133218
  9
$USRTIMER
 70
     1
  9
$ANGBASE
 50
0.0
  9
$ANGDIR
 70
     0
  9
$PDMODE
 70
     0
  9
$PDSIZE
 40
0.0
  9
$PLINEWID
 40
0.0
  9
$COORDS
 70
     1
  9
$SPLFRAME
 70
     0
  9
$SPLINETYPE
 70
     6
  9
$SPLINESEGS
 70
     8
  9
$ATTDIA
 70
     0
  9
$ATTREQ
 70
     1
  9
$HANDLING
 70
 10241
  9
$HANDSEED
  5
8251
  9
$SURFTAB1
 70
     6
  9
$SURFTAB2
 70
     6
  9
$SURFTYPE
 70
     6
  9
$SURFU
 70
     6
  9
$SURFV
 70
     6
  9
$UCSNAME
  2

  9
$UCSORG
 10
0.0
 20
0.0
 30
0.0
  9
$UCSXDIR
 10
1.0
 20
0.0
 30
0.0
  9
$UCSYDIR
 10
0.0
 20
1.0
 30
0.0
  9
$PUCSNAME
  2

  9
$PUCSORG
 10
0.0
 20
0.0
 30
0.0
  9
$PUCSXDIR
 10
1.0
 20
0.0
 30
0.0
  9
$PUCSYDIR
 10
0.0
 20
1.0
 30
0.0
  9
$USERI1
 70
     0
  9
$USERI2
 70
     0
  9
$USERI3
 70
     0
  9
$USERI4
 70
     0
  9
$USERI5
 70
     0
  9
$USERR1
 40
0.0
  9
$USERR2
 40
0.0
  9
$USERR3
 40
0.0
  9
$USERR4
 40
0.0
  9
$USERR5
 40
0.0
  9
$WORLDVIEW
 70
     1
  9
$SHADEDGE
 70
     3
  9
$SHADEDIF
 70
    70
  9
$TILEMODE
 70
     1
  9
$MAXACTVP
 70
    16
  9
$PLIMCHECK
 70
     0
  9
$PEXTMIN
 10
1.0000000000000000E+020
 20
1.0000000000000000E+020
 30
1.0000000000000000E+020
  9
$PEXTMAX
 10
-1.0000000000000000E+020
 20
-1.0000000000000000E+020
 30
-1.0000000000000000E+020
  9
$PLIMMIN
 10
0.0
 20
0.0
  9
$PLIMMAX
 10
12.0
 20
9.0
  9
$UNITMODE
 70
     0
  9
$VISRETAIN
 70
     0
  9
$PLINEGEN
 70
     0
  9
$PSLTSCALE
 70
     1
  0
ENDSEC
  0
SECTION
  2
TABLES
  0
TABLE
  2
VPORT
 70
     2
  0
VPORT
  2
*ACTIVE
 70
     0
 10
0.0
 20
0.0
 11
1.0
 21
1.0
 12
7073.2199177027342
 22
2950.0000137370062
 13
0.0
 23
0.0
 14
10.0
 24
10.0
 15
10.0
 25
10.0
 16
0.0
 26
0.0
 36
1.0
 17
0.0
 27
0.0
 37
0.0
 40
5945.22976603387
 41
3.1666666666666661
 42
50.0
 43
0.0
 44
0.0
 50
0.0
 51
0.0
 71
     0
 72
   100
 73
     1
 74
     0
 75
     0
 76
     0
 77
     0
 78
     0
  0
ENDTAB
  0
TABLE
  2
LTYPE
 70
     2
  0
LTYPE
  2
CONTINUOUS
 70
     0
  3
Solid line
 72
    65
 73
     0
 40
0.0
  0
LTYPE
  2
CENTER
 70
     0
  3
____ _ ____ _ ____ _ ____ _ ____ _ ____ _ ____ 
 72
    65
 73
     4
 40
2.0
 49
1.25
 49
-0.25
 49
0.25
 49
-0.25
  0
ENDTAB
  0
TABLE
  2
LAYER
 70
     6
  0
LAYER
  2
0
 70
     0
 62
     7
  6
CONTINUOUS
  0
LAYER
  2
3
 70
     0
 62
     2
  6
CONTINUOUS
  0
LAYER
  2
2
 70
     0
 62
     3
  6
CENTER
  0
LAYER
  2
1
 70
     0
 62
     4
  6
CONTINUOUS
  0
LAYER
  2
4
 70
     0
 62
     7
  6
CONTINUOUS
  0
LAYER
  2
DEFPOINTS
 70
     0
 62
     7
  6
CONTINUOUS
  0
ENDTAB
  0
TABLE
  2
STYLE
 70
     1
  0
STYLE
  2
STANDARD
 70
     0
 40
0.0
 41
1.0
 50
0.0
 71
     0
 42
180.0
  3
simplex.shx
  4
extfont.shx
  0
ENDTAB
  0
TABLE
  2
VIEW
 70
     0
  0
ENDTAB
  0
TABLE
  2
UCS
 70
     0
  0
ENDTAB
  0
TABLE
  2
APPID
 70
     1
  0
APPID
  2
ACAD
 70
     0
  0
ENDTAB
  0
TABLE
  2
DIMSTYLE
 70
     2
  0
DIMSTYLE
  2
IGA
 70
     0
  3

  4

  5

  6
OPEN
  7
OPEN
 40
2.0
 41
2.0
 42
0.5
 43
10.0
 44
1.0
 45
0.0
 46
0.0
 47
1.0
 48
1.0
140
3.0
141
0.0
142
0.0
143
0.03937
144
1.0
145
0.0
146
10.0
147
1.0
 71
     0
 72
     0
 73
     0
 74
     0
 75
     0
 76
     0
 77
     1
 78
     8
170
     0
171
     2
172
     0
173
     1
174
     0
175
     0
176
     0
177
     0
178
     0
  0
DIMSTYLE
  2
DIA1
 70
     0
  3

  4

  5

  6

  7

 40
1.0
 41
2.0
 42
1.0
 43
10.0
 44
1.0
 45
0.0
 46
0.0
 47
0.0
 48
0.0
140
2.5
141
0.0
142
0.0
143
25.399999999999999
144
1.0
145
0.0
146
1.0
147
0.09
 71
     0
 72
     0
 73
     0
 74
     0
 75
     0
 76
     0
 77
     1
 78
     8
170
     0
171
     2
172
     1
173
     0
174
     0
175
     0
176
     2
177
     2
178
     2
  0
ENDTAB
  0
ENDSEC
  0
SECTION
  2
BLOCKS
  0
BLOCK
  8
0
  2
$MODEL_SPACE
 70
     0
 10
0.0
 20
0.0
 30
0.0
  3
$MODEL_SPACE
  1

  0
ENDBLK
  5
1B
  8
0
  0
BLOCK
 67
     1
  8
0
  2
$PAPER_SPACE
 70
     0
 10
0.0
 20
0.0
 30
0.0
  3
$PAPER_SPACE
  1

  0
ENDBLK
  5
18
 67
     1
  8
0
  0
BLOCK
  8
0
  2
YA_N
 70
     0
 10
0.0
 20
0.0
 30
0.0
  3
YA_N
  1

  0
ENDBLK
  5
79FE
  8
0
  0
BLOCK
  8
0
  2
_OPEN
 70
     0
 10
0.0
 20
0.0
 30
0.0
  3
_OPEN
  1

  0
LINE
  5
7A04
  8
0
  6
BYBLOCK
 62
     0
 10
-1.0
 20
0.1666666666666666
 30
0.0
 11
0.0
 21
0.0
 31
0.0
  0
LINE
  5
7A05
  8
0
  6
BYBLOCK
 62
     0
 10
0.0
 20
0.0
 30
0.0
 11
-1.0
 21
-0.1666666666666666
 31
0.0
  0
LINE
  5
7A06
  8
0
  6
BYBLOCK
 62
     0
 10
0.0
 20
0.0
 30
0.0
 11
-1.0
 21
0.0
 31
0.0
  0
ENDBLK
  5
7A08
  8
0
  0
BLOCK
  8
0
  2
*D2
 70
     1
 10
0.0
 20
0.0
 30
0.0
  3
*D2
  1

  0
LINE
  5
81C9
  8
3
 62
     2
 10
1725.2043298765741
 20
1656.306973597289
 30
0.0
 11
1878.1398960109691
 21
1656.306973597289
 31
0.0
  0
LINE
  5
81CA
  8
3
 62
     2
 10
1725.2043298765741
 20
2168.3069735972881
 30
0.0
 11
1878.1398960109691
 21
2168.3069735972881
 31
0.0
  0
LINE
  5
81CB
  8
3
 62
     2
 10
1858.1398960109691
 20
1696.306973597289
 30
0.0
 11
1858.1398960109691
 21
2128.306973597289
 31
0.0
  0
INSERT
  5
81CC
  8
3
 62
     2
  2
_OPEN
 10
1858.1398960109691
 20
1656.306973597289
 30
0.0
 41
40.0
 42
40.0
 43
40.0
 50
270.0
  0
INSERT
  5
81CD
  8
3
 62
     2
  2
_OPEN
 10
1858.1398960109691
 20
2168.3069735972881
 30
0.0
 41
40.0
 42
40.0
 43
40.0
 50
90.0
  0
TEXT
  8
3
  40
60
  5
8244
  62
2
  72
0
  71
0
 10
1698.14
 20
1806.11
 30
0.000000
  1
512
  0
POINT
  5
81CF
  8
DEFPOINTS
 62
     0
 10
1705.204329876575
 20
1656.306973597289
 30
0.0
  0
POINT
  5
81D0
  8
DEFPOINTS
 62
     0
 10
1705.204329876575
 20
2168.3069735972881
 30
0.0
  0
POINT
  5
81D1
  8
DEFPOINTS
 62
     0
 10
1858.1398960109691
 20
2168.3069735972881
 30
0.0
  0
ENDBLK
  5
7DFF
  8
0
  0
BLOCK
  8
0
  2
*D3
 70
     1
 10
0.0
 20
0.0
 30
0.0
  3
*D3
  1

  0
LINE
  5
7E41
  8
0
  6
BYBLOCK
 62
     2
 10
6065.5672897684317
 20
1392.227005790113
 30
0.0
 11
6065.5672897684317
 21
1494.4650260363539
 31
0.0
  0
LINE
  5
7E42
  8
0
  6
BYBLOCK
 62
     2
 10
5690.5672897684317
 20
1392.2270057901119
 30
0.0
 11
5690.5672897684317
 21
1494.4650260363539
 31
0.0
  0
LINE
  5
7E43
  8
0
  6
BYBLOCK
 62
     2
 10
6025.5672897684317
 20
1474.4650260363539
 30
0.0
 11
5730.5672897684317
 21
1474.4650260363539
 31
0.0
  0
INSERT
  5
7E44
  8
0
  6
BYBLOCK
 62
     2
  2
_OPEN
 10
6065.5672897684317
 20
1474.4650260363539
 30
0.0
 41
40.0
 42
40.0
 43
40.0
  0
INSERT
  5
7E45
  8
0
  6
BYBLOCK
 62
     2
  2
_OPEN
 10
5690.5672897684317
 20
1474.4650260363539
 30
0.0
 41
40.0
 42
40.0
 43
40.0
 50
180.0
  0
TEXT
  5
7E46
  8
3
 62
     2
 10
5800.9244326255757
 20
1484.4650260363539
 30
0.0
 40
60.0
  1
375
  0
POINT
  5
7E47
  8
DEFPOINTS
  6
BYBLOCK
 62
     0
 10
6065.5672897684317
 20
1372.227005790113
 30
0.0
  0
POINT
  5
7E48
  8
DEFPOINTS
  6
BYBLOCK
 62
     0
 10
5690.5672897684317
 20
1372.2270057901119
 30
0.0
  0
POINT
  5
7E49
  8
DEFPOINTS
  6
BYBLOCK
 62
     0
 10
5690.5672897684317
 20
1474.4650260363539
 30
0.0
  0
ENDBLK
  5
7E4A
  8
0
  0
BLOCK
  8
0
  2
*D4
 70
     1
 10
0.0
 20
0.0
 30
0.0
  3
*D4
  1

  0
LINE
  5
7E4C
  8
0
  6
BYBLOCK
 62
     2
 10
6069.8672897684328
 20
1306.227005790113
 30
0.0
 11
6069.8672897684328
 21
1647.912452961451
 31
0.0
  0
LINE
  5
7E4D
  8
0
  6
BYBLOCK
 62
     2
 10
5878.0672897684317
 20
1576.1403189597179
 30
0.0
 11
5878.0672897684317
 21
1647.912452961451
 31
0.0
  0
LINE
  5
7E4E
  8
0
  6
BYBLOCK
 62
     2
 10
6029.8672897684319
 20
1627.9124529614501
 30
0.0
 11
5918.0672897684317
 21
1627.9124529614501
 31
0.0
  0
TEXT
  5
7E4F
  8
3
 62
     2
 10
5902.5387183398607
 20
1662.912452961451
 30
0.0
 40
60.0
  1
192
  0
INSERT
  5
7E50
  8
0
  6
BYBLOCK
 62
     2
  2
_OPEN
 10
6069.8672897684328
 20
1627.9124529614501
 30
0.0
 41
40.0
 42
40.0
 43
40.0
  0
INSERT
  5
7E51
  8
0
  6
BYBLOCK
 62
     2
  2
_OPEN
 10
5878.0672897684317
 20
1627.9124529614501
 30
0.0
 41
40.0
 42
40.0
 43
40.0
 50
180.0
  0
POINT
  5
7E52
  8
DEFPOINTS
  6
BYBLOCK
 62
     0
 10
6069.8672897684328
 20
1286.2270057901119
 30
0.0
  0
POINT
  5
7E53
  8
DEFPOINTS
  6
BYBLOCK
 62
     0
 10
5878.0672897684317
 20
1556.1403189597179
 30
0.0
  0
POINT
  5
7E54
  8
DEFPOINTS
  6
BYBLOCK
 62
     0
 10
5878.0672897684317
 20
1627.9124529614501
 30
0.0
  0
ENDBLK
  5
7E55
  8
0
  0
BLOCK
  8
0
  2
*D5
 70
     1
 10
0.0
 20
0.0
 30
0.0
  3
*D5
  1

  0
LINE
  5
80F6
  8
0
  6
BYBLOCK
 62
     2
 10
2638.02837254113
 20
2404.0069735972879
 30
0.0
 11
2638.02837254113
 21
2830.9924207686272
 31
0.0
  0
LINE
  5
80F7
  8
0
  6
BYBLOCK
 62
     2
 10
3469.9686108906399
 20
2810.9924207686272
 30
0.0
 11
2678.02837254113
 21
2810.9924207686272
 31
0.0
  0
INSERT
  5
80F8
  8
0
  6
BYBLOCK
 62
     2
  2
_OPEN
 10
3509.9686108906408
 20
2810.9924207686272
 30
0.0
 41
40.0
 42
40.0
 43
40.0
  0
INSERT
  5
80F9
  8
0
  6
BYBLOCK
 62
     2
  2
_OPEN
 10
2638.02837254113
 20
2810.9924207686272
 30
0.0
 41
40.0
 42
40.0
 43
40.0
 50
180.0
  0
INSERT
  5
80FA
  8
3
  2
*U23
 10
0.0
 20
0.0
 30
0.0
  0
POINT
  5
80FB
  8
DEFPOINTS
  6
BYBLOCK
 62
     0
 10
3509.9686108906408
 20
2739.2202867668948
 30
0.0
  0
POINT
  5
80FC
  8
DEFPOINTS
  6
BYBLOCK
 62
     0
 10
2638.02837254113
 20
2384.0069735972879
 30
0.0
  0
POINT
  5
80FD
  8
DEFPOINTS
  6
BYBLOCK
 62
     0
 10
2638.02837254113
 20
2810.9924207686272
 30
0.0
  0
ENDBLK
  5
80FE
  8
0
  0
BLOCK
  8
0
  2
*D6
 70
     1
 10
0.0
 20
0.0
 30
0.0
  3
*D6
  1

  0
LINE
  5
80E7
  8
0
  6
BYBLOCK
 62
     2
 10
3746.768610890641
 20
2444.306973597289
 30
0.0
 11
3936.8418173624082
 21
2444.306973597289
 31
0.0
  0
LINE
  5
80E8
  8
0
  6
BYBLOCK
 62
     2
 10
3746.768610890641
 20
1944.306973597289
 30
0.0
 11
3936.8418173624082
 21
1944.306973597289
 31
0.0
  0
LINE
  5
80E9
  8
0
  6
BYBLOCK
 62
     2
 10
3916.8418173624091
 20
2404.306973597289
 30
0.0
 11
3916.8418173624091
 21
1984.306973597289
 31
0.0
  0
INSERT
  5
80EA
  8
0
  6
BYBLOCK
 62
     2
  2
_OPEN
 10
3916.8418173624091
 20
2444.306973597289
 30
0.0
 41
40.0
 42
40.0
 43
40.0
 50
90.0
  0
INSERT
  5
80EB
  8
0
  6
BYBLOCK
 62
     2
  2
_OPEN
 10
3916.8418173624091
 20
1944.306973597289
 30
0.0
 41
40.0
 42
40.0
 43
40.0
 50
270.0
  0
TEXT
  5
80EC
  8
3
 62
     2
 10
3906.8418173624082
 20
2087.1641164544312
 30
0.0
 40
60.0
  1
φ500
 50
90.0
  0
POINT
  5
80ED
  8
DEFPOINTS
  6
BYBLOCK
 62
     0
 10
3726.768610890641
 20
2444.306973597289
 30
0.0
  0
POINT
  5
80EE
  8
DEFPOINTS
  6
BYBLOCK
 62
     0
 10
3726.768610890641
 20
1944.306973597289
 30
0.0
  0
POINT
  5
80EF
  8
DEFPOINTS
  6
BYBLOCK
 62
     0
 10
3916.8418173624091
 20
1944.306973597289
 30
0.0
  0
ENDBLK
  5
80F0
  8
0
  0
BLOCK
  8
0
  2
*D7
 70
     1
 10
0.0
 20
0.0
 30
0.0
  3
*D7
  1

  0
LINE
  5
7E6C
  8
0
  6
BYBLOCK
 62
     2
 10
4134.6555852213078
 20
1011.227005790112
 30
0.0
 11
4369.6314109511704
 21
1011.227005790112
 31
0.0
  0
LINE
  5
7E6D
  8
0
  6
BYBLOCK
 62
     2
 10
4093.3030087543661
 20
473.2270057901128
 30
0.0
 11
4369.6314109511704
 21
473.2270057901128
 31
0.0
  0
LINE
  5
7E6E
  8
0
  6
BYBLOCK
 62
     2
 10
4349.6314109511713
 20
971.22700579011268
 30
0.0
 11
4349.6314109511713
 21
513.2270057901128
 31
0.0
  0
INSERT
  5
7E6F
  8
0
  6
BYBLOCK
 62
     2
  2
_OPEN
 10
4349.6314109511713
 20
1011.227005790112
 30
0.0
 41
40.0
 42
40.0
 43
40.0
 50
90.0
  0
INSERT
  5
7E70
  8
0
  6
BYBLOCK
 62
     2
  2
_OPEN
 10
4349.6314109511713
 20
473.2270057901128
 30
0.0
 41
40.0
 42
40.0
 43
40.0
 50
270.0
  0
TEXT
  5
7E71
  8
3
 62
     2
 10
4339.6314109511713
 20
665.08414864725569
 30
0.0
 40
60.0
  1
538
 50
90.0
  0
POINT
  5
7E72
  8
DEFPOINTS
  6
BYBLOCK
 62
     0
 10
4114.6555852213069
 20
1011.227005790112
 30
0.0
  0
POINT
  5
7E73
  8
DEFPOINTS
  6
BYBLOCK
 62
     0
 10
4073.3030087543671
 20
473.2270057901128
 30
0.0
  0
POINT
  5
7E74
  8
DEFPOINTS
  6
BYBLOCK
 62
     0
 10
4349.6314109511713
 20
473.2270057901128
 30
0.0
  0
ENDBLK
  5
7E75
  8
0
  0
BLOCK
  8
0
  2
*D8
 70
     1
 10
0.0
 20
0.0
 30
0.0
  3
*D8
  1

  0
LINE
  5
7E97
  8
0
  6
BYBLOCK
 62
     2
 10
4073.3030087543671
 20
1036.827005790112
 30
0.0
 11
4073.3030087543671
 21
1538.773848382152
 31
0.0
  0
LINE
  5
7E98
  8
0
  6
BYBLOCK
 62
     2
 10
3713.3030087543648
 20
1452.4640834029981
 30
0.0
 11
3713.3030087543648
 21
1538.773848382152
 31
0.0
  0
LINE
  5
7E99
  8
0
  6
BYBLOCK
 62
     2
 10
4033.3030087543671
 20
1518.773848382152
 30
0.0
 11
3753.3030087543648
 21
1518.773848382152
 31
0.0
  0
INSERT
  5
7E9A
  8
0
  6
BYBLOCK
 62
     2
  2
_OPEN
 10
4073.3030087543671
 20
1518.773848382152
 30
0.0
 41
40.0
 42
40.0
 43
40.0
  0
INSERT
  5
7E9B
  8
0
  6
BYBLOCK
 62
     2
  2
_OPEN
 10
3713.3030087543648
 20
1518.773848382152
 30
0.0
 41
40.0
 42
40.0
 43
40.0
 50
180.0
  0
TEXT
  5
7E9C
  8
3
 62
     2
 10
3816.1601516115088
 20
1528.773848382152
 30
0.0
 40
60.0
  1
360
  0
POINT
  5
7E9D
  8
DEFPOINTS
  6
BYBLOCK
 62
     0
 10
4073.3030087543671
 20
1016.827005790112
 30
0.0
  0
POINT
  5
7E9E
  8
DEFPOINTS
  6
BYBLOCK
 62
     0
 10
3713.3030087543648
 20
1432.4640834029969
 30
0.0
  0
POINT
  5
7E9F
  8
DEFPOINTS
  6
BYBLOCK
 62
     0
 10
3713.3030087543648
 20
1518.773848382152
 30
0.0
  0
ENDBLK
  5
7EA0
  8
0
  0
BLOCK
  8
0
  2
*D9
 70
     1
 10
0.0
 20
0.0
 30
0.0
  3
*D9
  1

  0
LINE
  5
7EA2
  8
0
  6
BYBLOCK
 62
     2
 10
3278.3030087543661
 20
994.22700579011325
 30
0.0
 11
3278.3030087543661
 21
1538.773848382152
 31
0.0
  0
LINE
  5
7EA3
  8
0
  6
BYBLOCK
 62
     2
 10
3673.3030087543661
 20
1518.773848382152
 30
0.0
 11
3318.3030087543661
 21
1518.773848382152
 31
0.0
  0
INSERT
  5
7EA4
  8
0
  6
BYBLOCK
 62
     2
  2
_OPEN
 10
3713.3030087543648
 20
1518.773848382152
 30
0.0
 41
40.0
 42
40.0
 43
40.0
  0
INSERT
  5
7EA5
  8
0
  6
BYBLOCK
 62
     2
  2
_OPEN
 10
3278.3030087543661
 20
1518.773848382152
 30
0.0
 41
40.0
 42
40.0
 43
40.0
 50
180.0
  0
TEXT
  5
7EA6
  8
3
 62
     2
 10
3418.6601516115079
 20
1528.773848382152
 30
0.0
 40
60.0
  1
435
  0
POINT
  5
7EA7
  8
DEFPOINTS
  6
BYBLOCK
 62
     0
 10
3713.3030087543648
 20
1432.4640834029969
 30
0.0
  0
POINT
  5
7EA8
  8
DEFPOINTS
  6
BYBLOCK
 62
     0
 10
3278.3030087543661
 20
974.22700579011325
 30
0.0
  0
POINT
  5
7EA9
  8
DEFPOINTS
  6
BYBLOCK
 62
     0
 10
3278.3030087543661
 20
1518.773848382152
 30
0.0
  0
ENDBLK
  5
7EAA
  8
0
  0
BLOCK
  8
0
  2
*D10
 70
     1
 10
0.0
 20
0.0
 30
0.0
  3
*D10
  1

  0
LINE
  5
81D2
  8
3
 62
     0
 10
1317.3316708063739
 20
2555.3944611310681
 30
0.0
 11
2165.2685847649659
 21
2555.3944611310681
 31
0.0
  0
LINE
  5
81D3
  8
3
 62
     0
 10
1776.5569063435159
 20
2194.306973597289
 30
0.0
 11
2165.2685847649659
 21
2194.306973597289
 31
0.0
  0
LINE
  5
81D4
  8
3
 62
     0
 10
2145.2685847649659
 20
2515.3944611310681
 30
0.0
 11
2145.2685847649659
 21
2234.306973597289
 31
0.0
  0
INSERT
  5
81D5
  8
3
 62
     0
  2
_OPEN
 10
2145.2685847649659
 20
2555.3944611310681
 30
0.0
 41
40.0
 42
40.0
 43
40.0
 50
90.0
  0
INSERT
  5
81D6
  8
3
 62
     0
  2
_OPEN
 10
2145.2685847649659
 20
2194.306973597289
 30
0.0
 41
40.0
 42
40.0
 43
40.0
 50
270.0
  0
TEXT
  8
3
  40
60
  5
8245
  62
0
  72
0
  71
0
 10
1975.27
 20
2250.30
 30
0.000000
  1
361
  0
POINT
  5
81D8
  8
DEFPOINTS
 62
     0
 10
1307.3316708063739
 20
2555.3944611310681
 30
0.0
  0
POINT
  5
81D9
  8
DEFPOINTS
 62
     0
 10
1766.5569063435159
 20
2194.306973597289
 30
0.0
  0
POINT
  5
81DA
  8
DEFPOINTS
 62
     0
 10
2145.2685847649659
 20
2194.306973597289
 30
0.0
  0
ENDBLK
  5
7EEC
  8
0
  0
BLOCK
  8
0
  2
*D11
 70
     1
 10
0.0
 20
0.0
 30
0.0
  3
*D11
  1

  0
LINE
  5
81DB
  8
3
 62
     0
 10
1605.2043298765741
 20
1564.306973597289
 30
0.0
 11
2165.2685847649659
 21
1564.306973597289
 31
0.0
  0
LINE
  5
81DC
  8
3
 62
     0
 10
2145.2685847649659
 20
2154.306973597289
 30
0.0
 11
2145.2685847649659
 21
1604.306973597289
 31
0.0
  0
INSERT
  5
81DD
  8
3
 62
     0
  2
_OPEN
 10
2145.2685847649659
 20
2194.306973597289
 30
0.0
 41
40.0
 42
40.0
 43
40.0
 50
90.0
  0
INSERT
  5
81DE
  8
3
 62
     0
  2
_OPEN
 10
2145.2685847649659
 20
1564.306973597289
 30
0.0
 41
40.0
 42
40.0
 43
40.0
 50
270.0
  0
TEXT
  8
3
  40
60
  5
8246
  62
0
  72
0
  71
0
 10
1975.27
 20
1773.11
 30
0.000000
  1
630
  0
POINT
  5
81E0
  8
DEFPOINTS
 62
     0
 10
1766.5569063435159
 20
2194.306973597289
 30
0.0
  0
POINT
  5
81E1
  8
DEFPOINTS
 62
     0
 10
1595.2043298765741
 20
1564.306973597289
 30
0.0
  0
POINT
  5
81E2
  8
DEFPOINTS
 62
     0
 10
2145.2685847649659
 20
1564.306973597289
 30
0.0
  0
ENDBLK
  5
7EF7
  8
0
  0
BLOCK
  8
0
  2
_DOT
 70
     0
 10
0.0
 20
0.0
 30
0.0
  3
_DOT
  1

  0
LINE
  5
80E1
  8
0
  6
BYBLOCK
 62
     0
 10
0.0
 20
0.0
 30
0.0
 11
-1.0
 21
-0.0000000000000284
 31
0.0
  0
POLYLINE
  5
80E2
  8
0
  6
BYBLOCK
 62
     0
 66
     1
 10
0.0
 20
0.0
 30
0.0
 70
     1
 40
0.1666666666666666
 41
0.1666666666666666
  0
VERTEX
  5
820F
  8
0
  6
BYBLOCK
 62
     0
 10
-0.0833333333333286
 20
-0.0000000000000284
 30
0.0
 42
1.0
  0
VERTEX
  5
8210
  8
0
  6
BYBLOCK
 62
     0
 10
0.0833333333333286
 20
-0.0000000000000284
 30
0.0
 42
1.0
  0
SEQEND
  5
8211
  8
0
  6
BYBLOCK
 62
     0
  0
ENDBLK
  5
7F65
  8
0
  0
BLOCK
  8
0
  2
*D13
 70
     1
 10
0.0
 20
0.0
 30
0.0
  3
*D13
  1

  0
LINE
  5
81E3
  8
3
 62
     0
 10
1705.204329876575
 20
2204.3069735972881
 30
0.0
 11
1705.204329876575
 21
2843.0823751521111
 31
0.0
  0
LINE
  5
81E4
  8
3
 62
     0
 10
515.20432987657477
 20
1649.306973597289
 30
0.0
 11
515.20432987657477
 21
2843.0823751521111
 31
0.0
  0
LINE
  5
81E5
  8
3
 62
     0
 10
1665.2043298765741
 20
2823.0823751521111
 30
0.0
 11
555.20432987657489
 21
2823.0823751521111
 31
0.0
  0
INSERT
  5
81E6
  8
3
 62
     0
  2
_OPEN
 10
1705.204329876575
 20
2823.0823751521111
 30
0.0
 41
40.0
 42
40.0
 43
40.0
  0
INSERT
  5
81E7
  8
3
 62
     0
  2
_OPEN
 10
515.20432987657477
 20
2823.0823751521111
 30
0.0
 41
40.0
 42
40.0
 43
40.0
 50
180.0
  0
TEXT
  8
3
  40
60
  5
8247
  62
0
  72
0
  71
0
 10
1011.82
 20
2766.88
 30
0.000000
  1
1190
  0
POINT
  5
81E9
  8
DEFPOINTS
 62
     0
 10
1705.204329876575
 20
2194.306973597289
 30
0.0
  0
POINT
  5
81EA
  8
DEFPOINTS
 62
     0
 10
515.20432987657477
 20
1639.306973597289
 30
0.0
  0
POINT
  5
81EB
  8
DEFPOINTS
 62
     0
 10
515.20432987657477
 20
2823.0823751521111
 30
0.0
  0
ENDBLK
  5
80A2
  8
0
  0
BLOCK
  8
0
  2
*D14
 70
     1
 10
0.0
 20
0.0
 30
0.0
  3
*D14
  1

  0
LINE
  5
81EC
  8
3
 62
     0
 10
1595.2043298765741
 20
4175.1576250247399
 30
0.0
 11
1595.2043298765741
 21
4305.0623936486099
 31
0.0
  0
LINE
  5
81ED
  8
3
 62
     0
 10
1095.2043298765741
 20
4175.1576250247399
 30
0.0
 11
1095.2043298765741
 21
4305.0623936486099
 31
0.0
  0
LINE
  5
81EE
  8
3
 62
     0
 10
1555.2043298765741
 20
4285.0623936486099
 30
0.0
 11
1135.2043298765741
 21
4285.0623936486099
 31
0.0
  0
INSERT
  5
81EF
  8
3
 62
     0
  2
_OPEN
 10
1595.2043298765741
 20
4285.0623936486099
 30
0.0
 41
40.0
 42
40.0
 43
40.0
  0
INSERT
  5
81F0
  8
3
 62
     0
  2
_OPEN
 10
1095.2043298765741
 20
4285.0623936486099
 30
0.0
 41
40.0
 42
40.0
 43
40.0
 50
180.0
  0
TEXT
  8
3
  40
60
  5
8248
  62
0
  72
0
  71
0
 10
1222.86
 20
4228.86
 30
0.000000
  1
500
  0
POINT
  5
81F2
  8
DEFPOINTS
 62
     0
 10
1595.2043298765741
 20
4165.1576250247399
 30
0.0
  0
POINT
  5
81F3
  8
DEFPOINTS
 62
     0
 10
1095.2043298765741
 20
4165.1576250247399
 30
0.0
  0
POINT
  5
81F4
  8
DEFPOINTS
 62
     0
 10
1095.2043298765741
 20
4285.0623936486099
 30
0.0
  0
ENDBLK
  5
80B9
  8
0
  0
BLOCK
  8
0
  2
*D15
 70
     1
 10
0.0
 20
0.0
 30
0.0
  3
*D15
  1

  0
LINE
  5
81F5
  8
3
 62
     0
 10
515.20432987657477
 20
3735.1576250247399
 30
0.0
 11
515.20432987657477
 21
4305.0623936486099
 31
0.0
  0
LINE
  5
81F6
  8
3
 62
     0
 10
1055.2043298765741
 20
4285.0623936486099
 30
0.0
 11
555.20432987657466
 21
4285.0623936486099
 31
0.0
  0
INSERT
  5
81F7
  8
3
 62
     0
  2
_OPEN
 10
1095.2043298765741
 20
4285.0623936486099
 30
0.0
 41
40.0
 42
40.0
 43
40.0
  0
INSERT
  5
81F8
  8
3
 62
     0
  2
_OPEN
 10
515.20432987657477
 20
4285.0623936486099
 30
0.0
 41
40.0
 42
40.0
 43
40.0
 50
180.0
  0
TEXT
  8
3
  40
60
  5
8249
  62
0
  72
0
  71
0
 10
685.204
 20
4228.86
 30
0.000000
  1
580
  0
POINT
  5
81FA
  8
DEFPOINTS
 62
     0
 10
1095.2043298765741
 20
4165.1576250247399
 30
0.0
  0
POINT
  5
81FB
  8
DEFPOINTS
 62
     0
 10
515.20432987657477
 20
3725.1576250247399
 30
0.0
  0
POINT
  5
81FC
  8
DEFPOINTS
 62
     0
 10
515.20432987657477
 20
4285.0623936486099
 30
0.0
  0
ENDBLK
  5
80C5
  8
0
  0
BLOCK
  8
0
  2
*D16
 70
     1
 10
0.0
 20
0.0
 30
0.0
  3
*D16
  1

  0
LINE
  5
81FD
  8
3
 62
     0
 10
505.20432987657477
 20
3725.1576250247399
 30
0.0
 11
340.84069682827669
 21
3725.1576250247399
 31
0.0
  0
LINE
  5
81FE
  8
3
 62
     0
 10
505.20432987657472
 20
3165.1576250247399
 30
0.0
 11
340.84069682827652
 21
3165.1576250247399
 31
0.0
  0
LINE
  5
81FF
  8
3
 62
     0
 10
360.84069682827658
 20
3685.157625024739
 30
0.0
 11
360.84069682827658
 21
3205.1576250247399
 31
0.0
  0
INSERT
  5
8200
  8
3
 62
     0
  2
_OPEN
 10
360.84069682827669
 20
3725.1576250247399
 30
0.0
 41
40.0
 42
40.0
 43
40.0
 50
90.0
  0
INSERT
  5
8201
  8
3
 62
     0
  2
_OPEN
 10
360.84069682827652
 20
3165.1576250247399
 30
0.0
 41
40.0
 42
40.0
 43
40.0
 50
270.0
  0
TEXT
  8
3
  40
60
  5
824A
  62
0
  72
0
  71
0
 10
190.841
 20
3352.06
 30
0.000000
  1
560
  0
POINT
  5
8203
  8
DEFPOINTS
 62
     0
 10
515.20432987657477
 20
3725.1576250247399
 30
0.0
  0
POINT
  5
8204
  8
DEFPOINTS
 62
     0
 10
515.20432987657477
 20
3165.1576250247399
 30
0.0
  0
POINT
  5
8205
  8
DEFPOINTS
 62
     0
 10
360.84069682827652
 20
3165.1576250247399
 30
0.0
  0
ENDBLK
  5
80D2
  8
0
  0
BLOCK
  8
0
  2
*D17
 70
     1
 10
0.0
 20
0.0
 30
0.0
  3
*D17
  1

  0
LINE
  5
8206
  8
3
 62
     0
 10
1605.204329876575
 20
4165.1576250247399
 30
0.0
 11
1871.318659534212
 21
4165.1576250247399
 31
0.0
  0
LINE
  5
8207
  8
3
 62
     0
 10
1605.204329876575
 20
3165.1576250247399
 30
0.0
 11
1871.318659534212
 21
3165.1576250247399
 31
0.0
  0
LINE
  5
8208
  8
3
 62
     0
 10
1851.3186595342131
 20
4125.1576250247399
 30
0.0
 11
1851.318659534212
 21
3205.1576250247399
 31
0.0
  0
INSERT
  5
8209
  8
3
 62
     0
  2
_OPEN
 10
1851.3186595342131
 20
4165.1576250247399
 30
0.0
 41
40.0
 42
40.0
 43
40.0
 50
90.0
  0
INSERT
  5
820A
  8
3
 62
     0
  2
_OPEN
 10
1851.318659534212
 20
3165.1576250247399
 30
0.0
 41
40.0
 42
40.0
 43
40.0
 50
270.0
  0
TEXT
  8
3
  40
60
  5
824B
  62
0
  72
0
  71
0
 10
1681.32
 20
3521.40
 30
0.000000
  1
1000
  0
POINT
  5
820C
  8
DEFPOINTS
 62
     0
 10
1595.2043298765741
 20
4165.1576250247399
 30
0.0
  0
POINT
  5
820D
  8
DEFPOINTS
 62
     0
 10
1595.2043298765741
 20
3165.1576250247399
 30
0.0
  0
POINT
  5
820E
  8
DEFPOINTS
 62
     0
 10
1851.318659534212
 20
3165.1576250247399
 30
0.0
  0
ENDBLK
  5
80DF
  8
0
  0
BLOCK
  8
0
  2
*D18
 70
     1
 10
0.0
 20
0.0
 30
0.0
  3
*D18
  1

  0
LINE
  5
8217
  8
3
 62
     0
 10
515.20432987657477
 20
1554.306973597289
 30
0.0
 11
515.20432987657477
 21
1407.5271642510961
 31
0.0
  0
LINE
  5
8218
  8
3
 62
     0
 10
1345.2043298765741
 20
1554.306973597289
 30
0.0
 11
1345.2043298765741
 21
1407.5271642510961
 31
0.0
  0
LINE
  5
8219
  8
3
 62
     0
 10
555.20432987657466
 20
1427.5271642510961
 30
0.0
 11
1305.2043298765741
 21
1427.5271642510961
 31
0.0
  0
INSERT
  5
821A
  8
3
 62
     0
  2
_OPEN
 10
515.20432987657477
 20
1427.5271642510961
 30
0.0
 41
40.0
 42
40.0
 43
40.0
 50
180.0
  0
INSERT
  5
821B
  8
3
 62
     0
  2
_OPEN
 10
1345.2043298765741
 20
1427.5271642510961
 30
0.0
 41
40.0
 42
40.0
 43
40.0
  0
TEXT
  8
3
  40
60
  5
824C
  62
0
  72
0
  71
0
 10
810.204
 20
1371.33
 30
0.000000
  1
830
  0
POINT
  5
821D
  8
DEFPOINTS
 62
     0
 10
515.20432987657477
 20
1564.306973597289
 30
0.0
  0
POINT
  5
821E
  8
DEFPOINTS
 62
     0
 10
1345.2043298765741
 20
1564.306973597289
 30
0.0
  0
POINT
  5
821F
  8
DEFPOINTS
 62
     0
 10
1345.2043298765741
 20
1427.5271642510961
 30
0.0
  0
ENDBLK
  5
815F
  8
0
  0
BLOCK
  8
0
  2
*D19
 70
     1
 10
0.0
 20
0.0
 30
0.0
  3
*D19
  1

  0
LINE
  5
8220
  8
3
 62
     0
 10
1345.2043298765741
 20
1554.306973597289
 30
0.0
 11
1345.2043298765741
 21
1407.5271642510961
 31
0.0
  0
LINE
  5
8221
  8
3
 62
     0
 10
1595.2043298765741
 20
1554.306973597289
 30
0.0
 11
1595.2043298765741
 21
1407.5271642510961
 31
0.0
  0
LINE
  5
8222
  8
3
 62
     0
 10
1385.2043298765741
 20
1427.5271642510961
 30
0.0
 11
1555.2043298765741
 21
1427.5271642510961
 31
0.0
  0
INSERT
  5
8223
  8
3
 62
     0
  2
_OPEN
 10
1345.2043298765741
 20
1427.5271642510961
 30
0.0
 41
40.0
 42
40.0
 43
40.0
 50
180.0
  0
INSERT
  5
8224
  8
3
 62
     0
  2
_OPEN
 10
1595.2043298765741
 20
1427.5271642510961
 30
0.0
 41
40.0
 42
40.0
 43
40.0
  0
TEXT
  8
3
  40
60
  5
824D
  62
0
  72
0
  71
0
 10
1350.20
 20
1371.33
 30
0.000000
  1
250
  0
POINT
  5
8226
  8
DEFPOINTS
 62
     0
 10
1345.2043298765741
 20
1564.306973597289
 30
0.0
  0
POINT
  5
8227
  8
DEFPOINTS
 62
     0
 10
1595.2043298765741
 20
1564.306973597289
 30
0.0
  0
POINT
  5
8228
  8
DEFPOINTS
 62
     0
 10
1595.2043298765741
 20
1427.5271642510961
 30
0.0
  0
ENDBLK
  5
816E
  8
0
  0
BLOCK
  8
0
  2
*D20
 70
     1
 10
0.0
 20
0.0
 30
0.0
  3
*D20
  1

  0
LINE
  5
8229
  8
3
 62
     0
 10
2739.9686108906399
 20
1554.306973597289
 30
0.0
 11
2739.9686108906399
 21
1407.5271642510961
 31
0.0
  0
LINE
  5
822A
  8
3
 62
     0
 10
3509.9686108906408
 20
1554.3069735972881
 30
0.0
 11
3509.9686108906408
 21
1407.5271642510961
 31
0.0
  0
LINE
  5
822B
  8
3
 62
     0
 10
2779.9686108906399
 20
1427.5271642510961
 30
0.0
 11
3469.9686108906399
 21
1427.5271642510961
 31
0.0
  0
INSERT
  5
822C
  8
3
 62
     0
  2
_OPEN
 10
2739.9686108906399
 20
1427.5271642510961
 30
0.0
 41
40.0
 42
40.0
 43
40.0
 50
180.0
  0
INSERT
  5
822D
  8
3
 62
     0
  2
_OPEN
 10
3509.9686108906408
 20
1427.5271642510961
 30
0.0
 41
40.0
 42
40.0
 43
40.0
  0
TEXT
  8
3
  40
60
  5
824E
  62
0
  72
0
  71
0
 10
3004.97
 20
1371.33
 30
0.000000
  1
770
  0
POINT
  5
822F
  8
DEFPOINTS
 62
     0
 10
2739.9686108906399
 20
1564.306973597289
 30
0.0
  0
POINT
  5
8230
  8
DEFPOINTS
 62
     0
 10
3509.9686108906408
 20
1564.306973597289
 30
0.0
  0
POINT
  5
8231
  8
DEFPOINTS
 62
     0
 10
3509.9686108906408
 20
1427.5271642510961
 30
0.0
  0
ENDBLK
  5
817B
  8
0
  0
BLOCK
  8
0
  2
*D21
 70
     1
 10
0.0
 20
0.0
 30
0.0
  3
*D21
  1

  0
LINE
  5
8232
  8
3
 62
     0
 10
3509.9686108906408
 20
1554.3069735972881
 30
0.0
 11
3509.9686108906408
 21
1407.5271642510961
 31
0.0
  0
LINE
  5
8233
  8
3
 62
     0
 10
3739.9686108906399
 20
1554.3069735972881
 30
0.0
 11
3739.9686108906399
 21
1407.5271642510961
 31
0.0
  0
LINE
  5
8234
  8
3
 62
     0
 10
3549.9686108906399
 20
1427.5271642510961
 30
0.0
 11
3699.9686108906399
 21
1427.5271642510961
 31
0.0
  0
INSERT
  5
8235
  8
3
 62
     0
  2
_OPEN
 10
3509.9686108906408
 20
1427.5271642510961
 30
0.0
 41
40.0
 42
40.0
 43
40.0
 50
180.0
  0
INSERT
  5
8236
  8
3
 62
     0
  2
_OPEN
 10
3739.9686108906399
 20
1427.5271642510961
 30
0.0
 41
40.0
 42
40.0
 43
40.0
  0
TEXT
  8
3
  40
60
  5
824F
  62
0
  72
0
  71
0
 10
3504.97
 20
1371.33
 30
0.000000
  1
230
  0
POINT
  5
8238
  8
DEFPOINTS
 62
     0
 10
3509.9686108906408
 20
1564.306973597289
 30
0.0
  0
POINT
  5
8239
  8
DEFPOINTS
 62
     0
 10
3739.9686108906399
 20
1564.306973597289
 30
0.0
  0
POINT
  5
823A
  8
DEFPOINTS
 62
     0
 10
3739.9686108906399
 20
1427.5271642510961
 30
0.0
  0
ENDBLK
  5
818A
  8
0
  0
BLOCK
  8
0
  2
*D22
 70
     1
 10
0.0
 20
0.0
 30
0.0
  3
*D22
  1

  0
LINE
  5
823B
  8
3
 62
     0
 10
1327.3316708063739
 20
2555.3944611310681
 30
0.0
 11
2318.9781164280748
 21
2555.3944611310681
 31
0.0
  0
LINE
  5
823C
  8
3
 62
     0
 10
1615.2043298765741
 20
1564.306973597289
 30
0.0
 11
2318.9781164280748
 21
1564.306973597289
 31
0.0
  0
LINE
  5
823D
  8
3
 62
     0
 10
2298.9781164280748
 20
2515.3944611310681
 30
0.0
 11
2298.9781164280748
 21
1604.306973597289
 31
0.0
  0
INSERT
  5
823E
  8
3
 62
     0
  2
_OPEN
 10
2298.9781164280748
 20
2555.3944611310681
 30
0.0
 41
40.0
 42
40.0
 43
40.0
 50
90.0
  0
INSERT
  5
823F
  8
3
 62
     0
  2
_OPEN
 10
2298.9781164280748
 20
1564.306973597289
 30
0.0
 41
40.0
 42
40.0
 43
40.0
 50
270.0
  0
TEXT
  8
3
  40
60
  5
8250
  62
0
  72
0
  71
0
 10
2128.98
 20
1953.65
 30
0.000000
  1
991
  0
POINT
  5
8241
  8
DEFPOINTS
 62
     0
 10
1317.3316708063739
 20
2555.3944611310681
 30
0.0
  0
POINT
  5
8242
  8
DEFPOINTS
 62
     0
 10
1605.2043298765741
 20
1564.306973597289
 30
0.0
  0
POINT
  5
8243
  8
DEFPOINTS
 62
     0
 10
2298.9781164280748
 20
1564.306973597289
 30
0.0
  0
ENDBLK
  5
8197
  8
0
  0
BLOCK
  8
0
  2
*U23
 70
     1
 10
0.0
 20
0.0
 30
0.0
  3
*U23
  1

  0
TEXT
  5
8213
  8
3
 62
     2
 10
2988.2842060015992
 20
2920.9924207686272
 30
0.0
 40
60.0
  1
MAX
  0
TEXT
  5
8214
  8
3
 62
     2
 10
2996.8556345730281
 20
2820.9924207686272
 30
0.0
 40
60.0
  1
930
  0
ENDBLK
  5
8216
  8
0
  0
ENDSEC
  0
SECTION
  2
ENTITIES
  0
INSERT
  5
7C06
  8
0
  2
YA_N
 10
6.0
 20
5.0
 30
0.0
  0
INSERT
  5
7C07
  8
0
  2
YA_N
 10
6.0
 20
5.0
 30
0.0
  0
INSERT
  5
7C08
  8
0
  2
YA_N
 10
6.0
 20
5.0
 30
0.0
  0
INSERT
  5
7C09
  8
0
  2
YA_N
 10
6.0
 20
5.0
 30
0.0
  0
INSERT
  5
7C0A
  8
0
  2
YA_N
 10
6.0
 20
5.0
 30
0.0
  0
LINE
  5
7C0B
  8
1
 10
2769.9686108906408
 20
2134.306973597289
 30
0.0
 11
3254.9686108906408
 21
2134.306973597289
 31
0.0
  0
LINE
  5
7C0C
  8
1
 10
2776.768610890641
 20
2131.1069735972892
 30
0.0
 11
2776.7686108906428
 21
1861.7637689514261
 31
0.0
  0
LINE
  5
7C0D
  8
1
 10
2739.9686108906399
 20
1639.306973597289
 30
0.0
 11
3292.4686108906399
 21
1639.306973597289
 31
0.0
  0
LINE
  5
7C0E
  8
1
 10
2739.9686108906399
 20
1564.306973597289
 30
0.0
 11
3739.9686108906399
 21
1564.306973597289
 31
0.0
  0
LINE
  5
7C12
  8
1
 10
1567.2043298765479
 20
1639.306973597289
 30
0.0
 11
1567.2043298765741
 21
2131.1069735972878
 31
0.0
  0
LINE
  5
7C13
  8
1
 10
1123.2043298765741
 20
1639.306973597289
 30
0.0
 11
1123.2043298765741
 21
2131.1069735972892
 31
0.0
  0
LINE
  5
7C14
  8
1
 10
1577.2043298765741
 20
2134.306973597289
 30
0.0
 11
1113.2043298765741
 21
2134.306973597289
 31
0.0
  0
LINE
  5
7C15
  8
1
 10
1595.2043298765741
 20
1564.306973597289
 30
0.0
 11
515.20432987657477
 21
1564.306973597289
 31
0.0
  0
INSERT
  5
7C16
  8
0
  2
YA_N
 10
6285.3947994874952
 20
6170.1179297020417
 30
0.0
  0
INSERT
  5
7C17
  8
0
  2
YA_N
 10
9310.6143563453425
 20
8479.3824956818644
 30
0.0
  0
INSERT
  5
7C18
  8
0
  2
YA_N
 10
6566.5323200881021
 20
7938.1589708423153
 30
0.0
  0
INSERT
  5
7C19
  8
0
  2
YA_N
 10
9396.3261307456396
 20
6429.6268749438577
 30
0.0
  0
POLYLINE
  5
7C1A
  8
1
 66
     1
 10
0.0
 20
0.0
 30
0.0
 70
     1
  0
VERTEX
  5
81BF
  8
1
 10
3701.768610890641
 20
2444.306973597289
 30
0.0
  0
VERTEX
  5
81C0
  8
1
 10
3726.768610890641
 20
2444.306973597289
 30
0.0
  0
VERTEX
  5
81C1
  8
1
 10
3726.768610890641
 20
2445.3069735972881
 30
0.0
 42
0.4142135623730951
  0
VERTEX
  5
81C2
  8
1
 10
3724.76861089064
 20
2447.306973597289
 30
0.0
  0
VERTEX
  5
81C3
  8
1
 10
3708.768610890641
 20
2447.306973597289
 30
0.0
 42
-0.4142135623730951
  0
VERTEX
  5
81C4
  8
1
 10
3704.768610890641
 20
2451.306973597289
 30
0.0
  0
VERTEX
  5
81C5
  8
1
 10
3704.768610890641
 20
2467.306973597289
 30
0.0
 42
0.4142135623730951
  0
VERTEX
  5
81C6
  8
1
 10
3702.768610890641
 20
2469.306973597289
 30
0.0
  0
VERTEX
  5
81C7
  8
1
 10
3701.768610890641
 20
2469.306973597289
 30
0.0
  0
SEQEND
  5
81C8
  8
1
  0
INSERT
  5
7C25
  8
0
  2
YA_N
 10
120.0
 20
100.0
 30
0.0
 41
20.0
 42
20.0
 43
20.0
  0
LINE
  5
7C28
  8
1
 10
3726.768610890641
 20
1944.306973597289
 30
0.0
 11
3726.768610890641
 21
1943.3069735972881
 31
0.0
  0
LINE
  5
7C29
  8
1
 10
3704.768610890641
 20
2451.3069345674271
 30
0.0
 11
3704.76861089064
 21
2198.306973597289
 31
0.0
  0
INSERT
  5
7C2A
  8
0
  2
YA_N
 10
120.0
 20
100.0
 30
0.0
 41
20.0
 42
20.0
 43
20.0
  0
INSERT
  5
7C2D
  8
0
  2
YA_N
 10
120.0
 20
100.0
 30
0.0
 41
20.0
 42
20.0
 43
20.0
  0
INSERT
  5
7C2E
  8
0
  2
YA_N
 10
120.0
 20
100.0
 30
0.0
 41
20.0
 42
20.0
 43
20.0
  0
INSERT
  5
7C2F
  8
0
  2
YA_N
 10
120.0
 20
100.0
 30
0.0
 41
20.0
 42
20.0
 43
20.0
  0
LINE
  5
7C32
  8
1
 10
1577.2043298765741
 20
2131.1069735972878
 30
0.0
 11
1577.2043298765741
 21
2134.3069735972881
 31
0.0
  0
LINE
  5
7C33
  8
1
 10
1113.2043298765741
 20
2131.1069735972892
 30
0.0
 11
1113.2043298765741
 21
2134.306973597289
 31
0.0
  0
LINE
  5
7C34
  8
1
 10
2769.9686108906408
 20
2131.1069735972892
 30
0.0
 11
3254.9686108906408
 21
2131.1069735972892
 31
0.0
  0
LINE
  5
7C35
  8
1
 10
3254.9686108906408
 20
2134.306973597289
 30
0.0
 11
3254.9686108906408
 21
2131.1069735972892
 31
0.0
  0
LINE
  5
7C36
  8
1
 10
2769.9686108906408
 20
2134.306973597289
 30
0.0
 11
2769.9686108906408
 21
2131.1069735972892
 31
0.0
  0
LINE
  5
7C37
  8
1
 10
3244.9686108906399
 20
2131.1069735972892
 30
0.0
 11
3244.9686108906399
 21
2091.1069735972892
 31
0.0
  0
LINE
  5
7C38
  8
2
 10
1345.2043298765741
 20
1564.306973597289
 30
0.0
 11
1345.204329876573
 21
2615.5440512101741
 31
0.0
  0
LINE
  5
7C39
  8
1
 10
3322.4686108906399
 20
2168.306973597289
 30
0.0
 11
3322.4686108906399
 21
1656.306973597289
 31
0.0
  0
LINE
  5
7C3A
  8
1
 10
3697.4686108906399
 20
2168.306973597289
 30
0.0
 11
3697.4686108906399
 21
1656.306973597289
 31
0.0
  0
LINE
  5
7C3B
  8
1
 10
3322.4686108906399
 20
2555.306973597289
 30
0.0
 11
3322.4686108906408
 21
2198.306973597289
 31
0.0
  0
LINE
  5
7C3C
  8
1
 10
3697.4686108906399
 20
2555.306973597289
 30
0.0
 11
3697.4686108906408
 21
2198.306973597289
 31
0.0
  0
LINE
  5
7C3D
  8
1
 10
1702.2043298765741
 20
1624.7017906339861
 30
0.0
 11
1702.2043298765741
 21
2199.906973597288
 31
0.0
  0
LINE
  5
7C3E
  8
1
 10
1705.204329876575
 20
1656.306973597289
 30
0.0
 11
1705.204329876575
 21
2168.3069735972881
 31
0.0
  0
LINE
  5
7C3F
  8
1
 10
1639.2840082696839
 20
2168.3069735972881
 30
0.0
 11
1705.204329876575
 21
2168.3069735972881
 31
0.0
  0
LINE
  5
7C40
  8
1
 10
1705.204329876575
 20
2178.306973597289
 30
0.0
 11
1705.204329876575
 21
1646.2745800766429
 31
0.0
  0
LINE
  5
7C41
  8
1
 10
1705.204329876575
 20
1656.306973597289
 30
0.0
 11
1345.2043298765741
 21
1685.306973597289
 31
0.0
  0
ARC
  5
7C42
  8
1
 10
1382.3971234121509
 20
2156.0344422158828
 30
0.0
 40
472.19450823050579
 50
179.845591669458
 51
265.48237072014092
  0
ARC
  5
7C43
  8
1
 10
1307.3316708063739
 20
2158.2659623132031
 30
0.0
 40
397.12849881786531
 50
84.801610318915792
 51
180.13835838925499
  0
ARC
  5
7C44
  8
1
 10
1315.5752158532359
 20
2225.1165764306161
 30
0.0
 40
329.81296712472692
 50
0.0330761849135544
 51
85.175578556776216
  0
ARC
  5
7C45
  8
1
 10
1376.2043298765741
 20
2225.3069735972872
 30
0.0
 40
269.18379814435679
 50
327.01330952517952
 51
0.0000000000003053
  0
LINE
  5
7C46
  8
2
 10
3509.9686108906408
 20
2661.4325806346819
 30
0.0
 11
3509.9686108906408
 21
1564.306973597289
 31
0.0
  0
LINE
  5
7C47
  8
2
 10
2615.0757090707611
 20
2194.306973597289
 30
0.0
 11
3753.8448707307548
 21
2194.306973597289
 31
0.0
1001
ACAD
1000
ASC_BOUNDS
1002
{
1070
    19
1002
}
  0
LINE
  5
7C48
  8
1
 10
1675.2043298765741
 20
1624.701790633985
 30
0.0
 11
1675.2043298765741
 21
2199.906973597288
 31
0.0
  0
LINE
  5
7C49
  8
1
 10
1675.2043298765741
 20
2199.906973597288
 30
0.0
 11
1705.204329876575
 21
2199.906973597288
 31
0.0
  0
LINE
  5
7C4A
  8
1
 10
1705.204329876575
 20
2199.906973597288
 30
0.0
 11
1705.204329876575
 21
1624.701790633985
 31
0.0
  0
LINE
  5
7C4B
  8
1
 10
1705.204329876575
 20
1624.701790633985
 30
0.0
 11
1675.2043298765741
 21
1624.701790633985
 31
0.0
  0
ARC
  5
7C4C
  8
1
 10
1638.2043298765741
 20
2046.3069735972881
 30
0.0
 40
49.0
 50
135.68249193757549
 51
290.76494927673639
  0
LINE
  5
7C4D
  8
1
 10
1705.204329876575
 20
2019.306973597289
 30
0.0
 11
1655.5765456555289
 21
2000.489879419139
 31
0.0
  0
LINE
  5
7C4E
  8
1
 10
1595.2043298765741
 20
1564.306973597289
 30
0.0
 11
515.20432987657477
 21
1564.306973597289
 31
0.0
  0
LINE
  5
7C4F
  8
1
 10
3701.768610890641
 20
2469.306973597289
 30
0.0
 11
3697.4686108906399
 21
2469.306973597289
 31
0.0
  0
LINE
  5
7C50
  8
1
 10
1113.2043298765741
 20
2131.1069735972878
 30
0.0
 11
1577.2043298765741
 21
2131.1069735972878
 31
0.0
  0
POINT
  5
7C51
  8
1
 10
1705.204329876575
 20
1654.701790633985
 30
0.0
  0
POINT
  5
7C52
  8
1
 10
1705.204329876575
 20
1656.306973597289
 30
0.0
  0
POINT
  5
7C53
  8
1
 10
3701.768610890641
 20
2469.306973597289
 30
0.0
  0
LINE
  5
7C54
  8
1
 10
3244.9686108906399
 20
2131.1069735972892
 30
0.0
 11
3244.968610890643
 21
1639.306973597289
 31
0.0
  0
LINE
  5
7C55
  8
1
 10
3726.768610890641
 20
1944.306973597289
 30
0.0
 11
3726.768610890641
 21
1943.3069735972881
 31
0.0
  0
INSERT
  5
7C56
  8
0
  2
YA_N
 10
578.29819496493474
 20
667.15974685678236
 30
0.0
  0
INSERT
  5
7C57
  8
0
  2
YA_N
 10
578.29819496493474
 20
667.15974685678236
 30
0.0
  0
INSERT
  5
7C58
  8
0
  2
YA_N
 10
578.29819496493474
 20
667.15974685678236
 30
0.0
  0
INSERT
  5
7C59
  8
0
  2
YA_N
 10
578.29819496493474
 20
667.15974685678236
 30
0.0
  0
INSERT
  5
7C5A
  8
0
  2
YA_N
 10
2798.551811518767
 20
1662.02584223804
 30
0.0
  0
INSERT
  5
7C5C
  8
0
  2
YA_N
 10
3145.897131625954
 20
1825.850693409124
 30
0.0
 41
3.191404879447199
 42
3.191404879447199
 43
3.191404879447199
  0
INSERT
  5
7C5D
  8
0
  2
YA_N
 10
18.0
 20
4050.5577889263582
 30
0.0
  0
INSERT
  5
7C5E
  8
0
  2
YA_N
 10
18.0
 20
4050.5577889263582
 30
0.0
  0
INSERT
  5
7C5F
  8
0
  2
YA_N
 10
18.0
 20
4050.5577889263582
 30
0.0
  0
INSERT
  5
7C60
  8
0
  2
YA_N
 10
10018.0
 20
14050.55778892635
 30
0.0
  0
INSERT
  5
7C61
  8
0
  2
YA_N
 10
10018.0
 20
14050.55778892635
 30
0.0
  0
INSERT
  5
7C62
  8
0
  2
YA_N
 10
10018.0
 20
14050.55778892635
 30
0.0
  0
INSERT
  5
7C63
  8
0
  2
YA_N
 10
10018.0
 20
14050.55778892635
 30
0.0
  0
INSERT
  5
7C64
  8
0
  6
BYBLOCK
 62
     2
  2
YA_N
 10
3183.088503818366
 20
1711.274344822353
 30
0.0
 41
24.0
 42
24.0
 43
24.0
 50
270.0
  0
INSERT
  5
7C65
  8
0
  6
BYBLOCK
 62
     2
  2
YA_N
 10
3290.1059722385171
 20
1726.595643880431
 30
0.0
 41
24.0
 42
24.0
 43
24.0
 50
270.0
  0
LINE
  5
7C66
  8
1
 10
2684.9686108906399
 20
2334.0069735972888
 30
0.0
 11
2684.9686108906421
 21
2054.6069735972892
 31
0.0
  0
LINE
  5
7C67
  8
1
 10
2724.9686108906408
 20
2213.306973597289
 30
0.0
 11
2754.9686108906408
 21
2213.3069735972881
 31
0.0
1001
ACAD
1000
ASC_BOUNDS
1002
{
1070
    19
1002
}
  0
LINE
  5
7C68
  8
1
 10
2724.9686108906408
 20
2175.3069735972881
 30
0.0
 11
2754.9686108906408
 21
2175.3069735972881
 31
0.0
1001
ACAD
1000
ASC_BOUNDS
1002
{
1070
    19
1002
}
  0
LINE
  5
7C69
  8
1
 10
2754.9686108906408
 20
2216.806973597289
 30
0.0
 11
2754.9686108906408
 21
2171.806973597289
 31
0.0
  0
LINE
  5
7C6A
  8
1
 10
2754.9686108906408
 20
2216.806973597289
 30
0.0
 11
3322.4686108906408
 21
2216.806973597289
 31
0.0
1001
ACAD
1000
ASC_BOUNDS
1002
{
1070
    19
1002
}
  0
LINE
  5
7C6B
  8
1
 10
2754.9686108906408
 20
2171.806973597289
 30
0.0
 11
3292.4686108906399
 21
2171.806973597289
 31
0.0
1001
ACAD
1000
ASC_BOUNDS
1002
{
1070
    19
1002
}
  0
LINE
  5
7C6C
  8
1
 10
2724.968610890639
 20
2334.0069735972888
 30
0.0
 11
2724.9686108906408
 21
2054.6069735972892
 31
0.0
  0
LINE
  5
7C6D
  8
1
 10
2684.968610890638
 20
2334.0069735972888
 30
0.0
 11
2724.968610890639
 21
2334.0069735972888
 31
0.0
1001
ACAD
1000
ASC_BOUNDS
1002
{
1070
    19
1002
}
  0
LINE
  5
7C6E
  8
1
 10
2776.768610890641
 20
1885.306973597289
 30
0.0
 11
2776.768610890641
 21
1835.306973597289
 31
0.0
  0
LINE
  5
7C6F
  8
1
 10
2684.9686108906421
 20
2054.6069735972892
 30
0.0
 11
2684.9686108906421
 21
1746.306973597289
 31
0.0
  0
LINE
  5
7C70
  8
1
 10
2724.9686108906408
 20
2054.6069735972892
 30
0.0
 11
2724.9686108906408
 21
1746.306973597289
 31
0.0
  0
LINE
  5
7C71
  8
1
 10
2760.02837254113
 20
2300.8023754468172
 30
0.0
 11
2760.02837254113
 21
2384.0069735972888
 31
0.0
  0
LINE
  5
7C72
  8
1
 10
2760.02837254113
 20
2384.0069735972888
 30
0.0
 11
2638.02837254113
 21
2384.0069735972888
 31
0.0
  0
LINE
  5
7C73
  8
1
 10
2638.02837254113
 20
2384.0069735972888
 30
0.0
 11
2638.0283725411291
 21
1693.806973597289
 31
0.0
  0
CIRCLE
  5
7C74
  8
1
 10
1345.2043298765741
 20
2194.306973597289
 30
0.0
 40
139.69999999999999
  0
LINE
  5
7C75
  8
1
 10
2638.02837254113
 20
1693.806973597289
 30
0.0
 11
2760.02837254113
 21
1693.806973597289
 31
0.0
  0
LINE
  5
7C76
  8
1
 10
2760.0283725411291
 20
1750.4855133364711
 30
0.0
 11
2760.0283725411291
 21
1693.806973597289
 31
0.0
  0
LINE
  5
7C77
  8
1
 10
2638.02837254113
 20
2384.0069735972879
 30
0.0
 11
2760.02837254113
 21
2384.0069735972879
 31
0.0
  0
INSERT
  5
7C78
  8
0
  6
BYBLOCK
 62
     2
  2
YA_N
 10
3220.312248982013
 20
845.60638416362042
 30
0.0
 41
24.0
 42
24.0
 43
24.0
 50
209.02222522655319
  0
LINE
  5
7C79
  8
1
 10
1567.2043298765709
 20
2091.1069735972878
 30
0.0
 11
1675.2043298765741
 21
2091.1069735972878
 31
0.0
  0
LINE
  5
7C7A
  8
1
 10
1123.2043298765741
 20
2091.1069735972878
 30
0.0
 11
913.40740155899312
 21
2091.1069735972878
 31
0.0
  0
LINE
  5
7C7B
  8
1
 10
1123.2043298765741
 20
2085.1069735972892
 30
0.0
 11
914.29391109964672
 21
2085.1069735972892
 31
0.0
  0
LINE
  5
7C7C
  8
1
 10
1567.2043298765709
 20
2085.1069735972892
 30
0.0
 11
1675.2043298765741
 21
2085.1069735972892
 31
0.0
  0
LINE
  5
7C7D
  8
1
 10
3244.9686108906399
 20
2091.1069735972892
 30
0.0
 11
3292.4686108906399
 21
2091.1069735972892
 31
0.0
  0
LINE
  5
7C7E
  8
1
 10
3244.9686108906399
 20
2091.1069735972892
 30
0.0
 11
3244.9686108906399
 21
2131.1069735972892
 31
0.0
  0
LINE
  5
7C7F
  8
1
 10
3244.9686108906399
 20
2131.1069735972892
 30
0.0
 11
3246.9686108906408
 21
2131.1069735972892
 31
0.0
  0
LINE
  5
7C80
  8
1
 10
3244.9686108906399
 20
2085.1069735972892
 30
0.0
 11
3292.4686108906399
 21
2085.1069735972892
 31
0.0
  0
INSERT
  5
7C81
  8
0
  2
YA_N
 10
1713.0203073866769
 20
330.47048422179881
 30
0.0
  0
INSERT
  5
7C85
  8
0
  6
BYBLOCK
 62
     2
  2
YA_N
 10
362.7872676876068
 20
442.62049533921049
 30
0.0
 41
24.0
 42
24.0
 43
24.0
 50
270.0
  0
POINT
  5
7C86
  8
1
 10
1705.204329876575
 20
1656.306973597289
 30
0.0
  0
POINT
  5
7C87
  8
1
 10
1705.204329876575
 20
2168.3069735972881
 30
0.0
  0
POINT
  5
7C88
  8
1
 10
1705.204329876575
 20
1656.306973597289
 30
0.0
  0
LINE
  5
7C89
  8
1
 10
3701.7686108906419
 20
2198.306973597289
 30
0.0
 11
3701.768610890641
 21
2444.306973597289
 31
0.0
  0
LINE
  5
7C8A
  8
1
 10
500.20432987657381
 20
1639.306973597289
 30
0.0
 11
850.20432987657477
 21
1639.306973597289
 31
0.0
  0
LINE
  5
7C8C
  8
1
 10
500.20432987657381
 20
1639.306973597289
 30
0.0
 11
500.20432987657381
 21
1684.306973597289
 31
0.0
  0
LINE
  5
7C8D
  8
1
 10
850.20432987657477
 20
1639.306973597289
 30
0.0
 11
850.20432987657477
 21
1684.306973597289
 31
0.0
  0
LINE
  5
7C8E
  8
1
 10
2684.9686108906421
 20
1886.306973597289
 30
0.0
 11
2724.9686108906408
 21
1886.306973597289
 31
0.0
  0
LINE
  5
7C8F
  8
1
 10
2684.9686108906421
 20
1746.306973597289
 30
0.0
 11
2724.9686108906408
 21
1746.306973597289
 31
0.0
  0
LINE
  5
7C90
  8
1
 10
1245.2043298765741
 20
2134.306973597289
 30
0.0
 11
1445.2043298765741
 21
2134.306973597289
 31
0.0
  0
LINE
  5
7C91
  8
1
 10
2857.4686108906408
 20
2134.306973597289
 30
0.0
 11
2792.4686108906399
 21
2134.306973597289
 31
0.0
  0
LINE
  5
7C92
  8
2
 10
534.93480761989122
 20
1816.3069735972881
 30
0.0
 11
796.22626912344822
 21
1816.3069735972881
 31
0.0
  0
CIRCLE
  5
7C93
  8
1
 10
675.20432987657466
 20
1816.3069735972881
 30
0.0
 40
72.5
  0
LINE
  5
7C94
  8
1
 10
1296.415287676502
 20
2325.2104470470008
 30
0.0
 11
649.88431871332978
 21
1884.241847076918
 31
0.0
  0
LINE
  5
7C95
  8
1
 10
1367.8174993884179
 20
2056.4493130751812
 30
0.0
 11
686.93986881436012
 21
1744.763091078657
 31
0.0
  0
ARC
  5
7C96
  8
1
 10
1345.2043298765741
 20
2194.306973597289
 30
0.0
 40
189.69999999999999
 50
279.31542552106151
 51
110.4409309258598
  0
LINE
  5
7C97
  8
1
 10
1375.9109745179251
 20
2007.108704441642
 30
0.0
 11
695.03334394386718
 21
1695.422482445118
 31
0.0
  0
ARC
  5
7C98
  8
1
 10
675.20432987657466
 20
1816.3069735972881
 30
0.0
 40
122.5
 50
110.4409309258598
 51
279.31542552106151
  0
DIMENSION
  5
7C99
  8
3
  2
*D2
 10
1858.1398960109691
 20
2168.3069735972881
 30
0.0
 11
1818.139896010968
 21
1912.306973597289
 31
0.0
 70
     0
 13
1705.204329876575
 23
1656.306973597289
 33
0.0
 14
1705.204329876575
 24
2168.3069735972881
 34
0.0
 50
90.0
1001
ACAD
1000
DSTYLE
1002
{
1070
   287
1070
     3
1070
    40
1040
20.0
1070
   140
1040
3.0
1070
   147
1040
0.5
1070
   173
1070
     1
1070
   272
1070
     4
1070
   279
1070
     0
1070
   284
1070
     0
1070
   285
1070
     0
1070
   286
1070
     0
1070
     6
1000
OPEN
1070
     7
1000
OPEN
1002
}
  0
LINE
  5
7C9A
  8
2
 10
1345.2043298765741
 20
3041.4494065131348
 30
0.0
 11
1345.2043298765741
 21
4199.574602697583
 31
0.0
  0
LINE
  5
7C9B
  8
2
 10
675.20432987657375
 20
3042.7523397540208
 30
0.0
 11
675.20432987657375
 21
3662.61673083797
 31
0.0
  0
LINE
  5
7C9C
  8
2
 10
1729.3959257636809
 20
3935.157625024739
 30
0.0
 11
878.2915058346224
 21
3935.157625024739
 31
0.0
  0
LINE
  5
7C9D
  8
1
 10
500.20432987657381
 20
1639.306973597289
 30
0.0
 11
1595.2043298765741
 21
1639.306973597289
 31
0.0
  0
DIMENSION
  5
7CB8
  8
3
  2
*D3
 10
3322.4686108906408
 20
2657.5449938435299
 30
0.0
 11
3509.9686108906408
 21
2697.5449938435299
 31
0.0
 12
-2368.0986788777918
 22
1183.079967807176
 32
0.0
 70
     0
 13
3697.4686108906399
 23
2555.306973597289
 33
0.0
 14
3322.4686108906408
 24
2555.306973597289
 34
0.0
1001
ACAD
1000
DSTYLE
1002
{
1070
   284
1070
     0
1070
   140
1040
3.0
1070
   272
1070
     4
1070
    40
1040
20.0
1070
   173
1070
     1
1070
   147
1040
0.5
1070
     7
1000
_OPEN
1070
     6
1000
_OPEN
1070
   285
1070
     0
1070
   286
1070
     0
1002
}
  0
DIMENSION
  5
7CB9
  8
3
  2
*D4
 10
3509.9686108906408
 20
2810.9924207686272
 30
0.0
 11
3605.86861089064
 21
2875.9924207686272
 31
0.0
 12
-2368.0986788777918
 22
1183.079967807176
 32
0.0
 70
     0
  1
192
 13
3701.768610890641
 23
2469.306973597289
 33
0.0
 14
3509.9686108906408
 24
2739.2202867668948
 34
0.0
1001
ACAD
1000
DSTYLE
1002
{
1070
   284
1070
     0
1070
   140
1040
3.0
1070
   272
1070
     4
1070
    40
1040
20.0
1070
   173
1070
     1
1070
   147
1040
0.5
1070
     7
1000
_OPEN
1070
     6
1000
_OPEN
1070
   285
1070
     0
1070
   286
1070
     0
1002
}
  0
DIMENSION
  5
7CBA
  8
3
  2
*D5
 10
2638.02837254113
 20
2810.9924207686272
 30
0.0
 11
3073.9984917158849
 21
2900.9924207686272
 31
0.0
 70
     0
  1
MAX\P930
 13
3509.9686108906408
 23
2739.2202867668948
 33
0.0
 14
2638.02837254113
 24
2384.0069735972879
 34
0.0
1001
ACAD
1000
DSTYLE
1002
{
1070
   284
1070
     0
1070
   140
1040
3.0
1070
   272
1070
     4
1070
    75
1070
     1
1070
    40
1040
20.0
1070
   173
1070
     1
1070
   147
1040
0.5
1070
     7
1000
_OPEN
1070
     6
1000
_OPEN
1070
   285
1070
     0
1070
   286
1070
     0
1002
}
  0
DIMENSION
  5
7CBB
  8
3
  2
*D6
 10
3916.8418173624091
 20
1944.306973597289
 30
0.0
 11
3876.8418173624082
 21
2194.306973597289
 31
0.0
 70
     0
 13
3726.768610890641
 23
2444.306973597289
 33
0.0
 14
3726.768610890641
 24
1944.306973597289
 34
0.0
 50
90.0
1001
ACAD
1000
DSTYLE
1002
{
1070
   284
1070
     0
1070
   140
1040
3.0
1070
   272
1070
     4
1070
    40
1040
20.0
1070
   173
1070
     1
1070
     3
1000
φ<>
1070
   147
1040
0.5
1070
     7
1000
_OPEN
1070
     6
1000
_OPEN
1070
   285
1070
     0
1070
   286
1070
     0
1002
}
  0
LINE
  5
7CBC
  8
1
 10
1278.9532110121941
 20
2372.0620839295029
 30
0.0
 11
632.4222420490222
 21
1931.0934839594199
 31
0.0
  0
LINE
  5
7CBD
  8
1
 10
500.20432987657381
 20
1684.306973597289
 30
0.0
 11
850.20432987657477
 21
1684.306973597289
 31
0.0
  0
ARC
  5
7CBE
  8
1
 10
675.20432987657466
 20
1816.3069735972881
 30
0.0
 40
142.5
 50
295.27460000000002
 51
0.0
  0
ARC
  5
7CBF
  8
1
 10
675.20432987657466
 20
1816.3069735972881
 30
0.0
 40
142.5
 50
0.0
 51
244.99879999999999
  0
LINE
  5
7CC0
  8
2
 10
675.20432987657466
 20
2009.7049735972889
 30
0.0
 11
675.20432987657466
 21
1626.969791080827
 31
0.0
  0
LINE
  5
7CC1
  8
1
 10
735.74572987657484
 20
1687.306973597289
 30
0.0
 11
614.663029876574
 21
1687.306973597289
 31
0.0
  0
LINE
  5
7CC2
  8
1
 10
545.20432987657466
 20
1684.306973597289
 30
0.0
 11
595.20432987657466
 21
1684.306973597289
 31
0.0
  0
LINE
  5
7CC3
  8
1
 10
555.721529876575
 20
1738.5575735972891
 30
0.0
 11
545.20432987657466
 21
1699.306973597289
 31
0.0
  0
LINE
  5
7CC4
  8
1
 10
545.20432987657466
 20
1699.109573597289
 30
0.0
 11
545.20432987657466
 21
1684.306973597289
 31
0.0
  0
ARC
  5
7CC5
  8
1
 10
600.20432987657466
 20
1692.2359735972891
 30
0.0
 40
4.9999000000000002
 50
134.99950000000001
 51
180.0
  0
LINE
  5
7CC6
  8
1
 10
596.32452987657405
 20
1695.4271735972891
 30
0.0
 11
597.69542987657405
 21
1696.798073597289
 31
0.0
  0
LINE
  5
7CC7
  8
1
 10
595.20432987657466
 20
1684.306973597289
 30
0.0
 11
595.20432987657466
 21
1692.2359735972891
 31
0.0
  0
LINE
  5
7CC8
  8
1
 10
794.72992987657381
 20
1738.3982735972879
 30
0.0
 11
805.20432987657466
 21
1699.306973597289
 31
0.0
  0
LINE
  5
7CC9
  8
1
 10
805.20432987657466
 20
1684.306973597289
 30
0.0
 11
755.20432987657466
 21
1684.306973597289
 31
0.0
  0
ARC
  5
7CCA
  8
1
 10
750.20442987657395
 20
1692.2359735972891
 30
0.0
 40
4.9999000000000002
 50
0.0
 51
45.000500000000002
  0
LINE
  5
7CCB
  8
1
 10
753.57952987657507
 20
1695.931973597289
 30
0.0
 11
752.77752987657357
 21
1696.7339735972889
 31
0.0
  0
LINE
  5
7CCC
  8
1
 10
755.20432987657466
 20
1684.306973597289
 30
0.0
 11
755.20432987657466
 21
1692.2359735972891
 31
0.0
  0
LINE
  5
7CCD
  8
1
 10
805.20432987657466
 20
1699.109573597289
 30
0.0
 11
805.20432987657466
 21
1684.306973597289
 31
0.0
  0
LINE
  5
7CCF
  8
2
 10
3227.0712324629162
 20
1816.3069735972881
 30
0.0
 11
2615.7531881344471
 21
1816.3069735972881
 31
0.0
  0
LINE
  5
7CD0
  8
1
 10
1364.2043298765741
 20
3150.1576250247399
 30
0.0
 11
1364.2043298765741
 21
3180.1576250247399
 31
0.0
1001
ACAD
1000
ASC_BOUNDS
1002
{
1070
    19
1002
}
  0
LINE
  5
7CD1
  8
1
 10
1326.2043298765741
 20
3150.1576250247399
 30
0.0
 11
1326.2043298765741
 21
3180.1576250247399
 31
0.0
1001
ACAD
1000
ASC_BOUNDS
1002
{
1070
    19
1002
}
  0
LINE
  5
7CD2
  8
1
 10
1565.2043298765741
 20
3185.2173866752291
 30
0.0
 11
1565.2043298765741
 21
3063.2173866752291
 31
0.0
  0
LINE
  5
7CD3
  8
1
 10
1565.2043298765741
 20
3063.2173866752291
 30
0.0
 11
1565.2043298765741
 21
3185.2173866752291
 31
0.0
  0
LINE
  5
7CD5
  8
1
 10
525.20432987657375
 20
3063.2173866752291
 30
0.0
 11
525.20432987657375
 21
3185.2173866752291
 31
0.0
  0
LINE
  5
7CD6
  8
1
 10
1484.904329876573
 20
3150.157625024739
 30
0.0
 11
1205.504329876574
 21
3150.1576250247408
 31
0.0
  0
LINE
  5
7CD7
  8
1
 10
1484.904329876573
 20
3110.157625024739
 30
0.0
 11
1205.504329876574
 21
3110.1576250247422
 31
0.0
  0
LINE
  5
7CD8
  8
1
 10
1565.2043298765741
 20
3063.2173866752291
 30
0.0
 11
525.20432987657375
 21
3063.2173866752291
 31
0.0
  0
LINE
  5
7CD9
  8
1
 10
1205.504329876574
 20
3150.1576250247408
 30
0.0
 11
605.20432987657466
 21
3150.1576250247408
 31
0.0
  0
LINE
  5
7CDA
  8
1
 10
1205.504329876574
 20
3110.1576250247422
 30
0.0
 11
605.20432987657466
 21
3110.1576250247422
 31
0.0
  0
LINE
  5
7CDB
  8
1
 10
605.20432987657375
 20
3110.1576250247422
 30
0.0
 11
605.20432987657375
 21
3150.1576250247408
 31
0.0
  0
LINE
  5
7CDC
  8
1
 10
745.20432987657387
 20
3110.1576250247399
 30
0.0
 11
745.20432987657387
 21
3150.1576250247399
 31
0.0
  0
LINE
  5
7CDD
  8
1
 10
1484.904329876573
 20
3110.1576250247381
 30
0.0
 11
1484.904329876573
 21
3150.157625024739
 31
0.0
1001
ACAD
1000
ASC_BOUNDS
1002
{
1070
    19
1002
}
  0
LINE
  5
7CDE
  8
1
 10
1322.7043298765741
 20
3201.9576250247392
 30
0.0
 11
1125.53856103673
 21
3201.957625024741
 31
0.0
  0
LINE
  5
7CDF
  8
1
 10
1322.7043298765741
 20
3670.1576250247399
 30
0.0
 11
1125.53856103673
 21
3670.1576250247399
 31
0.0
  0
LINE
  5
7CE0
  8
1
 10
1367.7043298765741
 20
3180.1576250247399
 30
0.0
 11
1367.7043298765741
 21
3747.657625024739
 31
0.0
1001
ACAD
1000
ASC_BOUNDS
1002
{
1070
    19
1002
}
  0
LINE
  5
7CE1
  8
1
 10
1322.7043298765741
 20
3180.1576250247399
 30
0.0
 11
1322.7043298765741
 21
3747.6576250247408
 31
0.0
1001
ACAD
1000
ASC_BOUNDS
1002
{
1070
    19
1002
}
  0
LINE
  5
7CE2
  8
1
 10
1367.7043298765741
 20
3180.1576250247399
 30
0.0
 11
1322.7043298765741
 21
3180.1576250247399
 31
0.0
  0
LINE
  5
7CE3
  8
1
 10
1322.7043298765741
 20
3185.2173866752291
 30
0.0
 11
525.20432987657375
 21
3185.2173866752291
 31
0.0
  0
LINE
  5
7CE4
  8
1
 10
1367.7043298765741
 20
3185.2173866752291
 30
0.0
 11
1565.2043298765741
 21
3185.2173866752291
 31
0.0
  0
LINE
  5
7CE5
  8
1
 10
1282.004329876575
 20
3670.1576250247399
 30
0.0
 11
1242.004329876575
 21
3670.1576250247399
 31
0.0
  0
LINE
  5
7CE6
  8
1
 10
1242.004329876575
 20
3670.1576250247399
 30
0.0
 11
1282.004329876575
 21
3670.1576250247399
 31
0.0
  0
LINE
  5
7CE7
  8
1
 10
1205.504329876574
 20
3110.1576250247381
 30
0.0
 11
1205.504329876574
 21
3150.157625024739
 31
0.0
1001
ACAD
1000
ASC_BOUNDS
1002
{
1070
    19
1002
}
  0
LINE
  5
7CE8
  8
2
 10
1890.35019149086
 20
2194.306973597289
 30
0.0
 11
893.27242809778363
 21
2194.306973597289
 31
0.0
  0
DIMENSION
  5
7CE9
  8
3
  2
*D7
 10
1981.5327320733791
 20
1656.306973597289
 30
0.0
 11
1941.5327320733791
 21
1925.3069735972881
 31
0.0
 12
-2368.0986788777918
 22
1183.079967807176
 32
0.0
 70
     0
 13
1746.5569063435159
 23
2194.306973597289
 33
0.0
 14
1705.204329876575
 24
1656.306973597289
 34
0.0
 50
90.0
1001
ACAD
1000
DSTYLE
1002
{
1070
   284
1070
     0
1070
   140
1040
3.0
1070
   272
1070
     4
1070
    40
1040
20.0
1070
   173
1070
     1
1070
   147
1040
0.5
1070
     7
1000
_OPEN
1070
     6
1000
_OPEN
1070
   285
1070
     0
1070
   286
1070
     0
1002
}
  0
LINE
  5
7CEA
  8
1
 10
1675.2043298765741
 20
4122.6576250247417
 30
0.0
 11
910.20432987657387
 21
4122.657625024739
 31
0.0
  0
LINE
  5
7CEB
  8
1
 10
1675.2043298765741
 20
3747.6576250247408
 30
0.0
 11
910.20432987657387
 21
3747.657625024739
 31
0.0
  0
LINE
  5
7CEE
  8
1
 10
1125.53856103673
 20
3201.957625024741
 30
0.0
 11
1125.53856103673
 21
3670.1576250247399
 31
0.0
  0
LINE
  5
7CEF
  8
1
 10
1367.7043298765741
 20
3670.1576250247399
 30
0.0
 11
1564.8700987164179
 21
3670.1576250247399
 31
0.0
  0
LINE
  5
7CF0
  8
1
 10
1564.8700987164179
 20
3201.957625024741
 30
0.0
 11
1564.8700987164179
 21
3670.1576250247399
 31
0.0
  0
LINE
  5
7CF1
  8
1
 10
1367.7043298765741
 20
3201.9576250247392
 30
0.0
 11
1564.8700987164179
 21
3201.957625024741
 31
0.0
  0
LINE
  5
7CF2
  8
1
 10
807.20432987657375
 20
3617.1573250247379
 30
0.0
 11
807.20432987657375
 21
3227.1576250247372
 31
0.0
  0
LINE
  5
7CF3
  8
1
 10
533.20432987657375
 20
3227.1576250247372
 30
0.0
 11
533.20432987657375
 21
3617.1573250247379
 31
0.0
  0
LINE
  5
7CF4
  8
1
 10
533.20432987657375
 20
3227.1576250247372
 30
0.0
 11
807.20432987657375
 21
3227.1576250247372
 31
0.0
  0
LINE
  5
7CF5
  8
1
 10
733.20432987657375
 20
3217.1576250247381
 30
0.0
 11
617.20432987657375
 21
3217.1576250247381
 31
0.0
  0
LINE
  5
7CF6
  8
1
 10
807.20432987657375
 20
3227.1576250247372
 30
0.0
 11
807.20432987657375
 21
3388.1576250247381
 31
0.0
  0
LINE
  5
7CF7
  8
1
 10
734.20432987657375
 20
3227.1576250247372
 30
0.0
 11
734.20432987657375
 21
3218.1576250247381
 31
0.0
  0
ARC
  5
7CF8
  8
1
 10
733.20432987657375
 20
3218.1576250247381
 30
0.0
 40
0.9999
 50
269.99650000000003
 51
0.006999999999969
  0
LINE
  5
7CF9
  8
1
 10
694.20432987657387
 20
3210.1576250247381
 30
0.0
 11
694.20432987657387
 21
3130.1576250247381
 31
0.0
  0
LINE
  5
7CFA
  8
1
 10
656.20432987657375
 20
3210.1576250247381
 30
0.0
 11
656.20432987657375
 21
3130.1576250247381
 31
0.0
  0
LINE
  5
7CFB
  8
1
 10
694.20432987657387
 20
3130.1576250247381
 30
0.0
 11
656.20432987657477
 21
3130.1576250247381
 31
0.0
  0
LINE
  5
7CFC
  8
1
 10
695.20432987657387
 20
3210.1576250247381
 30
0.0
 11
655.20432987657375
 21
3210.1576250247381
 31
0.0
  0
LINE
  5
7CFD
  8
1
 10
695.20432987657387
 20
3217.1576250247381
 30
0.0
 11
695.20432987657387
 21
3210.1576250247381
 31
0.0
  0
LINE
  5
7CFE
  8
1
 10
655.20432987657375
 20
3217.1576250247381
 30
0.0
 11
655.20432987657375
 21
3210.1576250247381
 31
0.0
  0
LINE
  5
7CFF
  8
1
 10
616.20432987657375
 20
3227.1576250247372
 30
0.0
 11
616.20432987657375
 21
3218.1576250247381
 31
0.0
  0
ARC
  5
7D00
  8
1
 10
558.20432987657375
 20
3229.1576250247381
 30
0.0
 40
2.0001000000000002
 50
180.00349999999989
 51
270.0
  0
ARC
  5
7D01
  8
1
 10
617.20432987657375
 20
3218.1566250247379
 30
0.0
 40
0.9998000000000001
 50
179.98599999999999
 51
270.00700000000001
  0
ARC
  5
7D02
  8
1
 10
534.70432987657375
 20
3550.1572250247391
 30
0.0
 40
2.0001000000000002
 50
90.003500000000003
 51
179.9965
  0
LINE
  5
7D03
  8
1
 10
533.20432987657375
 20
3617.1573250247379
 30
0.0
 11
807.20432987657375
 21
3617.1573250247379
 31
0.0
  0
ARC
  5
7D04
  8
1
 10
798.26492987657446
 20
3615.1573250247388
 30
0.0
 40
2.0
 50
1.7628000000000461
 51
90.0
  0
DIMENSION
  5
7D09
  8
3
  2
*D8
 10
1345.204329876573
 20
2701.853816189328
 30
0.0
 11
1525.2043298765741
 21
2741.853816189328
 31
0.0
 12
-2368.0986788777918
 22
1183.079967807176
 32
0.0
 70
     0
 13
1705.204329876575
 23
2199.906973597288
 33
0.0
 14
1345.204329876573
 24
2615.5440512101741
 34
0.0
1001
ACAD
1000
DSTYLE
1002
{
1070
   284
1070
     0
1070
   140
1040
3.0
1070
   272
1070
     4
1070
    40
1040
20.0
1070
   173
1070
     1
1070
   147
1040
0.5
1070
     7
1000
_OPEN
1070
     6
1000
_OPEN
1070
   285
1070
     0
1070
   286
1070
     0
1002
}
  0
DIMENSION
  5
7D0A
  8
3
  2
*D9
 10
910.20432987657477
 20
2701.853816189328
 30
0.0
 11
1127.704329876573
 21
2741.853816189328
 31
0.0
 12
-2368.0986788777918
 22
1183.079967807176
 32
0.0
 70
     0
 13
1345.204329876573
 23
2615.5440512101741
 33
0.0
 14
910.20432987657477
 24
2157.306973597289
 34
0.0
1001
ACAD
1000
DSTYLE
1002
{
1070
   284
1070
     0
1070
   140
1040
3.0
1070
   272
1070
     4
1070
    75
1070
     1
1070
    40
1040
20.0
1070
   173
1070
     1
1070
   147
1040
0.5
1070
     7
1000
_OPEN
1070
     6
1000
_OPEN
1070
   285
1070
     0
1070
   286
1070
     0
1002
}
  0
LINE
  5
7D0B
  8
1
 10
1705.204329876573
 20
3717.6576250247408
 30
0.0
 11
1705.204329876575
 21
4152.6576250247399
 31
0.0
  0
LINE
  5
7D0C
  8
1
 10
910.20432987657387
 20
3747.657625024739
 30
0.0
 11
910.20432987657477
 21
4122.6576250247381
 31
0.0
  0
LINE
  5
7D0D
  8
1
 10
1705.204329876575
 20
4152.6576250247408
 30
0.0
 11
1675.2043298765741
 21
4152.6576250247399
 31
0.0
  0
LINE
  5
7D0E
  8
1
 10
1705.2043298765741
 20
3717.6576250247399
 30
0.0
 11
1675.2043298765741
 21
3717.6576250247408
 31
0.0
  0
LINE
  5
7D0F
  8
1
 10
1675.204329876573
 20
3717.6576250247408
 30
0.0
 11
1675.2043298765741
 21
4152.6576250247399
 31
0.0
  0
LINE
  5
7D10
  8
1
 10
3322.468610890639
 20
2555.306973597289
 30
0.0
 11
3697.4686108906399
 21
2555.306973597289
 31
0.0
1001
ACAD
1000
ASC_BOUNDS
1002
{
1070
    19
1002
}
  0
LINE
  5
7D11
  8
1
 10
2801.968610890643
 20
1674.306973597289
 30
0.0
 11
3191.9683108906429
 21
1674.306973597289
 31
0.0
  0
LINE
  5
7D12
  8
1
 10
3191.968310890642
 20
1948.306973597289
 30
0.0
 11
2801.968610890643
 21
1948.306973597289
 31
0.0
  0
LINE
  5
7D14
  8
1
 10
2801.968610890643
 20
1674.306973597289
 30
0.0
 11
2801.968610890643
 21
1948.306973597289
 31
0.0
  0
LINE
  5
7D15
  8
1
 10
2784.9686108906421
 20
1797.306973597289
 30
0.0
 11
2704.9686108906421
 21
1797.306973597289
 31
0.0
  0
LINE
  5
7D16
  8
1
 10
2784.9686108906421
 20
1835.306973597289
 30
0.0
 11
2704.9686108906421
 21
1835.306973597289
 31
0.0
  0
LINE
  5
7D17
  8
1
 10
2784.9686108906421
 20
1836.3069735972881
 30
0.0
 11
2784.9686108906421
 21
1796.306973597289
 31
0.0
  0
LINE
  5
7D18
  8
1
 10
2791.9686108906421
 20
1874.306973597289
 30
0.0
 11
2791.9686108906421
 21
1758.306973597289
 31
0.0
  0
LINE
  5
7D19
  8
1
 10
2791.9686108906421
 20
1836.3069735972881
 30
0.0
 11
2784.9686108906421
 21
1836.3069735972881
 31
0.0
  0
ARC
  5
7D1A
  8
1
 10
2792.968610890643
 20
1874.306973597289
 30
0.0
 40
0.9999
 50
89.993000000000023
 51
180.00349999999989
  0
LINE
  5
7D1B
  8
1
 10
2801.968610890643
 20
1875.306973597289
 30
0.0
 11
2792.968610890643
 21
1875.306973597289
 31
0.0
  0
ARC
  5
7D1C
  8
1
 10
2792.9676108906419
 20
1758.306973597289
 30
0.0
 40
0.9998000000000001
 50
179.99299999999991
 51
270.01400000000001
  0
LINE
  5
7D1D
  8
1
 10
2801.968610890643
 20
1757.306973597289
 30
0.0
 11
2792.968610890643
 21
1757.306973597289
 31
0.0
  0
LINE
  5
7D1E
  8
1
 10
2791.9686108906421
 20
1796.306973597289
 30
0.0
 11
2784.9686108906421
 21
1796.306973597289
 31
0.0
  0
LINE
  5
7D1F
  8
1
 10
3191.9683108906429
 20
1674.306973597289
 30
0.0
 11
3191.9683108906429
 21
1948.306973597289
 31
0.0
  0
ARC
  5
7D20
  8
1
 10
3189.968310890642
 20
1939.367573597289
 30
0.0
 40
2.0
 50
0.0
 51
88.237199999999959
  0
LINE
  5
7D21
  8
1
 10
2704.9686108906421
 20
1835.306973597289
 30
0.0
 11
2704.9686108906421
 21
1797.306973597289
 31
0.0
  0
LINE
  5
7D22
  8
1
 10
2776.768610890641
 20
1797.306973597289
 30
0.0
 11
2776.768610890641
 21
1639.306973597289
 31
0.0
  0
LINE
  5
7D23
  8
1
 10
3151.9684608906432
 20
1674.306973597289
 30
0.0
 11
3151.9684608906432
 21
1639.306973597289
 31
0.0
  0
LINE
  5
7D24
  8
1
 10
2841.9684608906418
 20
1674.306973597289
 30
0.0
 11
2841.9684608906418
 21
1639.306973597289
 31
0.0
  0
LINE
  5
7D25
  8
1
 10
3292.4686108906399
 20
2198.306973597289
 30
0.0
 11
3292.4686108906399
 21
1626.306973597289
 31
0.0
  0
LINE
  5
7D26
  8
1
 10
3727.4686108906408
 20
2198.306973597289
 30
0.0
 11
3727.4686108906399
 21
1626.306973597289
 31
0.0
  0
LINE
  5
7D27
  8
1
 10
3322.4686108906408
 20
2168.306973597289
 30
0.0
 11
3697.4686108906408
 21
2168.306973597289
 31
0.0
1001
ACAD
1000
ASC_BOUNDS
1002
{
1070
    19
1002
}
  0
LINE
  5
7D28
  8
1
 10
3292.4686108906399
 20
2198.306973597289
 30
0.0
 11
3727.4686108906408
 21
2198.306973597289
 31
0.0
1001
ACAD
1000
ASC_BOUNDS
1002
{
1070
    19
1002
}
  0
LINE
  5
7D29
  8
1
 10
3322.4686108906408
 20
1656.306973597289
 30
0.0
 11
3697.4686108906408
 21
1656.306973597289
 31
0.0
1001
ACAD
1000
ASC_BOUNDS
1002
{
1070
    19
1002
}
  0
LINE
  5
7D2A
  8
1
 10
3292.4686108906399
 20
1626.306973597289
 30
0.0
 11
3727.4686108906399
 21
1626.306973597289
 31
0.0
1001
ACAD
1000
ASC_BOUNDS
1002
{
1070
    19
1002
}
  0
LINE
  5
7D2B
  8
1
 10
3727.4686108906399
 20
1639.306973597289
 30
0.0
 11
3739.9686108906399
 21
1639.306973597289
 31
0.0
  0
LINE
  5
7D2C
  8
1
 10
3697.4686108906399
 20
2168.306973597289
 30
0.0
 11
3322.4686108906399
 21
1656.306973597289
 31
0.0
  0
LINE
  5
7D2D
  8
1
 10
3322.4686108906399
 20
2168.306973597289
 30
0.0
 11
3697.4686108906399
 21
1656.306973597289
 31
0.0
  0
LINE
  5
7EAB
  8
4
 10
3700.0
 20
1000.0
 30
0.0
 11
3700.0
 21
600.0
 31
0.0
  0
LINE
  5
7EAC
  8
4
 10
2300.0
 20
1000.0
 30
0.0
 11
2300.0
 21
600.0
 31
0.0
  0
LINE
  5
7EAD
  8
4
 10
1300.0
 20
1000.0
 30
0.0
 11
1300.0
 21
600.0
 31
0.0
  0
LINE
  5
7EB0
  8
4
 10
1300.0
 20
600.0
 30
0.0
 11
3700.0
 21
600.0
 31
0.0
  0
LINE
  5
7EB1
  8
4
 10
1300.0
 20
800.0
 30
0.0
 11
3700.0
 21
800.0
 31
0.0
  0
TEXT
  5
7EB2
  8
4
 10
1377.0041616938031
 20
863.08605173322564
 30
0.0
 40
100.0
  1
機器名称
  0
TEXT
  5
7EB3
  8
4
 10
1372.516212049595
 20
643.29031346402189
 30
0.0
 40
100.0
  1
機器型番
  0
TEXT
  5
7EB4
  8
4
 10
2355.3574909753288
 20
845.14353791513713
 30
0.0
 40
85.0
  1
ミツヤ多翼送風機
  0
TEXT
  5
7EB5
  8
4
 10
2373.3089911709608
 20
634.31916855988675
 30
0.0
 40
100.0
  1
MF#3-1
  0
TEXT
  5
7EB7
  8
4
 10
1507.355610715174
 20
4766.8576826650306
 30
0.0
 40
107.9999999999999
  1
床置ベット
  0
TEXT
  5
7EB8
  8
4
 10
582.33518665889278
 20
5067.7619523985959
 30
0.0
 40
144.0
  1
遠心式片吸込片持多翼ファン
  0
LINE
  5
7EB9
  8
4
 10
500.0
 20
4938.8175085296089
 30
0.0
 11
3700.0
 21
4938.8175085296089
 31
0.0
  0
LINE
  5
7EBA
  8
4
 10
500.0
 20
5338.8175085296098
 30
0.0
 11
3700.0
 21
5338.8175085296098
 31
0.0
  0
LINE
  5
7EBB
  8
4
 10
1300.0
 20
1000.0
 30
0.0
 11
3700.0
 21
1000.0
 31
0.0
  0
LINE
  5
7EBC
  8
4
 10
500.0
 20
5338.8175085296098
 30
0.0
 11
500.0
 21
4938.8175085296089
 31
0.0
  0
TEXT
  5
7EBD
  8
4
 10
635.63794622977002
 20
4764.638955092687
 30
0.0
 40
107.9999999999999
  1
左回転右横向
  0
TEXT
  5
7EBE
  8
4
 10
2937.9391184985789
 20
5412.1221629906177
 30
0.0
 40
112.0
  1
No.
  0
TEXT
  5
7EBF
  8
4
 10
2622.5921252000262
 20
4766.8576826650306
 30
0.0
 40
107.9999999999999
  1
縮尺：1/20
  0
LINE
  5
7EC0
  8
4
 10
3700.0
 20
5338.8175085296098
 30
0.0
 11
3700.0
 21
4938.8175085296089
 31
0.0
  0
LINE
  5
7EC1
  8
4
 10
4200.0
 20
5900.0
 30
0.0
 11
4200.0
 21
5900.0
 31
0.0
  0
LINE
  5
7EC2
  8
4
 10
2881.2348447197292
 20
5362.5271662508021
 30
0.0
 11
2881.2348447197292
 21
5573.3045230995049
 31
0.0
  0
LINE
  5
7EC3
  8
4
 10
2881.2348447197292
 20
5573.3045230995049
 30
0.0
 11
3700.0
 21
5573.3045230995049
 31
0.0
  0
LINE
  5
7EC4
  8
4
 10
3700.0
 20
5573.3045230995049
 30
0.0
 11
3700.0
 21
5362.5271662508021
 31
0.0
  0
LINE
  5
7EC5
  8
4
 10
3700.0
 20
5362.5271662508021
 30
0.0
 11
2881.2348447197292
 21
5362.5271662508021
 31
0.0
  0
LINE
  5
7EC6
  8
4
 10
0.0
 20
0.0
 30
0.0
 11
0.0
 21
5900.0
 31
0.0
  0
LINE
  5
7EC7
  8
4
 10
0.0
 20
5900.0
 30
0.0
 11
4200.0
 21
5900.0
 31
0.0
  0
LINE
  5
7EC8
  8
4
 10
4200.0
 20
5900.0
 30
0.0
 11
4200.0
 21
0.0
 31
0.0
  0
LINE
  5
7EC9
  8
4
 10
4200.0
 20
0.0
 30
0.0
 11
0.0
 21
0.0
 31
0.0
  0
DIMENSION
  5
7EE1
  8
3
  2
*D10
 10
2145.2685847649659
 20
2194.306973597289
 30
0.0
 11
2145.2685847649659
 21
2356.4997337120549
 31
0.0
 70
   128
 13
1307.3316708063739
 23
2555.3944611310681
 33
0.0
 14
1766.5569063435159
 24
2194.306973597289
 34
0.0
 50
90.0
1001
ACAD
1000
DSTYLE
1002
{
1070
   287
1070
     3
1070
    40
1040
20.0
1070
   143
1040
0.039
1070
   172
1070
     1
1070
   271
1070
     0
1070
   279
1070
     0
1070
   288
1070
     1
1002
}
  0
DIMENSION
  5
7EF8
  8
3
  2
*D11
 10
2145.2685847649659
 20
1564.306973597289
 30
0.0
 11
2095.268584764965
 21
1879.306973597289
 31
0.0
 70
     0
 13
1766.5569063435159
 23
2194.306973597289
 33
0.0
 14
1595.2043298765741
 24
1564.306973597289
 34
0.0
 50
90.0
1001
ACAD
1000
DSTYLE
1002
{
1070
   287
1070
     4
1070
    40
1040
20.0
1070
    75
1070
     1
1070
   143
1040
0.039
1070
   172
1070
     1
1070
   271
1070
     0
1070
   279
1070
     1
1070
   288
1070
     1
1002
}
  0
LINE
  5
7F8A
  8
1
 10
1595.2043298765741
 20
1564.306973597289
 30
0.0
 11
1595.2043298765741
 21
1639.306973597289
 31
0.0
  0
LINE
  5
7F8B
  8
1
 10
515.20432987657477
 20
1564.306973597289
 30
0.0
 11
515.20432987657477
 21
1639.306973597289
 31
0.0
  0
LINE
  5
7F8C
  8
1
 10
3739.9686108906399
 20
1639.306973597289
 30
0.0
 11
3739.9686108906399
 21
1564.306973597289
 31
0.0
  0
LINE
  5
7F8E
  8
1
 10
2739.9686108906399
 20
1564.306973597289
 30
0.0
 11
2739.9686108906399
 21
1639.306973597289
 31
0.0
  0
DIMENSION
  5
80A3
  8
3
  2
*D13
 10
515.20432987657477
 20
2823.0823751521111
 30
0.0
 11
1131.819544993089
 21
2823.0823751521111
 31
0.0
 70
   128
 13
1705.204329876575
 23
2194.306973597289
 33
0.0
 14
515.20432987657477
 24
1639.306973597289
 34
0.0
1001
ACAD
1000
DSTYLE
1002
{
1070
   287
1070
     3
1070
    40
1040
20.0
1070
   143
1040
0.039
1070
   172
1070
     1
1070
   271
1070
     0
1070
   279
1070
     0
1070
   288
1070
     1
1002
}
  0
LINE
  5
80A5
  8
1
 10
1595.2043298765741
 20
4165.1576250247399
 30
0.0
 11
1095.2043298765741
 21
4165.1576250247399
 31
0.0
  0
LINE
  5
80A6
  8
1
 10
1595.2043298765741
 20
3165.1576250247399
 30
0.0
 11
1565.2043298765741
 21
3165.1576250247399
 31
0.0
  0
LINE
  5
80A7
  8
1
 10
1595.2043298765741
 20
3165.1576250247399
 30
0.0
 11
1595.2043298765741
 21
3747.6576250247408
 31
0.0
  0
LINE
  5
80A8
  8
1
 10
515.20432987657477
 20
3165.1576250247399
 30
0.0
 11
515.20432987657477
 21
3725.1576250247399
 31
0.0
  0
LINE
  5
80A9
  8
1
 10
1095.2043298765741
 20
3725.1576250247399
 30
0.0
 11
1095.2043298765741
 21
3747.6576250247399
 31
0.0
  0
LINE
  5
80AA
  8
1
 10
1095.2043298765741
 20
3725.1576250247399
 30
0.0
 11
515.20432987657477
 21
3725.1576250247399
 31
0.0
  0
LINE
  5
80AB
  8
1
 10
1595.2043298765741
 20
4122.6576250247417
 30
0.0
 11
1595.2043298765741
 21
4165.1576250247399
 31
0.0
  0
LINE
  5
80AC
  8
1
 10
1095.2043298765741
 20
4122.657625024739
 30
0.0
 11
1095.2043298765741
 21
4165.1576250247399
 31
0.0
  0
LINE
  5
80AD
  8
1
 10
525.20432987657375
 20
3165.1576250247399
 30
0.0
 11
515.20432987657477
 21
3165.1576250247399
 31
0.0
  0
DIMENSION
  5
80BA
  8
3
  2
*D14
 10
1095.2043298765741
 20
4285.0623936486099
 30
0.0
 11
1342.8612915654189
 21
4285.0623936486099
 31
0.0
 70
   128
 13
1595.2043298765741
 23
4165.1576250247399
 33
0.0
 14
1095.2043298765741
 24
4165.1576250247399
 34
0.0
1001
ACAD
1000
DSTYLE
1002
{
1070
   287
1070
     3
1070
    40
1040
20.0
1070
   143
1040
0.039
1070
   172
1070
     1
1070
   271
1070
     0
1070
   279
1070
     0
1070
   288
1070
     1
1002
}
  0
DIMENSION
  5
80C6
  8
3
  2
*D15
 10
515.20432987657477
 20
4285.0623936486099
 30
0.0
 11
805.20432987657466
 21
4335.0623936486099
 31
0.0
 70
     0
 13
1095.2043298765741
 23
4165.1576250247399
 33
0.0
 14
515.20432987657477
 24
3725.1576250247399
 34
0.0
1001
ACAD
1000
DSTYLE
1002
{
1070
   287
1070
     4
1070
    40
1040
20.0
1070
    75
1070
     1
1070
   143
1040
0.039
1070
   172
1070
     1
1070
   271
1070
     0
1070
   279
1070
     1
1070
   288
1070
     1
1002
}
  0
DIMENSION
  5
80D3
  8
3
  2
*D16
 10
360.84069682827652
 20
3165.1576250247399
 30
0.0
 11
360.84069682827612
 21
3458.255826433427
 31
0.0
 70
   128
 13
515.20432987657477
 23
3725.1576250247399
 33
0.0
 14
515.20432987657477
 24
3165.1576250247399
 34
0.0
 50
90.0
1001
ACAD
1000
DSTYLE
1002
{
1070
   287
1070
     3
1070
    40
1040
20.0
1070
   143
1040
0.039
1070
   172
1070
     1
1070
   271
1070
     0
1070
   279
1070
     0
1070
   288
1070
     1
1002
}
  0
DIMENSION
  5
80E0
  8
3
  2
*D17
 10
1851.318659534212
 20
3165.1576250247399
 30
0.0
 11
1851.318659534212
 21
3627.6017458667989
 31
0.0
 70
   128
 13
1595.2043298765741
 23
4165.1576250247399
 33
0.0
 14
1595.2043298765741
 24
3165.1576250247399
 34
0.0
 50
90.0
1001
ACAD
1000
DSTYLE
1002
{
1070
   287
1070
     3
1070
    40
1040
20.0
1070
   143
1040
0.039
1070
   172
1070
     1
1070
   271
1070
     0
1070
   279
1070
     0
1070
   288
1070
     1
1002
}
  0
DIMENSION
  5
8160
  8
3
  2
*D18
 10
1345.2043298765741
 20
1427.5271642510961
 30
0.0
 11
930.20432987657466
 21
1477.5271642510961
 31
0.0
 70
     0
 13
515.20432987657477
 23
1564.306973597289
 33
0.0
 14
1345.2043298765741
 24
1564.306973597289
 34
0.0
1001
ACAD
1000
DSTYLE
1002
{
1070
   287
1070
     3
1070
    40
1040
20.0
1070
   143
1040
0.039
1070
   172
1070
     1
1070
   271
1070
     0
1070
   279
1070
     0
1002
}
  0
DIMENSION
  5
816F
  8
3
  2
*D19
 10
1595.2043298765741
 20
1427.5271642510961
 30
0.0
 11
1470.2043298765741
 21
1477.5271642510961
 31
0.0
 70
     0
 13
1345.2043298765741
 23
1564.306973597289
 33
0.0
 14
1595.2043298765741
 24
1564.306973597289
 34
0.0
1001
ACAD
1000
DSTYLE
1002
{
1070
   287
1070
     3
1070
    40
1040
20.0
1070
   143
1040
0.039
1070
   172
1070
     1
1070
   271
1070
     0
1070
   279
1070
     0
1002
}
  0
DIMENSION
  5
817C
  8
3
  2
*D20
 10
3509.9686108906408
 20
1427.5271642510961
 30
0.0
 11
3124.9686108906408
 21
1477.5271642510961
 31
0.0
 70
     0
 13
2739.9686108906399
 23
1564.306973597289
 33
0.0
 14
3509.9686108906408
 24
1564.306973597289
 34
0.0
1001
ACAD
1000
DSTYLE
1002
{
1070
   287
1070
     3
1070
    40
1040
20.0
1070
   143
1040
0.039
1070
   172
1070
     1
1070
   271
1070
     0
1070
   279
1070
     0
1002
}
  0
DIMENSION
  5
818B
  8
3
  2
*D21
 10
3739.9686108906399
 20
1427.5271642510961
 30
0.0
 11
3624.9686108906408
 21
1477.5271642510961
 31
0.0
 70
     0
 13
3509.9686108906408
 23
1564.306973597289
 33
0.0
 14
3739.9686108906399
 24
1564.306973597289
 34
0.0
1001
ACAD
1000
DSTYLE
1002
{
1070
   287
1070
     3
1070
    40
1040
20.0
1070
   143
1040
0.039
1070
   172
1070
     1
1070
   271
1070
     0
1070
   279
1070
     0
1002
}
  0
DIMENSION
  5
8198
  8
3
  2
*D22
 10
2298.9781164280748
 20
1564.306973597289
 30
0.0
 11
2248.9781164280748
 21
2059.8507173641792
 31
0.0
 70
     0
 13
1317.3316708063739
 23
2555.3944611310681
 33
0.0
 14
1605.2043298765741
 24
1564.306973597289
 34
0.0
 50
90.0
1001
ACAD
1000
DSTYLE
1002
{
1070
   287
1070
     3
1070
    40
1040
20.0
1070
   143
1040
0.039
1070
   172
1070
     1
1070
   271
1070
     0
1070
   279
1070
     0
1002
}
  0
ENDSEC
  0
EOF
