  0
SECTION
  2
HEADER
  9
$ACADVER
  1
AC1009
  9
$INSBASE
 10
0.0
 20
0.0
 30
0.0
  9
$EXTMIN
 10
0.0
 20
0.0
 30
0.0
  9
$EXTMAX
 10
4200.0
 20
5900.0
 30
0.0
  9
$LIMMIN
 10
0.0
 20
0.0
  9
$LIMMAX
 10
297.0
 20
210.0
  9
$ORTHOMODE
 70
     0
  9
$REGENMODE
 70
     1
  9
$FILLMODE
 70
     0
  9
$QTEXTMODE
 70
     0
  9
$MIRRTEXT
 70
     1
  9
$DRAGMODE
 70
     2
  9
$LTSCALE
 40
100.0
  9
$OSMODE
 70
    37
  9
$ATTMODE
 70
     1
  9
$TEXTSIZE
 40
180.0
  9
$TRACEWID
 40
0.05
  9
$TEXTSTYLE
  7
STANDARD
  9
$CLAYER
  8
3
  9
$CELTYPE
  6
BYLAYER
  9
$CECOLOR
 62
   256
  9
$DIMSCALE
 40
20.0
  9
$DIMASZ
 40
2.0
  9
$DIMEXO
 40
0.5
  9
$DIMDLI
 40
10.0
  9
$DIMRND
 40
0.0
  9
$DIMDLE
 40
0.0
  9
$DIMEXE
 40
1.0
  9
$DIMTP
 40
1.0
  9
$DIMTM
 40
1.0
  9
$DIMTXT
 40
3.0
  9
$DIMCEN
 40
0.0
  9
$DIMTSZ
 40
0.0
  9
$DIMTOL
 70
     0
  9
$DIMLIM
 70
     0
  9
$DIMTIH
 70
     0
  9
$DIMTOH
 70
     0
  9
$DIMSE1
 70
     0
  9
$DIMSE2
 70
     0
  9
$DIMTAD
 70
     1
  9
$DIMZIN
 70
     8
  9
$DIMBLK
  1

  9
$DIMASO
 70
     1
  9
$DIMSHO
 70
     1
  9
$DIMPOST
  1

  9
$DIMAPOST
  1

  9
$DIMALT
 70
     0
  9
$DIMALTD
 70
     2
  9
$DIMALTF
 40
0.039
  9
$DIMLFAC
 40
1.0
  9
$DIMTOFL
 70
     1
  9
$DIMTVP
 40
0.0
  9
$DIMTIX
 70
     0
  9
$DIMSOXD
 70
     0
  9
$DIMSAH
 70
     1
  9
$DIMBLK1
  1
OPEN
  9
$DIMBLK2
  1
OPEN
  9
$DIMSTYLE
  2
IGA
  9
$DIMCLRD
 70
     0
  9
$DIMCLRE
 70
     0
  9
$DIMCLRT
 70
     0
  9
$DIMTFAC
 40
10.0
  9
$DIMGAP
 40
1.0
  9
$LUNITS
 70
     2
  9
$LUPREC
 70
     3
  9
$SKETCHINC
 40
0.1
  9
$FILLETRAD
 40
50.0
  9
$AUNITS
 70
     0
  9
$AUPREC
 70
     0
  9
$MENU
  1
acad
  9
$ELEVATION
 40
0.0
  9
$PELEVATION
 40
0.0
  9
$THICKNESS
 40
0.0
  9
$LIMCHECK
 70
     0
  9
$BLIPMODE
 70
     0
  9
$CHAMFERA
 40
0.5
  9
$CHAMFERB
 40
0.5
  9
$SKPOLY
 70
     0
  9
$TDCREATE
 40
2451988.633632292
  9
$TDUPDATE
 40
2454953.7539968519
  9
$TDINDWG
 40
0.016914456
  9
$TDUSRTIMER
 40
0.016914456
  9
$USRTIMER
 70
     1
  9
$ANGBASE
 50
0.0
  9
$ANGDIR
 70
     0
  9
$PDMODE
 70
     0
  9
$PDSIZE
 40
0.0
  9
$PLINEWID
 40
0.0
  9
$COORDS
 70
     1
  9
$SPLFRAME
 70
     0
  9
$SPLINETYPE
 70
     6
  9
$SPLINESEGS
 70
     8
  9
$ATTDIA
 70
     0
  9
$ATTREQ
 70
     1
  9
$HANDLING
 70
 10241
  9
$HANDSEED
  5
8417
  9
$SURFTAB1
 70
     6
  9
$SURFTAB2
 70
     6
  9
$SURFTYPE
 70
     6
  9
$SURFU
 70
     6
  9
$SURFV
 70
     6
  9
$UCSNAME
  2

  9
$UCSORG
 10
0.0
 20
0.0
 30
0.0
  9
$UCSXDIR
 10
1.0
 20
0.0
 30
0.0
  9
$UCSYDIR
 10
0.0
 20
1.0
 30
0.0
  9
$PUCSNAME
  2

  9
$PUCSORG
 10
0.0
 20
0.0
 30
0.0
  9
$PUCSXDIR
 10
1.0
 20
0.0
 30
0.0
  9
$PUCSYDIR
 10
0.0
 20
1.0
 30
0.0
  9
$USERI1
 70
     0
  9
$USERI2
 70
     0
  9
$USERI3
 70
     0
  9
$USERI4
 70
     0
  9
$USERI5
 70
     0
  9
$USERR1
 40
0.0
  9
$USERR2
 40
0.0
  9
$USERR3
 40
0.0
  9
$USERR4
 40
0.0
  9
$USERR5
 40
0.0
  9
$WORLDVIEW
 70
     1
  9
$SHADEDGE
 70
     3
  9
$SHADEDIF
 70
    70
  9
$TILEMODE
 70
     1
  9
$MAXACTVP
 70
    16
  9
$PLIMCHECK
 70
     0
  9
$PEXTMIN
 10
1.0000000000000000E+020
 20
1.0000000000000000E+020
 30
1.0000000000000000E+020
  9
$PEXTMAX
 10
-1.0000000000000000E+020
 20
-1.0000000000000000E+020
 30
-1.0000000000000000E+020
  9
$PLIMMIN
 10
0.0
 20
0.0
  9
$PLIMMAX
 10
12.0
 20
9.0
  9
$UNITMODE
 70
     0
  9
$VISRETAIN
 70
     0
  9
$PLINEGEN
 70
     0
  9
$PSLTSCALE
 70
     1
  0
ENDSEC
  0
SECTION
  2
TABLES
  0
TABLE
  2
VPORT
 70
     2
  0
VPORT
  2
*ACTIVE
 70
     0
 10
0.0
 20
0.0
 11
1.0
 21
1.0
 12
7073.2199177027342
 22
2950.0000137370062
 13
0.0
 23
0.0
 14
10.0
 24
10.0
 15
10.0
 25
10.0
 16
0.0
 26
0.0
 36
1.0
 17
0.0
 27
0.0
 37
0.0
 40
5945.22976603387
 41
3.1666666666666661
 42
50.0
 43
0.0
 44
0.0
 50
0.0
 51
0.0
 71
     0
 72
   100
 73
     1
 74
     0
 75
     0
 76
     0
 77
     0
 78
     0
  0
ENDTAB
  0
TABLE
  2
LTYPE
 70
     2
  0
LTYPE
  2
CONTINUOUS
 70
     0
  3
Solid line
 72
    65
 73
     0
 40
0.0
  0
LTYPE
  2
CENTER
 70
     0
  3
____ _ ____ _ ____ _ ____ _ ____ _ ____ _ ____ 
 72
    65
 73
     4
 40
2.0
 49
1.25
 49
-0.25
 49
0.25
 49
-0.25
  0
ENDTAB
  0
TABLE
  2
LAYER
 70
     6
  0
LAYER
  2
0
 70
     0
 62
     7
  6
CONTINUOUS
  0
LAYER
  2
3
 70
     0
 62
     2
  6
CONTINUOUS
  0
LAYER
  2
2
 70
     0
 62
     3
  6
CENTER
  0
LAYER
  2
1
 70
     0
 62
     4
  6
CONTINUOUS
  0
LAYER
  2
4
 70
     0
 62
     7
  6
CONTINUOUS
  0
LAYER
  2
DEFPOINTS
 70
     0
 62
     7
  6
CONTINUOUS
  0
ENDTAB
  0
TABLE
  2
STYLE
 70
     1
  0
STYLE
  2
STANDARD
 70
     0
 40
0.0
 41
1.0
 50
0.0
 71
     0
 42
180.0
  3
simplex.shx
  4
extfont.shx
  0
ENDTAB
  0
TABLE
  2
VIEW
 70
     0
  0
ENDTAB
  0
TABLE
  2
UCS
 70
     0
  0
ENDTAB
  0
TABLE
  2
APPID
 70
     1
  0
APPID
  2
ACAD
 70
     0
  0
ENDTAB
  0
TABLE
  2
DIMSTYLE
 70
     1
  0
DIMSTYLE
  2
IGA
 70
     0
  3

  4

  5

  6
OPEN
  7
OPEN
 40
2.0
 41
2.0
 42
0.5
 43
10.0
 44
1.0
 45
0.0
 46
0.0
 47
1.0
 48
1.0
140
3.0
141
0.0
142
0.0
143
0.03937
144
1.0
145
0.0
146
10.0
147
1.0
 71
     0
 72
     0
 73
     0
 74
     0
 75
     0
 76
     0
 77
     1
 78
     8
170
     0
171
     2
172
     0
173
     1
174
     0
175
     0
176
     0
177
     0
178
     0
  0
ENDTAB
  0
ENDSEC
  0
SECTION
  2
BLOCKS
  0
BLOCK
  8
0
  2
$MODEL_SPACE
 70
     0
 10
0.0
 20
0.0
 30
0.0
  3
$MODEL_SPACE
  1

  0
ENDBLK
  5
1B
  8
0
  0
BLOCK
 67
     1
  8
0
  2
$PAPER_SPACE
 70
     0
 10
0.0
 20
0.0
 30
0.0
  3
$PAPER_SPACE
  1

  0
ENDBLK
  5
18
 67
     1
  8
0
  0
BLOCK
  8
0
  2
YA_N
 70
     0
 10
0.0
 20
0.0
 30
0.0
  3
YA_N
  1

  0
ENDBLK
  5
79FE
  8
0
  0
BLOCK
  8
0
  2
_OPEN
 70
     0
 10
0.0
 20
0.0
 30
0.0
  3
_OPEN
  1

  0
LINE
  5
7A04
  8
0
  6
BYBLOCK
 62
     0
 10
-1.0
 20
0.1666666666666666
 30
0.0
 11
0.0
 21
0.0
 31
0.0
  0
LINE
  5
7A05
  8
0
  6
BYBLOCK
 62
     0
 10
0.0
 20
0.0
 30
0.0
 11
-1.0
 21
-0.1666666666666666
 31
0.0
  0
LINE
  5
7A06
  8
0
  6
BYBLOCK
 62
     0
 10
0.0
 20
0.0
 30
0.0
 11
-1.0
 21
0.0
 31
0.0
  0
ENDBLK
  5
7A08
  8
0
  0
BLOCK
  8
0
  2
*D2
 70
     1
 10
0.0
 20
0.0
 30
0.0
  3
*D2
  1

  0
LINE
  5
8360
  8
3
 62
     0
 10
870.72209888306043
 20
2606.9102586576819
 30
0.0
 11
707.78653274866622
 21
2606.9102586576819
 31
0.0
  0
LINE
  5
8361
  8
3
 62
     0
 10
870.72209888306043
 20
2094.9102586576819
 30
0.0
 11
707.78653274866599
 21
2094.9102586576819
 31
0.0
  0
LINE
  5
8362
  8
3
 62
     0
 10
727.78653274866622
 20
2566.9102586576819
 30
0.0
 11
727.7865327486661
 21
2134.9102586576819
 31
0.0
  0
INSERT
  5
8363
  8
3
 62
     0
  2
_OPEN
 10
727.78653274866622
 20
2606.9102586576819
 30
0.0
 41
40.0
 42
40.0
 43
40.0
 50
90.0
  0
INSERT
  5
8364
  8
3
 62
     0
  2
_OPEN
 10
727.7865327486661
 20
2094.9102586576819
 30
0.0
 41
40.0
 42
40.0
 43
40.0
 50
270.0
  0
TEXT
  8
3
  40
60
  5
8404
  62
0
  72
0
  71
0
 10
557.787
 20
2244.71
 30
0.000000
  1
512
  0
POINT
  5
8366
  8
DEFPOINTS
 62
     0
 10
880.72209888306043
 20
2606.9102586576819
 30
0.0
  0
POINT
  5
8367
  8
DEFPOINTS
 62
     0
 10
880.72209888306043
 20
2094.9102586576819
 30
0.0
  0
POINT
  5
8368
  8
DEFPOINTS
 62
     0
 10
727.7865327486661
 20
2094.9102586576819
 30
0.0
  0
ENDBLK
  5
806F
  8
0
  0
BLOCK
  8
0
  2
*D3
 70
     1
 10
0.0
 20
0.0
 30
0.0
  3
*D3
  1

  0
LINE
  5
8369
  8
3
 62
     0
 10
880.72209888306043
 20
2648.5154416209862
 30
0.0
 11
880.72209888306043
 21
2800.7881213436922
 31
0.0
  0
LINE
  5
836A
  8
3
 62
     0
 10
1240.7220988830611
 20
2663.0729479998522
 30
0.0
 11
1240.7220988830611
 21
2800.7881213436922
 31
0.0
  0
LINE
  5
836B
  8
3
 62
     0
 10
920.72209888306043
 20
2780.7881213436922
 30
0.0
 11
1200.7220988830611
 21
2780.7881213436922
 31
0.0
  0
INSERT
  5
836C
  8
3
 62
     0
  2
_OPEN
 10
880.72209888306043
 20
2780.7881213436922
 30
0.0
 41
40.0
 42
40.0
 43
40.0
 50
180.0
  0
INSERT
  5
836D
  8
3
 62
     0
  2
_OPEN
 10
1240.7220988830611
 20
2780.7881213436922
 30
0.0
 41
40.0
 42
40.0
 43
40.0
  0
TEXT
  8
3
  40
60
  5
8405
  62
0
  72
0
  71
0
 10
940.722
 20
2724.59
 30
0.000000
  1
360
  0
POINT
  5
836F
  8
DEFPOINTS
 62
     0
 10
880.72209888306043
 20
2638.5154416209848
 30
0.0
  0
POINT
  5
8370
  8
DEFPOINTS
 62
     0
 10
1240.7220988830611
 20
2653.0729479998508
 30
0.0
  0
POINT
  5
8371
  8
DEFPOINTS
 62
     0
 10
1240.7220988830611
 20
2780.7881213436922
 30
0.0
  0
ENDBLK
  5
8064
  8
0
  0
BLOCK
  8
0
  2
*D4
 70
     1
 10
0.0
 20
0.0
 30
0.0
  3
*D4
  1

  0
LINE
  5
8372
  8
3
 62
     0
 10
1240.7220988830611
 20
2663.0729479998522
 30
0.0
 11
1240.7220988830611
 21
2800.7881213436922
 31
0.0
  0
LINE
  5
8373
  8
3
 62
     0
 10
1675.7220988830611
 20
2152.9102586576801
 30
0.0
 11
1675.7220988830611
 21
2800.7881213436922
 31
0.0
  0
LINE
  5
8374
  8
3
 62
     0
 10
1280.7220988830611
 20
2780.7881213436922
 30
0.0
 11
1635.7220988830611
 21
2780.7881213436922
 31
0.0
  0
INSERT
  5
8375
  8
3
 62
     0
  2
_OPEN
 10
1240.7220988830611
 20
2780.7881213436922
 30
0.0
 41
40.0
 42
40.0
 43
40.0
 50
180.0
  0
INSERT
  5
8376
  8
3
 62
     0
  2
_OPEN
 10
1675.7220988830611
 20
2780.7881213436922
 30
0.0
 41
40.0
 42
40.0
 43
40.0
  0
TEXT
  8
3
  40
60
  5
8406
  62
0
  72
0
  71
0
 10
1338.22
 20
2724.59
 30
0.000000
  1
435
  0
POINT
  5
8378
  8
DEFPOINTS
 62
     0
 10
1240.7220988830611
 20
2653.0729479998508
 30
0.0
  0
POINT
  5
8379
  8
DEFPOINTS
 62
     0
 10
1675.7220988830611
 20
2142.9102586576801
 30
0.0
  0
POINT
  5
837A
  8
DEFPOINTS
 62
     0
 10
1675.7220988830611
 20
2780.7881213436922
 30
0.0
  0
ENDBLK
  5
8059
  8
0
  0
BLOCK
  8
0
  2
*D5
 70
     1
 10
0.0
 20
0.0
 30
0.0
  3
*D5
  1

  0
LINE
  5
837B
  8
3
 62
     0
 10
3701.4703889558459
 20
2616.9102586576819
 30
0.0
 11
3701.4703889558459
 21
2738.3056067172402
 31
0.0
  0
LINE
  5
837C
  8
3
 62
     0
 10
3326.4703889558459
 20
2616.9102586576819
 30
0.0
 11
3326.4703889558459
 21
2738.3056067172402
 31
0.0
  0
LINE
  5
837D
  8
3
 62
     0
 10
3661.4703889558459
 20
2718.3056067172402
 30
0.0
 11
3366.4703889558459
 21
2718.3056067172402
 31
0.0
  0
INSERT
  5
837E
  8
3
 62
     0
  2
_OPEN
 10
3701.4703889558459
 20
2718.3056067172402
 30
0.0
 41
40.0
 42
40.0
 43
40.0
  0
INSERT
  5
837F
  8
3
 62
     0
  2
_OPEN
 10
3326.4703889558459
 20
2718.3056067172402
 30
0.0
 41
40.0
 42
40.0
 43
40.0
 50
180.0
  0
TEXT
  8
3
  40
60
  5
8407
  62
0
  72
0
  71
0
 10
3393.97
 20
2662.11
 30
0.000000
  1
375
  0
POINT
  5
8381
  8
DEFPOINTS
 62
     0
 10
3701.4703889558459
 20
2606.9102586576819
 30
0.0
  0
POINT
  5
8382
  8
DEFPOINTS
 62
     0
 10
3326.4703889558459
 20
2606.9102586576819
 30
0.0
  0
POINT
  5
8383
  8
DEFPOINTS
 62
     0
 10
3326.4703889558459
 20
2718.3056067172402
 30
0.0
  0
ENDBLK
  5
800C
  8
0
  0
BLOCK
  8
0
  2
*D6
 70
     1
 10
0.0
 20
0.0
 30
0.0
  3
*D6
  1

  0
LINE
  5
80C5
  8
0
  6
BYBLOCK
 62
     0
 10
3705.7703889558461
 20
2237.5394483534992
 30
0.0
 11
3705.7703889558461
 21
2775.3822233381538
 31
0.0
  0
LINE
  5
80C6
  8
0
  6
BYBLOCK
 62
     0
 10
3513.9703889558459
 20
2693.6100893364219
 30
0.0
 11
3513.9703889558459
 21
2775.3822233381538
 31
0.0
  0
LINE
  5
80C7
  8
0
  6
BYBLOCK
 62
     0
 10
3665.7703889558461
 20
2755.3822233381538
 30
0.0
 11
3553.9703889558459
 21
2755.3822233381538
 31
0.0
  0
TEXT
  5
80C8
  8
3
 62
     0
 10
3538.441817527274
 20
2778.2522172790482
 30
0.0
 40
60.0
  1
192
  0
INSERT
  5
80C9
  8
0
  6
BYBLOCK
 62
     0
  2
_OPEN
 10
3705.7703889558461
 20
2755.3822233381538
 30
0.0
 41
40.0
 42
40.0
 43
40.0
  0
INSERT
  5
80CA
  8
0
  6
BYBLOCK
 62
     0
  2
_OPEN
 10
3513.9703889558459
 20
2755.3822233381538
 30
0.0
 41
40.0
 42
40.0
 43
40.0
 50
180.0
  0
POINT
  5
80CB
  8
DEFPOINTS
  6
BYBLOCK
 62
     0
 10
3705.7703889558461
 20
2227.5394483534992
 30
0.0
  0
POINT
  5
80CC
  8
DEFPOINTS
  6
BYBLOCK
 62
     0
 10
3513.9703889558459
 20
2683.6100893364219
 30
0.0
  0
POINT
  5
80CD
  8
DEFPOINTS
  6
BYBLOCK
 62
     0
 10
3513.9703889558459
 20
2755.3822233381538
 30
0.0
  0
ENDBLK
  5
80CE
  8
0
  0
BLOCK
  8
0
  2
*D7
 70
     1
 10
0.0
 20
0.0
 30
0.0
  3
*D7
  1

  0
LINE
  5
8384
  8
3
 62
     0
 10
3513.9703889558459
 20
2809.980899640605
 30
0.0
 11
3513.9703889558459
 21
2891.753033642336
 31
0.0
  0
LINE
  5
8385
  8
3
 62
     0
 10
2642.0301506063352
 20
2268.6102586576822
 30
0.0
 11
2642.0301506063352
 21
2891.753033642336
 31
0.0
  0
LINE
  5
8386
  8
3
 62
     0
 10
3473.9703889558459
 20
2871.753033642336
 30
0.0
 11
2682.0301506063352
 21
2871.753033642336
 31
0.0
  0
INSERT
  5
8387
  8
3
 62
     0
  2
_OPEN
 10
3513.9703889558459
 20
2871.753033642336
 30
0.0
 41
40.0
 42
40.0
 43
40.0
  0
INSERT
  5
8388
  8
3
 62
     0
  2
_OPEN
 10
2642.0301506063352
 20
2871.753033642336
 30
0.0
 41
40.0
 42
40.0
 43
40.0
 50
180.0
  0
TEXT
  8
3
  40
60
  5
8408
  62
0
  72
0
  71
0
 10
2958.00
 20
2865.55
 30
0.000000
  1
MAX
  0
TEXT
  8
3
  40
60
  5
8409
  62
0
  72
0
  71
0
 10
2958.00
 20
2787.55
 30
0.000000
  1
930
  0
POINT
  5
838A
  8
DEFPOINTS
 62
     0
 10
3513.9703889558459
 20
2799.9808996406041
 30
0.0
  0
POINT
  5
838B
  8
DEFPOINTS
 62
     0
 10
2642.0301506063352
 20
2258.6102586576822
 30
0.0
  0
POINT
  5
838C
  8
DEFPOINTS
 62
     0
 10
2642.0301506063352
 20
2871.753033642336
 30
0.0
  0
ENDBLK
  5
8287
  8
0
  0
BLOCK
  8
0
  2
*D8
 70
     1
 10
0.0
 20
0.0
 30
0.0
  3
*D8
  1

  0
LINE
  5
838D
  8
3
 62
     0
 10
3740.7703889558461
 20
2318.9102586576819
 30
0.0
 11
3940.8435954276129
 21
2318.9102586576819
 31
0.0
  0
LINE
  5
838E
  8
3
 62
     0
 10
3740.7703889558461
 20
1818.9102586576821
 30
0.0
 11
3940.8435954276129
 21
1818.9102586576821
 31
0.0
  0
LINE
  5
838F
  8
3
 62
     0
 10
3920.8435954276142
 20
2278.9102586576819
 30
0.0
 11
3920.8435954276142
 21
1858.9102586576821
 31
0.0
  0
INSERT
  5
8390
  8
3
 62
     0
  2
_OPEN
 10
3920.8435954276142
 20
2318.9102586576819
 30
0.0
 41
40.0
 42
40.0
 43
40.0
 50
90.0
  0
INSERT
  5
8391
  8
3
 62
     0
  2
_OPEN
 10
3920.8435954276142
 20
1818.9102586576821
 30
0.0
 41
40.0
 42
40.0
 43
40.0
 50
270.0
  0
TEXT
  8
3
  40
60
  5
840A
  62
0
  72
0
  71
0
 10
3750.84
 20
1962.71
 30
0.000000
  1
φ500
  0
POINT
  5
8393
  8
DEFPOINTS
 62
     0
 10
3730.7703889558461
 20
2318.9102586576819
 30
0.0
  0
POINT
  5
8394
  8
DEFPOINTS
 62
     0
 10
3730.7703889558461
 20
1818.9102586576821
 30
0.0
  0
POINT
  5
8395
  8
DEFPOINTS
 62
     0
 10
3920.8435954276142
 20
1818.9102586576821
 30
0.0
  0
ENDBLK
  5
818C
  8
0
  0
BLOCK
  8
0
  2
*D9
 70
     1
 10
0.0
 20
0.0
 30
0.0
  3
*D9
  1

  0
LINE
  5
8396
  8
3
 62
     0
 10
829.36952241611925
 20
2068.9102586576819
 30
0.0
 11
584.39369668625545
 21
2068.9102586576819
 31
0.0
  0
LINE
  5
8397
  8
3
 62
     0
 10
870.72209888306043
 20
2606.9102586576819
 30
0.0
 11
584.39369668625557
 21
2606.9102586576819
 31
0.0
  0
LINE
  5
8398
  8
3
 62
     0
 10
604.39369668625545
 20
2108.9102586576819
 30
0.0
 11
604.39369668625557
 21
2566.9102586576819
 31
0.0
  0
INSERT
  5
8399
  8
3
 62
     0
  2
_OPEN
 10
604.39369668625545
 20
2068.9102586576819
 30
0.0
 41
40.0
 42
40.0
 43
40.0
 50
270.0
  0
INSERT
  5
839A
  8
3
 62
     0
  2
_OPEN
 10
604.39369668625557
 20
2606.9102586576819
 30
0.0
 41
40.0
 42
40.0
 43
40.0
 50
90.0
  0
TEXT
  8
3
  40
60
  5
840B
  62
0
  72
0
  71
0
 10
434.394
 20
2231.71
 30
0.000000
  1
538
  0
POINT
  5
839C
  8
DEFPOINTS
 62
     0
 10
839.36952241611914
 20
2068.9102586576819
 30
0.0
  0
POINT
  5
839D
  8
DEFPOINTS
 62
     0
 10
880.72209888306043
 20
2606.9102586576819
 30
0.0
  0
POINT
  5
839E
  8
DEFPOINTS
 62
     0
 10
604.39369668625557
 20
2606.9102586576819
 30
0.0
  0
ENDBLK
  5
7FD3
  8
0
  0
BLOCK
  8
0
  2
*D10
 70
     1
 10
0.0
 20
0.0
 30
0.0
  3
*D10
  1

  0
LINE
  5
839F
  8
3
 62
     0
 10
829.36952241611925
 20
2068.9102586576819
 30
0.0
 11
584.39369668625579
 21
2068.9102586576819
 31
0.0
  0
LINE
  5
83A0
  8
3
 62
     0
 10
980.72209888306122
 20
1618.9102586576821
 30
0.0
 11
584.39369668625557
 21
1618.9102586576821
 31
0.0
  0
LINE
  5
83A1
  8
3
 62
     0
 10
604.39369668625579
 20
2028.9102586576821
 30
0.0
 11
604.39369668625557
 21
1658.9102586576821
 31
0.0
  0
INSERT
  5
83A2
  8
3
 62
     0
  2
_OPEN
 10
604.39369668625579
 20
2068.9102586576819
 30
0.0
 41
40.0
 42
40.0
 43
40.0
 50
90.0
  0
INSERT
  5
83A3
  8
3
 62
     0
  2
_OPEN
 10
604.39369668625557
 20
1618.9102586576821
 30
0.0
 41
40.0
 42
40.0
 43
40.0
 50
270.0
  0
TEXT
  8
3
  40
60
  5
840C
  62
0
  72
0
  71
0
 10
434.394
 20
1737.71
 30
0.000000
  1
450
  0
POINT
  5
83A5
  8
DEFPOINTS
 62
     0
 10
839.36952241611914
 20
2068.9102586576819
 30
0.0
  0
POINT
  5
83A6
  8
DEFPOINTS
 62
     0
 10
990.72209888306145
 20
1618.9102586576821
 30
0.0
  0
POINT
  5
83A7
  8
DEFPOINTS
 62
     0
 10
604.39369668625557
 20
1618.9102586576821
 30
0.0
  0
ENDBLK
  5
7FC8
  8
0
  0
BLOCK
  8
0
  2
*D11
 70
     1
 10
0.0
 20
0.0
 30
0.0
  3
*D11
  1

  0
LINE
  5
83A8
  8
3
 62
     0
 10
990.72209888306145
 20
4245.8703794701933
 30
0.0
 11
990.72209888306145
 21
4384.2381393250471
 31
0.0
  0
LINE
  5
83A9
  8
3
 62
     0
 10
1490.7220988830611
 20
4245.8703794701933
 30
0.0
 11
1490.7220988830611
 21
4384.2381393250471
 31
0.0
  0
LINE
  5
83AA
  8
3
 62
     0
 10
1030.7220988830611
 20
4364.2381393250471
 30
0.0
 11
1450.7220988830611
 21
4364.2381393250471
 31
0.0
  0
INSERT
  5
83AB
  8
3
 62
     0
  2
_OPEN
 10
990.72209888306145
 20
4364.2381393250471
 30
0.0
 41
40.0
 42
40.0
 43
40.0
 50
180.0
  0
INSERT
  5
83AC
  8
3
 62
     0
  2
_OPEN
 10
1490.7220988830611
 20
4364.2381393250471
 30
0.0
 41
40.0
 42
40.0
 43
40.0
  0
TEXT
  8
3
  40
60
  5
840D
  62
0
  72
0
  71
0
 10
1120.72
 20
4308.04
 30
0.000000
  1
500
  0
POINT
  5
83AE
  8
DEFPOINTS
 62
     0
 10
990.72209888306145
 20
4235.8703794701923
 30
0.0
  0
POINT
  5
83AF
  8
DEFPOINTS
 62
     0
 10
1490.7220988830611
 20
4235.8703794701923
 30
0.0
  0
POINT
  5
83B0
  8
DEFPOINTS
 62
     0
 10
1490.7220988830611
 20
4364.2381393250471
 30
0.0
  0
ENDBLK
  5
81A3
  8
0
  0
BLOCK
  8
0
  2
*D12
 70
     1
 10
0.0
 20
0.0
 30
0.0
  3
*D12
  1

  0
LINE
  5
83B1
  8
3
 62
     0
 10
2070.7220988830609
 20
3805.8703794701919
 30
0.0
 11
2070.7220988830609
 21
4384.2381393250471
 31
0.0
  0
LINE
  5
83B2
  8
3
 62
     0
 10
1530.7220988830611
 20
4364.2381393250471
 30
0.0
 11
2030.7220988830611
 21
4364.2381393250471
 31
0.0
  0
INSERT
  5
83B3
  8
3
 62
     0
  2
_OPEN
 10
1490.7220988830611
 20
4364.2381393250471
 30
0.0
 41
40.0
 42
40.0
 43
40.0
 50
180.0
  0
INSERT
  5
83B4
  8
3
 62
     0
  2
_OPEN
 10
2070.7220988830609
 20
4364.2381393250471
 30
0.0
 41
40.0
 42
40.0
 43
40.0
  0
TEXT
  8
3
  40
60
  5
840E
  62
0
  72
0
  71
0
 10
1660.72
 20
4308.04
 30
0.000000
  1
580
  0
POINT
  5
83B6
  8
DEFPOINTS
 62
     0
 10
1490.7220988830611
 20
4235.8703794701923
 30
0.0
  0
POINT
  5
83B7
  8
DEFPOINTS
 62
     0
 10
2070.7220988830609
 20
3795.8703794701919
 30
0.0
  0
POINT
  5
83B8
  8
DEFPOINTS
 62
     0
 10
2070.7220988830609
 20
4364.2381393250471
 30
0.0
  0
ENDBLK
  5
81AF
  8
0
  0
BLOCK
  8
0
  2
*D13
 70
     1
 10
0.0
 20
0.0
 30
0.0
  3
*D13
  1

  0
LINE
  5
83B9
  8
3
 62
     0
 10
2080.7220988830609
 20
3795.8703794701919
 30
0.0
 11
2287.532815933333
 21
3795.8703794701919
 31
0.0
  0
LINE
  5
83BA
  8
3
 62
     0
 10
2080.7220988830609
 20
3235.870379470191
 30
0.0
 11
2287.532815933333
 21
3235.870379470191
 31
0.0
  0
LINE
  5
83BB
  8
3
 62
     0
 10
2267.532815933333
 20
3755.870379470191
 30
0.0
 11
2267.532815933333
 21
3275.8703794701919
 31
0.0
  0
INSERT
  5
83BC
  8
3
 62
     0
  2
_OPEN
 10
2267.532815933333
 20
3795.8703794701919
 30
0.0
 41
40.0
 42
40.0
 43
40.0
 50
90.0
  0
INSERT
  5
83BD
  8
3
 62
     0
  2
_OPEN
 10
2267.532815933333
 20
3235.870379470191
 30
0.0
 41
40.0
 42
40.0
 43
40.0
 50
270.0
  0
TEXT
  8
3
  40
60
  5
840F
  62
0
  72
0
  71
0
 10
2097.53
 20
3409.67
 30
0.000000
  1
560
  0
POINT
  5
83BF
  8
DEFPOINTS
 62
     0
 10
2070.7220988830609
 20
3795.8703794701919
 30
0.0
  0
POINT
  5
83C0
  8
DEFPOINTS
 62
     0
 10
2070.7220988830609
 20
3235.870379470191
 30
0.0
  0
POINT
  5
83C1
  8
DEFPOINTS
 62
     0
 10
2267.532815933333
 20
3235.870379470191
 30
0.0
  0
ENDBLK
  5
81BC
  8
0
  0
BLOCK
  8
0
  2
*D14
 70
     1
 10
0.0
 20
0.0
 30
0.0
  3
*D14
  1

  0
LINE
  5
83C2
  8
3
 62
     0
 10
980.72209888306145
 20
4235.8703794701923
 30
0.0
 11
720.87430502719519
 21
4235.8703794701923
 31
0.0
  0
LINE
  5
83C3
  8
3
 62
     0
 10
980.72209888306145
 20
3235.8703794701919
 30
0.0
 11
720.87430502719508
 21
3235.8703794701919
 31
0.0
  0
LINE
  5
83C4
  8
3
 62
     0
 10
740.87430502719531
 20
4195.8703794701923
 30
0.0
 11
740.87430502719508
 21
3275.8703794701919
 31
0.0
  0
INSERT
  5
83C5
  8
3
 62
     0
  2
_OPEN
 10
740.87430502719531
 20
4235.8703794701923
 30
0.0
 41
40.0
 42
40.0
 43
40.0
 50
90.0
  0
INSERT
  5
83C6
  8
3
 62
     0
  2
_OPEN
 10
740.87430502719508
 20
3235.8703794701919
 30
0.0
 41
40.0
 42
40.0
 43
40.0
 50
270.0
  0
TEXT
  8
3
  40
60
  5
8410
  62
0
  72
0
  71
0
 10
570.874
 20
3629.67
 30
0.000000
  1
1000
  0
POINT
  5
83C8
  8
DEFPOINTS
 62
     0
 10
990.72209888306145
 20
4235.8703794701923
 30
0.0
  0
POINT
  5
83C9
  8
DEFPOINTS
 62
     0
 10
990.72209888306145
 20
3235.8703794701919
 30
0.0
  0
POINT
  5
83CA
  8
DEFPOINTS
 62
     0
 10
740.87430502719508
 20
3235.8703794701919
 30
0.0
  0
ENDBLK
  5
81C9
  8
0
  0
BLOCK
  8
0
  2
_DOT
 70
     0
 10
0.0
 20
0.0
 30
0.0
  3
_DOT
  1

  0
LINE
  5
8274
  8
0
  6
BYBLOCK
 62
     0
 10
0.0
 20
0.0
 30
0.0
 11
-1.0
 21
-0.0000000000000284
 31
0.0
  0
POLYLINE
  5
8275
  8
0
  6
BYBLOCK
 62
     0
 66
     1
 10
0.0
 20
0.0
 30
0.0
 70
     1
 40
0.1666666666666666
 41
0.1666666666666666
  0
VERTEX
  5
83D4
  8
0
  6
BYBLOCK
 62
     0
 10
-0.0833333333333286
 20
-0.0000000000000284
 30
0.0
 42
1.0
  0
VERTEX
  5
83D5
  8
0
  6
BYBLOCK
 62
     0
 10
0.0833333333333286
 20
-0.0000000000000284
 30
0.0
 42
1.0
  0
SEQEND
  5
83D6
  8
0
  6
BYBLOCK
 62
     0
  0
ENDBLK
  5
8240
  8
0
  0
BLOCK
  8
0
  2
*D16
 70
     1
 10
0.0
 20
0.0
 30
0.0
  3
*D16
  1

  0
LINE
  5
83CB
  8
3
 62
     0
 10
880.72209888306043
 20
2648.5154416209862
 30
0.0
 11
880.72209888306043
 21
2960.5319664306271
 31
0.0
  0
LINE
  5
83CC
  8
3
 62
     0
 10
2070.72209888306
 20
1703.9102586576821
 30
0.0
 11
2070.72209888306
 21
2960.5319664306271
 31
0.0
  0
LINE
  5
83CD
  8
3
 62
     0
 10
920.72209888306043
 20
2940.5319664306271
 30
0.0
 11
2030.72209888306
 21
2940.5319664306271
 31
0.0
  0
INSERT
  5
83CE
  8
3
 62
     0
  2
_OPEN
 10
880.72209888306043
 20
2940.5319664306271
 30
0.0
 41
40.0
 42
40.0
 43
40.0
 50
180.0
  0
INSERT
  5
83CF
  8
3
 62
     0
  2
_OPEN
 10
2070.72209888306
 20
2940.5319664306271
 30
0.0
 41
40.0
 42
40.0
 43
40.0
  0
TEXT
  8
3
  40
60
  5
8411
  62
0
  72
0
  71
0
 10
1355.72
 20
2884.33
 30
0.000000
  1
1190
  0
POINT
  5
83D1
  8
DEFPOINTS
 62
     0
 10
880.72209888306043
 20
2638.5154416209848
 30
0.0
  0
POINT
  5
83D2
  8
DEFPOINTS
 62
     0
 10
2070.72209888306
 20
1693.9102586576821
 30
0.0
  0
POINT
  5
83D3
  8
DEFPOINTS
 62
     0
 10
2070.72209888306
 20
2940.5319664306271
 30
0.0
  0
ENDBLK
  5
8272
  8
0
  0
BLOCK
  8
0
  2
*D17
 70
     1
 10
0.0
 20
0.0
 30
0.0
  3
*D17
  1

  0
LINE
  5
83D7
  8
3
 62
     0
 10
990.72209888306145
 20
1608.9102586576821
 30
0.0
 11
990.72209888306145
 21
1458.770998263511
 31
0.0
  0
LINE
  5
83D8
  8
3
 62
     0
 10
1240.7220988830611
 20
1608.9102586576821
 30
0.0
 11
1240.7220988830611
 21
1458.770998263511
 31
0.0
  0
LINE
  5
83D9
  8
3
 62
     0
 10
1030.7220988830611
 20
1478.770998263511
 30
0.0
 11
1200.7220988830611
 21
1478.770998263511
 31
0.0
  0
INSERT
  5
83DA
  8
3
 62
     0
  2
_OPEN
 10
990.72209888306145
 20
1478.770998263511
 30
0.0
 41
40.0
 42
40.0
 43
40.0
 50
180.0
  0
INSERT
  5
83DB
  8
3
 62
     0
  2
_OPEN
 10
1240.7220988830611
 20
1478.770998263511
 30
0.0
 41
40.0
 42
40.0
 43
40.0
  0
TEXT
  8
3
  40
60
  5
8412
  62
0
  72
0
  71
0
 10
995.722
 20
1422.57
 30
0.000000
  1
250
  0
POINT
  5
83DD
  8
DEFPOINTS
 62
     0
 10
990.72209888306145
 20
1618.9102586576821
 30
0.0
  0
POINT
  5
83DE
  8
DEFPOINTS
 62
     0
 10
1240.7220988830611
 20
1618.9102586576821
 30
0.0
  0
POINT
  5
83DF
  8
DEFPOINTS
 62
     0
 10
1240.7220988830611
 20
1478.770998263511
 30
0.0
  0
ENDBLK
  5
8302
  8
0
  0
BLOCK
  8
0
  2
*D18
 70
     1
 10
0.0
 20
0.0
 30
0.0
  3
*D18
  1

  0
LINE
  5
83E0
  8
3
 62
     0
 10
1240.7220988830611
 20
1608.9102586576821
 30
0.0
 11
1240.7220988830611
 21
1458.770998263511
 31
0.0
  0
LINE
  5
83E1
  8
3
 62
     0
 10
2070.7220988830609
 20
1608.9102586576821
 30
0.0
 11
2070.7220988830609
 21
1458.770998263511
 31
0.0
  0
LINE
  5
83E2
  8
3
 62
     0
 10
1280.7220988830611
 20
1478.770998263511
 30
0.0
 11
2030.72209888306
 21
1478.770998263511
 31
0.0
  0
INSERT
  5
83E3
  8
3
 62
     0
  2
_OPEN
 10
1240.7220988830611
 20
1478.770998263511
 30
0.0
 41
40.0
 42
40.0
 43
40.0
 50
180.0
  0
INSERT
  5
83E4
  8
3
 62
     0
  2
_OPEN
 10
2070.7220988830609
 20
1478.770998263511
 30
0.0
 41
40.0
 42
40.0
 43
40.0
  0
TEXT
  8
3
  40
60
  5
8413
  62
0
  72
0
  71
0
 10
1535.72
 20
1422.57
 30
0.000000
  1
830
  0
POINT
  5
83E6
  8
DEFPOINTS
 62
     0
 10
1240.7220988830611
 20
1618.9102586576821
 30
0.0
  0
POINT
  5
83E7
  8
DEFPOINTS
 62
     0
 10
2070.7220988830609
 20
1618.9102586576821
 30
0.0
  0
POINT
  5
83E8
  8
DEFPOINTS
 62
     0
 10
2070.7220988830609
 20
1478.770998263511
 30
0.0
  0
ENDBLK
  5
830F
  8
0
  0
BLOCK
  8
0
  2
*D19
 70
     1
 10
0.0
 20
0.0
 30
0.0
  3
*D19
  1

  0
LINE
  5
83E9
  8
3
 62
     0
 10
2743.9703889558459
 20
1608.9102586576821
 30
0.0
 11
2743.9703889558459
 21
1458.770998263511
 31
0.0
  0
LINE
  5
83EA
  8
3
 62
     0
 10
3513.9703889558459
 20
1608.9102586576821
 30
0.0
 11
3513.9703889558459
 21
1458.770998263511
 31
0.0
  0
LINE
  5
83EB
  8
3
 62
     0
 10
2783.9703889558459
 20
1478.770998263511
 30
0.0
 11
3473.9703889558459
 21
1478.770998263511
 31
0.0
  0
INSERT
  5
83EC
  8
3
 62
     0
  2
_OPEN
 10
2743.9703889558459
 20
1478.770998263511
 30
0.0
 41
40.0
 42
40.0
 43
40.0
 50
180.0
  0
INSERT
  5
83ED
  8
3
 62
     0
  2
_OPEN
 10
3513.9703889558459
 20
1478.770998263511
 30
0.0
 41
40.0
 42
40.0
 43
40.0
  0
TEXT
  8
3
  40
60
  5
8414
  62
0
  72
0
  71
0
 10
3008.97
 20
1422.57
 30
0.000000
  1
770
  0
POINT
  5
83EF
  8
DEFPOINTS
 62
     0
 10
2743.9703889558459
 20
1618.9102586576821
 30
0.0
  0
POINT
  5
83F0
  8
DEFPOINTS
 62
     0
 10
3513.9703889558459
 20
1618.9102586576821
 30
0.0
  0
POINT
  5
83F1
  8
DEFPOINTS
 62
     0
 10
3513.9703889558459
 20
1478.770998263511
 30
0.0
  0
ENDBLK
  5
831C
  8
0
  0
BLOCK
  8
0
  2
*D20
 70
     1
 10
0.0
 20
0.0
 30
0.0
  3
*D20
  1

  0
LINE
  5
83F2
  8
3
 62
     0
 10
3513.9703889558459
 20
1608.9102586576821
 30
0.0
 11
3513.9703889558459
 21
1458.770998263511
 31
0.0
  0
LINE
  5
83F3
  8
3
 62
     0
 10
3743.9703889558459
 20
1608.9102586576821
 30
0.0
 11
3743.9703889558459
 21
1458.770998263511
 31
0.0
  0
LINE
  5
83F4
  8
3
 62
     0
 10
3553.9703889558459
 20
1478.770998263511
 30
0.0
 11
3703.9703889558468
 21
1478.770998263511
 31
0.0
  0
INSERT
  5
83F5
  8
3
 62
     0
  2
_OPEN
 10
3513.9703889558459
 20
1478.770998263511
 30
0.0
 41
40.0
 42
40.0
 43
40.0
 50
180.0
  0
INSERT
  5
83F6
  8
3
 62
     0
  2
_OPEN
 10
3743.9703889558459
 20
1478.770998263511
 30
0.0
 41
40.0
 42
40.0
 43
40.0
  0
TEXT
  8
3
  40
60
  5
8415
  62
0
  72
0
  71
0
 10
3508.97
 20
1422.57
 30
0.000000
  1
230
  0
POINT
  5
83F8
  8
DEFPOINTS
 62
     0
 10
3513.9703889558459
 20
1618.9102586576821
 30
0.0
  0
POINT
  5
83F9
  8
DEFPOINTS
 62
     0
 10
3743.9703889558459
 20
1618.9102586576821
 30
0.0
  0
POINT
  5
83FA
  8
DEFPOINTS
 62
     0
 10
3743.9703889558459
 20
1478.770998263511
 30
0.0
  0
ENDBLK
  5
832B
  8
0
  0
BLOCK
  8
0
  2
*D21
 70
     1
 10
0.0
 20
0.0
 30
0.0
  3
*D21
  1

  0
LINE
  5
83FB
  8
3
 62
     0
 10
870.72209888306043
 20
2638.5154416209848
 30
0.0
 11
443.60054017531382
 21
2638.5154416209848
 31
0.0
  0
LINE
  5
83FC
  8
3
 62
     0
 10
980.72209888306122
 20
1618.9102586576821
 30
0.0
 11
443.6005401753136
 21
1618.9102586576821
 31
0.0
  0
LINE
  5
83FD
  8
3
 62
     0
 10
463.60054017531388
 20
2598.5154416209848
 30
0.0
 11
463.6005401753136
 21
1658.9102586576821
 31
0.0
  0
INSERT
  5
83FE
  8
3
 62
     0
  2
_OPEN
 10
463.60054017531388
 20
2638.5154416209848
 30
0.0
 41
40.0
 42
40.0
 43
40.0
 50
90.0
  0
INSERT
  5
83FF
  8
3
 62
     0
  2
_OPEN
 10
463.6005401753136
 20
1618.9102586576821
 30
0.0
 41
40.0
 42
40.0
 43
40.0
 50
270.0
  0
TEXT
  8
3
  40
60
  5
8416
  62
0
  72
0
  71
0
 10
293.601
 20
2022.51
 30
0.000000
  1
1020
  0
POINT
  5
8401
  8
DEFPOINTS
 62
     0
 10
880.72209888306043
 20
2638.5154416209848
 30
0.0
  0
POINT
  5
8402
  8
DEFPOINTS
 62
     0
 10
990.72209888306145
 20
1618.9102586576821
 30
0.0
  0
POINT
  5
8403
  8
DEFPOINTS
 62
     0
 10
463.6005401753136
 20
1618.9102586576821
 30
0.0
  0
ENDBLK
  5
8338
  8
0
  0
ENDSEC
  0
SECTION
  2
ENTITIES
  0
INSERT
  5
7C4C
  8
0
  2
YA_N
 10
6.0
 20
5.0
 30
0.0
  0
INSERT
  5
7C4D
  8
0
  2
YA_N
 10
6.0
 20
5.0
 30
0.0
  0
INSERT
  5
7C4E
  8
0
  2
YA_N
 10
6.0
 20
5.0
 30
0.0
  0
INSERT
  5
7C4F
  8
0
  2
YA_N
 10
6.0
 20
5.0
 30
0.0
  0
INSERT
  5
7C50
  8
0
  2
YA_N
 10
6.0
 20
5.0
 30
0.0
  0
LINE
  5
7C51
  8
1
 10
2773.9703889558459
 20
2008.9102586576821
 30
0.0
 11
3258.9703889558468
 21
2008.9102586576821
 31
0.0
  0
LINE
  5
7C52
  8
1
 10
2780.7703889558461
 20
2005.7102586576821
 30
0.0
 11
2780.770388955847
 21
1889.9102586576821
 31
0.0
  0
LINE
  5
7C58
  8
1
 10
1462.7220988830411
 20
1693.9102586576821
 30
0.0
 11
1462.72209888306
 21
2005.7102586576821
 31
0.0
  0
LINE
  5
7C59
  8
1
 10
1018.722098883061
 20
1693.9102586576821
 30
0.0
 11
1018.722098883061
 21
2005.7102586576821
 31
0.0
  0
LINE
  5
7C5A
  8
1
 10
1472.7220988830611
 20
2008.9102586576821
 30
0.0
 11
1008.722098883061
 21
2008.9102586576821
 31
0.0
  0
LINE
  5
7C5B
  8
1
 10
990.72209888306145
 20
1618.9102586576821
 30
0.0
 11
2070.72209888306
 21
1618.9102586576821
 31
0.0
  0
INSERT
  5
7C5C
  8
0
  2
YA_N
 10
6285.3947994874952
 20
6170.1179297020417
 30
0.0
  0
INSERT
  5
7C5D
  8
0
  2
YA_N
 10
9310.6143563453425
 20
8479.3824956818644
 30
0.0
  0
INSERT
  5
7C5E
  8
0
  2
YA_N
 10
6566.5323200881021
 20
7938.1589708423153
 30
0.0
  0
INSERT
  5
7C5F
  8
0
  2
YA_N
 10
9396.3261307456396
 20
6429.6268749438577
 30
0.0
  0
INSERT
  5
7C60
  8
0
  2
YA_N
 10
120.0
 20
100.0
 30
0.0
 41
20.0
 42
20.0
 43
20.0
  0
LINE
  5
7C63
  8
1
 10
3705.7703889558461
 20
1818.9102586576821
 30
0.0
 11
3730.7703889558461
 21
1818.9102586576821
 31
0.0
  0
LINE
  5
7C64
  8
1
 10
3730.7703889558461
 20
1818.9102586576821
 30
0.0
 11
3730.7703889558461
 21
1817.9102586576821
 31
0.0
  0
ARC
  5
7C65
  8
1
 10
3728.7703889558461
 20
1817.9102586576821
 30
0.0
 40
2.0
 50
270.0
 51
0.0
  0
LINE
  5
7C66
  8
1
 10
3728.7703889558461
 20
1815.9102586576821
 30
0.0
 11
3712.7703889558461
 21
1815.9102586576821
 31
0.0
  0
ARC
  5
7C67
  8
1
 10
3712.7703889558461
 20
1811.9102586576821
 30
0.0
 40
4.0
 50
90.0
 51
180.0
  0
LINE
  5
7C68
  8
1
 10
3708.7703889558461
 20
1811.9102586576821
 30
0.0
 11
3708.7703889558461
 21
1795.9102586576821
 31
0.0
  0
ARC
  5
7C69
  8
1
 10
3706.7703889558452
 20
1795.9102586576821
 30
0.0
 40
2.0
 50
270.0
 51
0.0
  0
LINE
  5
7C6A
  8
1
 10
3706.7703889558452
 20
1793.9102586576821
 30
0.0
 11
3705.7703889558461
 21
1793.9102586576821
 31
0.0
  0
LINE
  5
7C6B
  8
1
 10
3705.7703889558461
 20
1793.9102586576821
 30
0.0
 11
3705.7703889558461
 21
1818.9102586576821
 31
0.0
  0
LINE
  5
7C6C
  8
1
 10
3708.7703889558461
 20
2325.91021962782
 30
0.0
 11
3708.7703889558461
 21
2063.310258657682
 31
0.0
  0
INSERT
  5
7C6D
  8
0
  2
YA_N
 10
120.0
 20
100.0
 30
0.0
 41
20.0
 42
20.0
 43
20.0
  0
INSERT
  5
7C70
  8
0
  2
YA_N
 10
120.0
 20
100.0
 30
0.0
 41
20.0
 42
20.0
 43
20.0
  0
INSERT
  5
7C71
  8
0
  2
YA_N
 10
120.0
 20
100.0
 30
0.0
 41
20.0
 42
20.0
 43
20.0
  0
INSERT
  5
7C72
  8
0
  2
YA_N
 10
120.0
 20
100.0
 30
0.0
 41
20.0
 42
20.0
 43
20.0
  0
LINE
  5
7C75
  8
1
 10
1472.72209888306
 20
2005.7102586576821
 30
0.0
 11
1472.7220988830611
 21
2008.910258657681
 31
0.0
  0
LINE
  5
7C76
  8
1
 10
1008.722098883061
 20
2005.7102586576821
 30
0.0
 11
1008.722098883061
 21
2008.9102586576821
 31
0.0
  0
LINE
  5
7C77
  8
1
 10
2773.9703889558459
 20
2005.7102586576821
 30
0.0
 11
3258.9703889558468
 21
2005.7102586576821
 31
0.0
  0
LINE
  5
7C78
  8
1
 10
3258.9703889558468
 20
2008.910258657683
 30
0.0
 11
3258.9703889558468
 21
2005.7102586576821
 31
0.0
  0
LINE
  5
7C79
  8
1
 10
2773.9703889558459
 20
2008.9102586576821
 30
0.0
 11
2773.9703889558459
 21
2005.7102586576821
 31
0.0
  0
LINE
  5
7C7A
  8
1
 10
3248.9703889558459
 20
2005.7102586576821
 30
0.0
 11
3248.9703889558459
 21
1965.710258657683
 31
0.0
  0
LINE
  5
7C7B
  8
2
 10
1240.7220988830611
 20
1618.9102586576821
 30
0.0
 11
1240.7220988830611
 21
2653.0729479998508
 31
0.0
  0
LINE
  5
7C7C
  8
1
 10
3326.4703889558459
 20
2068.9102586576819
 30
0.0
 11
3326.4703889558459
 21
1693.9102586576821
 31
0.0
  0
LINE
  5
7C7D
  8
1
 10
3701.4703889558459
 20
2068.9102586576819
 30
0.0
 11
3701.4703889558459
 21
1693.9102586576821
 31
0.0
  0
LINE
  5
7C7E
  8
1
 10
3326.4703889558459
 20
2606.9102586576819
 30
0.0
 11
3326.4703889558459
 21
2068.9102586576819
 31
0.0
  0
LINE
  5
7C7F
  8
1
 10
3701.4703889558459
 20
2606.9102586576819
 30
0.0
 11
3701.4703889558459
 21
2068.9102586576819
 31
0.0
  0
LINE
  5
7C80
  8
1
 10
883.72209888306054
 20
2638.5154416209848
 30
0.0
 11
883.72209888306054
 21
2063.310258657682
 31
0.0
  0
LINE
  5
7C81
  8
1
 10
880.72209888306043
 20
2606.9102586576819
 30
0.0
 11
880.72209888306043
 21
2094.9102586576828
 31
0.0
  0
LINE
  5
7C82
  8
1
 10
946.64242048995118
 20
2094.9102586576819
 30
0.0
 11
880.72209888306043
 21
2094.9102586576819
 31
0.0
  0
LINE
  5
7C83
  8
1
 10
880.72209888306043
 20
2084.9102586576819
 30
0.0
 11
880.72209888306043
 21
2616.9426521783271
 31
0.0
  0
LINE
  5
7C84
  8
1
 10
3705.7703889558461
 20
1818.9102586576821
 30
0.0
 11
3705.7703889558461
 21
2062.9102586576819
 31
0.0
  0
LINE
  5
7C85
  8
1
 10
3708.7703889558461
 20
2062.9102586576819
 30
0.0
 11
3708.7703889558461
 21
1811.9102586576821
 31
0.0
  0
LINE
  5
7C86
  8
1
 10
3705.7703889558461
 20
2062.9102586576819
 30
0.0
 11
3705.7703889558461
 21
2063.310258657682
 31
0.0
  0
LINE
  5
7C87
  8
1
 10
880.72209888306043
 20
2606.9102586576819
 30
0.0
 11
1240.72209888306
 21
2577.9102586576819
 31
0.0
  0
ARC
  5
7C88
  8
1
 10
1203.72209888306
 20
2105.9102586576819
 30
0.0
 40
473.44799080786078
 50
0.0
 51
85.517759629575124
  0
ARC
  5
7C89
  8
1
 10
1277.7220988830611
 20
2105.9102586576819
 30
0.0
 40
399.44799080786061
 50
264.95754893082898
 51
0.0
  0
ARC
  5
7C8A
  8
1
 10
1271.7220988830611
 20
2037.9102586576821
 30
0.0
 40
331.18379814435627
 50
180.0
 51
264.95754893082898
  0
ARC
  5
7C8B
  8
1
 10
1209.7220988830611
 20
2037.910258657683
 30
0.0
 40
269.18379814435679
 50
147.01330952517961
 51
180.00000000000031
  0
LINE
  5
7C8C
  8
2
 10
3513.9703889558459
 20
2722.1931935083921
 30
0.0
 11
3513.9703889558459
 21
1618.9102586576821
 31
0.0
  0
LINE
  5
7C8D
  8
2
 10
2667.6544807832502
 20
2068.9102586576819
 30
0.0
 11
3757.8466487959608
 21
2068.9102586576828
 31
0.0
1001
ACAD
1000
ASC_BOUNDS
1002
{
1070
    19
1002
}
  0
LINE
  5
7C8E
  8
1
 10
910.72209888306043
 20
2638.5154416209848
 30
0.0
 11
910.72209888306043
 21
2063.310258657682
 31
0.0
  0
LINE
  5
7C8F
  8
1
 10
910.72209888306043
 20
2063.310258657682
 30
0.0
 11
880.72209888306043
 21
2063.310258657682
 31
0.0
  0
LINE
  5
7C90
  8
1
 10
880.72209888306043
 20
2063.310258657682
 30
0.0
 11
880.72209888306043
 21
2638.5154416209848
 31
0.0
  0
LINE
  5
7C91
  8
1
 10
880.72209888306043
 20
2638.5154416209848
 30
0.0
 11
910.72209888306043
 21
2638.5154416209848
 31
0.0
  0
ARC
  5
7C92
  8
1
 10
947.72209888306043
 20
2216.9102586576819
 30
0.0
 40
49.0
 50
315.68249193757549
 51
110.7649492767364
  0
LINE
  5
7C93
  8
1
 10
880.72209888306043
 20
2243.9102586576819
 30
0.0
 11
930.34988310410517
 21
2262.7273528358319
 31
0.0
  0
LINE
  5
7C94
  8
1
 10
990.72209888306145
 20
1618.9102586576821
 30
0.0
 11
2070.72209888306
 21
1618.9102586576821
 31
0.0
  0
LINE
  5
7C95
  8
1
 10
2743.9703889558459
 20
1618.9102586576821
 30
0.0
 11
3743.9703889558459
 21
1618.9102586576821
 31
0.0
  0
LINE
  5
7C96
  8
1
 10
3705.7703889558461
 20
2343.9102586576819
 30
0.0
 11
3701.470388955845
 21
2343.9102586576819
 31
0.0
  0
LINE
  5
7C97
  8
1
 10
3705.7703889558461
 20
1793.9102586576821
 30
0.0
 11
3701.4703889558459
 21
1793.9102586576821
 31
0.0
  0
LINE
  5
7C98
  8
1
 10
1008.722098883061
 20
2005.7102586576821
 30
0.0
 11
1472.72209888306
 21
2005.7102586576821
 31
0.0
  0
POINT
  5
7C99
  8
1
 10
880.72209888306043
 20
2608.5154416209848
 30
0.0
  0
POINT
  5
7C9A
  8
1
 10
880.72209888306043
 20
2606.9102586576819
 30
0.0
  0
POINT
  5
7C9B
  8
1
 10
2743.9703889558459
 20
1693.9102586576821
 30
0.0
  0
POINT
  5
7C9C
  8
1
 10
3705.7703889558461
 20
2343.9102586576819
 30
0.0
  0
LINE
  5
7C9D
  8
1
 10
3248.9703889558459
 20
2005.7102586576821
 30
0.0
 11
3248.9703889558459
 21
1693.910258657683
 31
0.0
  0
LINE
  5
7C9E
  8
1
 10
3730.7703889558461
 20
1818.9102586576821
 30
0.0
 11
3730.7703889558461
 21
1817.9102586576821
 31
0.0
  0
INSERT
  5
7C9F
  8
0
  2
YA_N
 10
578.29819496493474
 20
667.15974685678236
 30
0.0
  0
INSERT
  5
7CA0
  8
0
  2
YA_N
 10
578.29819496493474
 20
667.15974685678236
 30
0.0
  0
INSERT
  5
7CA1
  8
0
  2
YA_N
 10
578.29819496493474
 20
667.15974685678236
 30
0.0
  0
INSERT
  5
7CA2
  8
0
  2
YA_N
 10
578.29819496493474
 20
667.15974685678236
 30
0.0
  0
INSERT
  5
7CA3
  8
0
  2
YA_N
 10
2798.551811518767
 20
1662.02584223804
 30
0.0
  0
INSERT
  5
7CA5
  8
0
  2
YA_N
 10
3145.897131625954
 20
1825.850693409124
 30
0.0
 41
3.191404879447199
 42
3.191404879447199
 43
3.191404879447199
  0
LINE
  5
7CA6
  8
1
 10
3730.7703889558461
 20
1818.9102586576821
 30
0.0
 11
3730.7703889558461
 21
2318.9102586576819
 31
0.0
  0
INSERT
  5
7CA7
  8
0
  2
YA_N
 10
18.0
 20
4050.5577889263582
 30
0.0
  0
INSERT
  5
7CA8
  8
0
  2
YA_N
 10
18.0
 20
4050.5577889263582
 30
0.0
  0
INSERT
  5
7CA9
  8
0
  2
YA_N
 10
18.0
 20
4050.5577889263582
 30
0.0
  0
INSERT
  5
7CAA
  8
0
  2
YA_N
 10
10018.0
 20
14050.55778892635
 30
0.0
  0
INSERT
  5
7CAB
  8
0
  2
YA_N
 10
10018.0
 20
14050.55778892635
 30
0.0
  0
INSERT
  5
7CAC
  8
0
  2
YA_N
 10
10018.0
 20
14050.55778892635
 30
0.0
  0
INSERT
  5
7CAD
  8
0
  2
YA_N
 10
10018.0
 20
14050.55778892635
 30
0.0
  0
INSERT
  5
7CAE
  8
0
  6
BYBLOCK
 62
     2
  2
YA_N
 10
3183.088503818366
 20
1711.274344822353
 30
0.0
 41
24.0
 42
24.0
 43
24.0
 50
270.0
  0
INSERT
  5
7CAF
  8
0
  6
BYBLOCK
 62
     2
  2
YA_N
 10
3290.1059722385171
 20
1726.595643880431
 30
0.0
 41
24.0
 42
24.0
 43
24.0
 50
270.0
  0
LINE
  5
7CB0
  8
1
 10
2688.970388955845
 20
2208.6102586576822
 30
0.0
 11
2688.9703889558482
 21
1929.2102586576821
 31
0.0
  0
LINE
  5
7CB1
  8
1
 10
2728.9703889558459
 20
2087.9102586576819
 30
0.0
 11
2758.9703889558459
 21
2087.9102586576819
 31
0.0
1001
ACAD
1000
ASC_BOUNDS
1002
{
1070
    19
1002
}
  0
LINE
  5
7CB2
  8
1
 10
2728.9703889558459
 20
2049.9102586576819
 30
0.0
 11
2758.9703889558459
 21
2049.9102586576819
 31
0.0
1001
ACAD
1000
ASC_BOUNDS
1002
{
1070
    19
1002
}
  0
LINE
  5
7CB3
  8
1
 10
2758.9703889558459
 20
2091.4102586576819
 30
0.0
 11
2758.9703889558459
 21
2046.4102586576821
 31
0.0
  0
LINE
  5
7CB4
  8
1
 10
2758.9703889558459
 20
2091.4102586576819
 30
0.0
 11
3326.4703889558459
 21
2091.4102586576819
 31
0.0
1001
ACAD
1000
ASC_BOUNDS
1002
{
1070
    19
1002
}
  0
LINE
  5
7CB5
  8
1
 10
2758.9703889558459
 20
2046.4102586576821
 30
0.0
 11
3326.4703889558459
 21
2046.4102586576821
 31
0.0
1001
ACAD
1000
ASC_BOUNDS
1002
{
1070
    19
1002
}
  0
LINE
  5
7CB6
  8
1
 10
2728.970388955845
 20
2208.6102586576822
 30
0.0
 11
2728.9703889558459
 21
1929.2102586576821
 31
0.0
  0
LINE
  5
7CB7
  8
1
 10
2688.9703889558441
 20
2208.6102586576822
 30
0.0
 11
2728.970388955845
 21
2208.6102586576822
 31
0.0
1001
ACAD
1000
ASC_BOUNDS
1002
{
1070
    19
1002
}
  0
LINE
  5
7CB8
  8
1
 10
2780.770388955847
 20
1759.9102586576821
 30
0.0
 11
2780.770388955847
 21
1693.9102586576821
 31
0.0
  0
LINE
  5
7CB9
  8
1
 10
2688.9703889558482
 20
1929.2102586576821
 30
0.0
 11
2688.9703889558482
 21
1800.9102586576821
 31
0.0
  0
LINE
  5
7CBA
  8
1
 10
2728.9703889558459
 20
1929.2102586576821
 30
0.0
 11
2728.9703889558459
 21
1800.9102586576821
 31
0.0
  0
LINE
  5
7CBB
  8
1
 10
2764.0301506063352
 20
2191.8568025965719
 30
0.0
 11
2764.0301506063352
 21
2258.6102586576822
 31
0.0
  0
LINE
  5
7CBC
  8
1
 10
2764.0301506063352
 20
2258.6102586576822
 30
0.0
 11
2642.0301506063352
 21
2258.6102586576822
 31
0.0
  0
LINE
  5
7CBD
  8
1
 10
2642.0301506063352
 20
2258.6102586576822
 30
0.0
 11
2642.0301506063338
 21
1748.4102586576821
 31
0.0
  0
CIRCLE
  5
7CBE
  8
1
 10
1240.7220988830611
 20
2068.9102586576819
 30
0.0
 40
139.69999999999999
  0
LINE
  5
7CBF
  8
1
 10
2642.0301506063352
 20
1748.4102586576821
 30
0.0
 11
2764.0301506063352
 21
1748.4102586576821
 31
0.0
  0
LINE
  5
7CC0
  8
1
 10
2764.0301506063352
 20
1805.6526230933571
 30
0.0
 11
2764.0301506063352
 21
1748.4102586576821
 31
0.0
  0
LINE
  5
7CC1
  8
1
 10
2642.0301506063352
 20
2258.6102586576822
 30
0.0
 11
2764.0301506063352
 21
2258.6102586576822
 31
0.0
  0
INSERT
  5
7CC2
  8
0
  6
BYBLOCK
 62
     2
  2
YA_N
 10
3220.312248982013
 20
845.60638416362042
 30
0.0
 41
24.0
 42
24.0
 43
24.0
 50
209.02222522655319
  0
LINE
  5
7CC3
  8
1
 10
1462.722098883057
 20
1965.7102586576821
 30
0.0
 11
1651.7577353676561
 21
1965.7102586576821
 31
0.0
  0
LINE
  5
7CC4
  8
1
 10
1018.722098883061
 20
1965.7102586576821
 30
0.0
 11
948.50411028508461
 21
1965.7102586576821
 31
0.0
  0
LINE
  5
7CC5
  8
1
 10
1018.722098883061
 20
1959.7102586576821
 30
0.0
 11
949.90309982719191
 21
1959.7102586576821
 31
0.0
  0
LINE
  5
7CC6
  8
1
 10
1462.722098883057
 20
1959.7102586576821
 30
0.0
 11
1649.4535306458811
 21
1959.7102586576821
 31
0.0
  0
LINE
  5
7CC7
  8
1
 10
3248.9703889558459
 20
1965.710258657683
 30
0.0
 11
3326.4703889558459
 21
1965.710258657683
 31
0.0
  0
LINE
  5
7CC8
  8
1
 10
3248.9703889558459
 20
1965.710258657683
 30
0.0
 11
3248.9703889558459
 21
2005.7102586576821
 31
0.0
  0
LINE
  5
7CC9
  8
1
 10
3248.9703889558459
 20
2005.7102586576821
 30
0.0
 11
3250.970388955845
 21
2005.7102586576821
 31
0.0
  0
LINE
  5
7CCA
  8
1
 10
3248.9703889558459
 20
1959.7102586576821
 30
0.0
 11
3326.4703889558459
 21
1959.710258657683
 31
0.0
  0
INSERT
  5
7CCB
  8
0
  2
YA_N
 10
1713.0203073866769
 20
330.47048422179881
 30
0.0
  0
INSERT
  5
7CCF
  8
0
  6
BYBLOCK
 62
     2
  2
YA_N
 10
362.7872676876068
 20
442.62049533921049
 30
0.0
 41
24.0
 42
24.0
 43
24.0
 50
270.0
  0
POINT
  5
7CD0
  8
1
 10
880.72209888306043
 20
2606.9102586576819
 30
0.0
  0
POINT
  5
7CD1
  8
1
 10
880.72209888306043
 20
2094.9102586576819
 30
0.0
  0
POINT
  5
7CD2
  8
1
 10
880.72209888306043
 20
2606.9102586576819
 30
0.0
  0
LINE
  5
7CD3
  8
1
 10
3326.4703889558441
 20
2606.9102586576819
 30
0.0
 11
3701.4703889558459
 21
2606.9102586576819
 31
0.0
1001
ACAD
1000
ASC_BOUNDS
1002
{
1070
    19
1002
}
  0
LINE
  5
7CD4
  8
1
 10
3299.4703889558459
 20
2631.9102586576828
 30
0.0
 11
3728.470388955845
 21
2631.9102586576828
 31
0.0
1001
ACAD
1000
ASC_BOUNDS
1002
{
1070
    19
1002
}
  0
LINE
  5
7CD5
  8
1
 10
3728.470388955845
 20
2631.9102586576819
 30
0.0
 11
3728.4703889558468
 21
2321.9102586576819
 31
0.0
  0
LINE
  5
7CD6
  8
1
 10
3299.4703889558459
 20
2631.9102586576819
 30
0.0
 11
3299.470388955845
 21
2091.4102586576819
 31
0.0
1001
ACAD
1000
ASC_BOUNDS
1002
{
1070
    19
1002
}
  0
LINE
  5
7CD7
  8
1
 10
3326.4703889558459
 20
2094.9102586576819
 30
0.0
 11
3701.4703889558459
 21
2094.9102586576819
 31
0.0
  0
LINE
  5
7CD8
  8
1
 10
3705.7703889558461
 20
2063.310258657682
 30
0.0
 11
3705.7703889558461
 21
2318.9102586576819
 31
0.0
  0
LINE
  5
7CD9
  8
1
 10
3708.7703889558461
 20
2063.310258657682
 30
0.0
 11
3708.7703889558461
 21
2062.9102586576819
 31
0.0
  0
LINE
  5
7CDA
  8
1
 10
2085.7220988830609
 20
1693.9102586576821
 30
0.0
 11
1735.7220988830611
 21
1693.9102586576821
 31
0.0
  0
LINE
  5
7CDB
  8
2
 10
1910.7220988830611
 20
1674.654887909317
 30
0.0
 11
1910.7220988830611
 21
2043.4102586576821
 31
0.0
  0
LINE
  5
7CDC
  8
1
 10
2085.7220988830609
 20
1693.9102586576821
 30
0.0
 11
2085.7220988830609
 21
1738.9102586576821
 31
0.0
  0
LINE
  5
7CDD
  8
1
 10
1735.7220988830611
 20
1693.9102586576821
 30
0.0
 11
1735.7220988830611
 21
1738.9102586576821
 31
0.0
  0
LINE
  5
7CDF
  8
1
 10
2688.9703889558459
 20
1940.9102586576821
 30
0.0
 11
2728.9703889558459
 21
1940.9102586576821
 31
0.0
  0
LINE
  5
7CE0
  8
1
 10
2688.9703889558482
 20
1800.9102586576821
 30
0.0
 11
2728.9703889558459
 21
1800.9102586576821
 31
0.0
  0
LINE
  5
7CE1
  8
1
 10
1140.7220988830611
 20
2008.9102586576821
 30
0.0
 11
1340.7220988830611
 21
2008.9102586576821
 31
0.0
  0
LINE
  5
7CE2
  8
1
 10
2861.470388955845
 20
2008.9102586576821
 30
0.0
 11
2796.4703889558459
 21
2008.9102586576821
 31
0.0
  0
CIRCLE
  5
7CE4
  8
1
 10
1910.7220988830611
 20
1870.9102586576821
 30
0.0
 40
72.5
  0
LINE
  5
7CE5
  8
1
 10
1289.5111410831339
 20
2199.8137321073941
 30
0.0
 11
1936.042110046305
 21
1938.8451321373111
 31
0.0
  0
LINE
  5
7CE6
  8
1
 10
1218.1089293712171
 20
1931.052598135575
 30
0.0
 11
1898.9865599452751
 21
1799.3663761390501
 31
0.0
  0
ARC
  5
7CE7
  8
1
 10
1240.7220988830611
 20
2068.9102586576819
 30
0.0
 40
189.69999999999999
 50
69.559069074140154
 51
260.68457447893849
  0
LINE
  5
7CE8
  8
1
 10
1210.015454241709
 20
1881.711989502036
 30
0.0
 11
1890.8930848157679
 21
1750.0257675055111
 31
0.0
  0
ARC
  5
7CE9
  8
1
 10
1910.7220988830611
 20
1870.9102586576821
 30
0.0
 40
122.5
 50
260.68457447893849
 51
69.559069074140112
  0
DIMENSION
  5
7CEA
  8
3
  2
*D2
 10
727.7865327486661
 20
2094.9102586576819
 30
0.0
 11
677.78653274866565
 21
2350.9102586576819
 31
0.0
 70
     0
 13
880.72209888306043
 23
2606.9102586576819
 33
0.0
 14
880.72209888306043
 24
2094.9102586576819
 34
0.0
 50
270.0
1001
ACAD
1000
DSTYLE
1002
{
1070
   287
1070
     3
1070
    40
1040
20.0
1070
   143
1040
0.039
1070
   172
1070
     1
1070
   271
1070
     0
1070
   279
1070
     0
1070
   288
1070
     1
1002
}
  0
DIMENSION
  5
7CEB
  8
3
  2
*D3
 10
1240.7220988830611
 20
2780.7881213436922
 30
0.0
 11
1060.72209888306
 21
2830.7881213436922
 31
0.0
 70
     0
 13
880.72209888306043
 23
2638.5154416209848
 33
0.0
 14
1240.7220988830611
 24
2653.0729479998508
 34
0.0
1001
ACAD
1000
DSTYLE
1002
{
1070
   287
1070
     3
1070
    40
1040
20.0
1070
   143
1040
0.039
1070
   172
1070
     1
1070
   271
1070
     0
1070
   279
1070
     0
1070
   288
1070
     1
1002
}
  0
DIMENSION
  5
7CEC
  8
3
  2
*D4
 10
1675.7220988830611
 20
2780.7881213436922
 30
0.0
 11
1458.2220988830611
 21
2830.7881213436922
 31
0.0
 70
     0
 13
1240.7220988830611
 23
2653.0729479998508
 33
0.0
 14
1675.7220988830611
 24
2142.9102586576801
 34
0.0
1001
ACAD
1000
DSTYLE
1002
{
1070
   287
1070
     3
1070
    40
1040
20.0
1070
   143
1040
0.039
1070
   172
1070
     1
1070
   271
1070
     0
1070
   279
1070
     0
1070
   288
1070
     1
1002
}
  0
LINE
  5
7CED
  8
2
 10
1240.7220988830611
 20
3104.9774555302938
 30
0.0
 11
1240.7220988830611
 21
4321.4462127102588
 31
0.0
  0
LINE
  5
7CEE
  8
2
 10
1910.7220988830611
 20
3105.4815625124429
 30
0.0
 11
1910.7220988830611
 21
3733.3294852834219
 31
0.0
  0
LINE
  5
7CEF
  8
2
 10
810.8883535142586
 20
4005.8703794701919
 30
0.0
 11
1751.727751129011
 21
4005.8703794701919
 31
0.0
  0
LINE
  5
7CF0
  8
1
 10
2085.7220988830609
 20
1693.9102586576821
 30
0.0
 11
990.72209888306145
 21
1693.9102586576821
 31
0.0
  0
LINE
  5
7CF6
  8
1
 10
2743.9703889558459
 20
1693.9102586576821
 30
0.0
 11
3743.9703889558459
 21
1693.9102586576821
 31
0.0
  0
DIMENSION
  5
7D0D
  8
3
  2
*D5
 10
3326.4703889558459
 20
2718.3056067172402
 30
0.0
 11
3513.9703889558459
 21
2768.3056067172402
 31
0.0
 70
     0
 13
3701.4703889558459
 23
2606.9102586576819
 33
0.0
 14
3326.4703889558459
 24
2606.9102586576819
 34
0.0
1001
ACAD
1000
DSTYLE
1002
{
1070
   287
1070
     3
1070
    40
1040
20.0
1070
   143
1040
0.039
1070
   172
1070
     1
1070
   271
1070
     0
1070
   279
1070
     0
1070
   288
1070
     1
1002
}
  0
DIMENSION
  5
7D0E
  8
3
  2
*D6
 10
3513.9703889558459
 20
2871.753033642336
 30
0.0
 11
3609.870388955846
 21
2924.6230275832309
 31
0.0
 12
0.0
 22
116.3708103041826
 32
0.0
 70
   128
  1
192
 13
3705.7703889558461
 23
2343.9102586576819
 33
0.0
 14
3513.9703889558459
 24
2799.9808996406041
 34
0.0
1001
ACAD
1000
DSTYLE
1002
{
1070
   288
1070
     1
1070
   172
1070
     1
1070
    40
1040
20.0
1070
   271
1070
     0
1070
   143
1040
0.039
1002
}
  0
DIMENSION
  5
7D0F
  8
3
  2
*D7
 10
2642.0301506063352
 20
2871.753033642336
 30
0.0
 11
3078.000269781091
 21
2971.753033642336
 31
0.0
 70
     0
  1
MAX\P930
 13
3513.9703889558459
 23
2799.9808996406041
 33
0.0
 14
2642.0301506063352
 24
2258.6102586576822
 34
0.0
1001
ACAD
1000
DSTYLE
1002
{
1070
   287
1070
     3
1070
    40
1040
20.0
1070
   143
1040
0.039
1070
   172
1070
     1
1070
   271
1070
     0
1070
   279
1070
     0
1070
   288
1070
     1
1002
}
  0
DIMENSION
  5
7D10
  8
3
  2
*D8
 10
3920.8435954276142
 20
1818.9102586576821
 30
0.0
 11
3870.8435954276129
 21
2068.9102586576828
 31
0.0
 70
     0
 13
3730.7703889558461
 23
2318.9102586576819
 33
0.0
 14
3730.7703889558461
 24
1818.9102586576821
 34
0.0
 50
90.0
1001
ACAD
1000
DSTYLE
1002
{
1070
   287
1070
     3
1070
     3
1000
φ<>
1070
    40
1040
20.0
1070
   143
1040
0.039
1070
   172
1070
     1
1070
   271
1070
     0
1070
   279
1070
     0
1070
   288
1070
     1
1002
}
  0
LINE
  5
7D11
  8
1
 10
1306.9732177474391
 20
2246.6653689898972
 30
0.0
 11
1953.5041867106111
 21
1985.696769019813
 31
0.0
  0
LINE
  5
7D12
  8
1
 10
2085.7220988830609
 20
1738.9102586576821
 30
0.0
 11
1735.7220988830611
 21
1738.9102586576821
 31
0.0
  0
ARC
  5
7D13
  8
1
 10
1910.7220988830611
 20
1870.9102586576821
 30
0.0
 40
142.5
 50
180.0
 51
244.72540000000001
  0
ARC
  5
7D14
  8
1
 10
1910.7220988830611
 20
1870.9102586576821
 30
0.0
 40
142.5
 50
295.00119999999998
 51
180.0
  0
LINE
  5
7D16
  8
1
 10
1850.180698883061
 20
1741.9102586576821
 30
0.0
 11
1971.2633988830601
 21
1741.9102586576821
 31
0.0
  0
LINE
  5
7D17
  8
1
 10
2040.7220988830611
 20
1738.9102586576821
 30
0.0
 11
1990.7220988830611
 21
1738.9102586576821
 31
0.0
  0
LINE
  5
7D18
  8
1
 10
2030.2048988830611
 20
1793.160858657682
 30
0.0
 11
2040.7220988830611
 21
1753.9102586576821
 31
0.0
  0
LINE
  5
7D19
  8
1
 10
2040.7220988830611
 20
1753.7128586576821
 30
0.0
 11
2040.7220988830611
 21
1738.9102586576821
 31
0.0
  0
ARC
  5
7D1A
  8
1
 10
1985.7220988830611
 20
1746.839258657682
 30
0.0
 40
4.9999000000000002
 50
0.0
 51
45.000500000000002
  0
LINE
  5
7D1B
  8
1
 10
1989.6018988830599
 20
1750.0304586576819
 30
0.0
 11
1988.23099888306
 21
1751.4013586576821
 31
0.0
  0
LINE
  5
7D1C
  8
1
 10
1990.7220988830611
 20
1738.9102586576821
 30
0.0
 11
1990.7220988830611
 21
1746.839258657682
 31
0.0
  0
LINE
  5
7D1D
  8
1
 10
1791.19649888306
 20
1793.0015586576819
 30
0.0
 11
1780.7220988830611
 21
1753.9102586576821
 31
0.0
  0
LINE
  5
7D1E
  8
1
 10
1780.7220988830611
 20
1738.9102586576821
 30
0.0
 11
1830.7220988830611
 21
1738.9102586576821
 31
0.0
  0
ARC
  5
7D1F
  8
1
 10
1835.72199888306
 20
1746.839258657682
 30
0.0
 40
4.9999000000000002
 50
134.99950000000001
 51
180.0
  0
LINE
  5
7D20
  8
1
 10
1832.34689888306
 20
1750.5352586576821
 30
0.0
 11
1833.1488988830599
 21
1751.337258657682
 31
0.0
  0
LINE
  5
7D21
  8
1
 10
1830.7220988830611
 20
1738.9102586576821
 30
0.0
 11
1830.7220988830611
 21
1746.839258657682
 31
0.0
  0
LINE
  5
7D22
  8
1
 10
1780.7220988830611
 20
1753.7128586576821
 30
0.0
 11
1780.7220988830611
 21
1738.9102586576821
 31
0.0
  0
LINE
  5
7D23
  8
2
 10
2052.6783988830612
 20
1870.9102586576821
 30
0.0
 11
1761.1769988830599
 21
1870.9102586576821
 31
0.0
  0
LINE
  5
7D24
  8
1
 10
2805.9703889558441
 20
2012.9102586576821
 30
0.0
 11
3195.9700889558439
 21
2012.910258657683
 31
0.0
  0
LINE
  5
7D26
  8
1
 10
1221.7220988830611
 20
3220.8703794701919
 30
0.0
 11
1221.7220988830611
 21
3250.8703794701919
 31
0.0
1001
ACAD
1000
ASC_BOUNDS
1002
{
1070
    19
1002
}
  0
LINE
  5
7D27
  8
1
 10
1259.7220988830611
 20
3220.8703794701919
 30
0.0
 11
1259.7220988830611
 21
3250.8703794701919
 31
0.0
1001
ACAD
1000
ASC_BOUNDS
1002
{
1070
    19
1002
}
  0
LINE
  5
7D28
  8
1
 10
1020.722098883061
 20
3255.930141120682
 30
0.0
 11
1020.722098883061
 21
3133.9301411206811
 31
0.0
  0
LINE
  5
7D29
  8
1
 10
1020.722098883061
 20
3133.9301411206811
 30
0.0
 11
1020.722098883061
 21
3255.930141120682
 31
0.0
  0
LINE
  5
7D2B
  8
1
 10
2060.7220988830609
 20
3133.9301411206811
 30
0.0
 11
2060.7220988830609
 21
3255.930141120682
 31
0.0
  0
LINE
  5
7D2C
  8
1
 10
1101.0220988830599
 20
3220.870379470191
 30
0.0
 11
1380.4220988830621
 21
3220.8703794701928
 31
0.0
  0
LINE
  5
7D2D
  8
1
 10
1101.0220988830599
 20
3180.870379470191
 30
0.0
 11
1380.4220988830621
 21
3180.8703794701942
 31
0.0
  0
LINE
  5
7D2E
  8
1
 10
1020.722098883061
 20
3133.9301411206811
 30
0.0
 11
2060.7220988830609
 21
3133.9301411206811
 31
0.0
  0
LINE
  5
7D2F
  8
1
 10
1380.4220988830621
 20
3220.8703794701928
 30
0.0
 11
1980.72209888306
 21
3220.8703794701928
 31
0.0
  0
LINE
  5
7D30
  8
1
 10
1380.4220988830621
 20
3180.8703794701942
 30
0.0
 11
1980.72209888306
 21
3180.8703794701942
 31
0.0
  0
LINE
  5
7D31
  8
1
 10
1980.7220988830611
 20
3180.8703794701942
 30
0.0
 11
1980.7220988830611
 21
3220.8703794701928
 31
0.0
  0
LINE
  5
7D32
  8
1
 10
1840.7220988830611
 20
3180.8703794701928
 30
0.0
 11
1840.7220988830611
 21
3220.8703794701919
 31
0.0
  0
LINE
  5
7D33
  8
1
 10
1101.0220988830599
 20
3180.8703794701901
 30
0.0
 11
1101.0220988830599
 21
3220.870379470191
 31
0.0
1001
ACAD
1000
ASC_BOUNDS
1002
{
1070
    19
1002
}
  0
LINE
  5
7D34
  8
1
 10
1263.2220988830611
 20
3272.6703794701912
 30
0.0
 11
1460.387867722904
 21
3272.670379470193
 31
0.0
  0
LINE
  5
7D35
  8
1
 10
1263.2220988830611
 20
3740.8703794701919
 30
0.0
 11
1460.387867722904
 21
3740.8703794701928
 31
0.0
  0
LINE
  5
7D36
  8
1
 10
1218.2220988830611
 20
3250.8703794701919
 30
0.0
 11
1218.2220988830611
 21
3818.3703794701919
 31
0.0
1001
ACAD
1000
ASC_BOUNDS
1002
{
1070
    19
1002
}
  0
LINE
  5
7D37
  8
1
 10
1263.2220988830611
 20
3250.8703794701919
 30
0.0
 11
1263.2220988830611
 21
3816.3703794701919
 31
0.0
1001
ACAD
1000
ASC_BOUNDS
1002
{
1070
    19
1002
}
  0
LINE
  5
7D38
  8
1
 10
1218.2220988830611
 20
3250.8703794701919
 30
0.0
 11
1263.2220988830611
 21
3250.8703794701919
 31
0.0
  0
LINE
  5
7D39
  8
1
 10
1263.2220988830611
 20
3255.930141120682
 30
0.0
 11
2060.7220988830609
 21
3255.930141120682
 31
0.0
  0
LINE
  5
7D3A
  8
1
 10
1218.2220988830611
 20
3255.930141120682
 30
0.0
 11
1020.722098883061
 21
3255.930141120682
 31
0.0
  0
LINE
  5
7D3B
  8
1
 10
1303.92209888306
 20
3740.8703794701919
 30
0.0
 11
1343.92209888306
 21
3740.8703794701919
 31
0.0
  0
LINE
  5
7D3C
  8
1
 10
1343.92209888306
 20
3740.8703794701919
 30
0.0
 11
1303.92209888306
 21
3740.8703794701919
 31
0.0
  0
LINE
  5
7D3D
  8
1
 10
1380.42209888306
 20
3180.8703794701901
 30
0.0
 11
1380.42209888306
 21
3220.870379470191
 31
0.0
1001
ACAD
1000
ASC_BOUNDS
1002
{
1070
    19
1002
}
  0
LINE
  5
7D3E
  8
2
 10
1722.9765532163999
 20
2068.9102586576819
 30
0.0
 11
839.36952241611914
 21
2068.9102586576819
 31
0.0
  0
DIMENSION
  5
7D3F
  8
3
  2
*D9
 10
604.39369668625557
 20
2606.9102586576819
 30
0.0
 11
554.39369668625523
 21
2337.9102586576819
 31
0.0
 70
     0
 13
839.36952241611914
 23
2068.9102586576819
 33
0.0
 14
880.72209888306043
 24
2606.9102586576819
 34
0.0
 50
270.0
1001
ACAD
1000
DSTYLE
1002
{
1070
   287
1070
     3
1070
    40
1040
20.0
1070
   143
1040
0.039
1070
   172
1070
     1
1070
   271
1070
     0
1070
   279
1070
     0
1070
   288
1070
     1
1002
}
  0
DIMENSION
  5
7D40
  8
3
  2
*D10
 10
604.39369668625557
 20
1618.9102586576821
 30
0.0
 11
554.39369668625545
 21
1843.9102586576821
 31
0.0
 70
     0
 13
839.36952241611914
 23
2068.9102586576819
 33
0.0
 14
990.72209888306145
 24
1618.9102586576821
 34
0.0
 50
270.0
1001
ACAD
1000
DSTYLE
1002
{
1070
   287
1070
     3
1070
    40
1040
20.0
1070
   143
1040
0.039
1070
   172
1070
     1
1070
   271
1070
     0
1070
   279
1070
     0
1070
   288
1070
     1
1002
}
  0
LINE
  5
7D43
  8
1
 10
910.72209888306043
 20
4193.3703794701923
 30
0.0
 11
1675.72209888306
 21
4193.3703794701923
 31
0.0
  0
LINE
  5
7D44
  8
1
 10
910.72209888306134
 20
3818.3703794701919
 30
0.0
 11
1675.7220988830611
 21
3818.3703794701919
 31
0.0
  0
LINE
  5
7D45
  8
1
 10
880.72209888306122
 20
3788.3703794701919
 30
0.0
 11
880.72209888306043
 21
4223.3703794701923
 31
0.0
  0
LINE
  5
7D46
  8
1
 10
1675.7220988830611
 20
3818.3703794701919
 30
0.0
 11
1675.7220988830611
 21
4193.3703794701923
 31
0.0
  0
LINE
  5
7D49
  8
1
 10
880.72209888306043
 20
4223.3703794701923
 30
0.0
 11
910.72209888306043
 21
4223.3703794701923
 31
0.0
  0
LINE
  5
7D4A
  8
1
 10
880.72209888306122
 20
3788.3703794701919
 30
0.0
 11
910.72209888306134
 21
3788.3703794701919
 31
0.0
  0
LINE
  5
7D4B
  8
1
 10
910.72209888306134
 20
3788.3703794701919
 30
0.0
 11
910.72209888306043
 21
4223.3703794701923
 31
0.0
  0
LINE
  5
7D4C
  8
1
 10
1460.387867722904
 20
3272.670379470193
 30
0.0
 11
1460.387867722904
 21
3740.8703794701928
 31
0.0
  0
LINE
  5
7D4D
  8
1
 10
1218.2220988830611
 20
3740.8703794701919
 30
0.0
 11
1021.056330043216
 21
3740.8703794701928
 31
0.0
  0
LINE
  5
7D4E
  8
1
 10
1021.056330043216
 20
3272.670379470193
 30
0.0
 11
1021.056330043216
 21
3740.8703794701928
 31
0.0
  0
LINE
  5
7D4F
  8
1
 10
1218.2220988830611
 20
3272.6703794701912
 30
0.0
 11
1021.056330043216
 21
3272.670379470193
 31
0.0
  0
LINE
  5
7D50
  8
1
 10
1778.7220988830611
 20
3687.8700794701899
 30
0.0
 11
1778.7220988830611
 21
3297.8703794701901
 31
0.0
  0
LINE
  5
7D51
  8
1
 10
2052.7220988830609
 20
3297.8703794701901
 30
0.0
 11
2052.7220988830609
 21
3687.8700794701899
 31
0.0
  0
LINE
  5
7D52
  8
1
 10
2052.7220988830609
 20
3297.8703794701901
 30
0.0
 11
1778.7220988830611
 21
3297.8703794701901
 31
0.0
  0
LINE
  5
7D53
  8
1
 10
1852.7220988830611
 20
3287.8703794701901
 30
0.0
 11
1968.7220988830611
 21
3287.8703794701901
 31
0.0
  0
LINE
  5
7D54
  8
1
 10
1778.7220988830611
 20
3297.8703794701901
 30
0.0
 11
1778.7220988830611
 21
3458.8703794701901
 31
0.0
  0
LINE
  5
7D55
  8
1
 10
1851.7220988830611
 20
3297.8703794701901
 30
0.0
 11
1851.7220988830611
 21
3288.8703794701901
 31
0.0
  0
ARC
  5
7D56
  8
1
 10
1852.7220988830611
 20
3288.8703794701901
 30
0.0
 40
0.9999
 50
179.99299999999999
 51
270.00349999999992
  0
LINE
  5
7D57
  8
1
 10
1891.7220988830611
 20
3280.8703794701901
 30
0.0
 11
1891.7220988830611
 21
3200.8703794701901
 31
0.0
  0
LINE
  5
7D58
  8
1
 10
1929.7220988830611
 20
3280.8703794701901
 30
0.0
 11
1929.7220988830611
 21
3200.8703794701901
 31
0.0
  0
LINE
  5
7D59
  8
1
 10
1891.7220988830611
 20
3200.8703794701901
 30
0.0
 11
1929.72209888306
 21
3200.8703794701901
 31
0.0
  0
LINE
  5
7D5A
  8
1
 10
1890.7220988830611
 20
3280.8703794701901
 30
0.0
 11
1930.7220988830611
 21
3280.8703794701901
 31
0.0
  0
LINE
  5
7D5B
  8
1
 10
1890.7220988830611
 20
3287.8703794701901
 30
0.0
 11
1890.7220988830611
 21
3280.8703794701901
 31
0.0
  0
LINE
  5
7D5C
  8
1
 10
1930.7220988830611
 20
3287.8703794701901
 30
0.0
 11
1930.7220988830611
 21
3280.8703794701901
 31
0.0
  0
LINE
  5
7D5D
  8
1
 10
1969.7220988830611
 20
3297.8703794701901
 30
0.0
 11
1969.7220988830611
 21
3288.8703794701901
 31
0.0
  0
ARC
  5
7D5E
  8
1
 10
2027.7220988830611
 20
3299.8703794701901
 30
0.0
 40
2.0001000000000002
 50
270.0
 51
359.99650000000003
  0
ARC
  5
7D5F
  8
1
 10
1968.7220988830611
 20
3288.8693794701899
 30
0.0
 40
0.9998000000000001
 50
269.99299999999999
 51
0.013999999999989
  0
ARC
  5
7D60
  8
1
 10
2051.2220988830609
 20
3620.8699794701911
 30
0.0
 40
2.0001000000000002
 50
0.0034999999999972
 51
89.996499999999997
  0
LINE
  5
7D61
  8
1
 10
2052.7220988830609
 20
3687.8700794701899
 30
0.0
 11
1778.7220988830611
 21
3687.8700794701899
 31
0.0
  0
ARC
  5
7D62
  8
1
 10
1787.6614988830599
 20
3685.8700794701908
 30
0.0
 40
2.0
 50
90.0
 51
178.23719999999989
  0
LINE
  5
7D63
  8
1
 10
3195.9700889558439
 20
2012.910258657683
 30
0.0
 11
3195.9700889558439
 21
2008.9102586576821
 31
0.0
  0
LINE
  5
7D64
  8
1
 10
2805.9703889558441
 20
2012.9102586576821
 30
0.0
 11
2805.9703889558441
 21
2008.9102586576821
 31
0.0
  0
LINE
  5
7D68
  8
2
 10
2655.7542004923921
 20
1870.9102586576821
 30
0.0
 11
3241.4294947690801
 21
1870.9102586576821
 31
0.0
  0
LINE
  5
7D69
  8
1
 10
3195.9700889558471
 20
2002.9102586576821
 30
0.0
 11
2805.9703889558468
 21
2002.9102586576821
 31
0.0
  0
LINE
  5
7D6A
  8
1
 10
3195.9700889558471
 20
1728.9102586576821
 30
0.0
 11
3195.9700889558471
 21
2002.9102586576821
 31
0.0
  0
LINE
  5
7D6B
  8
1
 10
2805.9703889558468
 20
1728.9102586576821
 30
0.0
 11
2805.9703889558468
 21
2002.9102586576821
 31
0.0
  0
LINE
  5
7D6C
  8
1
 10
2805.9703889558468
 20
1728.9102586576821
 30
0.0
 11
3195.9700889558471
 21
1728.9102586576821
 31
0.0
  0
LINE
  5
7D6D
  8
1
 10
2788.9703889558468
 20
1889.9102586576821
 30
0.0
 11
2728.9703889558459
 21
1889.9102586576821
 31
0.0
  0
LINE
  5
7D6E
  8
1
 10
2788.9703889558468
 20
1851.9102586576821
 30
0.0
 11
2728.9703889558459
 21
1851.9102586576821
 31
0.0
  0
LINE
  5
7D6F
  8
1
 10
2788.9703889558468
 20
1890.9102586576821
 30
0.0
 11
2788.9703889558468
 21
1850.9102586576821
 31
0.0
  0
LINE
  5
7D70
  8
1
 10
2795.9703889558482
 20
1928.9102586576821
 30
0.0
 11
2795.9703889558482
 21
1812.9102586576821
 31
0.0
  0
LINE
  5
7D71
  8
1
 10
2805.9703889558468
 20
1929.9102586576821
 30
0.0
 11
2796.9703889558468
 21
1929.9102586576821
 31
0.0
  0
ARC
  5
7D72
  8
1
 10
2796.9703889558468
 20
1928.9102586576821
 30
0.0
 40
0.9999
 50
89.993000000000023
 51
180.00349999999989
  0
LINE
  5
7D73
  8
1
 10
2795.9703889558482
 20
1890.9102586576821
 30
0.0
 11
2788.9703889558468
 21
1890.9102586576821
 31
0.0
  0
LINE
  5
7D74
  8
1
 10
2795.9703889558482
 20
1850.9102586576821
 30
0.0
 11
2788.9703889558468
 21
1850.9102586576821
 31
0.0
  0
LINE
  5
7D75
  8
1
 10
2805.9703889558468
 20
1811.9102586576821
 30
0.0
 11
2796.9703889558468
 21
1811.9102586576821
 31
0.0
  0
ARC
  5
7D76
  8
1
 10
2796.9693889558471
 20
1812.9102586576821
 30
0.0
 40
0.9998000000000001
 50
179.99299999999991
 51
270.01400000000001
  0
LINE
  5
7D77
  8
1
 10
2780.770388955847
 20
1851.9102586576821
 30
0.0
 11
2780.770388955847
 21
1736.3670540118201
 31
0.0
  0
LINE
  5
7D78
  8
1
 10
3155.9702389558479
 20
1728.9102586576821
 30
0.0
 11
3155.9702389558479
 21
1693.9102586576821
 31
0.0
  0
LINE
  5
7D79
  8
1
 10
2845.9702389558461
 20
1728.9102586576821
 30
0.0
 11
2845.9702389558461
 21
1693.9102586576821
 31
0.0
  0
LINE
  5
7D7A
  8
1
 10
3705.7703889558461
 20
2318.9102586576819
 30
0.0
 11
3730.7703889558461
 21
2318.9102586576819
 31
0.0
  0
LINE
  5
7D7B
  8
1
 10
3730.7703889558461
 20
2318.9102586576819
 30
0.0
 11
3730.7703889558461
 21
2319.9102586576819
 31
0.0
  0
ARC
  5
7D7C
  8
1
 10
3728.7703889558461
 20
2319.9102586576819
 30
0.0
 40
2.0
 50
0.0
 51
90.0
  0
LINE
  5
7D7D
  8
1
 10
3728.7703889558461
 20
2321.9102586576819
 30
0.0
 11
3712.7703889558461
 21
2321.9102586576819
 31
0.0
  0
ARC
  5
7D7E
  8
1
 10
3712.7703889558461
 20
2325.9102586576819
 30
0.0
 40
4.0
 50
180.0
 51
270.0
  0
LINE
  5
7D7F
  8
1
 10
3708.7703889558461
 20
2325.9102586576819
 30
0.0
 11
3708.7703889558461
 21
2341.9102586576819
 31
0.0
  0
ARC
  5
7D80
  8
1
 10
3706.7703889558452
 20
2341.9102586576819
 30
0.0
 40
2.0
 50
0.0
 51
90.0
  0
LINE
  5
7D81
  8
1
 10
3706.7703889558452
 20
2343.9102586576819
 30
0.0
 11
3705.7703889558461
 21
2343.9102586576819
 31
0.0
  0
LINE
  5
7D82
  8
1
 10
3705.7703889558461
 20
2343.9102586576819
 30
0.0
 11
3705.7703889558461
 21
2318.9102586576819
 31
0.0
  0
LINE
  5
7D83
  8
1
 10
3701.4703889558459
 20
2606.9102586576819
 30
0.0
 11
3326.4703889558459
 21
2094.9102586576819
 31
0.0
  0
LINE
  5
7D84
  8
1
 10
3326.4703889558459
 20
2606.9102586576819
 30
0.0
 11
3701.4703889558459
 21
2094.9102586576819
 31
0.0
  0
LINE
  5
7F64
  8
4
 10
3700.0
 20
1000.0
 30
0.0
 11
3700.0
 21
600.0
 31
0.0
  0
LINE
  5
7F65
  8
4
 10
2300.0
 20
1000.0
 30
0.0
 11
2300.0
 21
600.0
 31
0.0
  0
LINE
  5
7F66
  8
4
 10
1300.0
 20
1000.0
 30
0.0
 11
1300.0
 21
600.0
 31
0.0
  0
LINE
  5
7F69
  8
4
 10
1300.0
 20
600.0
 30
0.0
 11
3700.0
 21
600.0
 31
0.0
  0
LINE
  5
7F6A
  8
4
 10
1300.0
 20
800.0
 30
0.0
 11
3700.0
 21
800.0
 31
0.0
  0
TEXT
  5
7F6B
  8
4
 10
1377.0041616938031
 20
863.08605173322564
 30
0.0
 40
100.0
  1
機器名称
  0
TEXT
  5
7F6C
  8
4
 10
1372.516212049595
 20
643.29031346402189
 30
0.0
 40
100.0
  1
機器型番
  0
TEXT
  5
7F6D
  8
4
 10
2355.3574909753288
 20
845.14353791513713
 30
0.0
 40
85.0
  1
ミツヤ多翼送風機
  0
TEXT
  5
7F6E
  8
4
 10
2373.3089911709608
 20
634.31916855988675
 30
0.0
 40
100.0
  1
MF#3-1
  0
TEXT
  5
7F70
  8
4
 10
1507.3556010775751
 20
4766.8576826650306
 30
0.0
 40
107.9999999999999
  1
床置ベット
  0
TEXT
  5
7F71
  8
4
 10
582.33518665889278
 20
5067.7619523985959
 30
0.0
 40
144.0
  1
遠心式片吸込片持多翼ファン
  0
LINE
  5
7F72
  8
4
 10
500.0
 20
4938.8175085296089
 30
0.0
 11
3700.0
 21
4938.8175085296089
 31
0.0
  0
LINE
  5
7F73
  8
4
 10
500.0
 20
5338.8175085296098
 30
0.0
 11
3700.0
 21
5338.8175085296098
 31
0.0
  0
LINE
  5
7F74
  8
4
 10
1300.0
 20
1000.0
 30
0.0
 11
3700.0
 21
1000.0
 31
0.0
  0
LINE
  5
7F75
  8
4
 10
500.0
 20
5338.8175085296098
 30
0.0
 11
500.0
 21
4938.8175085296089
 31
0.0
  0
TEXT
  5
7F76
  8
4
 10
635.63793659217117
 20
4764.638955092687
 30
0.0
 40
107.9999999999999
  1
左回転左横向
  0
TEXT
  5
7F77
  8
4
 10
2937.9391184985789
 20
5412.1221629906177
 30
0.0
 40
112.0
  1
No.
  0
TEXT
  5
7F78
  8
4
 10
2622.5921252000262
 20
4766.8576826650306
 30
0.0
 40
107.9999999999999
  1
縮尺：1/20
  0
LINE
  5
7F79
  8
4
 10
3700.0
 20
5338.8175085296098
 30
0.0
 11
3700.0
 21
4938.8175085296089
 31
0.0
  0
LINE
  5
7F7A
  8
4
 10
4200.0
 20
5900.0
 30
0.0
 11
4200.0
 21
5900.0
 31
0.0
  0
LINE
  5
7F7B
  8
4
 10
2881.2348447197292
 20
5362.5271662508021
 30
0.0
 11
2881.2348447197292
 21
5573.3045230995049
 31
0.0
  0
LINE
  5
7F7C
  8
4
 10
2881.2348447197292
 20
5573.3045230995049
 30
0.0
 11
3700.0
 21
5573.3045230995049
 31
0.0
  0
LINE
  5
7F7D
  8
4
 10
3700.0
 20
5573.3045230995049
 30
0.0
 11
3700.0
 21
5362.5271662508021
 31
0.0
  0
LINE
  5
7F7E
  8
4
 10
3700.0
 20
5362.5271662508021
 30
0.0
 11
2881.2348447197292
 21
5362.5271662508021
 31
0.0
  0
LINE
  5
7F7F
  8
4
 10
0.0
 20
0.0
 30
0.0
 11
0.0
 21
5900.0
 31
0.0
  0
LINE
  5
7F80
  8
4
 10
0.0
 20
5900.0
 30
0.0
 11
4200.0
 21
5900.0
 31
0.0
  0
LINE
  5
7F81
  8
4
 10
4200.0
 20
5900.0
 30
0.0
 11
4200.0
 21
0.0
 31
0.0
  0
LINE
  5
7F82
  8
4
 10
4200.0
 20
0.0
 30
0.0
 11
0.0
 21
0.0
 31
0.0
  0
LINE
  5
80F6
  8
1
 10
2070.7220988830609
 20
1618.9102586576821
 30
0.0
 11
2070.72209888306
 21
1693.9102586576821
 31
0.0
  0
LINE
  5
80F7
  8
1
 10
990.72209888306145
 20
1618.9102586576821
 30
0.0
 11
990.72209888306145
 21
1693.9102586576821
 31
0.0
  0
LINE
  5
80F8
  8
1
 10
2743.970388955845
 20
1618.9102586576821
 30
0.0
 11
2743.9703889558459
 21
1693.9102586576821
 31
0.0
  0
LINE
  5
80FA
  8
1
 10
3743.9703889558459
 20
1618.9102586576821
 30
0.0
 11
3743.9703889558459
 21
1693.9102586576821
 31
0.0
  0
LINE
  5
818D
  8
1
 10
990.72209888306145
 20
4235.8703794701923
 30
0.0
 11
1490.7220988830611
 21
4235.8703794701923
 31
0.0
  0
LINE
  5
818E
  8
1
 10
990.72209888306145
 20
3235.8703794701919
 30
0.0
 11
1020.722098883061
 21
3235.870379470191
 31
0.0
  0
LINE
  5
818F
  8
1
 10
990.72209888306145
 20
3235.870379470191
 30
0.0
 11
990.72209888306145
 21
3818.3703794701919
 31
0.0
  0
LINE
  5
8190
  8
1
 10
2070.7220988830609
 20
3235.8703794701919
 30
0.0
 11
2070.7220988830609
 21
3795.8703794701919
 31
0.0
  0
LINE
  5
8193
  8
1
 10
1490.7220988830611
 20
3795.8703794701919
 30
0.0
 11
1490.7220988830611
 21
3818.3703794701919
 31
0.0
  0
LINE
  5
8194
  8
1
 10
1490.7220988830611
 20
3795.8703794701919
 30
0.0
 11
2070.7220988830609
 21
3795.8703794701919
 31
0.0
  0
LINE
  5
8195
  8
1
 10
1490.7220988830611
 20
4193.3703794701923
 30
0.0
 11
1490.7220988830611
 21
4235.8703794701923
 31
0.0
  0
LINE
  5
8196
  8
1
 10
990.72209888306145
 20
4193.3703794701923
 30
0.0
 11
990.72209888306145
 21
4235.8703794701923
 31
0.0
  0
LINE
  5
8197
  8
1
 10
2060.7220988830609
 20
3235.870379470191
 30
0.0
 11
2070.7220988830609
 21
3235.870379470191
 31
0.0
  0
DIMENSION
  5
81A4
  8
3
  2
*D11
 10
1490.7220988830611
 20
4364.2381393250471
 30
0.0
 11
1240.7220988830611
 21
4414.2381393250471
 31
0.0
 70
     0
 13
990.72209888306145
 23
4235.8703794701923
 33
0.0
 14
1490.7220988830611
 24
4235.8703794701923
 34
0.0
1001
ACAD
1000
DSTYLE
1002
{
1070
   287
1070
     3
1070
    40
1040
20.0
1070
   143
1040
0.039
1070
   172
1070
     1
1070
   271
1070
     0
1070
   279
1070
     0
1002
}
  0
DIMENSION
  5
81B0
  8
3
  2
*D12
 10
2070.7220988830609
 20
4364.2381393250471
 30
0.0
 11
1780.7220988830611
 21
4414.2381393250471
 31
0.0
 70
     0
 13
1490.7220988830611
 23
4235.8703794701923
 33
0.0
 14
2070.7220988830609
 24
3795.8703794701919
 34
0.0
1001
ACAD
1000
DSTYLE
1002
{
1070
   287
1070
     4
1070
    40
1040
20.0
1070
    75
1070
     1
1070
   143
1040
0.039
1070
   172
1070
     1
1070
   271
1070
     0
1070
   279
1070
     1
1002
}
  0
DIMENSION
  5
81BD
  8
3
  2
*D13
 10
2267.532815933333
 20
3235.870379470191
 30
0.0
 11
2217.5328159333321
 21
3515.8703794701919
 31
0.0
 70
     0
 13
2070.7220988830609
 23
3795.8703794701919
 33
0.0
 14
2070.7220988830609
 24
3235.870379470191
 34
0.0
 50
90.0
1001
ACAD
1000
DSTYLE
1002
{
1070
   287
1070
     3
1070
    40
1040
20.0
1070
   143
1040
0.039
1070
   172
1070
     1
1070
   271
1070
     0
1070
   279
1070
     0
1002
}
  0
DIMENSION
  5
81CA
  8
3
  2
*D14
 10
740.87430502719508
 20
3235.8703794701919
 30
0.0
 11
690.87430502719462
 21
3735.8703794701919
 31
0.0
 70
     0
 13
990.72209888306145
 23
4235.8703794701923
 33
0.0
 14
990.72209888306145
 24
3235.8703794701919
 34
0.0
 50
90.0
1001
ACAD
1000
DSTYLE
1002
{
1070
   287
1070
     3
1070
    40
1040
20.0
1070
   143
1040
0.039
1070
   172
1070
     1
1070
   271
1070
     0
1070
   279
1070
     0
1002
}
  0
DIMENSION
  5
8273
  8
3
  2
*D16
 10
2070.72209888306
 20
2940.5319664306271
 30
0.0
 11
1475.72209888306
 21
2990.531966430628
 31
0.0
 70
     0
 13
880.72209888306043
 23
2638.5154416209848
 33
0.0
 14
2070.72209888306
 24
1693.9102586576821
 34
0.0
1001
ACAD
1000
DSTYLE
1002
{
1070
   287
1070
     3
1070
    40
1040
20.0
1070
   143
1040
0.039
1070
   172
1070
     1
1070
   271
1070
     0
1070
   279
1070
     0
1002
}
  0
DIMENSION
  5
8303
  8
3
  2
*D17
 10
1240.7220988830611
 20
1478.770998263511
 30
0.0
 11
1115.7220988830611
 21
1528.770998263511
 31
0.0
 70
     0
 13
990.72209888306145
 23
1618.9102586576821
 33
0.0
 14
1240.7220988830611
 24
1618.9102586576821
 34
0.0
1001
ACAD
1000
DSTYLE
1002
{
1070
   287
1070
     3
1070
    40
1040
20.0
1070
   143
1040
0.039
1070
   172
1070
     1
1070
   271
1070
     0
1070
   279
1070
     0
1002
}
  0
DIMENSION
  5
8310
  8
3
  2
*D18
 10
2070.7220988830609
 20
1478.770998263511
 30
0.0
 11
1655.7220988830611
 21
1528.770998263511
 31
0.0
 70
     0
 13
1240.7220988830611
 23
1618.9102586576821
 33
0.0
 14
2070.7220988830609
 24
1618.9102586576821
 34
0.0
1001
ACAD
1000
DSTYLE
1002
{
1070
   287
1070
     3
1070
    40
1040
20.0
1070
   143
1040
0.039
1070
   172
1070
     1
1070
   271
1070
     0
1070
   279
1070
     0
1002
}
  0
DIMENSION
  5
831D
  8
3
  2
*D19
 10
3513.9703889558459
 20
1478.770998263511
 30
0.0
 11
3128.9703889558459
 21
1528.770998263511
 31
0.0
 70
     0
 13
2743.9703889558459
 23
1618.9102586576821
 33
0.0
 14
3513.9703889558459
 24
1618.9102586576821
 34
0.0
1001
ACAD
1000
DSTYLE
1002
{
1070
   287
1070
     3
1070
    40
1040
20.0
1070
   143
1040
0.039
1070
   172
1070
     1
1070
   271
1070
     0
1070
   279
1070
     0
1002
}
  0
DIMENSION
  5
832C
  8
3
  2
*D20
 10
3743.9703889558459
 20
1478.770998263511
 30
0.0
 11
3628.9703889558459
 21
1528.770998263511
 31
0.0
 70
     0
 13
3513.9703889558459
 23
1618.9102586576821
 33
0.0
 14
3743.9703889558459
 24
1618.9102586576821
 34
0.0
1001
ACAD
1000
DSTYLE
1002
{
1070
   287
1070
     3
1070
    40
1040
20.0
1070
   143
1040
0.039
1070
   172
1070
     1
1070
   271
1070
     0
1070
   279
1070
     0
1002
}
  0
DIMENSION
  5
8339
  8
3
  2
*D21
 10
463.6005401753136
 20
1618.9102586576821
 30
0.0
 11
413.60054017531343
 21
2128.712850139334
 31
0.0
 70
     0
 13
880.72209888306043
 23
2638.5154416209848
 33
0.0
 14
990.72209888306145
 24
1618.9102586576821
 34
0.0
 50
90.0
1001
ACAD
1000
DSTYLE
1002
{
1070
   287
1070
     3
1070
    40
1040
20.0
1070
   143
1040
0.039
1070
   172
1070
     1
1070
   271
1070
     0
1070
   279
1070
     0
1002
}
  0
ENDSEC
  0
EOF
