  0
SECTION
  2
HEADER
  9
$ACADVER
  1
AC1009
  9
$INSBASE
 10
0.0
 20
0.0
 30
0.0
  9
$EXTMIN
 10
500.0
 20
600.0
 30
0.0
  9
$EXTMAX
 10
3700.0
 20
5573.3045229999998
 30
0.0
  9
$LIMMIN
 10
0.0
 20
0.0
  9
$LIMMAX
 10
297.0
 20
210.0
  9
$ORTHOMODE
 70
     0
  9
$REGENMODE
 70
     1
  9
$FILLMODE
 70
     0
  9
$QTEXTMODE
 70
     0
  9
$MIRRTEXT
 70
     1
  9
$DRAGMODE
 70
     2
  9
$LTSCALE
 40
100.0
  9
$OSMODE
 70
    37
  9
$ATTMODE
 70
     1
  9
$TEXTSIZE
 40
180.0
  9
$TRACEWID
 40
0.05
  9
$TEXTSTYLE
  7
STANDARD
  9
$CLAYER
  8
3
  9
$CELTYPE
  6
BYLAYER
  9
$CECOLOR
 62
   256
  9
$DIMSCALE
 40
20.0
  9
$DIMASZ
 40
2.0
  9
$DIMEXO
 40
0.5
  9
$DIMDLI
 40
10.0
  9
$DIMRND
 40
0.0
  9
$DIMDLE
 40
0.0
  9
$DIMEXE
 40
1.0
  9
$DIMTP
 40
1.0
  9
$DIMTM
 40
1.0
  9
$DIMTXT
 40
3.0
  9
$DIMCEN
 40
0.0
  9
$DIMTSZ
 40
0.0
  9
$DIMTOL
 70
     0
  9
$DIMLIM
 70
     0
  9
$DIMTIH
 70
     0
  9
$DIMTOH
 70
     0
  9
$DIMSE1
 70
     0
  9
$DIMSE2
 70
     0
  9
$DIMTAD
 70
     1
  9
$DIMZIN
 70
     8
  9
$DIMBLK
  1

  9
$DIMASO
 70
     1
  9
$DIMSHO
 70
     1
  9
$DIMPOST
  1

  9
$DIMAPOST
  1

  9
$DIMALT
 70
     0
  9
$DIMALTD
 70
     2
  9
$DIMALTF
 40
0.039
  9
$DIMLFAC
 40
1.0
  9
$DIMTOFL
 70
     1
  9
$DIMTVP
 40
0.0
  9
$DIMTIX
 70
     0
  9
$DIMSOXD
 70
     0
  9
$DIMSAH
 70
     1
  9
$DIMBLK1
  1
OPEN
  9
$DIMBLK2
  1
OPEN
  9
$DIMSTYLE
  2
IGA
  9
$DIMCLRD
 70
     0
  9
$DIMCLRE
 70
     0
  9
$DIMCLRT
 70
     0
  9
$DIMTFAC
 40
10.0
  9
$DIMGAP
 40
1.0
  9
$LUNITS
 70
     2
  9
$LUPREC
 70
     3
  9
$SKETCHINC
 40
0.1
  9
$FILLETRAD
 40
50.0
  9
$AUNITS
 70
     0
  9
$AUPREC
 70
     0
  9
$MENU
  1
acad
  9
$ELEVATION
 40
0.0
  9
$PELEVATION
 40
0.0
  9
$THICKNESS
 40
0.0
  9
$LIMCHECK
 70
     0
  9
$BLIPMODE
 70
     0
  9
$CHAMFERA
 40
0.5
  9
$CHAMFERB
 40
0.5
  9
$SKPOLY
 70
     0
  9
$TDCREATE
 40
2450725.4611427081
  9
$TDUPDATE
 40
2454953.766150347
  9
$TDINDWG
 40
0.0057847917
  9
$TDUSRTIMER
 40
0.0057847917
  9
$USRTIMER
 70
     1
  9
$ANGBASE
 50
0.0
  9
$ANGDIR
 70
     0
  9
$PDMODE
 70
     0
  9
$PDSIZE
 40
0.0
  9
$PLINEWID
 40
0.0
  9
$COORDS
 70
     1
  9
$SPLFRAME
 70
     0
  9
$SPLINETYPE
 70
     6
  9
$SPLINESEGS
 70
     8
  9
$ATTDIA
 70
     0
  9
$ATTREQ
 70
     1
  9
$HANDLING
 70
 10241
  9
$HANDSEED
  5
7E77
  9
$SURFTAB1
 70
     6
  9
$SURFTAB2
 70
     6
  9
$SURFTYPE
 70
     6
  9
$SURFU
 70
     6
  9
$SURFV
 70
     6
  9
$UCSNAME
  2

  9
$UCSORG
 10
0.0
 20
0.0
 30
0.0
  9
$UCSXDIR
 10
1.0
 20
0.0
 30
0.0
  9
$UCSYDIR
 10
0.0
 20
1.0
 30
0.0
  9
$PUCSNAME
  2

  9
$PUCSORG
 10
0.0
 20
0.0
 30
0.0
  9
$PUCSXDIR
 10
1.0
 20
0.0
 30
0.0
  9
$PUCSYDIR
 10
0.0
 20
1.0
 30
0.0
  9
$USERI1
 70
     0
  9
$USERI2
 70
     0
  9
$USERI3
 70
     0
  9
$USERI4
 70
     0
  9
$USERI5
 70
     0
  9
$USERR1
 40
0.0
  9
$USERR2
 40
0.0
  9
$USERR3
 40
0.0
  9
$USERR4
 40
0.0
  9
$USERR5
 40
0.0
  9
$WORLDVIEW
 70
     1
  9
$SHADEDGE
 70
     3
  9
$SHADEDIF
 70
    70
  9
$TILEMODE
 70
     1
  9
$MAXACTVP
 70
    16
  9
$PLIMCHECK
 70
     0
  9
$PEXTMIN
 10
1.0000000000000000E+020
 20
1.0000000000000000E+020
 30
1.0000000000000000E+020
  9
$PEXTMAX
 10
-1.0000000000000000E+020
 20
-1.0000000000000000E+020
 30
-1.0000000000000000E+020
  9
$PLIMMIN
 10
0.0
 20
0.0
  9
$PLIMMAX
 10
12.0
 20
9.0
  9
$UNITMODE
 70
     0
  9
$VISRETAIN
 70
     0
  9
$PLINEGEN
 70
     0
  9
$PSLTSCALE
 70
     1
  0
ENDSEC
  0
SECTION
  2
TABLES
  0
TABLE
  2
VPORT
 70
     2
  0
VPORT
  2
*ACTIVE
 70
     0
 10
0.0
 20
0.0
 11
1.0
 21
1.0
 12
6292.1124769529506
 22
3086.6374998146398
 13
0.0
 23
0.0
 14
10.0
 24
10.0
 15
10.0
 25
10.0
 16
0.0
 26
0.0
 36
1.0
 17
0.0
 27
0.0
 37
0.0
 40
5011.4968576296578
 41
3.1666666666666661
 42
50.0
 43
0.0
 44
0.0
 50
0.0
 51
0.0
 71
     0
 72
   100
 73
     1
 74
     0
 75
     0
 76
     1
 77
     0
 78
     0
  0
ENDTAB
  0
TABLE
  2
LTYPE
 70
     2
  0
LTYPE
  2
CONTINUOUS
 70
     0
  3
Solid line
 72
    65
 73
     0
 40
0.0
  0
LTYPE
  2
CENTER
 70
     0
  3
____ _ ____ _ ____ _ ____ _ ____ _ ____ _ ____ 
 72
    65
 73
     4
 40
2.0
 49
1.25
 49
-0.25
 49
0.25
 49
-0.25
  0
ENDTAB
  0
TABLE
  2
LAYER
 70
     6
  0
LAYER
  2
0
 70
     0
 62
     7
  6
CONTINUOUS
  0
LAYER
  2
3
 70
     0
 62
     2
  6
CONTINUOUS
  0
LAYER
  2
2
 70
     0
 62
     3
  6
CENTER
  0
LAYER
  2
1
 70
     0
 62
     4
  6
CONTINUOUS
  0
LAYER
  2
4
 70
     0
 62
     7
  6
CONTINUOUS
  0
LAYER
  2
DEFPOINTS
 70
     0
 62
     7
  6
CONTINUOUS
  0
ENDTAB
  0
TABLE
  2
STYLE
 70
     1
  0
STYLE
  2
STANDARD
 70
     0
 40
0.0
 41
1.0
 50
0.0
 71
     0
 42
180.0
  3
simplex.shx
  4
extfont.shx
  0
ENDTAB
  0
TABLE
  2
VIEW
 70
     0
  0
ENDTAB
  0
TABLE
  2
UCS
 70
     0
  0
ENDTAB
  0
TABLE
  2
APPID
 70
     1
  0
APPID
  2
ACAD
 70
     0
  0
ENDTAB
  0
TABLE
  2
DIMSTYLE
 70
     1
  0
DIMSTYLE
  2
IGA
 70
     0
  3

  4

  5

  6
OPEN
  7
OPEN
 40
2.0
 41
2.0
 42
0.5
 43
10.0
 44
1.0
 45
0.0
 46
0.0
 47
1.0
 48
1.0
140
3.0
141
0.0
142
0.0
143
0.03937
144
1.0
145
0.0
146
10.0
147
1.0
 71
     0
 72
     0
 73
     0
 74
     0
 75
     0
 76
     0
 77
     1
 78
     8
170
     0
171
     2
172
     0
173
     1
174
     0
175
     0
176
     0
177
     0
178
     0
  0
ENDTAB
  0
ENDSEC
  0
SECTION
  2
BLOCKS
  0
BLOCK
  8
0
  2
$MODEL_SPACE
 70
     0
 10
0.0
 20
0.0
 30
0.0
  3
$MODEL_SPACE
  1

  0
ENDBLK
  5
1B
  8
0
  0
BLOCK
 67
     1
  8
0
  2
$PAPER_SPACE
 70
     0
 10
0.0
 20
0.0
 30
0.0
  3
$PAPER_SPACE
  1

  0
ENDBLK
  5
18
 67
     1
  8
0
  0
BLOCK
  8
0
  2
_OPEN
 70
     0
 10
0.0
 20
0.0
 30
0.0
  3
_OPEN
  1

  0
LINE
  5
7AFA
  8
0
  6
BYBLOCK
 62
     0
 10
-1.0
 20
0.166667
 30
0.0
 11
0.0
 21
0.0
 31
0.0
  0
LINE
  5
7AFB
  8
0
  6
BYBLOCK
 62
     0
 10
0.0
 20
0.0
 30
0.0
 11
-1.0
 21
-0.166667
 31
0.0
  0
LINE
  5
7AFC
  8
0
  6
BYBLOCK
 62
     0
 10
0.0
 20
0.0
 30
0.0
 11
-1.0
 21
0.0
 31
0.0
  0
ENDBLK
  5
7AFD
  8
0
  0
BLOCK
  8
0
  2
*D1
 70
     1
 10
0.0
 20
0.0
 30
0.0
  3
*D1
  1

  0
LINE
  5
7DCB
  8
3
  6
CONTINUOUS
 62
     0
 10
2156.1539819999998
 20
2581.511801566071
 30
0.0
 11
2287.3411599999999
 21
2581.511801566071
 31
0.0
  0
LINE
  5
7DCC
  8
3
  6
CONTINUOUS
 62
     0
 10
2156.1539819999998
 20
2181.511801566071
 30
0.0
 11
2287.3411599999999
 21
2181.511801566071
 31
0.0
  0
LINE
  5
7DCD
  8
3
  6
CONTINUOUS
 62
     0
 10
2267.3411599999999
 20
2541.511801566071
 30
0.0
 11
2267.3411599999999
 21
2221.511801566071
 31
0.0
  0
INSERT
  5
7DCE
  8
3
  6
CONTINUOUS
 62
     0
  2
_OPEN
 10
2267.3411599999999
 20
2581.511801566071
 30
0.0
 41
40.0
 42
40.0
 43
40.0
 50
90.0
  0
INSERT
  5
7DCF
  8
3
  6
CONTINUOUS
 62
     0
  2
_OPEN
 10
2267.3411599999999
 20
2181.511801566071
 30
0.0
 41
40.0
 42
40.0
 43
40.0
 50
270.0
  0
TEXT
  8
3
  40
60
  5
7E65
  62
0
  72
0
  71
0
 10
2097.34
 20
2269.34
 30
0.000000
  1
400
  0
POINT
  5
7DD1
  8
DEFPOINTS
  6
CONTINUOUS
 62
     0
 10
2146.1539819999989
 20
2581.511801566071
 30
0.0
  0
POINT
  5
7DD2
  8
DEFPOINTS
  6
CONTINUOUS
 62
     0
 10
2146.1539819999989
 20
2181.511801566071
 30
0.0
  0
POINT
  5
7DD3
  8
DEFPOINTS
  6
CONTINUOUS
 62
     0
 10
2267.3411599999999
 20
2181.511801566071
 30
0.0
  0
ENDBLK
  5
7B0A
  8
0
  0
BLOCK
  8
0
  2
*D2
 70
     1
 10
0.0
 20
0.0
 30
0.0
  3
*D2
  1

  0
LINE
  5
7DD4
  8
3
  6
CONTINUOUS
 62
     0
 10
2156.1539819999998
 20
2181.511801566071
 30
0.0
 11
2403.3886699999998
 21
2181.511801566071
 31
0.0
  0
LINE
  5
7DD5
  8
3
  6
CONTINUOUS
 62
     0
 10
2252.9389890000002
 20
2569.511801566071
 30
0.0
 11
2403.3886699999998
 21
2569.511801566071
 31
0.0
  0
LINE
  5
7DD6
  8
3
  6
CONTINUOUS
 62
     0
 10
2383.3886699999998
 20
2221.511801566071
 30
0.0
 11
2383.3886699999998
 21
2529.511801566071
 31
0.0
  0
INSERT
  5
7DD7
  8
3
  6
CONTINUOUS
 62
     0
  2
_OPEN
 10
2383.3886699999998
 20
2181.511801566071
 30
0.0
 41
40.0
 42
40.0
 43
40.0
 50
270.0
  0
INSERT
  5
7DD8
  8
3
  6
CONTINUOUS
 62
     0
  2
_OPEN
 10
2383.3886699999998
 20
2569.511801566071
 30
0.0
 41
40.0
 42
40.0
 43
40.0
 50
90.0
  0
TEXT
  8
3
  40
60
  5
7E66
  62
0
  72
0
  71
0
 10
2213.39
 20
2269.34
 30
0.000000
  1
388
  0
POINT
  5
7DDA
  8
DEFPOINTS
  6
CONTINUOUS
 62
     0
 10
2146.1539819999989
 20
2181.511801566071
 30
0.0
  0
POINT
  5
7DDB
  8
DEFPOINTS
  6
CONTINUOUS
 62
     0
 10
2242.9389890000002
 20
2569.511801566071
 30
0.0
  0
POINT
  5
7DDC
  8
DEFPOINTS
  6
CONTINUOUS
 62
     0
 10
2383.3886699999998
 20
2569.511801566071
 30
0.0
  0
ENDBLK
  5
7B17
  8
0
  0
BLOCK
  8
0
  2
*D3
 70
     1
 10
0.0
 20
0.0
 30
0.0
  3
*D3
  1

  0
LINE
  5
7DDD
  8
3
  6
CONTINUOUS
 62
     0
 10
2126.1539819999989
 20
2869.511801566071
 30
0.0
 11
2527.725273
 21
2869.511801566071
 31
0.0
  0
LINE
  5
7DDE
  8
3
  6
CONTINUOUS
 62
     0
 10
2393.3886699999989
 20
2569.511801566071
 30
0.0
 11
2527.725273
 21
2569.511801566071
 31
0.0
  0
LINE
  5
7DDF
  8
3
  6
CONTINUOUS
 62
     0
 10
2507.725273
 20
2909.5118015660701
 30
0.0
 11
2507.725273
 21
2949.511801566071
 31
0.0
  0
LINE
  5
7DE0
  8
3
  6
CONTINUOUS
 62
     0
 10
2507.725273
 20
2529.511801566071
 30
0.0
 11
2507.725273
 21
2489.511801566071
 31
0.0
  0
LINE
  5
7DE1
  8
3
  6
CONTINUOUS
 62
     0
 10
2507.725273
 20
2869.511801566071
 30
0.0
 11
2507.725273
 21
2569.511801566071
 31
0.0
  0
INSERT
  5
7DE2
  8
3
  6
CONTINUOUS
 62
     0
  2
_OPEN
 10
2507.725273
 20
2869.511801566071
 30
0.0
 41
40.0
 42
40.0
 43
40.0
 50
270.0
  0
INSERT
  5
7DE3
  8
3
  6
CONTINUOUS
 62
     0
  2
_OPEN
 10
2507.725273
 20
2569.511801566071
 30
0.0
 41
40.0
 42
40.0
 43
40.0
 50
90.0
  0
TEXT
  8
3
  40
60
  5
7E67
  62
0
  72
0
  71
0
 10
2337.73
 20
2600.45
 30
0.000000
  1
300
  0
POINT
  5
7DE5
  8
DEFPOINTS
  6
CONTINUOUS
 62
     0
 10
2116.1539819999989
 20
2869.511801566071
 30
0.0
  0
POINT
  5
7DE6
  8
DEFPOINTS
  6
CONTINUOUS
 62
     0
 10
2383.3886699999989
 20
2569.511801566071
 30
0.0
  0
POINT
  5
7DE7
  8
DEFPOINTS
  6
CONTINUOUS
 62
     0
 10
2507.725273
 20
2569.511801566071
 30
0.0
  0
ENDBLK
  5
7B24
  8
0
  0
BLOCK
  8
0
  2
*D4
 70
     1
 10
0.0
 20
0.0
 30
0.0
  3
*D4
  1

  0
LINE
  5
7DE8
  8
3
  6
CONTINUOUS
 62
     0
 10
2116.1539819999989
 20
2054.511801566071
 30
0.0
 11
2527.725273
 21
2054.511801566071
 31
0.0
  0
LINE
  5
7DE9
  8
3
  6
CONTINUOUS
 62
     0
 10
2507.725273
 20
2529.511801566071
 30
0.0
 11
2507.725273
 21
2094.511801566071
 31
0.0
  0
INSERT
  5
7DEA
  8
3
  6
CONTINUOUS
 62
     0
  2
_OPEN
 10
2507.725273
 20
2569.511801566071
 30
0.0
 41
40.0
 42
40.0
 43
40.0
 50
90.0
  0
INSERT
  5
7DEB
  8
3
  6
CONTINUOUS
 62
     0
  2
_OPEN
 10
2507.725273
 20
2054.511801566071
 30
0.0
 41
40.0
 42
40.0
 43
40.0
 50
270.0
  0
TEXT
  8
3
  40
60
  5
7E68
  62
0
  72
0
  71
0
 10
2337.73
 20
2205.81
 30
0.000000
  1
515
  0
POINT
  5
7DED
  8
DEFPOINTS
  6
CONTINUOUS
 62
     0
 10
2383.3886699999989
 20
2569.511801566071
 30
0.0
  0
POINT
  5
7DEE
  8
DEFPOINTS
  6
CONTINUOUS
 62
     0
 10
2106.1539819999989
 20
2054.511801566071
 30
0.0
  0
POINT
  5
7DEF
  8
DEFPOINTS
  6
CONTINUOUS
 62
     0
 10
2507.725273
 20
2054.511801566071
 30
0.0
  0
ENDBLK
  5
7B30
  8
0
  0
BLOCK
  8
0
  2
*D5
 70
     1
 10
0.0
 20
0.0
 30
0.0
  3
*D5
  1

  0
LINE
  5
7DF0
  8
3
  6
CONTINUOUS
 62
     0
 10
2126.1539819999989
 20
2869.511801566071
 30
0.0
 11
2652.0619000000002
 21
2869.511801566071
 31
0.0
  0
LINE
  5
7DF1
  8
3
  6
CONTINUOUS
 62
     0
 10
2116.1539819999989
 20
1967.511801566071
 30
0.0
 11
2652.0619000000002
 21
1967.5118015660701
 31
0.0
  0
LINE
  5
7DF2
  8
3
  6
CONTINUOUS
 62
     0
 10
2632.0619000000002
 20
2829.5118015660701
 30
0.0
 11
2632.0619000000002
 21
2007.5118015660701
 31
0.0
  0
INSERT
  5
7DF3
  8
3
  6
CONTINUOUS
 62
     0
  2
_OPEN
 10
2632.0619000000002
 20
2869.511801566071
 30
0.0
 41
40.0
 42
40.0
 43
40.0
 50
90.0
  0
INSERT
  5
7DF4
  8
3
  6
CONTINUOUS
 62
     0
  2
_OPEN
 10
2632.0619000000002
 20
1967.5118015660701
 30
0.0
 41
40.0
 42
40.0
 43
40.0
 50
270.0
  0
TEXT
  8
3
  40
60
  5
7E69
  62
0
  72
0
  71
0
 10
2462.06
 20
2327.32
 30
0.000000
  1
902
  0
POINT
  5
7DF6
  8
DEFPOINTS
  6
CONTINUOUS
 62
     0
 10
2116.1539819999989
 20
2869.511801566071
 30
0.0
  0
POINT
  5
7DF7
  8
DEFPOINTS
  6
CONTINUOUS
 62
     0
 10
2106.1539819999989
 20
1967.511801566071
 30
0.0
  0
POINT
  5
7DF8
  8
DEFPOINTS
  6
CONTINUOUS
 62
     0
 10
2632.0619000000002
 20
1967.5118015660701
 30
0.0
  0
ENDBLK
  5
7B3D
  8
0
  0
BLOCK
  8
0
  2
*D6
 70
     1
 10
0.0
 20
0.0
 30
0.0
  3
*D6
  1

  0
LINE
  5
7DF9
  8
3
  6
CONTINUOUS
 62
     0
 10
2146.1539819999989
 20
2618.511801566071
 30
0.0
 11
2146.1539819999989
 21
3015.446049566071
 31
0.0
  0
LINE
  5
7DFA
  8
3
  6
CONTINUOUS
 62
     0
 10
1846.153982
 20
2995.5571955660712
 30
0.0
 11
1846.153982
 21
2975.446049566071
 31
0.0
  0
LINE
  5
7DFB
  8
3
  6
CONTINUOUS
 62
     0
 10
2186.1539819999989
 20
2995.446049566071
 30
0.0
 11
2226.1539819999998
 21
2995.446049566071
 31
0.0
  0
LINE
  5
7DFC
  8
3
  6
CONTINUOUS
 62
     0
 10
1806.153982
 20
2995.446049566071
 30
0.0
 11
1766.153982
 21
2995.446049566071
 31
0.0
  0
LINE
  5
7DFD
  8
3
  6
CONTINUOUS
 62
     0
 10
2146.1539819999989
 20
2995.446049566071
 30
0.0
 11
1846.153982
 21
2995.446049566071
 31
0.0
  0
INSERT
  5
7DFE
  8
3
  6
CONTINUOUS
 62
     0
  2
_OPEN
 10
2146.1539819999989
 20
2995.446049566071
 30
0.0
 41
40.0
 42
40.0
 43
40.0
 50
180.0
  0
INSERT
  5
7DFF
  8
3
  6
CONTINUOUS
 62
     0
  2
_OPEN
 10
1846.153982
 20
2995.446049566071
 30
0.0
 41
40.0
 42
40.0
 43
40.0
  0
TEXT
  8
3
  40
60
  5
7E6A
  62
0
  72
0
  71
0
 10
1863.30
 20
2939.25
 30
0.000000
  1
300
  0
POINT
  5
7E01
  8
DEFPOINTS
  6
CONTINUOUS
 62
     0
 10
2146.1539819999989
 20
2608.511801566071
 30
0.0
  0
POINT
  5
7E02
  8
DEFPOINTS
  6
CONTINUOUS
 62
     0
 10
1846.153982
 20
3005.5571955660698
 30
0.0
  0
POINT
  5
7E03
  8
DEFPOINTS
  6
CONTINUOUS
 62
     0
 10
1846.153982
 20
2995.446049566071
 30
0.0
  0
ENDBLK
  5
7C66
  8
0
  0
BLOCK
  8
0
  2
*D7
 70
     1
 10
0.0
 20
0.0
 30
0.0
  3
*D7
  1

  0
LINE
  5
7E04
  8
3
  6
CONTINUOUS
 62
     0
 10
1514.153982
 20
2552.511801566071
 30
0.0
 11
1514.153982
 21
3015.446049566071
 31
0.0
  0
LINE
  5
7E05
  8
3
  6
CONTINUOUS
 62
     0
 10
1806.153982
 20
2995.446049566071
 30
0.0
 11
1554.153982
 21
2995.446049566071
 31
0.0
  0
INSERT
  5
7E06
  8
3
  6
CONTINUOUS
 62
     0
  2
_OPEN
 10
1846.153982
 20
2995.446049566071
 30
0.0
 41
40.0
 42
40.0
 43
40.0
  0
INSERT
  5
7E07
  8
3
  6
CONTINUOUS
 62
     0
  2
_OPEN
 10
1514.153982
 20
2995.446049566071
 30
0.0
 41
40.0
 42
40.0
 43
40.0
 50
180.0
  0
TEXT
  8
3
  40
60
  5
7E6B
  62
0
  72
0
  71
0
 10
1560.15
 20
2939.25
 30
0.000000
  1
332
  0
POINT
  5
7E09
  8
DEFPOINTS
  6
CONTINUOUS
 62
     0
 10
1846.153982
 20
3005.5571955660698
 30
0.0
  0
POINT
  5
7E0A
  8
DEFPOINTS
  6
CONTINUOUS
 62
     0
 10
1514.153982
 20
2542.511801566071
 30
0.0
  0
POINT
  5
7E0B
  8
DEFPOINTS
  6
CONTINUOUS
 62
     0
 10
1514.153982
 20
2995.446049566071
 30
0.0
  0
ENDBLK
  5
7D01
  8
0
  0
BLOCK
  8
0
  2
*D8
 70
     1
 10
0.0
 20
0.0
 30
0.0
  3
*D8
  1

  0
LINE
  5
7E0C
  8
3
  6
CONTINUOUS
 62
     0
 10
1106.153982
 20
1957.5118015660701
 30
0.0
 11
1106.153982
 21
1764.79479156607
 31
0.0
  0
LINE
  5
7E0D
  8
3
  6
CONTINUOUS
 62
     0
 10
1846.153982
 20
1869.8246325660709
 30
0.0
 11
1846.153982
 21
1764.79479156607
 31
0.0
  0
LINE
  5
7E0E
  8
3
  6
CONTINUOUS
 62
     0
 10
1146.153982
 20
1784.79479156607
 30
0.0
 11
1806.153982
 21
1784.79479156607
 31
0.0
  0
INSERT
  5
7E0F
  8
3
  6
CONTINUOUS
 62
     0
  2
_OPEN
 10
1106.153982
 20
1784.79479156607
 30
0.0
 41
40.0
 42
40.0
 43
40.0
 50
180.0
  0
INSERT
  5
7E10
  8
3
  6
CONTINUOUS
 62
     0
  2
_OPEN
 10
1846.153982
 20
1784.79479156607
 30
0.0
 41
40.0
 42
40.0
 43
40.0
  0
TEXT
  8
3
  40
60
  5
7E6C
  62
0
  72
0
  71
0
 10
1335.01
 20
1728.59
 30
0.000000
  1
740
  0
POINT
  5
7E12
  8
DEFPOINTS
  6
CONTINUOUS
 62
     0
 10
1106.153982
 20
1967.511801566071
 30
0.0
  0
POINT
  5
7E13
  8
DEFPOINTS
  6
CONTINUOUS
 62
     0
 10
1846.153982
 20
1879.82463256607
 30
0.0
  0
POINT
  5
7E14
  8
DEFPOINTS
  6
CONTINUOUS
 62
     0
 10
1846.153982
 20
1784.79479156607
 30
0.0
  0
ENDBLK
  5
7C5B
  8
0
  0
BLOCK
  8
0
  2
*D9
 70
     1
 10
0.0
 20
0.0
 30
0.0
  3
*D9
  1

  0
LINE
  5
7E15
  8
3
  6
CONTINUOUS
 62
     0
 10
2106.1539819999989
 20
1957.5118015660701
 30
0.0
 11
2106.1539819999989
 21
1764.79479156607
 31
0.0
  0
LINE
  5
7E16
  8
3
  6
CONTINUOUS
 62
     0
 10
1886.153982
 20
1784.79479156607
 30
0.0
 11
2066.1539819999989
 21
1784.79479156607
 31
0.0
  0
TEXT
  8
3
  40
60
  5
7E6D
  62
0
  72
0
  71
0
 10
1862.38
 20
1727.84
 30
0.000000
  1
260
  0
INSERT
  5
7E18
  8
3
  6
CONTINUOUS
 62
     0
  2
_OPEN
 10
1846.153982
 20
1784.79479156607
 30
0.0
 41
40.0
 42
40.0
 43
40.0
 50
180.0
  0
INSERT
  5
7E19
  8
3
  6
CONTINUOUS
 62
     0
  2
_OPEN
 10
2106.1539819999989
 20
1784.79479156607
 30
0.0
 41
40.0
 42
40.0
 43
40.0
  0
POINT
  5
7E1A
  8
DEFPOINTS
  6
CONTINUOUS
 62
     0
 10
1846.153982
 20
1879.82463256607
 30
0.0
  0
POINT
  5
7E1B
  8
DEFPOINTS
  6
CONTINUOUS
 62
     0
 10
2106.1539819999989
 20
1967.511801566071
 30
0.0
  0
POINT
  5
7E1C
  8
DEFPOINTS
  6
CONTINUOUS
 62
     0
 10
2106.1539819999989
 20
1784.79479156607
 30
0.0
  0
ENDBLK
  5
7C50
  8
0
  0
BLOCK
  8
0
  2
*D10
 70
     1
 10
0.0
 20
0.0
 30
0.0
  3
*D10
  1

  0
LINE
  5
7D95
  8
0
  6
BYBLOCK
 62
     0
 10
3069.4707749999998
 20
1957.5118015660701
 30
0.0
 11
3069.4707749999998
 21
1781.18342456607
 31
0.0
  0
LINE
  5
7D96
  8
0
  6
BYBLOCK
 62
     0
 10
3263.4707749999998
 20
1895.6733348494249
 30
0.0
 11
3263.4707749999998
 21
1781.18342456607
 31
0.0
  0
LINE
  5
7D97
  8
0
  6
BYBLOCK
 62
     0
 10
3109.4707749999998
 20
1801.18342456607
 30
0.0
 11
3223.4707749999998
 21
1801.18342456607
 31
0.0
  0
TEXT
  5
7D98
  8
3
 62
     0
 10
3093.6136321428571
 20
1823.5120197572569
 30
0.0
 40
60.0
  1
194
  0
INSERT
  5
7D99
  8
0
  6
BYBLOCK
 62
     0
  2
_OPEN
 10
3069.4707749999998
 20
1801.18342456607
 30
0.0
 41
40.0
 42
40.0
 43
40.0
 50
180.0
  0
INSERT
  5
7D9A
  8
0
  6
BYBLOCK
 62
     0
  2
_OPEN
 10
3263.4707749999998
 20
1801.18342456607
 30
0.0
 41
40.0
 42
40.0
 43
40.0
  0
POINT
  5
7D9B
  8
DEFPOINTS
  6
BYBLOCK
 62
     0
 10
3069.4707749999998
 20
1967.511801566071
 30
0.0
  0
POINT
  5
7D9C
  8
DEFPOINTS
  6
BYBLOCK
 62
     0
 10
3263.4707749999998
 20
1905.6733348494249
 30
0.0
  0
POINT
  5
7D9D
  8
DEFPOINTS
  6
BYBLOCK
 62
     0
 10
3263.4707749999998
 20
1801.18342456607
 30
0.0
  0
ENDBLK
  5
7D9E
  8
0
  0
BLOCK
  8
0
  2
*D11
 70
     1
 10
0.0
 20
0.0
 30
0.0
  3
*D11
  1

  0
LINE
  5
7E1D
  8
3
  6
CONTINUOUS
 62
     0
 10
3457.4707749999998
 20
1957.5118015660701
 30
0.0
 11
3457.4707749999998
 21
1781.18342456607
 31
0.0
  0
LINE
  5
7E1E
  8
3
  6
CONTINUOUS
 62
     0
 10
3303.4707749999989
 20
1801.18342456607
 30
0.0
 11
3417.4707749999989
 21
1801.18342456607
 31
0.0
  0
TEXT
  8
3
  40
60
  5
7E6E
  62
0
  72
0
  71
0
 10
3249.34
 20
1740.44
 30
0.000000
  1
194
  0
INSERT
  5
7E20
  8
3
  6
CONTINUOUS
 62
     0
  2
_OPEN
 10
3263.4707749999998
 20
1801.18342456607
 30
0.0
 41
40.0
 42
40.0
 43
40.0
 50
180.0
  0
INSERT
  5
7E21
  8
3
  6
CONTINUOUS
 62
     0
  2
_OPEN
 10
3457.4707749999998
 20
1801.18342456607
 30
0.0
 41
40.0
 42
40.0
 43
40.0
  0
POINT
  5
7E22
  8
DEFPOINTS
  6
CONTINUOUS
 62
     0
 10
3263.4707749999998
 20
1904.5751887139679
 30
0.0
  0
POINT
  5
7E23
  8
DEFPOINTS
  6
CONTINUOUS
 62
     0
 10
3457.4707749999998
 20
1967.511801566071
 30
0.0
  0
POINT
  5
7E24
  8
DEFPOINTS
  6
CONTINUOUS
 62
     0
 10
3457.4707749999998
 20
1801.18342456607
 30
0.0
  0
ENDBLK
  5
7DA8
  8
0
  0
BLOCK
  8
0
  2
*D12
 70
     1
 10
0.0
 20
0.0
 30
0.0
  3
*D12
  1

  0
LINE
  5
7E25
  8
3
  6
CONTINUOUS
 62
     0
 10
3413.4707749999989
 20
2879.511801566071
 30
0.0
 11
3413.4707749999989
 21
2931.688936222999
 31
0.0
  0
LINE
  5
7E26
  8
3
  6
CONTINUOUS
 62
     0
 10
3113.4707749999989
 20
2879.511801566071
 30
0.0
 11
3113.4707749999989
 21
2931.688936222999
 31
0.0
  0
LINE
  5
7E27
  8
3
  6
CONTINUOUS
 62
     0
 10
3373.4707749999989
 20
2911.688936222999
 30
0.0
 11
3153.4707749999998
 21
2911.688936222999
 31
0.0
  0
INSERT
  5
7E28
  8
3
  6
CONTINUOUS
 62
     0
  2
_OPEN
 10
3413.4707749999989
 20
2911.688936222999
 30
0.0
 41
40.0
 42
40.0
 43
40.0
  0
INSERT
  5
7E29
  8
3
  6
CONTINUOUS
 62
     0
  2
_OPEN
 10
3113.4707749999989
 20
2911.688936222999
 30
0.0
 41
40.0
 42
40.0
 43
40.0
 50
180.0
  0
TEXT
  8
3
  40
60
  5
7E6F
  62
0
  72
0
  71
0
 10
3130.61
 20
2855.49
 30
0.000000
  1
300
  0
POINT
  5
7E2B
  8
DEFPOINTS
  6
CONTINUOUS
 62
     0
 10
3413.4707749999989
 20
2869.511801566071
 30
0.0
  0
POINT
  5
7E2C
  8
DEFPOINTS
  6
CONTINUOUS
 62
     0
 10
3113.4707749999989
 20
2869.511801566071
 30
0.0
  0
POINT
  5
7E2D
  8
DEFPOINTS
  6
CONTINUOUS
 62
     0
 10
3113.4707749999989
 20
2911.688936222999
 30
0.0
  0
ENDBLK
  5
7D86
  8
0
  0
BLOCK
  8
0
  2
*D13
 70
     1
 10
0.0
 20
0.0
 30
0.0
  3
*D13
  1

  0
LINE
  5
7E2E
  8
3
  6
CONTINUOUS
 62
     0
 10
2933.4707749999989
 20
2799.511801566071
 30
0.0
 11
2933.4707749999989
 21
3049.8531355660698
 31
0.0
  0
LINE
  5
7E2F
  8
3
  6
CONTINUOUS
 62
     0
 10
3223.4707749999998
 20
3029.8531355660698
 30
0.0
 11
2973.4707749999998
 21
3029.8531355660698
 31
0.0
  0
INSERT
  5
7E30
  8
3
  6
CONTINUOUS
 62
     0
  2
_OPEN
 10
3263.4707749999998
 20
3029.8531355660698
 30
0.0
 41
40.0
 42
40.0
 43
40.0
  0
INSERT
  5
7E31
  8
3
  6
CONTINUOUS
 62
     0
  2
_OPEN
 10
2933.4707749999989
 20
3029.8531355660698
 30
0.0
 41
40.0
 42
40.0
 43
40.0
 50
180.0
  0
TEXT
  8
3
  40
60
  5
7E70
  62
0
  72
0
  71
0
 10
2978.47
 20
3023.65
 30
0.000000
  1
MAX
  0
TEXT
  8
3
  40
60
  5
7E71
  62
0
  72
0
  71
0
 10
2978.47
 20
2945.65
 30
0.000000
  1
380
  0
POINT
  5
7E33
  8
DEFPOINTS
  6
CONTINUOUS
 62
     0
 10
3263.4707749999998
 20
2989.4481725660712
 30
0.0
  0
POINT
  5
7E34
  8
DEFPOINTS
  6
CONTINUOUS
 62
     0
 10
2933.4707749999989
 20
2789.511801566071
 30
0.0
  0
POINT
  5
7E35
  8
DEFPOINTS
  6
CONTINUOUS
 62
     0
 10
2933.4707749999989
 20
3029.8531355660698
 30
0.0
  0
ENDBLK
  5
7D4E
  8
0
  0
BLOCK
  8
0
  2
*D14
 70
     1
 10
0.0
 20
0.0
 30
0.0
  3
*D14
  1

  0
LINE
  5
7E36
  8
3
  6
CONTINUOUS
 62
     0
 10
1106.153982
 20
4043.28180156607
 30
0.0
 11
1106.153982
 21
4226.7415535660703
 31
0.0
  0
LINE
  5
7E37
  8
3
  6
CONTINUOUS
 62
     0
 10
2106.1539819999989
 20
4043.28180156607
 30
0.0
 11
2106.1539819999989
 21
4226.7415535660703
 31
0.0
  0
LINE
  5
7E38
  8
3
  6
CONTINUOUS
 62
     0
 10
1146.153982
 20
4206.7415535660712
 30
0.0
 11
2066.1539819999989
 21
4206.7415535660712
 31
0.0
  0
INSERT
  5
7E39
  8
3
  6
CONTINUOUS
 62
     0
  2
_OPEN
 10
1106.153982
 20
4206.7415535660712
 30
0.0
 41
40.0
 42
40.0
 43
40.0
 50
180.0
  0
INSERT
  5
7E3A
  8
3
  6
CONTINUOUS
 62
     0
  2
_OPEN
 10
2106.1539819999989
 20
4206.7415535660712
 30
0.0
 41
40.0
 42
40.0
 43
40.0
  0
TEXT
  8
3
  40
60
  5
7E72
  62
0
  72
0
  71
0
 10
1484.21
 20
4150.54
 30
0.000000
  1
1000
  0
POINT
  5
7E3C
  8
DEFPOINTS
  6
CONTINUOUS
 62
     0
 10
1106.153982
 20
4033.28180156607
 30
0.0
  0
POINT
  5
7E3D
  8
DEFPOINTS
  6
CONTINUOUS
 62
     0
 10
2106.1539819999989
 20
4033.28180156607
 30
0.0
  0
POINT
  5
7E3E
  8
DEFPOINTS
  6
CONTINUOUS
 62
     0
 10
2106.1539819999989
 20
4206.7415535660712
 30
0.0
  0
ENDBLK
  5
7CDF
  8
0
  0
BLOCK
  8
0
  2
*D15
 70
     1
 10
0.0
 20
0.0
 30
0.0
  3
*D15
  1

  0
LINE
  5
7E3F
  8
3
  6
CONTINUOUS
 62
     0
 10
1096.153982
 20
4033.28180156607
 30
0.0
 11
959.81253000000083
 21
4033.281801566071
 31
0.0
  0
LINE
  5
7E40
  8
3
  6
CONTINUOUS
 62
     0
 10
1096.153982
 20
3645.281801566071
 30
0.0
 11
959.81253000000061
 21
3645.281801566071
 31
0.0
  0
LINE
  5
7E41
  8
3
  6
CONTINUOUS
 62
     0
 10
979.81253000000072
 20
3993.28180156607
 30
0.0
 11
979.81253000000072
 21
3685.281801566071
 31
0.0
  0
INSERT
  5
7E42
  8
3
  6
CONTINUOUS
 62
     0
  2
_OPEN
 10
979.81253000000072
 20
4033.281801566071
 30
0.0
 41
40.0
 42
40.0
 43
40.0
 50
90.0
  0
INSERT
  5
7E43
  8
3
  6
CONTINUOUS
 62
     0
  2
_OPEN
 10
979.81253000000072
 20
3645.281801566071
 30
0.0
 41
40.0
 42
40.0
 43
40.0
 50
270.0
  0
TEXT
  8
3
  40
60
  5
7E73
  62
0
  72
0
  71
0
 10
809.813
 20
3741.96
 30
0.000000
  1
388
  0
POINT
  5
7E45
  8
DEFPOINTS
  6
CONTINUOUS
 62
     0
 10
1106.153982
 20
4033.28180156607
 30
0.0
  0
POINT
  5
7E46
  8
DEFPOINTS
  6
CONTINUOUS
 62
     0
 10
1106.153982
 20
3645.281801566071
 30
0.0
  0
POINT
  5
7E47
  8
DEFPOINTS
  6
CONTINUOUS
 62
     0
 10
979.81253000000072
 20
3645.281801566071
 30
0.0
  0
ENDBLK
  5
7CEA
  8
0
  0
BLOCK
  8
0
  2
*D16
 70
     1
 10
0.0
 20
0.0
 30
0.0
  3
*D16
  1

  0
LINE
  5
7E48
  8
3
  6
CONTINUOUS
 62
     0
 10
2116.1539819999989
 20
2054.511801566071
 30
0.0
 11
2528.7921289999999
 21
2054.511801566071
 31
0.0
  0
LINE
  5
7E49
  8
3
  6
CONTINUOUS
 62
     0
 10
2116.1539819999989
 20
1967.511801566071
 30
0.0
 11
2528.7921289999999
 21
1967.511801566071
 31
0.0
  0
LINE
  5
7E4A
  8
3
  6
CONTINUOUS
 62
     0
 10
2508.7921289999999
 20
2094.511801566071
 30
0.0
 11
2508.7921289999999
 21
2134.511801566071
 31
0.0
  0
LINE
  5
7E4B
  8
3
  6
CONTINUOUS
 62
     0
 10
2508.7921289999999
 20
1927.511801566071
 30
0.0
 11
2508.7921289999999
 21
1750.3689444232141
 31
0.0
  0
LINE
  5
7E4C
  8
3
  6
CONTINUOUS
 62
     0
 10
2508.7921289999999
 20
2054.511801566071
 30
0.0
 11
2508.7921289999999
 21
1967.511801566071
 31
0.0
  0
INSERT
  5
7E4D
  8
3
  6
CONTINUOUS
 62
     0
  2
_OPEN
 10
2508.7921289999999
 20
2054.511801566071
 30
0.0
 41
40.0
 42
40.0
 43
40.0
 50
270.0
  0
INSERT
  5
7E4E
  8
3
  6
CONTINUOUS
 62
     0
  2
_OPEN
 10
2508.7921289999999
 20
1967.511801566071
 30
0.0
 41
40.0
 42
40.0
 43
40.0
 50
90.0
  0
TEXT
  8
3
  40
60
  5
7E74
  62
0
  72
0
  71
0
 10
2338.79
 20
1712.74
 30
0.000000
  1
87
  0
POINT
  5
7E50
  8
DEFPOINTS
  6
CONTINUOUS
 62
     0
 10
2106.1539819999989
 20
2054.511801566071
 30
0.0
  0
POINT
  5
7E51
  8
DEFPOINTS
  6
CONTINUOUS
 62
     0
 10
2106.1539819999989
 20
1967.511801566071
 30
0.0
  0
POINT
  5
7E52
  8
DEFPOINTS
  6
CONTINUOUS
 62
     0
 10
2508.7921289999999
 20
1967.511801566071
 30
0.0
  0
ENDBLK
  5
7D0E
  8
0
  0
BLOCK
  8
0
  2
*D17
 70
     1
 10
0.0
 20
0.0
 30
0.0
  3
*D17
  1

  0
LINE
  5
7E53
  8
3
  6
CONTINUOUS
 62
     0
 10
3424.4707749999989
 20
2354.5118015660701
 30
0.0
 11
3600.5013680000002
 21
2354.5118015660701
 31
0.0
  0
LINE
  5
7E54
  8
3
  6
CONTINUOUS
 62
     0
 10
3424.4707749999989
 20
2784.511801566071
 30
0.0
 11
3600.5013680000002
 21
2784.511801566071
 31
0.0
  0
LINE
  5
7E55
  8
3
  6
CONTINUOUS
 62
     0
 10
3580.5013680000011
 20
2394.511801566071
 30
0.0
 11
3580.5013680000011
 21
2744.511801566071
 31
0.0
  0
INSERT
  5
7E56
  8
3
  6
CONTINUOUS
 62
     0
  2
_OPEN
 10
3580.5013680000011
 20
2354.5118015660701
 30
0.0
 41
40.0
 42
40.0
 43
40.0
 50
270.0
  0
INSERT
  5
7E57
  8
3
  6
CONTINUOUS
 62
     0
  2
_OPEN
 10
3580.5013680000011
 20
2784.511801566071
 30
0.0
 41
40.0
 42
40.0
 43
40.0
 50
90.0
  0
TEXT
  8
3
  40
60
  5
7E75
  62
0
  72
0
  71
0
 10
3410.50
 20
2450.59
 30
0.000000
  1
φ430
  0
POINT
  5
7E59
  8
DEFPOINTS
  6
CONTINUOUS
 62
     0
 10
3414.4707749999998
 20
2354.5118015660701
 30
0.0
  0
POINT
  5
7E5A
  8
DEFPOINTS
  6
CONTINUOUS
 62
     0
 10
3414.4707749999998
 20
2784.511801566071
 30
0.0
  0
POINT
  5
7E5B
  8
DEFPOINTS
  6
CONTINUOUS
 62
     0
 10
3580.5013680000011
 20
2784.511801566071
 30
0.0
  0
ENDBLK
  5
7D59
  8
0
  0
BLOCK
  8
0
  2
*D18
 70
     1
 10
0.0
 20
0.0
 30
0.0
  3
*D18
  1

  0
LINE
  5
7D72
  8
0
  6
BYBLOCK
 62
     0
 10
3263.4707749999998
 20
2999.4481725660698
 30
0.0
 11
3263.4707749999998
 21
3049.8531355660698
 31
0.0
  0
LINE
  5
7D73
  8
0
  6
BYBLOCK
 62
     0
 10
3414.4707749999998
 20
2794.511801566071
 30
0.0
 11
3414.4707749999998
 21
3049.8531355660698
 31
0.0
  0
LINE
  5
7D74
  8
0
  6
BYBLOCK
 62
     0
 10
3303.4707749999989
 20
3029.8531355660698
 30
0.0
 11
3374.4707749999989
 21
3029.8531355660698
 31
0.0
  0
TEXT
  5
7D75
  8
3
 62
     0
 10
3271.5068869178922
 20
3054.1305938134028
 30
0.0
 40
60.0
  1
151
  0
INSERT
  5
7D76
  8
0
  6
BYBLOCK
 62
     0
  2
_OPEN
 10
3263.4707749999998
 20
3029.8531355660698
 30
0.0
 41
40.0
 42
40.0
 43
40.0
 50
180.0
  0
INSERT
  5
7D77
  8
0
  6
BYBLOCK
 62
     0
  2
_OPEN
 10
3414.4707749999998
 20
3029.8531355660698
 30
0.0
 41
40.0
 42
40.0
 43
40.0
  0
POINT
  5
7D78
  8
DEFPOINTS
  6
BYBLOCK
 62
     0
 10
3263.4707749999998
 20
2989.4481725660712
 30
0.0
  0
POINT
  5
7D79
  8
DEFPOINTS
  6
BYBLOCK
 62
     0
 10
3414.4707749999998
 20
2784.511801566071
 30
0.0
  0
POINT
  5
7D7A
  8
DEFPOINTS
  6
BYBLOCK
 62
     0
 10
3414.4707749999998
 20
3029.8531355660698
 30
0.0
  0
ENDBLK
  5
7D7B
  8
0
  0
BLOCK
  8
0
  2
*D19
 70
     1
 10
0.0
 20
0.0
 30
0.0
  3
*D19
  1

  0
LINE
  5
7E5C
  8
3
 62
     0
 10
2146.1539819999989
 20
2618.511801566071
 30
0.0
 11
2146.1539819999989
 21
3140.8708994051258
 31
0.0
  0
LINE
  5
7E5D
  8
3
 62
     0
 10
1106.153982
 20
2144.511801566071
 30
0.0
 11
1106.153982
 21
3140.8708994051258
 31
0.0
  0
LINE
  5
7E5E
  8
3
 62
     0
 10
2106.1539819999989
 20
3120.8708994051258
 30
0.0
 11
1146.153982
 21
3120.8708994051258
 31
0.0
  0
INSERT
  5
7E5F
  8
3
 62
     0
  2
_OPEN
 10
2146.1539819999989
 20
3120.8708994051258
 30
0.0
 41
40.0
 42
40.0
 43
40.0
  0
INSERT
  5
7E60
  8
3
 62
     0
  2
_OPEN
 10
1106.153982
 20
3120.8708994051258
 30
0.0
 41
40.0
 42
40.0
 43
40.0
 50
180.0
  0
TEXT
  8
3
  40
60
  5
7E76
  62
0
  72
0
  71
0
 10
1538.56
 20
3064.67
 30
0.000000
  1
1040
  0
POINT
  5
7E62
  8
DEFPOINTS
 62
     0
 10
2146.1539819999989
 20
2608.511801566071
 30
0.0
  0
POINT
  5
7E63
  8
DEFPOINTS
 62
     0
 10
1106.153982
 20
2134.511801566071
 30
0.0
  0
POINT
  5
7E64
  8
DEFPOINTS
 62
     0
 10
1106.153982
 20
3120.8708994051258
 30
0.0
  0
ENDBLK
  5
7D92
  8
0
  0
ENDSEC
  0
SECTION
  2
ENTITIES
  0
CIRCLE
  5
7A6C
  8
1
  6
CONTINUOUS
 10
1846.153982
 20
2569.511801566071
 30
0.0
 40
240.0
  0
LINE
  5
7A6D
  8
1
  6
CONTINUOUS
 10
1890.7939819999999
 20
2480.0218015660712
 30
0.0
 11
1341.0739819999999
 21
2205.8218015660709
 31
0.0
  0
LINE
  5
7A6E
  8
1
  6
CONTINUOUS
 10
2106.1539819999989
 20
2054.511801566071
 30
0.0
 11
1106.153982
 21
2054.511801566071
 31
0.0
  0
LINE
  5
7A6F
  8
1
  6
CONTINUOUS
 10
1831.6539819999989
 20
2789.511801566071
 30
0.0
 11
1151.653982
 21
2384.511801566071
 31
0.0
  0
CIRCLE
  5
7A70
  8
1
  6
CONTINUOUS
 10
1846.153982
 20
2569.511801566071
 30
0.0
 40
100.0
  0
LINE
  5
7A71
  8
1
  6
CONTINUOUS
 10
2116.1539819999989
 20
2134.511801566071
 30
0.0
 11
1106.153982
 21
2134.511801566071
 31
0.0
  0
LINE
  5
7A72
  8
2
  6
CENTER
 10
3451.1902127201279
 20
2569.511801566071
 30
0.0
 11
2879.3079014762552
 21
2569.511801566071
 31
0.0
  0
ARC
  5
7A73
  8
1
  6
CONTINUOUS
 10
1873.153982
 20
2542.511801566071
 30
0.0
 40
360.00999999999988
 50
174.1699999999999
 51
265.69999999999999
  0
ARC
  5
7A74
  8
1
  6
CONTINUOUS
 10
1824.153982
 20
2547.511801566071
 30
0.0
 40
310.75999999999999
 50
82.689999999999998
 51
174.1699999999999
  0
LINE
  5
7A75
  8
1
  6
CONTINUOUS
 10
2116.1539819999989
 20
2869.511801566071
 30
0.0
 11
1576.153982
 21
2869.511801566071
 31
0.0
  0
LINE
  5
7A76
  8
1
  6
CONTINUOUS
 10
1106.153982
 20
2032.511801566071
 30
0.0
 11
2106.1539819999989
 21
2032.511801566071
 31
0.0
  0
LINE
  5
7A77
  8
1
  6
CONTINUOUS
 10
1106.153982
 20
1967.511801566071
 30
0.0
 11
2106.1539819999989
 21
1967.511801566071
 31
0.0
  0
CIRCLE
  5
7A78
  8
1
  6
CONTINUOUS
 10
1846.153982
 20
2569.511801566071
 30
0.0
 40
215.0
  0
LINE
  5
7A79
  8
1
  6
CONTINUOUS
 10
1106.153982
 20
2032.511801566071
 30
0.0
 11
1106.153982
 21
1967.511801566071
 31
0.0
  0
LINE
  5
7A7A
  8
1
  6
CONTINUOUS
 10
1106.153982
 20
2134.511801566071
 30
0.0
 11
1106.153982
 21
2054.511801566071
 31
0.0
  0
LINE
  5
7A7B
  8
1
  6
CONTINUOUS
 10
1151.653982
 20
2134.511801566071
 30
0.0
 11
1151.653982
 21
2384.511801566071
 31
0.0
  0
LINE
  5
7A7C
  8
1
  6
CONTINUOUS
 10
1576.153982
 20
2134.511801566071
 30
0.0
 11
1576.153982
 21
2869.511801566071
 31
0.0
  0
LINE
  5
7A7D
  8
1
  6
CONTINUOUS
 10
1280.7739819999999
 20
2309.281801566071
 30
0.0
 11
1790.2939819999999
 21
2652.4518015660701
 31
0.0
  0
LINE
  5
7A7E
  8
2
  6
CENTER
 10
1254.2839819999999
 20
2259.511801566071
 30
0.0
 11
1374.2839819999999
 21
2259.511801566071
 31
0.0
  0
ARC
  5
7A7F
  8
1
  6
CONTINUOUS
 10
1314.2839819999999
 20
2259.511801566071
 30
0.0
 40
101.0
 50
322.88
 51
217.12
  0
CIRCLE
  5
7A80
  8
1
  6
CONTINUOUS
 10
1314.2839819999999
 20
2259.511801566071
 30
0.0
 40
60.0
  0
LINE
  5
7A81
  8
2
  6
CENTER
 10
1314.2839819999999
 20
2199.511801566071
 30
0.0
 11
1314.2839819999999
 21
2319.511801566071
 31
0.0
  0
LINE
  5
7A82
  8
1
  6
CONTINUOUS
 10
1214.283981999999
 20
2171.511801566071
 30
0.0
 11
1233.753982
 21
2198.5618015660712
 31
0.0
  0
LINE
  5
7A83
  8
1
  6
CONTINUOUS
 10
1214.283981999999
 20
2134.511801566071
 30
0.0
 11
1214.283981999999
 21
2171.511801566071
 31
0.0
  0
LINE
  5
7A84
  8
1
  6
CONTINUOUS
 10
1414.283981999999
 20
2134.511801566071
 30
0.0
 11
1414.283981999999
 21
2171.511801566071
 31
0.0
  0
LINE
  5
7A85
  8
1
  6
CONTINUOUS
 10
1414.283981999999
 20
2171.511801566071
 30
0.0
 11
1394.8239819999999
 21
2198.5618015660712
 31
0.0
  0
LINE
  5
7A88
  8
1
  6
CONTINUOUS
 10
2021.653982
 20
2134.511801566071
 30
0.0
 11
2021.653982
 21
2674.511801566071
 31
0.0
  0
LINE
  5
7A89
  8
1
  6
CONTINUOUS
 10
2146.1539819999989
 20
2608.511801566071
 30
0.0
 11
2146.1539819999989
 21
2154.511801566071
 31
0.0
  0
LINE
  5
7A8A
  8
1
  6
CONTINUOUS
 10
2116.1539819999989
 20
2134.511801566071
 30
0.0
 11
2116.1539819999989
 21
2869.511801566071
 31
0.0
  0
LINE
  5
7A8B
  8
1
  6
CONTINUOUS
 10
2126.1539819999989
 20
2581.511801566071
 30
0.0
 11
2126.1539819999989
 21
2181.6418015660702
 31
0.0
  0
LINE
  5
7A8C
  8
1
  6
CONTINUOUS
 10
2146.1539819999989
 20
2181.511801566071
 30
0.0
 11
1846.153982
 21
2183.511801566071
 31
0.0
  0
LINE
  5
7A8D
  8
1
  6
CONTINUOUS
 10
2106.1539819999989
 20
2032.511801566071
 30
0.0
 11
2106.1539819999989
 21
1967.511801566071
 31
0.0
  0
LINE
  5
7A8E
  8
1
  6
CONTINUOUS
 10
2106.1539819999989
 20
2134.511801566071
 30
0.0
 11
2106.1539819999989
 21
2054.511801566071
 31
0.0
  0
LINE
  5
7A91
  8
1
  6
CONTINUOUS
 10
2100.5539819999999
 20
2581.511801566071
 30
0.0
 11
2146.1539819999989
 21
2581.511801566071
 31
0.0
  0
ARC
  5
7A92
  8
1
  6
CONTINUOUS
 10
1829.153982
 20
2586.511801566071
 30
0.0
 40
271.43999999999988
 50
358.93999999999988
 51
82.689999999999998
  0
LINE
  5
7A93
  8
1
  6
CONTINUOUS
 10
2021.653982
 20
2674.511801566071
 30
0.0
 11
1831.6539819999989
 21
2789.511801566071
 31
0.0
  0
LINE
  5
7A94
  8
2
  6
CENTER
 10
1846.153982
 20
1879.82463256607
 30
0.0
 11
1846.153982
 21
3005.5571955660698
 31
0.0
  0
LINE
  5
7A95
  8
1
  6
CONTINUOUS
 10
3113.4707749999989
 20
2181.511801566071
 30
0.0
 11
3413.4707749999989
 21
2581.511801566071
 31
0.0
  0
LINE
  5
7A96
  8
1
  6
CONTINUOUS
 10
3413.4707749999989
 20
2181.511801566071
 30
0.0
 11
3113.4707749999989
 21
2581.511801566071
 31
0.0
  0
LINE
  5
7A97
  8
1
  6
CONTINUOUS
 10
3113.4707749999989
 20
2869.511801566071
 30
0.0
 11
3113.4707749999989
 21
2134.511801566071
 31
0.0
  0
LINE
  5
7A98
  8
1
  6
CONTINUOUS
 10
3413.4707749999989
 20
2869.511801566071
 30
0.0
 11
3413.4707749999989
 21
2134.511801566071
 31
0.0
  0
LINE
  5
7A99
  8
1
  6
CONTINUOUS
 10
2933.4707749999989
 20
2134.511801566071
 30
0.0
 11
2933.4707749999989
 21
2789.511801566071
 31
0.0
  0
LINE
  5
7A9A
  8
1
  6
CONTINUOUS
 10
3033.4707749999998
 20
2134.511801566071
 30
0.0
 11
3033.4707749999998
 21
2789.511801566071
 31
0.0
  0
LINE
  5
7A9B
  8
1
  6
CONTINUOUS
 10
3113.4707749999989
 20
2181.511801566071
 30
0.0
 11
3413.4707749999989
 21
2181.511801566071
 31
0.0
  0
LINE
  5
7A9C
  8
1
  6
CONTINUOUS
 10
3457.4707749999998
 20
2054.511801566071
 30
0.0
 11
3069.4707749999998
 21
2054.511801566071
 31
0.0
  0
LINE
  5
7A9D
  8
1
  6
CONTINUOUS
 10
3457.4707749999998
 20
2134.511801566071
 30
0.0
 11
2933.4707749999989
 21
2134.511801566071
 31
0.0
  0
LINE
  5
7A9E
  8
1
  6
CONTINUOUS
 10
3069.4707749999998
 20
2032.511801566071
 30
0.0
 11
3457.4707749999998
 21
2032.511801566071
 31
0.0
  0
LINE
  5
7A9F
  8
1
  6
CONTINUOUS
 10
3069.4707749999998
 20
1967.511801566071
 30
0.0
 11
3457.4707749999998
 21
1967.511801566071
 31
0.0
  0
LINE
  5
7AA0
  8
1
  6
CONTINUOUS
 10
3069.4707749999998
 20
2032.511801566071
 30
0.0
 11
3069.4707749999998
 21
1967.511801566071
 31
0.0
  0
LINE
  5
7AA1
  8
1
  6
CONTINUOUS
 10
3008.4707749999998
 20
2273.5118015660701
 30
0.0
 11
3113.4707749999989
 21
2273.5118015660701
 31
0.0
  0
LINE
  5
7AA2
  8
1
  6
CONTINUOUS
 10
3008.4707749999998
 20
2245.5118015660701
 30
0.0
 11
3113.4707749999989
 21
2245.5118015660701
 31
0.0
  0
LINE
  5
7AA3
  8
1
  6
CONTINUOUS
 10
3069.4707749999998
 20
2134.511801566071
 30
0.0
 11
3069.4707749999998
 21
2054.511801566071
 31
0.0
  0
LINE
  5
7AA4
  8
1
  6
CONTINUOUS
 10
3008.4707749999998
 20
2199.511801566071
 30
0.0
 11
3008.4707749999998
 21
2319.511801566071
 31
0.0
  0
LINE
  5
7AA5
  8
1
  6
CONTINUOUS
 10
2958.4707749999998
 20
2199.511801566071
 30
0.0
 11
2958.4707749999998
 21
2319.511801566071
 31
0.0
  0
LINE
  5
7AA6
  8
1
  6
CONTINUOUS
 10
2958.4707749999998
 20
2319.511801566071
 30
0.0
 11
3008.4707749999998
 21
2319.511801566071
 31
0.0
  0
LINE
  5
7AA7
  8
1
  6
CONTINUOUS
 10
2958.4707749999998
 20
2199.511801566071
 30
0.0
 11
3008.4707749999998
 21
2199.511801566071
 31
0.0
  0
LINE
  5
7AA8
  8
1
  6
CONTINUOUS
 10
3457.4707749999998
 20
2032.511801566071
 30
0.0
 11
3457.4707749999998
 21
1967.511801566071
 31
0.0
  0
LINE
  5
7AA9
  8
1
  6
CONTINUOUS
 10
3457.4707749999998
 20
2134.511801566071
 30
0.0
 11
3457.4707749999998
 21
2054.511801566071
 31
0.0
  0
LINE
  5
7AAA
  8
1
  6
CONTINUOUS
 10
3113.4707749999989
 20
2581.511801566071
 30
0.0
 11
3413.4707749999989
 21
2581.511801566071
 31
0.0
  0
LINE
  5
7AAB
  8
1
  6
CONTINUOUS
 10
3113.4707749999989
 20
2869.511801566071
 30
0.0
 11
3413.4707749999989
 21
2869.511801566071
 31
0.0
  0
LINE
  5
7AAC
  8
1
  6
CONTINUOUS
 10
3008.4707749999998
 20
2585.2718015660698
 30
0.0
 11
3113.4707749999989
 21
2585.2718015660698
 31
0.0
  0
LINE
  5
7AAD
  8
1
  6
CONTINUOUS
 10
3008.4707749999998
 20
2557.2718015660698
 30
0.0
 11
3113.4707749999989
 21
2557.2718015660698
 31
0.0
  0
LINE
  5
7AAE
  8
1
  6
CONTINUOUS
 10
2933.4707749999989
 20
2789.511801566071
 30
0.0
 11
3033.4707749999998
 21
2789.511801566071
 31
0.0
  0
LINE
  5
7AAF
  8
1
  6
CONTINUOUS
 10
3008.4707749999998
 20
2467.7418015660701
 30
0.0
 11
3008.4707749999998
 21
2671.2718015660712
 31
0.0
  0
LINE
  5
7AB0
  8
1
  6
CONTINUOUS
 10
2958.4707749999998
 20
2467.7418015660701
 30
0.0
 11
2958.4707749999998
 21
2671.2718015660712
 31
0.0
  0
LINE
  5
7AB1
  8
1
  6
CONTINUOUS
 10
2958.4707749999998
 20
2671.2718015660712
 30
0.0
 11
3008.4707749999998
 21
2671.2718015660712
 31
0.0
  0
LINE
  5
7AB2
  8
1
  6
CONTINUOUS
 10
2958.4707749999998
 20
2467.7418015660701
 30
0.0
 11
3008.4707749999998
 21
2467.7418015660701
 31
0.0
  0
LINE
  5
7AB3
  8
1
  6
CONTINUOUS
 10
1832.153982
 20
3645.281801566071
 30
0.0
 11
1328.2839819999999
 21
3645.281801566071
 31
0.0
  0
LINE
  5
7AB4
  8
1
  6
CONTINUOUS
 10
2106.1539819999989
 20
4033.28180156607
 30
0.0
 11
1106.153982
 21
4033.28180156607
 31
0.0
  0
LINE
  5
7AB5
  8
1
  6
CONTINUOUS
 10
1506.153982
 20
3689.281801566071
 30
0.0
 11
2146.1539819999989
 21
3689.281801566071
 31
0.0
  0
LINE
  5
7AB6
  8
1
  6
CONTINUOUS
 10
1506.153982
 20
3989.28180156607
 30
0.0
 11
2146.1539819999989
 21
3989.28180156607
 31
0.0
  0
LINE
  5
7AB7
  8
1
  6
CONTINUOUS
 10
1151.653982
 20
3509.281801566071
 30
0.0
 11
2021.653982
 21
3509.281801566071
 31
0.0
  0
LINE
  5
7AB8
  8
1
  6
CONTINUOUS
 10
1151.653982
 20
3609.281801566071
 30
0.0
 11
2021.653982
 21
3609.281801566071
 31
0.0
  0
LINE
  5
7AB9
  8
1
  6
CONTINUOUS
 10
1742.6339820000001
 20
3534.281801566071
 30
0.0
 11
1946.153982
 21
3534.281801566071
 31
0.0
  0
LINE
  5
7ABA
  8
1
  6
CONTINUOUS
 10
1742.6339820000001
 20
3584.281801566071
 30
0.0
 11
1946.153982
 21
3584.281801566071
 31
0.0
  0
LINE
  5
7ABB
  8
1
  6
CONTINUOUS
 10
1300.2839819999999
 20
3645.281801566071
 30
0.0
 11
1106.153982
 21
3645.281801566071
 31
0.0
  0
LINE
  5
7ABC
  8
1
  6
CONTINUOUS
 10
1106.153982
 20
4033.28180156607
 30
0.0
 11
1106.153982
 21
3645.281801566071
 31
0.0
  0
LINE
  5
7ABD
  8
1
  6
CONTINUOUS
 10
1151.653982
 20
3509.281801566071
 30
0.0
 11
1151.653982
 21
3609.281801566071
 31
0.0
  0
LINE
  5
7ABE
  8
1
  6
CONTINUOUS
 10
1415.2839819999999
 20
3676.8118015660712
 30
0.0
 11
1415.2839819999999
 21
3919.4918015660701
 31
0.0
  0
LINE
  5
7ABF
  8
1
  6
CONTINUOUS
 10
1213.2839819999999
 20
3676.8118015660712
 30
0.0
 11
1213.2839819999999
 21
3919.4918015660701
 31
0.0
  0
LINE
  5
7AC0
  8
1
  6
CONTINUOUS
 10
1506.153982
 20
3689.281801566071
 30
0.0
 11
1506.153982
 21
3989.28180156607
 31
0.0
  0
LINE
  5
7AC1
  8
1
  6
CONTINUOUS
 10
1415.2839819999999
 20
3676.8118015660712
 30
0.0
 11
1213.2839819999999
 21
3676.8118015660712
 31
0.0
  0
LINE
  5
7AC2
  8
1
  6
CONTINUOUS
 10
1254.2839819999999
 20
3534.281801566071
 30
0.0
 11
1374.2839819999999
 21
3534.281801566071
 31
0.0
  0
LINE
  5
7AC3
  8
1
  6
CONTINUOUS
 10
1254.2839819999999
 20
3584.281801566071
 30
0.0
 11
1374.2839819999999
 21
3584.281801566071
 31
0.0
  0
LINE
  5
7AC4
  8
1
  6
CONTINUOUS
 10
1300.2839819999999
 20
3584.281801566071
 30
0.0
 11
1300.2839819999999
 21
3676.8118015660712
 31
0.0
  0
LINE
  5
7AC5
  8
1
  6
CONTINUOUS
 10
1328.2839819999999
 20
3584.281801566071
 30
0.0
 11
1328.2839819999999
 21
3676.8118015660712
 31
0.0
  0
LINE
  5
7AC6
  8
1
  6
CONTINUOUS
 10
1254.2839819999999
 20
3534.281801566071
 30
0.0
 11
1254.2839819999999
 21
3584.281801566071
 31
0.0
  0
LINE
  5
7AC7
  8
1
  6
CONTINUOUS
 10
1374.2839819999999
 20
3534.281801566071
 30
0.0
 11
1374.2839819999999
 21
3584.281801566071
 31
0.0
  0
LINE
  5
7AC8
  8
1
  6
CONTINUOUS
 10
1415.2839819999999
 20
3919.4918015660701
 30
0.0
 11
1213.2839819999999
 21
3919.4918015660701
 31
0.0
  0
LINE
  5
7AC9
  8
1
  6
CONTINUOUS
 10
1742.6339820000001
 20
3534.281801566071
 30
0.0
 11
1742.6339820000001
 21
3584.281801566071
 31
0.0
  0
LINE
  5
7ACA
  8
1
  6
CONTINUOUS
 10
2106.1539819999989
 20
3645.281801566071
 30
0.0
 11
1860.1539819999989
 21
3645.281801566071
 31
0.0
  0
LINE
  5
7ACB
  8
1
  6
CONTINUOUS
 10
1946.153982
 20
3534.281801566071
 30
0.0
 11
1946.153982
 21
3584.281801566071
 31
0.0
  0
LINE
  5
7ACC
  8
1
  6
CONTINUOUS
 10
1832.153982
 20
3584.281801566071
 30
0.0
 11
1832.153982
 21
3689.281801566071
 31
0.0
  0
LINE
  5
7ACD
  8
1
  6
CONTINUOUS
 10
1860.1539819999989
 20
3584.281801566071
 30
0.0
 11
1860.1539819999989
 21
3689.281801566071
 31
0.0
  0
LINE
  5
7ACE
  8
1
  6
CONTINUOUS
 10
2106.1539819999989
 20
3689.281801566071
 30
0.0
 11
2106.1539819999989
 21
3645.281801566071
 31
0.0
  0
LINE
  5
7ACF
  8
1
  6
CONTINUOUS
 10
2021.653982
 20
3509.281801566071
 30
0.0
 11
2021.653982
 21
3609.281801566071
 31
0.0
  0
LINE
  5
7AD0
  8
1
  6
CONTINUOUS
 10
2106.1539819999989
 20
4033.28180156607
 30
0.0
 11
2106.1539819999989
 21
3989.28180156607
 31
0.0
  0
LINE
  5
7AD1
  8
1
  6
CONTINUOUS
 10
2146.1539819999989
 20
3662.281801566071
 30
0.0
 11
2146.1539819999989
 21
4016.28180156607
 31
0.0
  0
LINE
  5
7AD2
  8
1
  6
CONTINUOUS
 10
2126.1539819999989
 20
3689.281801566071
 30
0.0
 11
2126.1539819999989
 21
3989.28180156607
 31
0.0
  0
LINE
  5
7AD3
  8
2
  6
CENTER
 10
2242.9389890000002
 20
2569.511801566071
 30
0.0
 11
1291.9679426154789
 21
2569.511801566071
 31
0.0
  0
LINE
  5
7AD4
  8
2
  6
CENTER
 10
3263.4707749999998
 20
2914.1701177381342
 30
0.0
 11
3263.4707749999998
 21
1905.6733348494249
 31
0.0
  0
LINE
  5
7AD7
  8
2
  6
CENTER
 10
1065.7282379999999
 20
3839.281801566071
 30
0.0
 11
2190.7524329999992
 21
3839.281801566071
 31
0.0
  0
LINE
  5
7AD8
  8
2
  6
CENTER
 10
1846.153982
 20
3468.1005037179252
 30
0.0
 11
1846.153982
 21
4077.5887971654829
 31
0.0
  0
LINE
  5
7AD9
  8
4
  6
CONTINUOUS
 10
3700.0
 20
1000.0
 30
0.0
 11
3700.0
 21
600.0
 31
0.0
  0
LINE
  5
7ADA
  8
4
  6
CONTINUOUS
 10
2300.0
 20
1000.0
 30
0.0
 11
2300.0
 21
600.0
 31
0.0
  0
LINE
  5
7ADB
  8
4
  6
CONTINUOUS
 10
1300.0
 20
1000.0
 30
0.0
 11
1300.0
 21
600.0
 31
0.0
  0
LINE
  5
7ADE
  8
4
  6
CONTINUOUS
 10
1300.0
 20
600.0
 30
0.0
 11
3700.0
 21
600.0
 31
0.0
  0
LINE
  5
7ADF
  8
4
  6
CONTINUOUS
 10
1300.0
 20
800.0
 30
0.0
 11
3700.0
 21
800.0
 31
0.0
  0
TEXT
  5
7AE0
  8
4
  6
CONTINUOUS
 10
1377.004162
 20
863.086052
 30
0.0
 40
100.0
  1
機器名称
  0
TEXT
  5
7AE1
  8
4
  6
CONTINUOUS
 10
1372.516212
 20
643.29031299999986
 30
0.0
 40
100.0
  1
機器型番
  0
TEXT
  5
7AE2
  8
4
  6
CONTINUOUS
 10
2355.3574910000002
 20
845.14353800000015
 30
0.0
 40
100.0
  1
ミツヤ多翼送風機
  0
TEXT
  5
7AE3
  8
4
  6
CONTINUOUS
 10
2373.3089909999999
 20
634.31916899999999
 30
0.0
 40
100.0
  1
MF#2 1/2-4
  0
TEXT
  5
7AE5
  8
4
  6
CONTINUOUS
 10
1601.9834310000001
 20
4766.8576830000002
 30
0.0
 40
108.0
  1
床置防振ベット
  0
TEXT
  5
7AE6
  8
4
  6
CONTINUOUS
 10
632.33518700000002
 20
5067.7619520000007
 30
0.0
 40
144.0
  1
ベルト駆動式片吸込両持多翼ファン
  0
LINE
  5
7AE7
  8
4
  6
CONTINUOUS
 10
500.0
 20
4938.8175090000004
 30
0.0
 11
3700.0
 21
4938.8175090000004
 31
0.0
  0
LINE
  5
7AE8
  8
4
  6
CONTINUOUS
 10
500.0
 20
5338.8175090000004
 30
0.0
 11
3700.0
 21
5338.8175090000004
 31
0.0
  0
LINE
  5
7AE9
  8
4
  6
CONTINUOUS
 10
1300.0
 20
1000.0
 30
0.0
 11
3700.0
 21
1000.0
 31
0.0
  0
LINE
  5
7AEA
  8
4
  6
CONTINUOUS
 10
500.0
 20
5338.8175090000004
 30
0.0
 11
500.0
 21
4938.8175090000004
 31
0.0
  0
TEXT
  5
7AEB
  8
4
  6
CONTINUOUS
 10
730.26578899999981
 20
4764.6389549999994
 30
0.0
 40
108.0
  1
左回転右横向
  0
TEXT
  5
7AEC
  8
4
  6
CONTINUOUS
 10
2937.9391179999998
 20
5412.122163
 30
0.0
 40
112.0
  1
No.
  0
TEXT
  5
7AED
  8
4
  6
CONTINUOUS
 10
2622.5921250000001
 20
4766.8576830000002
 30
0.0
 40
108.0
  1
縮尺：1/20
  0
LINE
  5
7AEE
  8
4
  6
CONTINUOUS
 10
3700.0
 20
5338.8175090000004
 30
0.0
 11
3700.0
 21
4938.8175090000004
 31
0.0
  0
LINE
  5
7AF0
  8
4
  6
CONTINUOUS
 10
2881.234845
 20
5362.5271659999999
 30
0.0
 11
2881.234845
 21
5573.3045229999998
 31
0.0
  0
LINE
  5
7AF1
  8
4
  6
CONTINUOUS
 10
2881.234845
 20
5573.3045229999998
 30
0.0
 11
3700.0
 21
5573.3045229999998
 31
0.0
  0
LINE
  5
7AF2
  8
4
  6
CONTINUOUS
 10
3700.0
 20
5573.3045229999998
 30
0.0
 11
3700.0
 21
5362.5271659999999
 31
0.0
  0
LINE
  5
7AF3
  8
4
  6
CONTINUOUS
 10
3700.0
 20
5362.5271659999999
 30
0.0
 11
2881.234845
 21
5362.5271659999999
 31
0.0
  0
DIMENSION
  5
7B0B
  8
3
  6
CONTINUOUS
  2
*D1
 10
2267.3411599999999
 20
2181.511801566071
 30
0.0
 11
2267.3411599999999
 21
2375.5379495660709
 31
0.0
 70
   128
 13
2146.1539819999989
 23
2581.511801566071
 33
0.0
 14
2146.1539819999989
 24
2181.511801566071
 34
0.0
 50
90.0
1001
ACAD
1000
DSTYLE
1002
{
1070
   287
1070
     3
1070
    40
1040
20.0
1070
   143
1040
0.039
1070
   172
1070
     1
1070
   271
1070
     0
1070
   279
1070
     0
1070
   288
1070
     1
1002
}
  0
DIMENSION
  5
7B18
  8
3
  6
CONTINUOUS
  2
*D2
 10
2383.3886699999998
 20
2569.511801566071
 30
0.0
 11
2383.3886699999989
 21
2375.5379495660709
 31
0.0
 70
   128
 13
2146.1539819999989
 23
2181.511801566071
 33
0.0
 14
2242.9389890000002
 24
2569.511801566071
 34
0.0
 50
90.0
1001
ACAD
1000
DSTYLE
1002
{
1070
   287
1070
     3
1070
    40
1040
20.0
1070
   143
1040
0.039
1070
   172
1070
     1
1070
   271
1070
     0
1070
   279
1070
     0
1070
   288
1070
     1
1002
}
  0
DIMENSION
  5
7B25
  8
3
  6
CONTINUOUS
  2
*D3
 10
2507.725273
 20
2569.511801566071
 30
0.0
 11
2507.725273
 21
2706.6546585660708
 31
0.0
 70
   128
 13
2116.1539819999989
 23
2869.511801566071
 33
0.0
 14
2383.3886699999989
 24
2569.511801566071
 34
0.0
 50
90.0
1001
ACAD
1000
DSTYLE
1002
{
1070
   287
1070
     3
1070
    40
1040
20.0
1070
   143
1040
0.039
1070
   172
1070
     1
1070
   271
1070
     0
1070
   279
1070
     0
1070
   288
1070
     1
1002
}
  0
DIMENSION
  5
7B31
  8
3
  6
CONTINUOUS
  2
*D4
 10
2507.725273
 20
2054.511801566071
 30
0.0
 11
2457.7252729999991
 21
2312.011801566071
 31
0.0
 70
     0
 13
2383.3886699999989
 23
2569.511801566071
 33
0.0
 14
2106.1539819999989
 24
2054.511801566071
 34
0.0
 50
90.0
1001
ACAD
1000
DSTYLE
1002
{
1070
   287
1070
     4
1070
    40
1040
20.0
1070
    75
1070
     1
1070
   143
1040
0.039
1070
   172
1070
     1
1070
   271
1070
     0
1070
   279
1070
     1
1070
   288
1070
     1
1002
}
  0
DIMENSION
  5
7B3E
  8
3
  6
CONTINUOUS
  2
*D5
 10
2632.0619000000002
 20
1967.5118015660701
 30
0.0
 11
2632.0619000000002
 21
2433.5152425660708
 31
0.0
 70
   128
 13
2116.1539819999989
 23
2869.511801566071
 33
0.0
 14
2106.1539819999989
 24
1967.511801566071
 34
0.0
 50
90.0
1001
ACAD
1000
DSTYLE
1002
{
1070
   287
1070
     3
1070
    40
1040
20.0
1070
   143
1040
0.039
1070
   172
1070
     1
1070
   271
1070
     0
1070
   279
1070
     0
1070
   288
1070
     1
1002
}
  0
DIMENSION
  5
7B5A
  8
3
  6
CONTINUOUS
  2
*D6
 10
1846.153982
 20
2995.446049566071
 30
0.0
 11
1983.2968390000001
 21
2995.446049566071
 31
0.0
 70
   128
 13
2146.1539819999989
 23
2608.511801566071
 33
0.0
 14
1846.153982
 24
3005.5571955660698
 34
0.0
1001
ACAD
1000
DSTYLE
1002
{
1070
   287
1070
     3
1070
    40
1040
20.0
1070
   143
1040
0.039
1070
   172
1070
     1
1070
   271
1070
     0
1070
   279
1070
     0
1070
   288
1070
     1
1002
}
  0
DIMENSION
  5
7B66
  8
3
  6
CONTINUOUS
  2
*D7
 10
1514.153982
 20
2995.446049566071
 30
0.0
 11
1680.153982
 21
3045.446049566071
 31
0.0
 70
     0
 13
1846.153982
 23
3005.5571955660698
 33
0.0
 14
1514.153982
 24
2542.511801566071
 34
0.0
1001
ACAD
1000
DSTYLE
1002
{
1070
   287
1070
     4
1070
    40
1040
20.0
1070
    75
1070
     1
1070
   143
1040
0.039
1070
   172
1070
     1
1070
   271
1070
     0
1070
   279
1070
     1
1070
   288
1070
     1
1002
}
  0
DIMENSION
  5
7B73
  8
3
  6
CONTINUOUS
  2
*D8
 10
1846.153982
 20
1784.79479156607
 30
0.0
 11
1455.008636999999
 21
1784.79479156607
 31
0.0
 70
   128
 13
1106.153982
 23
1967.511801566071
 33
0.0
 14
1846.153982
 24
1879.82463256607
 34
0.0
1001
ACAD
1000
DSTYLE
1002
{
1070
   287
1070
     3
1070
    40
1040
20.0
1070
   143
1040
0.039
1070
   172
1070
     1
1070
   271
1070
     0
1070
   279
1070
     0
1070
   288
1070
     1
1002
}
  0
DIMENSION
  5
7B81
  8
3
  6
CONTINUOUS
  2
*D9
 10
2106.1539819999989
 20
1784.79479156607
 30
0.0
 11
1982.3788939999999
 21
1784.0374925660699
 31
0.0
 70
   128
 13
1846.153982
 23
1879.82463256607
 33
0.0
 14
2106.1539819999989
 24
1967.511801566071
 34
0.0
1001
ACAD
1000
DSTYLE
1002
{
1070
   287
1070
     4
1070
    40
1040
20.0
1070
    75
1070
     1
1070
   143
1040
0.039
1070
   172
1070
     1
1070
   271
1070
     0
1070
   279
1070
     1
1070
   288
1070
     1
1002
}
  0
DIMENSION
  5
7B90
  8
3
  6
CONTINUOUS
  2
*D10
 10
3263.4707749999998
 20
1801.18342456607
 30
0.0
 11
3166.4707749999998
 21
1853.5120197572569
 31
0.0
 70
   128
 13
3069.4707749999998
 23
1967.511801566071
 33
0.0
 14
3263.4707749999998
 24
1905.6733348494249
 34
0.0
1001
ACAD
1000
DSTYLE
1002
{
1070
   288
1070
     1
1070
   172
1070
     1
1070
    40
1040
20.0
1070
   271
1070
     0
1070
   143
1040
0.039
1002
}
  0
DIMENSION
  5
7B9E
  8
3
  6
CONTINUOUS
  2
*D11
 10
3457.4707749999998
 20
1801.18342456607
 30
0.0
 11
3369.3358950000002
 21
1796.63753156607
 31
0.0
 70
   128
 13
3263.4707749999998
 23
1904.5751887139679
 33
0.0
 14
3457.4707749999998
 24
1967.511801566071
 34
0.0
1001
ACAD
1000
DSTYLE
1002
{
1070
   287
1070
     4
1070
    40
1040
20.0
1070
    75
1070
     1
1070
   143
1040
0.039
1070
   172
1070
     1
1070
   271
1070
     0
1070
   279
1070
     1
1070
   288
1070
     1
1002
}
  0
DIMENSION
  5
7BAB
  8
3
  6
CONTINUOUS
  2
*D12
 10
3113.4707749999989
 20
2911.688936222999
 30
0.0
 11
3250.6136321428571
 21
2911.688936222999
 31
0.0
 70
   128
 13
3413.4707749999989
 23
2869.511801566071
 33
0.0
 14
3113.4707749999989
 24
2869.511801566071
 34
0.0
1001
ACAD
1000
DSTYLE
1002
{
1070
   287
1070
     3
1070
    40
1040
20.0
1070
   143
1040
0.039
1070
   172
1070
     1
1070
   271
1070
     0
1070
   279
1070
     0
1070
   288
1070
     1
1002
}
  0
DIMENSION
  5
7BC5
  8
3
  6
CONTINUOUS
  2
*D13
 10
2933.4707749999989
 20
3029.8531355660698
 30
0.0
 11
3098.4707749999998
 21
3129.8531355660712
 31
0.0
 70
     0
  1
MAX\P380
 13
3263.4707749999998
 23
2989.4481725660712
 33
0.0
 14
2933.4707749999989
 24
2789.511801566071
 34
0.0
1001
ACAD
1000
DSTYLE
1002
{
1070
   287
1070
     4
1070
    40
1040
20.0
1070
    75
1070
     1
1070
   143
1040
0.039
1070
   172
1070
     1
1070
   271
1070
     0
1070
   279
1070
     1
1070
   288
1070
     1
1002
}
  0
DIMENSION
  5
7BD2
  8
3
  6
CONTINUOUS
  2
*D14
 10
2106.1539819999989
 20
4206.7415535660712
 30
0.0
 11
1604.212589
 21
4206.7415535660712
 31
0.0
 70
   128
 13
1106.153982
 23
4033.28180156607
 33
0.0
 14
2106.1539819999989
 24
4033.28180156607
 34
0.0
1001
ACAD
1000
DSTYLE
1002
{
1070
   287
1070
     3
1070
    40
1040
20.0
1070
   143
1040
0.039
1070
   172
1070
     1
1070
   271
1070
     0
1070
   279
1070
     0
1070
   288
1070
     1
1002
}
  0
DIMENSION
  5
7BDF
  8
3
  6
CONTINUOUS
  2
*D15
 10
979.81253000000072
 20
3645.281801566071
 30
0.0
 11
979.81253000000015
 21
3848.1563275660701
 31
0.0
 70
   128
 13
1106.153982
 23
4033.28180156607
 33
0.0
 14
1106.153982
 24
3645.281801566071
 34
0.0
 50
90.0
1001
ACAD
1000
DSTYLE
1002
{
1070
   287
1070
     3
1070
    40
1040
20.0
1070
   143
1040
0.039
1070
   172
1070
     1
1070
   271
1070
     0
1070
   279
1070
     0
1070
   288
1070
     1
1002
}
  0
DIMENSION
  5
7C16
  8
3
  6
CONTINUOUS
  2
*D16
 10
2508.7921289999999
 20
1967.511801566071
 30
0.0
 11
2508.7921289999999
 21
1818.9403729946421
 31
0.0
 70
   128
 13
2106.1539819999989
 23
2054.511801566071
 33
0.0
 14
2106.1539819999989
 24
1967.511801566071
 34
0.0
 50
90.0
1001
ACAD
1000
DSTYLE
1002
{
1070
   287
1070
     3
1070
    40
1040
20.0
1070
   143
1040
0.039
1070
   172
1070
     1
1070
   271
1070
     0
1070
   279
1070
     0
1070
   288
1070
     1
1002
}
  0
LINE
  5
7C93
  8
1
  6
CONTINUOUS
 10
3413.4707749999989
 20
2870.5118015660701
 30
0.0
 11
3413.4707749999989
 21
2135.511801566071
 31
0.0
  0
LINE
  5
7C95
  8
1
  6
CONTINUOUS
 10
3414.4707749999998
 20
2569.511801566071
 30
0.0
 11
3414.4707749999998
 21
2784.511801566071
 31
0.0
  0
LINE
  5
7C97
  8
1
  6
CONTINUOUS
 10
3414.4707749999998
 20
2569.511801566071
 30
0.0
 11
3414.4707749999998
 21
2354.5118015660701
 31
0.0
  0
DIMENSION
  5
7CA5
  8
3
  6
CONTINUOUS
  2
*D17
 10
3580.5013680000011
 20
2784.511801566071
 30
0.0
 11
3580.5013680000002
 21
2556.7863173414698
 31
0.0
 70
   128
 13
3414.4707749999998
 23
2354.5118015660701
 33
0.0
 14
3414.4707749999998
 24
2784.511801566071
 34
0.0
 50
90.0
1001
ACAD
1000
DSTYLE
1002
{
1070
   287
1070
     3
1070
     3
1000
φ<>
1070
    40
1040
20.0
1070
   143
1040
0.039
1070
   172
1070
     1
1070
   271
1070
     0
1070
   279
1070
     0
1070
   288
1070
     1
1002
}
  0
DIMENSION
  5
7CBE
  8
3
  6
CONTINUOUS
  2
*D18
 10
3414.4707749999998
 20
3029.8531355660698
 30
0.0
 11
3330.078315489322
 21
3084.1305938134019
 31
0.0
 70
   128
 13
3263.4707749999998
 23
2989.4481725660712
 33
0.0
 14
3414.4707749999998
 24
2784.511801566071
 34
0.0
1001
ACAD
1000
DSTYLE
1002
{
1070
   288
1070
     1
1070
   172
1070
     1
1070
    40
1040
20.0
1070
   271
1070
     0
1070
   143
1040
0.039
1002
}
  0
DIMENSION
  5
7D93
  8
3
  2
*D19
 10
1106.153982
 20
3120.8708994051258
 30
0.0
 11
1658.559160337506
 21
3120.8708994051258
 31
0.0
 70
   128
 13
2146.1539819999989
 23
2608.511801566071
 33
0.0
 14
1106.153982
 24
2134.511801566071
 34
0.0
1001
ACAD
1000
DSTYLE
1002
{
1070
   287
1070
     3
1070
    40
1040
20.0
1070
   143
1040
0.039
1070
   172
1070
     1
1070
   271
1070
     0
1070
   279
1070
     0
1070
   288
1070
     1
1002
}
  0
ENDSEC
  0
EOF
