  0
SECTION
  2
HEADER
  9
$ACADVER
  1
AC1009
  9
$INSBASE
 10
0.0
 20
0.0
 30
0.0
  9
$EXTMIN
 10
500.0
 20
600.0
 30
0.0
  9
$EXTMAX
 10
3700.0
 20
5573.3045229999998
 30
0.0
  9
$LIMMIN
 10
0.0
 20
0.0
  9
$LIMMAX
 10
297.0
 20
210.0
  9
$ORTHOMODE
 70
     0
  9
$REGENMODE
 70
     1
  9
$FILLMODE
 70
     0
  9
$QTEXTMODE
 70
     0
  9
$MIRRTEXT
 70
     1
  9
$DRAGMODE
 70
     2
  9
$LTSCALE
 40
100.0
  9
$OSMODE
 70
    37
  9
$ATTMODE
 70
     1
  9
$TEXTSIZE
 40
180.0
  9
$TRACEWID
 40
0.05
  9
$TEXTSTYLE
  7
STANDARD
  9
$CLAYER
  8
3
  9
$CELTYPE
  6
BYLAYER
  9
$CECOLOR
 62
   256
  9
$DIMSCALE
 40
20.0
  9
$DIMASZ
 40
2.0
  9
$DIMEXO
 40
0.5
  9
$DIMDLI
 40
10.0
  9
$DIMRND
 40
0.0
  9
$DIMDLE
 40
0.0
  9
$DIMEXE
 40
1.0
  9
$DIMTP
 40
1.0
  9
$DIMTM
 40
1.0
  9
$DIMTXT
 40
3.0
  9
$DIMCEN
 40
0.0
  9
$DIMTSZ
 40
0.0
  9
$DIMTOL
 70
     0
  9
$DIMLIM
 70
     0
  9
$DIMTIH
 70
     0
  9
$DIMTOH
 70
     0
  9
$DIMSE1
 70
     0
  9
$DIMSE2
 70
     0
  9
$DIMTAD
 70
     1
  9
$DIMZIN
 70
     8
  9
$DIMBLK
  1

  9
$DIMASO
 70
     1
  9
$DIMSHO
 70
     1
  9
$DIMPOST
  1

  9
$DIMAPOST
  1

  9
$DIMALT
 70
     0
  9
$DIMALTD
 70
     2
  9
$DIMALTF
 40
0.039
  9
$DIMLFAC
 40
1.0
  9
$DIMTOFL
 70
     1
  9
$DIMTVP
 40
0.0
  9
$DIMTIX
 70
     0
  9
$DIMSOXD
 70
     0
  9
$DIMSAH
 70
     1
  9
$DIMBLK1
  1
OPEN
  9
$DIMBLK2
  1
OPEN
  9
$DIMSTYLE
  2
IGA
  9
$DIMCLRD
 70
     0
  9
$DIMCLRE
 70
     0
  9
$DIMCLRT
 70
     0
  9
$DIMTFAC
 40
10.0
  9
$DIMGAP
 40
1.0
  9
$LUNITS
 70
     2
  9
$LUPREC
 70
     3
  9
$SKETCHINC
 40
0.1
  9
$FILLETRAD
 40
50.0
  9
$AUNITS
 70
     0
  9
$AUPREC
 70
     0
  9
$MENU
  1
acad
  9
$ELEVATION
 40
0.0
  9
$PELEVATION
 40
0.0
  9
$THICKNESS
 40
0.0
  9
$LIMCHECK
 70
     0
  9
$BLIPMODE
 70
     0
  9
$CHAMFERA
 40
0.5
  9
$CHAMFERB
 40
0.5
  9
$SKPOLY
 70
     0
  9
$TDCREATE
 40
2450724.464414699
  9
$TDUPDATE
 40
2454953.7660478121
  9
$TDINDWG
 40
0.006314537
  9
$TDUSRTIMER
 40
0.006314537
  9
$USRTIMER
 70
     1
  9
$ANGBASE
 50
0.0
  9
$ANGDIR
 70
     0
  9
$PDMODE
 70
     0
  9
$PDSIZE
 40
0.0
  9
$PLINEWID
 40
0.0
  9
$COORDS
 70
     1
  9
$SPLFRAME
 70
     0
  9
$SPLINETYPE
 70
     6
  9
$SPLINESEGS
 70
     8
  9
$ATTDIA
 70
     0
  9
$ATTREQ
 70
     1
  9
$HANDLING
 70
 10241
  9
$HANDSEED
  5
7EF4
  9
$SURFTAB1
 70
     6
  9
$SURFTAB2
 70
     6
  9
$SURFTYPE
 70
     6
  9
$SURFU
 70
     6
  9
$SURFV
 70
     6
  9
$UCSNAME
  2

  9
$UCSORG
 10
0.0
 20
0.0
 30
0.0
  9
$UCSXDIR
 10
1.0
 20
0.0
 30
0.0
  9
$UCSYDIR
 10
0.0
 20
1.0
 30
0.0
  9
$PUCSNAME
  2

  9
$PUCSORG
 10
0.0
 20
0.0
 30
0.0
  9
$PUCSXDIR
 10
1.0
 20
0.0
 30
0.0
  9
$PUCSYDIR
 10
0.0
 20
1.0
 30
0.0
  9
$USERI1
 70
     0
  9
$USERI2
 70
     0
  9
$USERI3
 70
     0
  9
$USERI4
 70
     0
  9
$USERI5
 70
     0
  9
$USERR1
 40
0.0
  9
$USERR2
 40
0.0
  9
$USERR3
 40
0.0
  9
$USERR4
 40
0.0
  9
$USERR5
 40
0.0
  9
$WORLDVIEW
 70
     1
  9
$SHADEDGE
 70
     3
  9
$SHADEDIF
 70
    70
  9
$TILEMODE
 70
     1
  9
$MAXACTVP
 70
    16
  9
$PLIMCHECK
 70
     0
  9
$PEXTMIN
 10
1.0000000000000000E+020
 20
1.0000000000000000E+020
 30
1.0000000000000000E+020
  9
$PEXTMAX
 10
-1.0000000000000000E+020
 20
-1.0000000000000000E+020
 30
-1.0000000000000000E+020
  9
$PLIMMIN
 10
0.0
 20
0.0
  9
$PLIMMAX
 10
12.0
 20
9.0
  9
$UNITMODE
 70
     0
  9
$VISRETAIN
 70
     0
  9
$PLINEGEN
 70
     0
  9
$PSLTSCALE
 70
     1
  0
ENDSEC
  0
SECTION
  2
TABLES
  0
TABLE
  2
VPORT
 70
     2
  0
VPORT
  2
*ACTIVE
 70
     0
 10
0.0
 20
0.0
 11
1.0
 21
1.0
 12
6292.1124769529506
 22
3086.6374998146398
 13
0.0
 23
0.0
 14
10.0
 24
10.0
 15
10.0
 25
10.0
 16
0.0
 26
0.0
 36
1.0
 17
0.0
 27
0.0
 37
0.0
 40
5011.4968576296578
 41
3.1666666666666661
 42
50.0
 43
0.0
 44
0.0
 50
0.0
 51
0.0
 71
     0
 72
   100
 73
     1
 74
     0
 75
     0
 76
     0
 77
     0
 78
     0
  0
ENDTAB
  0
TABLE
  2
LTYPE
 70
     2
  0
LTYPE
  2
CONTINUOUS
 70
     0
  3
Solid line
 72
    65
 73
     0
 40
0.0
  0
LTYPE
  2
CENTER
 70
     0
  3
____ _ ____ _ ____ _ ____ _ ____ _ ____ _ ____ 
 72
    65
 73
     4
 40
2.0
 49
1.25
 49
-0.25
 49
0.25
 49
-0.25
  0
ENDTAB
  0
TABLE
  2
LAYER
 70
     6
  0
LAYER
  2
0
 70
     0
 62
     7
  6
CONTINUOUS
  0
LAYER
  2
3
 70
     0
 62
     2
  6
CONTINUOUS
  0
LAYER
  2
2
 70
     0
 62
     3
  6
CENTER
  0
LAYER
  2
1
 70
     0
 62
     4
  6
CONTINUOUS
  0
LAYER
  2
4
 70
     0
 62
     7
  6
CONTINUOUS
  0
LAYER
  2
DEFPOINTS
 70
     0
 62
     7
  6
CONTINUOUS
  0
ENDTAB
  0
TABLE
  2
STYLE
 70
     1
  0
STYLE
  2
STANDARD
 70
     0
 40
0.0
 41
1.0
 50
0.0
 71
     0
 42
180.0
  3
simplex.shx
  4
extfont.shx
  0
ENDTAB
  0
TABLE
  2
VIEW
 70
     0
  0
ENDTAB
  0
TABLE
  2
UCS
 70
     0
  0
ENDTAB
  0
TABLE
  2
APPID
 70
     1
  0
APPID
  2
ACAD
 70
     0
  0
ENDTAB
  0
TABLE
  2
DIMSTYLE
 70
     1
  0
DIMSTYLE
  2
IGA
 70
     0
  3

  4

  5

  6
OPEN
  7
OPEN
 40
2.0
 41
2.0
 42
0.5
 43
10.0
 44
1.0
 45
0.0
 46
0.0
 47
1.0
 48
1.0
140
3.0
141
0.0
142
0.0
143
0.03937
144
1.0
145
0.0
146
10.0
147
1.0
 71
     0
 72
     0
 73
     0
 74
     0
 75
     0
 76
     0
 77
     1
 78
     8
170
     0
171
     2
172
     0
173
     1
174
     0
175
     0
176
     0
177
     0
178
     0
  0
ENDTAB
  0
ENDSEC
  0
SECTION
  2
BLOCKS
  0
BLOCK
  8
0
  2
$MODEL_SPACE
 70
     0
 10
0.0
 20
0.0
 30
0.0
  3
$MODEL_SPACE
  1

  0
ENDBLK
  5
1B
  8
0
  0
BLOCK
 67
     1
  8
0
  2
$PAPER_SPACE
 70
     0
 10
0.0
 20
0.0
 30
0.0
  3
$PAPER_SPACE
  1

  0
ENDBLK
  5
18
 67
     1
  8
0
  0
BLOCK
  8
0
  2
_OPEN
 70
     0
 10
0.0
 20
0.0
 30
0.0
  3
_OPEN
  1

  0
LINE
  5
7B63
  8
0
  6
BYBLOCK
 62
     0
 10
-1.0
 20
0.166667
 30
0.0
 11
0.0
 21
0.0
 31
0.0
  0
LINE
  5
7B64
  8
0
  6
BYBLOCK
 62
     0
 10
0.0
 20
0.0
 30
0.0
 11
-1.0
 21
-0.166667
 31
0.0
  0
LINE
  5
7B65
  8
0
  6
BYBLOCK
 62
     0
 10
0.0
 20
0.0
 30
0.0
 11
-1.0
 21
0.0
 31
0.0
  0
ENDBLK
  5
7B66
  8
0
  0
BLOCK
  8
0
  2
*D1
 70
     1
 10
0.0
 20
0.0
 30
0.0
  3
*D1
  1

  0
LINE
  5
7E89
  8
3
  6
CONTINUOUS
 62
     0
 10
1036.597064
 20
2000.1916249999999
 30
0.0
 11
827.49613300000033
 21
2000.1916249999999
 31
0.0
  0
LINE
  5
7E8A
  8
3
  6
CONTINUOUS
 62
     0
 10
1036.597064
 20
1913.191624999999
 30
0.0
 11
827.49613300000033
 21
1913.191624999999
 31
0.0
  0
LINE
  5
7E8B
  8
3
  6
CONTINUOUS
 62
     0
 10
847.49613300000021
 20
2040.191624999999
 30
0.0
 11
847.49613300000021
 21
2080.1916249999999
 31
0.0
  0
LINE
  5
7E8C
  8
3
  6
CONTINUOUS
 62
     0
 10
847.49613300000021
 20
1873.1916249999999
 30
0.0
 11
847.49613300000021
 21
1696.0487678571419
 31
0.0
  0
LINE
  5
7E8D
  8
3
  6
CONTINUOUS
 62
     0
 10
847.49613300000021
 20
2000.1916249999999
 30
0.0
 11
847.49613300000021
 21
1913.191624999999
 31
0.0
  0
INSERT
  5
7E8E
  8
3
  6
CONTINUOUS
 62
     0
  2
_OPEN
 10
847.49613300000021
 20
2000.1916249999999
 30
0.0
 41
40.0
 42
40.0
 43
40.0
 50
270.0
  0
INSERT
  5
7E8F
  8
3
  6
CONTINUOUS
 62
     0
  2
_OPEN
 10
847.49613300000021
 20
1913.191624999999
 30
0.0
 41
40.0
 42
40.0
 43
40.0
 50
90.0
  0
TEXT
  8
3
  40
60
  5
7EE8
  62
0
  72
0
  71
0
 10
677.496
 20
1658.42
 30
0.000000
  1
87
  0
POINT
  5
7E91
  8
DEFPOINTS
  6
CONTINUOUS
 62
     0
 10
1046.5970639999989
 20
2000.1916249999999
 30
0.0
  0
POINT
  5
7E92
  8
DEFPOINTS
  6
CONTINUOUS
 62
     0
 10
1046.5970639999989
 20
1913.191624999999
 30
0.0
  0
POINT
  5
7E93
  8
DEFPOINTS
  6
CONTINUOUS
 62
     0
 10
847.49613300000021
 20
1913.191624999999
 30
0.0
  0
ENDBLK
  5
7D04
  8
0
  0
BLOCK
  8
0
  2
*D2
 70
     1
 10
0.0
 20
0.0
 30
0.0
  3
*D2
  1

  0
LINE
  5
7E5D
  8
0
  6
BYBLOCK
 62
     0
 10
2975.5593789999989
 20
1903.191624999999
 30
0.0
 11
2975.5593789999989
 21
1737.3042820000001
 31
0.0
  0
LINE
  5
7E5E
  8
0
  6
BYBLOCK
 62
     0
 10
3169.5593789999998
 20
1805.8425719614879
 30
0.0
 11
3169.5593789999998
 21
1737.3042820000001
 31
0.0
  0
LINE
  5
7E5F
  8
0
  6
BYBLOCK
 62
     0
 10
3015.5593789999989
 20
1757.3042820000001
 30
0.0
 11
3129.5593789999989
 21
1757.3042820000001
 31
0.0
  0
TEXT
  5
7E60
  8
3
 62
     0
 10
2999.7022361428571
 20
1774.4257186100201
 30
0.0
 40
60.0
  1
194
  0
INSERT
  5
7E61
  8
0
  6
BYBLOCK
 62
     0
  2
_OPEN
 10
2975.5593789999989
 20
1757.3042820000001
 30
0.0
 41
40.0
 42
40.0
 43
40.0
 50
180.0
  0
INSERT
  5
7E62
  8
0
  6
BYBLOCK
 62
     0
  2
_OPEN
 10
3169.5593789999998
 20
1757.3042820000001
 30
0.0
 41
40.0
 42
40.0
 43
40.0
  0
POINT
  5
7E63
  8
DEFPOINTS
  6
BYBLOCK
 62
     0
 10
2975.5593789999989
 20
1913.191624999999
 30
0.0
  0
POINT
  5
7E64
  8
DEFPOINTS
  6
BYBLOCK
 62
     0
 10
3169.5593789999998
 20
1815.842571961487
 30
0.0
  0
POINT
  5
7E65
  8
DEFPOINTS
  6
BYBLOCK
 62
     0
 10
3169.5593789999998
 20
1757.3042820000001
 30
0.0
  0
ENDBLK
  5
7E66
  8
0
  0
BLOCK
  8
0
  2
*D3
 70
     1
 10
0.0
 20
0.0
 30
0.0
  3
*D3
  1

  0
LINE
  5
7E94
  8
3
  6
CONTINUOUS
 62
     0
 10
3363.5593789999998
 20
1903.191624999999
 30
0.0
 11
3363.5593789999998
 21
1737.3042820000001
 31
0.0
  0
LINE
  5
7E95
  8
3
  6
CONTINUOUS
 62
     0
 10
3209.5593789999989
 20
1757.3042820000001
 30
0.0
 11
3323.5593789999989
 21
1757.3042820000001
 31
0.0
  0
TEXT
  8
3
  40
60
  5
7EE9
  62
0
  72
0
  71
0
 10
3159.82
 20
1701.10
 30
0.000000
  1
194
  0
INSERT
  5
7E97
  8
3
  6
CONTINUOUS
 62
     0
  2
_OPEN
 10
3169.5593789999998
 20
1757.3042820000001
 30
0.0
 41
40.0
 42
40.0
 43
40.0
 50
180.0
  0
INSERT
  5
7E98
  8
3
  6
CONTINUOUS
 62
     0
  2
_OPEN
 10
3363.5593789999998
 20
1757.3042820000001
 30
0.0
 41
40.0
 42
40.0
 43
40.0
  0
POINT
  5
7E99
  8
DEFPOINTS
  6
CONTINUOUS
 62
     0
 10
3169.5593789999998
 20
1789.0936799999999
 30
0.0
  0
POINT
  5
7E9A
  8
DEFPOINTS
  6
CONTINUOUS
 62
     0
 10
3363.5593789999998
 20
1913.191624999999
 30
0.0
  0
POINT
  5
7E9B
  8
DEFPOINTS
  6
CONTINUOUS
 62
     0
 10
3363.5593789999998
 20
1757.3042820000001
 30
0.0
  0
ENDBLK
  5
7D38
  8
0
  0
BLOCK
  8
0
  2
*D4
 70
     1
 10
0.0
 20
0.0
 30
0.0
  3
*D4
  1

  0
LINE
  5
7E9C
  8
3
  6
CONTINUOUS
 62
     0
 10
2839.5593789999998
 20
2745.1916249999999
 30
0.0
 11
2839.5593789999998
 21
2965.7404630000001
 31
0.0
  0
LINE
  5
7E9D
  8
3
  6
CONTINUOUS
 62
     0
 10
3169.5593789999998
 20
2922.859280317607
 30
0.0
 11
3169.5593789999998
 21
2965.7404630000001
 31
0.0
  0
LINE
  5
7E9E
  8
3
  6
CONTINUOUS
 62
     0
 10
2879.5593789999989
 20
2945.7404630000001
 30
0.0
 11
3129.5593789999989
 21
2945.7404630000001
 31
0.0
  0
INSERT
  5
7E9F
  8
3
  6
CONTINUOUS
 62
     0
  2
_OPEN
 10
2839.5593789999998
 20
2945.7404630000001
 30
0.0
 41
40.0
 42
40.0
 43
40.0
 50
180.0
  0
INSERT
  5
7EA0
  8
3
  6
CONTINUOUS
 62
     0
  2
_OPEN
 10
3169.5593789999998
 20
2945.7404630000001
 30
0.0
 41
40.0
 42
40.0
 43
40.0
  0
TEXT
  8
3
  40
60
  5
7EEA
  62
0
  72
0
  71
0
 10
2865.27
 20
2939.54
 30
0.000000
  1
MAX
  0
TEXT
  8
3
  40
60
  5
7EEB
  62
0
  72
0
  71
0
 10
2865.27
 20
2861.54
 30
0.000000
  1
380
  0
POINT
  5
7EA2
  8
DEFPOINTS
  6
CONTINUOUS
 62
     0
 10
2839.5593789999998
 20
2735.1916249999999
 30
0.0
  0
POINT
  5
7EA3
  8
DEFPOINTS
  6
CONTINUOUS
 62
     0
 10
3169.5593789999998
 20
2912.859280317607
 30
0.0
  0
POINT
  5
7EA4
  8
DEFPOINTS
  6
CONTINUOUS
 62
     0
 10
3169.5593789999998
 20
2945.7404630000001
 30
0.0
  0
ENDBLK
  5
7E5A
  8
0
  0
BLOCK
  8
0
  2
*D5
 70
     1
 10
0.0
 20
0.0
 30
0.0
  3
*D5
  1

  0
LINE
  5
7EA5
  8
3
  6
CONTINUOUS
 62
     0
 10
3320.5593789999998
 20
2605.1916249999999
 30
0.0
 11
3320.5593789999998
 21
2965.7404630000001
 31
0.0
  0
LINE
  5
7EA6
  8
3
  6
CONTINUOUS
 62
     0
 10
3209.5593789999989
 20
2945.7404630000001
 30
0.0
 11
3280.5593789999989
 21
2945.7404630000001
 31
0.0
  0
TEXT
  8
3
  40
60
  5
7EEC
  62
0
  72
0
  71
0
 10
3118.88
 20
2889.29
 30
0.000000
  1
151
  0
INSERT
  5
7EA8
  8
3
  6
CONTINUOUS
 62
     0
  2
_OPEN
 10
3169.5593789999998
 20
2945.7404630000001
 30
0.0
 41
40.0
 42
40.0
 43
40.0
 50
180.0
  0
INSERT
  5
7EA9
  8
3
  6
CONTINUOUS
 62
     0
  2
_OPEN
 10
3320.5593789999998
 20
2945.7404630000001
 30
0.0
 41
40.0
 42
40.0
 43
40.0
  0
POINT
  5
7EAA
  8
DEFPOINTS
  6
CONTINUOUS
 62
     0
 10
3169.5593789999998
 20
2911.6711577465721
 30
0.0
  0
POINT
  5
7EAB
  8
DEFPOINTS
  6
CONTINUOUS
 62
     0
 10
3320.5593789999998
 20
2595.1916249999999
 30
0.0
  0
POINT
  5
7EAC
  8
DEFPOINTS
  6
CONTINUOUS
 62
     0
 10
3320.5593789999998
 20
2945.7404630000001
 30
0.0
  0
ENDBLK
  5
7E4F
  8
0
  0
BLOCK
  8
0
  2
*D6
 70
     1
 10
0.0
 20
0.0
 30
0.0
  3
*D6
  1

  0
LINE
  5
7DBA
  8
0
  6
BYBLOCK
 62
     0
 10
1046.5970639999989
 20
1903.191624999999
 30
0.0
 11
1046.5970639999989
 21
1765.819519199958
 31
0.0
  0
LINE
  5
7DBB
  8
0
  6
BYBLOCK
 62
     0
 10
1306.597064
 20
1811.7029046368641
 30
0.0
 11
1306.597064
 21
1765.819519199958
 31
0.0
  0
LINE
  5
7DBC
  8
0
  6
BYBLOCK
 62
     0
 10
1086.597064
 20
1785.819519199958
 30
0.0
 11
1266.597064
 21
1785.819519199958
 31
0.0
  0
TEXT
  5
7DBD
  8
3
 62
     0
 10
1099.4542068571429
 20
1806.6543142318219
 30
0.0
 40
60.0
  1
260
  0
INSERT
  5
7DBE
  8
0
  6
BYBLOCK
 62
     0
  2
_OPEN
 10
1046.5970639999989
 20
1785.819519199958
 30
0.0
 41
40.0
 42
40.0
 43
40.0
 50
180.0
  0
INSERT
  5
7DBF
  8
0
  6
BYBLOCK
 62
     0
  2
_OPEN
 10
1306.597064
 20
1785.819519199958
 30
0.0
 41
40.0
 42
40.0
 43
40.0
  0
POINT
  5
7DC0
  8
DEFPOINTS
  6
BYBLOCK
 62
     0
 10
1046.5970639999989
 20
1913.191624999999
 30
0.0
  0
POINT
  5
7DC1
  8
DEFPOINTS
  6
BYBLOCK
 62
     0
 10
1306.597064
 20
1821.7029046368641
 30
0.0
  0
POINT
  5
7DC2
  8
DEFPOINTS
  6
BYBLOCK
 62
     0
 10
1306.597064
 20
1785.819519199958
 30
0.0
  0
ENDBLK
  5
7DC3
  8
0
  0
BLOCK
  8
0
  2
*D7
 70
     1
 10
0.0
 20
0.0
 30
0.0
  3
*D7
  1

  0
LINE
  5
7EAD
  8
3
 62
     0
 10
2046.597064
 20
1903.191624999999
 30
0.0
 11
2046.597064
 21
1765.819519199958
 31
0.0
  0
LINE
  5
7EAE
  8
3
 62
     0
 10
1346.597064
 20
1785.819519199958
 30
0.0
 11
2006.597064
 21
1785.819519199958
 31
0.0
  0
INSERT
  5
7EAF
  8
3
 62
     0
  2
_OPEN
 10
1306.597064
 20
1785.819519199958
 30
0.0
 41
40.0
 42
40.0
 43
40.0
 50
180.0
  0
INSERT
  5
7EB0
  8
3
 62
     0
  2
_OPEN
 10
2046.597064
 20
1785.819519199958
 30
0.0
 41
40.0
 42
40.0
 43
40.0
  0
TEXT
  8
3
  40
60
  5
7EED
  62
0
  72
0
  71
0
 10
1556.60
 20
1729.62
 30
0.000000
  1
740
  0
POINT
  5
7EB2
  8
DEFPOINTS
 62
     0
 10
1306.597064
 20
1821.7029046368641
 30
0.0
  0
POINT
  5
7EB3
  8
DEFPOINTS
 62
     0
 10
2046.597064
 20
1913.191624999999
 30
0.0
  0
POINT
  5
7EB4
  8
DEFPOINTS
 62
     0
 10
2046.597064
 20
1785.819519199958
 30
0.0
  0
ENDBLK
  5
7D9F
  8
0
  0
BLOCK
  8
0
  2
*D8
 70
     1
 10
0.0
 20
0.0
 30
0.0
  3
*D8
  1

  0
LINE
  5
7EB5
  8
3
 62
     0
 10
1006.597064
 20
2805.1916249999999
 30
0.0
 11
1006.597064
 21
2923.6665673654379
 31
0.0
  0
LINE
  5
7EB6
  8
3
 62
     0
 10
1306.597064
 20
2819.2134728764759
 30
0.0
 11
1306.597064
 21
2923.6665673654379
 31
0.0
  0
LINE
  5
7EB7
  8
3
 62
     0
 10
1046.5970639999989
 20
2903.6665673654388
 30
0.0
 11
1266.597064
 21
2903.6665673654388
 31
0.0
  0
INSERT
  5
7EB8
  8
3
 62
     0
  2
_OPEN
 10
1006.597064
 20
2903.6665673654388
 30
0.0
 41
40.0
 42
40.0
 43
40.0
 50
180.0
  0
INSERT
  5
7EB9
  8
3
 62
     0
  2
_OPEN
 10
1306.597064
 20
2903.6665673654388
 30
0.0
 41
40.0
 42
40.0
 43
40.0
  0
TEXT
  8
3
  40
60
  5
7EEE
  62
0
  72
0
  71
0
 10
1049.45
 20
2847.47
 30
0.000000
  1
300
  0
POINT
  5
7EBB
  8
DEFPOINTS
 62
     0
 10
1006.597064
 20
2795.1916249999999
 30
0.0
  0
POINT
  5
7EBC
  8
DEFPOINTS
 62
     0
 10
1306.597064
 20
2809.213472876475
 30
0.0
  0
POINT
  5
7EBD
  8
DEFPOINTS
 62
     0
 10
1306.597064
 20
2903.6665673654388
 30
0.0
  0
ENDBLK
  5
7DCF
  8
0
  0
BLOCK
  8
0
  2
*D9
 70
     1
 10
0.0
 20
0.0
 30
0.0
  3
*D9
  1

  0
LINE
  5
7EBE
  8
3
 62
     0
 10
1646.597064
 20
2690.1916249999999
 30
0.0
 11
1646.597064
 21
2923.6665673654379
 31
0.0
  0
LINE
  5
7EBF
  8
3
 62
     0
 10
1346.597064
 20
2903.6665673654388
 30
0.0
 11
1606.5970639999989
 21
2903.6665673654388
 31
0.0
  0
INSERT
  5
7EC0
  8
3
 62
     0
  2
_OPEN
 10
1306.597064
 20
2903.6665673654388
 30
0.0
 41
40.0
 42
40.0
 43
40.0
 50
180.0
  0
INSERT
  5
7EC1
  8
3
 62
     0
  2
_OPEN
 10
1646.597064
 20
2903.6665673654388
 30
0.0
 41
40.0
 42
40.0
 43
40.0
  0
TEXT
  8
3
  40
60
  5
7EEF
  62
0
  72
0
  71
0
 10
1356.60
 20
2847.47
 30
0.000000
  1
340
  0
POINT
  5
7EC3
  8
DEFPOINTS
 62
     0
 10
1306.597064
 20
2809.213472876475
 30
0.0
  0
POINT
  5
7EC4
  8
DEFPOINTS
 62
     0
 10
1646.597064
 20
2680.1916249999999
 30
0.0
  0
POINT
  5
7EC5
  8
DEFPOINTS
 62
     0
 10
1646.597064
 20
2903.6665673654388
 30
0.0
  0
ENDBLK
  5
7DDB
  8
0
  0
BLOCK
  8
0
  2
*D10
 70
     1
 10
0.0
 20
0.0
 30
0.0
  3
*D10
  1

  0
LINE
  5
7EC6
  8
3
 62
     0
 10
894.40961881674605
 20
2380.1916249999999
 30
0.0
 11
827.49613299999999
 21
2380.1916249999999
 31
0.0
  0
LINE
  5
7EC7
  8
3
 62
     0
 10
847.49613299999987
 20
2040.191624999999
 30
0.0
 11
847.49613299999987
 21
2340.1916249999999
 31
0.0
  0
INSERT
  5
7EC8
  8
3
 62
     0
  2
_OPEN
 10
847.49613299999987
 20
2000.1916249999999
 30
0.0
 41
40.0
 42
40.0
 43
40.0
 50
270.0
  0
INSERT
  5
7EC9
  8
3
 62
     0
  2
_OPEN
 10
847.49613299999987
 20
2380.1916249999999
 30
0.0
 41
40.0
 42
40.0
 43
40.0
 50
90.0
  0
TEXT
  8
3
  40
60
  5
7EF0
  62
0
  72
0
  71
0
 10
677.496
 20
2083.99
 30
0.000000
  1
380
  0
POINT
  5
7ECB
  8
DEFPOINTS
 62
     0
 10
1046.5970639999989
 20
2000.1916249999999
 30
0.0
  0
POINT
  5
7ECC
  8
DEFPOINTS
 62
     0
 10
904.40961881674593
 20
2380.1916249999999
 30
0.0
  0
POINT
  5
7ECD
  8
DEFPOINTS
 62
     0
 10
847.49613299999987
 20
2380.1916249999999
 30
0.0
  0
ENDBLK
  5
7DE7
  8
0
  0
BLOCK
  8
0
  2
*D11
 70
     1
 10
0.0
 20
0.0
 30
0.0
  3
*D11
  1

  0
LINE
  5
7ECE
  8
3
 62
     0
 10
996.59706400000005
 20
2768.1916249999999
 30
0.0
 11
827.49613299999999
 21
2768.1916249999999
 31
0.0
  0
LINE
  5
7ECF
  8
3
 62
     0
 10
847.49613299999987
 20
2420.1916249999999
 30
0.0
 11
847.49613299999987
 21
2728.1916249999999
 31
0.0
  0
INSERT
  5
7ED0
  8
3
 62
     0
  2
_OPEN
 10
847.49613299999987
 20
2380.1916249999999
 30
0.0
 41
40.0
 42
40.0
 43
40.0
 50
270.0
  0
INSERT
  5
7ED1
  8
3
 62
     0
  2
_OPEN
 10
847.49613299999987
 20
2768.1916249999999
 30
0.0
 41
40.0
 42
40.0
 43
40.0
 50
90.0
  0
TEXT
  8
3
  40
60
  5
7EF1
  62
0
  72
0
  71
0
 10
677.496
 20
2467.99
 30
0.000000
  1
388
  0
POINT
  5
7ED3
  8
DEFPOINTS
 62
     0
 10
904.40961881674593
 20
2380.1916249999999
 30
0.0
  0
POINT
  5
7ED4
  8
DEFPOINTS
 62
     0
 10
1006.597064
 20
2768.1916249999999
 30
0.0
  0
POINT
  5
7ED5
  8
DEFPOINTS
 62
     0
 10
847.49613299999987
 20
2768.1916249999999
 30
0.0
  0
ENDBLK
  5
7DF3
  8
0
  0
BLOCK
  8
0
  2
*D12
 70
     1
 10
0.0
 20
0.0
 30
0.0
  3
*D12
  1

  0
LINE
  5
7ED6
  8
3
 62
     0
 10
1006.597064
 20
2805.1916249999999
 30
0.0
 11
1006.597064
 21
3046.7865276264688
 31
0.0
  0
LINE
  5
7ED7
  8
3
 62
     0
 10
2046.597064
 20
2090.1916249999999
 30
0.0
 11
2046.597064
 21
3046.7865276264688
 31
0.0
  0
LINE
  5
7ED8
  8
3
 62
     0
 10
1046.5970639999989
 20
3026.7865276264688
 30
0.0
 11
2006.597064
 21
3026.7865276264688
 31
0.0
  0
INSERT
  5
7ED9
  8
3
 62
     0
  2
_OPEN
 10
1006.597064
 20
3026.7865276264688
 30
0.0
 41
40.0
 42
40.0
 43
40.0
 50
180.0
  0
INSERT
  5
7EDA
  8
3
 62
     0
  2
_OPEN
 10
2046.597064
 20
3026.7865276264688
 30
0.0
 41
40.0
 42
40.0
 43
40.0
  0
TEXT
  8
3
  40
60
  5
7EF2
  62
0
  72
0
  71
0
 10
1374.23
 20
2970.59
 30
0.000000
  1
1040
  0
POINT
  5
7EDC
  8
DEFPOINTS
 62
     0
 10
1006.597064
 20
2795.1916249999999
 30
0.0
  0
POINT
  5
7EDD
  8
DEFPOINTS
 62
     0
 10
2046.597064
 20
2080.1916249999999
 30
0.0
  0
POINT
  5
7EDE
  8
DEFPOINTS
 62
     0
 10
2046.597064
 20
3026.7865276264688
 30
0.0
  0
ENDBLK
  5
7E00
  8
0
  0
BLOCK
  8
0
  2
*D13
 70
     1
 10
0.0
 20
0.0
 30
0.0
  3
*D13
  1

  0
LINE
  5
7EDF
  8
3
 62
     0
 10
3339.5593789999998
 20
2595.1916249999999
 30
0.0
 11
3509.1313175952969
 21
2595.1916249999999
 31
0.0
  0
LINE
  5
7EE0
  8
3
 62
     0
 10
3339.5593789999998
 20
2165.191624999999
 30
0.0
 11
3509.1313175952969
 21
2165.191624999999
 31
0.0
  0
LINE
  5
7EE1
  8
3
 62
     0
 10
3489.131317595296
 20
2555.1916249999999
 30
0.0
 11
3489.131317595296
 21
2205.1916249999999
 31
0.0
  0
INSERT
  5
7EE2
  8
3
 62
     0
  2
_OPEN
 10
3489.131317595296
 20
2595.1916249999999
 30
0.0
 41
40.0
 42
40.0
 43
40.0
 50
90.0
  0
INSERT
  5
7EE3
  8
3
 62
     0
  2
_OPEN
 10
3489.131317595296
 20
2165.191624999999
 30
0.0
 41
40.0
 42
40.0
 43
40.0
 50
270.0
  0
TEXT
  8
3
  40
60
  5
7EF3
  62
0
  72
0
  71
0
 10
3319.13
 20
2271.30
 30
0.000000
  1
φ430
  0
POINT
  5
7EE5
  8
DEFPOINTS
 62
     0
 10
3329.5593789999989
 20
2595.1916249999999
 30
0.0
  0
POINT
  5
7EE6
  8
DEFPOINTS
 62
     0
 10
3329.5593789999989
 20
2165.191624999999
 30
0.0
  0
POINT
  5
7EE7
  8
DEFPOINTS
 62
     0
 10
3489.131317595296
 20
2165.191624999999
 30
0.0
  0
ENDBLK
  5
7E45
  8
0
  0
ENDSEC
  0
SECTION
  2
ENTITIES
  0
CIRCLE
  5
7AB1
  8
1
  6
CONTINUOUS
 10
1306.597064
 20
2380.1916249999999
 30
0.0
 40
240.0
  0
LINE
  5
7AB2
  8
1
  6
CONTINUOUS
 10
1036.597064
 20
2680.1916249999999
 30
0.0
 11
1646.597064
 21
2680.1916249999999
 31
0.0
  0
LINE
  5
7AB3
  8
1
  6
CONTINUOUS
 10
1036.597064
 20
2080.1916249999999
 30
0.0
 11
2046.597064
 21
2080.1916249999999
 31
0.0
  0
ARC
  5
7AB4
  8
1
  6
CONTINUOUS
 10
1328.597064
 20
2402.1916249999999
 30
0.0
 40
310.75999999999999
 50
262.69
 51
354.17000000000002
  0
ARC
  5
7AB5
  8
1
  6
CONTINUOUS
 10
1279.597064
 20
2407.1916249999999
 30
0.0
 40
360.00999999999988
 50
354.17000000000002
 51
85.700000000000003
  0
LINE
  5
7AB6
  8
1
  6
CONTINUOUS
 10
1046.5970639999989
 20
2000.1916249999999
 30
0.0
 11
2046.597064
 21
2000.1916249999999
 31
0.0
  0
LINE
  5
7AB7
  8
1
  6
CONTINUOUS
 10
1046.5970639999989
 20
3978.9616249999999
 30
0.0
 11
2046.597064
 21
3978.9616249999999
 31
0.0
  0
LINE
  5
7AB8
  8
1
  6
CONTINUOUS
 10
1646.597064
 20
3634.961624999999
 30
0.0
 11
1006.597064
 21
3634.961624999999
 31
0.0
  0
LINE
  5
7AB9
  8
1
  6
CONTINUOUS
 10
1646.597064
 20
3934.961624999999
 30
0.0
 11
1006.597064
 21
3934.961624999999
 31
0.0
  0
LINE
  5
7ABA
  8
1
  6
CONTINUOUS
 10
2001.097064
 20
3454.9616249999999
 30
0.0
 11
1131.097064
 21
3454.9616249999999
 31
0.0
  0
LINE
  5
7ABB
  8
1
  6
CONTINUOUS
 10
1321.097064
 20
2735.1916249999999
 30
0.0
 11
2001.097064
 21
2330.1916249999999
 31
0.0
  0
LINE
  5
7ABC
  8
1
  6
CONTINUOUS
 10
2001.097064
 20
3554.9616249999999
 30
0.0
 11
1131.097064
 21
3554.9616249999999
 31
0.0
  0
LINE
  5
7ABD
  8
1
  6
CONTINUOUS
 10
1320.597064
 20
3590.9616249999999
 30
0.0
 11
1824.4670639999999
 21
3590.9616249999999
 31
0.0
  0
LINE
  5
7ABE
  8
1
  6
CONTINUOUS
 10
1861.2370639999999
 20
2260.7016250000001
 30
0.0
 11
1344.5570640000001
 21
2472.7016250000001
 31
0.0
  0
LINE
  5
7ABF
  8
1
  6
CONTINUOUS
 10
1282.2070639999999
 20
2283.211624999999
 30
0.0
 11
1823.8270639999989
 21
2147.0016249999999
 31
0.0
  0
LINE
  5
7AC0
  8
1
  6
CONTINUOUS
 10
1046.5970639999989
 20
1978.1916249999999
 30
0.0
 11
2046.597064
 21
1978.1916249999999
 31
0.0
  0
LINE
  5
7AC1
  8
1
  6
CONTINUOUS
 10
1046.5970639999989
 20
1913.191624999999
 30
0.0
 11
2046.597064
 21
1913.191624999999
 31
0.0
  0
CIRCLE
  5
7AC2
  8
1
  6
CONTINUOUS
 10
1306.597064
 20
2380.1916249999999
 30
0.0
 40
215.0
  0
LINE
  5
7AC3
  8
1
  6
CONTINUOUS
 10
1026.597064
 20
2368.1916249999999
 30
0.0
 11
1026.597064
 21
2768.0516250000001
 31
0.0
  0
LINE
  5
7AC4
  8
1
  6
CONTINUOUS
 10
1036.597064
 20
2680.1916249999999
 30
0.0
 11
1036.597064
 21
2080.1916249999999
 31
0.0
  0
LINE
  5
7AC5
  8
2
  6
CENTER
 10
1306.597064
 20
4034.7108821183219
 30
0.0
 11
1306.597064
 21
3394.591201253415
 31
0.0
  0
LINE
  5
7AC6
  8
1
  6
CONTINUOUS
 10
1006.597064
 20
2341.191624999999
 30
0.0
 11
1006.597064
 21
2795.1916249999999
 31
0.0
  0
CIRCLE
  5
7AC7
  8
1
  6
CONTINUOUS
 10
1306.597064
 20
2380.1916249999999
 30
0.0
 40
100.0
  0
LINE
  5
7AC8
  8
1
  6
CONTINUOUS
 10
1131.097064
 20
2080.1916249999999
 30
0.0
 11
1131.097064
 21
2620.1916249999999
 31
0.0
  0
ARC
  5
7AC9
  8
1
  6
CONTINUOUS
 10
1323.597064
 20
2363.1916249999999
 30
0.0
 40
271.43999999999988
 50
178.94
 51
262.69
  0
LINE
  5
7ACA
  8
1
  6
CONTINUOUS
 10
1046.5970639999989
 20
1978.1916249999999
 30
0.0
 11
1046.5970639999989
 21
1913.191624999999
 31
0.0
  0
LINE
  5
7ACB
  8
1
  6
CONTINUOUS
 10
1052.197064
 20
2368.1916249999999
 30
0.0
 11
1006.597064
 21
2368.1916249999999
 31
0.0
  0
LINE
  5
7ACC
  8
1
  6
CONTINUOUS
 10
1046.5970639999989
 20
2080.1916249999999
 30
0.0
 11
1046.5970639999989
 21
2000.1916249999999
 31
0.0
  0
LINE
  5
7ACD
  8
2
  6
CENTER
 10
904.40961881674593
 20
2380.1916249999999
 30
0.0
 11
1996.0849343074001
 21
2380.1916249999999
 31
0.0
  0
LINE
  5
7ACE
  8
1
  6
CONTINUOUS
 10
1006.597064
 20
2768.1916249999999
 30
0.0
 11
1306.597064
 21
2766.1916249999999
 31
0.0
  0
LINE
  5
7ACF
  8
1
  6
CONTINUOUS
 10
1131.097064
 20
2620.1916249999999
 30
0.0
 11
1321.097064
 21
2735.1916249999999
 31
0.0
  0
LINE
  5
7AD0
  8
1
  6
CONTINUOUS
 10
1046.5970639999989
 20
3590.9616249999999
 30
0.0
 11
1292.597064
 21
3590.9616249999999
 31
0.0
  0
LINE
  5
7AD1
  8
1
  6
CONTINUOUS
 10
1006.597064
 20
3607.9616249999999
 30
0.0
 11
1006.597064
 21
3961.9616249999999
 31
0.0
  0
LINE
  5
7AD2
  8
1
  6
CONTINUOUS
 10
1026.597064
 20
3634.961624999999
 30
0.0
 11
1026.597064
 21
3934.961624999999
 31
0.0
  0
LINE
  5
7AD3
  8
1
  6
CONTINUOUS
 10
1131.097064
 20
3454.9616249999999
 30
0.0
 11
1131.097064
 21
3554.9616249999999
 31
0.0
  0
LINE
  5
7AD4
  8
1
  6
CONTINUOUS
 10
1046.5970639999989
 20
3634.961624999999
 30
0.0
 11
1046.5970639999989
 21
3590.9616249999999
 31
0.0
  0
LINE
  5
7AD5
  8
1
  6
CONTINUOUS
 10
1046.5970639999989
 20
3978.9616249999999
 30
0.0
 11
1046.5970639999989
 21
3934.961624999999
 31
0.0
  0
LINE
  5
7AD6
  8
1
  6
CONTINUOUS
 10
1410.127064
 20
3479.9616249999999
 30
0.0
 11
1206.597064
 21
3479.9616249999999
 31
0.0
  0
LINE
  5
7AD7
  8
1
  6
CONTINUOUS
 10
1410.127064
 20
3529.9616249999999
 30
0.0
 11
1206.597064
 21
3529.9616249999999
 31
0.0
  0
LINE
  5
7AD8
  8
1
  6
CONTINUOUS
 10
1206.597064
 20
3479.9616249999999
 30
0.0
 11
1206.597064
 21
3529.9616249999999
 31
0.0
  0
LINE
  5
7AD9
  8
1
  6
CONTINUOUS
 10
1292.597064
 20
3529.9616249999999
 30
0.0
 11
1292.597064
 21
3634.961624999999
 31
0.0
  0
LINE
  5
7ADA
  8
1
  6
CONTINUOUS
 10
1410.127064
 20
3479.9616249999999
 30
0.0
 11
1410.127064
 21
3529.9616249999999
 31
0.0
  0
LINE
  5
7ADB
  8
1
  6
CONTINUOUS
 10
1320.597064
 20
3529.9616249999999
 30
0.0
 11
1320.597064
 21
3634.961624999999
 31
0.0
  0
LINE
  5
7AE2
  8
1
  6
CONTINUOUS
 10
1646.597064
 20
2680.1916249999999
 30
0.0
 11
1646.597064
 21
2080.1916249999999
 31
0.0
  0
LINE
  5
7AE3
  8
1
  6
CONTINUOUS
 10
1738.4670639999999
 20
2117.191624999999
 30
0.0
 11
1757.927064
 21
2144.2316249999999
 31
0.0
  0
ARC
  5
7AE4
  8
1
  6
CONTINUOUS
 10
1838.4670639999999
 20
2205.1916249999999
 30
0.0
 40
101.0
 50
322.88
 51
217.12
  0
LINE
  5
7AE5
  8
1
  6
CONTINUOUS
 10
1738.4670639999999
 20
2080.1916249999999
 30
0.0
 11
1738.4670639999999
 21
2117.191624999999
 31
0.0
  0
LINE
  5
7AE6
  8
1
  6
CONTINUOUS
 10
2046.597064
 20
1978.1916249999999
 30
0.0
 11
2046.597064
 21
1913.191624999999
 31
0.0
  0
LINE
  5
7AE7
  8
2
  6
CENTER
 10
1838.4670639999999
 20
2145.1916249999999
 30
0.0
 11
1838.4670639999999
 21
2265.191624999999
 31
0.0
  0
LINE
  5
7AE8
  8
2
  6
CENTER
 10
1898.4670639999999
 20
2205.1916249999999
 30
0.0
 11
1778.4670639999999
 21
2205.1916249999999
 31
0.0
  0
CIRCLE
  5
7AE9
  8
1
  6
CONTINUOUS
 10
1838.4670639999999
 20
2205.1916249999999
 30
0.0
 40
60.0
  0
LINE
  5
7AEA
  8
1
  6
CONTINUOUS
 10
2046.597064
 20
2080.1916249999999
 30
0.0
 11
2046.597064
 21
2000.1916249999999
 31
0.0
  0
LINE
  5
7AEB
  8
1
  6
CONTINUOUS
 10
1938.4670639999999
 20
2117.191624999999
 30
0.0
 11
1918.9970639999999
 21
2144.2316249999999
 31
0.0
  0
LINE
  5
7AEC
  8
1
  6
CONTINUOUS
 10
1938.4670639999999
 20
2080.1916249999999
 30
0.0
 11
1938.4670639999999
 21
2117.191624999999
 31
0.0
  0
LINE
  5
7AED
  8
1
  6
CONTINUOUS
 10
2001.097064
 20
2080.1916249999999
 30
0.0
 11
2001.097064
 21
2330.1916249999999
 31
0.0
  0
LINE
  5
7B12
  8
1
  6
CONTINUOUS
 10
1737.4670639999999
 20
3865.1616250000002
 30
0.0
 11
1939.4670639999999
 21
3865.1616250000002
 31
0.0
  0
LINE
  5
7B13
  8
1
  6
CONTINUOUS
 10
1737.4670639999999
 20
3622.481624999999
 30
0.0
 11
1939.4670639999999
 21
3622.481624999999
 31
0.0
  0
LINE
  5
7B14
  8
1
  6
CONTINUOUS
 10
1737.4670639999999
 20
3622.481624999999
 30
0.0
 11
1737.4670639999999
 21
3865.1616250000002
 31
0.0
  0
LINE
  5
7B15
  8
1
  6
CONTINUOUS
 10
1646.597064
 20
3634.961624999999
 30
0.0
 11
1646.597064
 21
3934.961624999999
 31
0.0
  0
LINE
  5
7B16
  8
1
  6
CONTINUOUS
 10
1939.4670639999999
 20
3622.481624999999
 30
0.0
 11
1939.4670639999999
 21
3865.1616250000002
 31
0.0
  0
LINE
  5
7B17
  8
1
  6
CONTINUOUS
 10
2046.597064
 20
3978.9616249999999
 30
0.0
 11
2046.597064
 21
3590.9616249999999
 31
0.0
  0
LINE
  5
7B18
  8
1
  6
CONTINUOUS
 10
1852.4670639999999
 20
3590.9616249999999
 30
0.0
 11
2046.597064
 21
3590.9616249999999
 31
0.0
  0
LINE
  5
7B19
  8
1
  6
CONTINUOUS
 10
1852.4670639999999
 20
3529.9616249999999
 30
0.0
 11
1852.4670639999999
 21
3622.481624999999
 31
0.0
  0
LINE
  5
7B1A
  8
1
  6
CONTINUOUS
 10
1824.4670639999999
 20
3529.9616249999999
 30
0.0
 11
1824.4670639999999
 21
3622.481624999999
 31
0.0
  0
LINE
  5
7B1B
  8
1
  6
CONTINUOUS
 10
1898.4670639999999
 20
3479.9616249999999
 30
0.0
 11
1898.4670639999999
 21
3529.9616249999999
 31
0.0
  0
LINE
  5
7B1C
  8
1
  6
CONTINUOUS
 10
1778.4670639999999
 20
3479.9616249999999
 30
0.0
 11
1778.4670639999999
 21
3529.9616249999999
 31
0.0
  0
LINE
  5
7B1D
  8
1
  6
CONTINUOUS
 10
1898.4670639999999
 20
3479.9616249999999
 30
0.0
 11
1778.4670639999999
 21
3479.9616249999999
 31
0.0
  0
LINE
  5
7B1E
  8
1
  6
CONTINUOUS
 10
1898.4670639999999
 20
3529.9616249999999
 30
0.0
 11
1778.4670639999999
 21
3529.9616249999999
 31
0.0
  0
LINE
  5
7B1F
  8
1
  6
CONTINUOUS
 10
2001.097064
 20
3454.9616249999999
 30
0.0
 11
2001.097064
 21
3554.9616249999999
 31
0.0
  0
LINE
  5
7B3E
  8
1
  6
CONTINUOUS
 10
3363.5593789999998
 20
2080.1916249999999
 30
0.0
 11
2839.5593789999998
 21
2080.1916249999999
 31
0.0
  0
LINE
  5
7B3F
  8
1
  6
CONTINUOUS
 10
3363.5593789999998
 20
2000.1916249999999
 30
0.0
 11
2975.5593789999989
 21
2000.1916249999999
 31
0.0
  0
LINE
  5
7B40
  8
1
  6
CONTINUOUS
 10
2975.5593789999989
 20
1978.1916249999999
 30
0.0
 11
3363.5593789999998
 21
1978.1916249999999
 31
0.0
  0
LINE
  5
7B41
  8
1
  6
CONTINUOUS
 10
2975.5593789999989
 20
1913.191624999999
 30
0.0
 11
3363.5593789999998
 21
1913.191624999999
 31
0.0
  0
LINE
  5
7B42
  8
1
  6
CONTINUOUS
 10
3019.5593789999998
 20
2368.1916249999999
 30
0.0
 11
3319.5593789999989
 21
2768.1916249999999
 31
0.0
  0
LINE
  5
7B43
  8
1
  6
CONTINUOUS
 10
3319.5593789999989
 20
2368.1916249999999
 30
0.0
 11
3019.5593789999998
 21
2768.1916249999999
 31
0.0
  0
LINE
  5
7B44
  8
1
  6
CONTINUOUS
 10
2864.5593789999998
 20
2278.4216249999999
 30
0.0
 11
2864.5593789999998
 21
2481.9516250000001
 31
0.0
  0
LINE
  5
7B45
  8
1
  6
CONTINUOUS
 10
2914.5593789999989
 20
2278.4216249999999
 30
0.0
 11
2914.5593789999989
 21
2481.9516250000001
 31
0.0
  0
LINE
  5
7B46
  8
1
  6
CONTINUOUS
 10
2939.5593789999998
 20
2080.1916249999999
 30
0.0
 11
2939.5593789999998
 21
2735.1916249999999
 31
0.0
  0
LINE
  5
7B47
  8
1
  6
CONTINUOUS
 10
2839.5593789999998
 20
2080.1916249999999
 30
0.0
 11
2839.5593789999998
 21
2735.1916249999999
 31
0.0
  0
LINE
  5
7B48
  8
1
  6
CONTINUOUS
 10
3319.5593789999989
 20
2768.1916249999999
 30
0.0
 11
3319.5593789999989
 21
2080.1916249999999
 31
0.0
  0
LINE
  5
7B49
  8
1
  6
CONTINUOUS
 10
3019.5593789999998
 20
2768.1916249999999
 30
0.0
 11
3019.5593789999998
 21
2080.1916249999999
 31
0.0
  0
LINE
  5
7B4A
  8
1
  6
CONTINUOUS
 10
3019.5593789999998
 20
2368.1916249999999
 30
0.0
 11
3319.5593789999989
 21
2368.1916249999999
 31
0.0
  0
LINE
  5
7B4B
  8
1
  6
CONTINUOUS
 10
2975.5593789999989
 20
1978.1916249999999
 30
0.0
 11
2975.5593789999989
 21
1913.191624999999
 31
0.0
  0
LINE
  5
7B4D
  8
1
  6
CONTINUOUS
 10
2864.5593789999998
 20
2278.4216249999999
 30
0.0
 11
2914.5593789999989
 21
2278.4216249999999
 31
0.0
  0
LINE
  5
7B4E
  8
1
  6
CONTINUOUS
 10
2864.5593789999998
 20
2145.1916249999999
 30
0.0
 11
2914.5593789999989
 21
2145.1916249999999
 31
0.0
  0
LINE
  5
7B4F
  8
1
  6
CONTINUOUS
 10
2864.5593789999998
 20
2265.191624999999
 30
0.0
 11
2914.5593789999989
 21
2265.191624999999
 31
0.0
  0
LINE
  5
7B50
  8
1
  6
CONTINUOUS
 10
2864.5593789999998
 20
2145.1916249999999
 30
0.0
 11
2864.5593789999998
 21
2265.191624999999
 31
0.0
  0
LINE
  5
7B51
  8
1
  6
CONTINUOUS
 10
2914.5593789999989
 20
2367.9516250000001
 30
0.0
 11
3020.359379
 21
2367.9516250000001
 31
0.0
  0
LINE
  5
7B52
  8
1
  6
CONTINUOUS
 10
2914.5593789999989
 20
2395.9516250000001
 30
0.0
 11
3020.359379
 21
2395.9516250000001
 31
0.0
  0
LINE
  5
7B53
  8
1
  6
CONTINUOUS
 10
2914.5593789999989
 20
2191.1916249999999
 30
0.0
 11
3019.5593789999998
 21
2191.1916249999999
 31
0.0
  0
LINE
  5
7B54
  8
1
  6
CONTINUOUS
 10
2914.5593789999989
 20
2219.1916249999999
 30
0.0
 11
3019.5593789999998
 21
2219.1916249999999
 31
0.0
  0
LINE
  5
7B55
  8
1
  6
CONTINUOUS
 10
2914.5593789999989
 20
2145.1916249999999
 30
0.0
 11
2914.5593789999989
 21
2265.191624999999
 31
0.0
  0
LINE
  5
7B56
  8
1
  6
CONTINUOUS
 10
2975.5593789999989
 20
2080.1916249999999
 30
0.0
 11
2975.5593789999989
 21
2000.1916249999999
 31
0.0
  0
LINE
  5
7B57
  8
1
  6
CONTINUOUS
 10
3019.5593789999998
 20
2768.1916249999999
 30
0.0
 11
3319.5593789999989
 21
2768.1916249999999
 31
0.0
  0
LINE
  5
7B58
  8
1
  6
CONTINUOUS
 10
2864.5593789999998
 20
2481.9516250000001
 30
0.0
 11
2914.5593789999989
 21
2481.9516250000001
 31
0.0
  0
LINE
  5
7B59
  8
1
  6
CONTINUOUS
 10
2839.5593789999998
 20
2735.1916249999999
 30
0.0
 11
2939.5593789999998
 21
2735.1916249999999
 31
0.0
  0
LINE
  5
7B5A
  8
1
  6
CONTINUOUS
 10
3363.5593789999998
 20
1978.1916249999999
 30
0.0
 11
3363.5593789999998
 21
1913.191624999999
 31
0.0
  0
LINE
  5
7B5B
  8
1
  6
CONTINUOUS
 10
3363.5593789999998
 20
2080.1916249999999
 30
0.0
 11
3363.5593789999998
 21
2000.1916249999999
 31
0.0
  0
LINE
  5
7B5C
  8
2
  6
CENTER
 10
2099.2771520000001
 20
3784.961624999999
 30
0.0
 11
958.46056264866274
 21
3784.961624999999
 31
0.0
  0
LINE
  5
7B5D
  8
2
  6
CENTER
 10
3169.5593789999998
 20
2809.251487
 30
0.0
 11
3169.5593789999998
 21
1815.842571961487
 31
0.0
  0
LINE
  5
7B5E
  8
2
  6
CENTER
 10
1306.597064
 20
2809.213472876475
 30
0.0
 11
1306.597064
 21
1821.7029046368641
 31
0.0
  0
LINE
  5
7B5F
  8
2
  6
CENTER
 10
2784.8703717475619
 20
2380.1916249999999
 30
0.0
 11
3364.2248089999998
 21
2380.1916249999999
 31
0.0
  0
LINE
  5
7C3C
  8
3
  6
CONTINUOUS
 10
2056.5970639999991
 20
3978.9616249999999
 30
0.0
 11
2233.6739510000002
 21
3978.9616249999999
 31
0.0
  0
LINE
  5
7C3D
  8
3
  6
CONTINUOUS
 10
2056.5970639999991
 20
3590.9616249999999
 30
0.0
 11
2233.6739510000002
 21
3590.9616249999999
 31
0.0
  0
LINE
  5
7C3E
  8
3
  6
CONTINUOUS
 10
2213.6739510000002
 20
3938.9616249999999
 30
0.0
 11
2213.6739510000002
 21
3630.961624999999
 31
0.0
  0
INSERT
  5
7C3F
  8
3
  6
CONTINUOUS
  2
_OPEN
 10
2213.6739510000002
 20
3978.9616249999999
 30
0.0
 41
40.0
 42
40.0
 43
40.0
 50
90.0
  0
INSERT
  5
7C40
  8
4
  6
BYBLOCK
 62
     2
  2
_OPEN
 10
2213.6739510000002
 20
3590.9616249999999
 30
0.0
 41
40.0
 42
40.0
 43
40.0
 50
270.0
  0
TEXT
  5
7C41
  8
3
 10
2193.6739510000002
 20
3721.685210857142
 30
0.0
 40
60.0
  1
388
 50
90.0
  0
POINT
  5
7C42
  8
3
  6
CONTINUOUS
 10
2046.597064
 20
3978.9616249999999
 30
0.0
  0
POINT
  5
7C43
  8
3
  6
CONTINUOUS
 10
2046.597064
 20
3590.9616249999999
 30
0.0
  0
POINT
  5
7C44
  8
4
  6
BYBLOCK
 62
     2
 10
2213.6739510000002
 20
3590.9616249999999
 30
0.0
  0
LINE
  5
7C45
  8
4
  6
CONTINUOUS
 10
3700.0
 20
1000.0
 30
0.0
 11
3700.0
 21
600.0
 31
0.0
  0
LINE
  5
7C46
  8
4
  6
CONTINUOUS
 10
2300.0
 20
1000.0
 30
0.0
 11
2300.0
 21
600.0
 31
0.0
  0
LINE
  5
7C47
  8
4
  6
CONTINUOUS
 10
1300.0
 20
1000.0
 30
0.0
 11
1300.0
 21
600.0
 31
0.0
  0
LINE
  5
7C4A
  8
4
  6
CONTINUOUS
 10
1300.0
 20
600.0
 30
0.0
 11
3700.0
 21
600.0
 31
0.0
  0
LINE
  5
7C4B
  8
4
  6
CONTINUOUS
 10
1300.0
 20
800.0
 30
0.0
 11
3700.0
 21
800.0
 31
0.0
  0
TEXT
  5
7C4C
  8
4
  6
CONTINUOUS
 10
1377.004162
 20
863.086052
 30
0.0
 40
100.0
  1
機器名称
  0
TEXT
  5
7C4D
  8
4
  6
CONTINUOUS
 10
1372.516212
 20
643.29031299999986
 30
0.0
 40
100.0
  1
機器型番
  0
TEXT
  5
7C4E
  8
4
  6
CONTINUOUS
 10
2355.3574910000002
 20
845.14353800000015
 30
0.0
 40
100.0
  1
ミツヤ多翼送風機
  0
TEXT
  5
7C4F
  8
4
  6
CONTINUOUS
 10
2373.3089909999999
 20
634.31916899999999
 30
0.0
 40
100.0
  1
MF#2 1/2-4
  0
TEXT
  5
7C51
  8
4
  6
CONTINUOUS
 10
1654.945082
 20
4766.8576830000002
 30
0.0
 40
108.0
  1
床置防振ベット
  0
TEXT
  5
7C52
  8
4
  6
CONTINUOUS
 10
632.33518700000002
 20
5067.7619520000007
 30
0.0
 40
144.0
  1
ベルト駆動式片吸込両持多翼ファン
  0
LINE
  5
7C53
  8
4
  6
CONTINUOUS
 10
500.0
 20
4938.8175090000004
 30
0.0
 11
3700.0
 21
4938.8175090000004
 31
0.0
  0
LINE
  5
7C54
  8
4
  6
CONTINUOUS
 10
500.0
 20
5338.8175090000004
 30
0.0
 11
3700.0
 21
5338.8175090000004
 31
0.0
  0
LINE
  5
7C55
  8
4
  6
CONTINUOUS
 10
1300.0
 20
1000.0
 30
0.0
 11
3700.0
 21
1000.0
 31
0.0
  0
LINE
  5
7C56
  8
4
  6
CONTINUOUS
 10
500.0
 20
5338.8175090000004
 30
0.0
 11
500.0
 21
4938.8175090000004
 31
0.0
  0
TEXT
  5
7C57
  8
4
  6
CONTINUOUS
 10
647.92925199999991
 20
4764.6389549999994
 30
0.0
 40
108.0
  1
左回転左横向
  0
TEXT
  5
7C58
  8
4
  6
CONTINUOUS
 10
2937.9391179999998
 20
5412.122163
 30
0.0
 40
112.0
  1
No.
  0
TEXT
  5
7C59
  8
4
  6
CONTINUOUS
 10
2622.5921250000001
 20
4766.8576830000002
 30
0.0
 40
108.0
  1
縮尺：1/20
  0
LINE
  5
7C5A
  8
4
  6
CONTINUOUS
 10
3700.0
 20
5338.8175090000004
 30
0.0
 11
3700.0
 21
4938.8175090000004
 31
0.0
  0
LINE
  5
7C5C
  8
4
  6
CONTINUOUS
 10
2881.234845
 20
5362.5271659999999
 30
0.0
 11
2881.234845
 21
5573.3045229999998
 31
0.0
  0
LINE
  5
7C5D
  8
4
  6
CONTINUOUS
 10
2881.234845
 20
5573.3045229999998
 30
0.0
 11
3700.0
 21
5573.3045229999998
 31
0.0
  0
LINE
  5
7C5E
  8
4
  6
CONTINUOUS
 10
3700.0
 20
5573.3045229999998
 30
0.0
 11
3700.0
 21
5362.5271659999999
 31
0.0
  0
LINE
  5
7C5F
  8
4
  6
CONTINUOUS
 10
3700.0
 20
5362.5271659999999
 30
0.0
 11
2881.234845
 21
5362.5271659999999
 31
0.0
  0
POINT
  5
7C6A
  8
3
  6
CONTINUOUS
 10
959.95143199999995
 20
2768.1916249999999
 30
0.0
  0
POINT
  5
7C73
  8
3
  6
CONTINUOUS
 10
1046.5970639999989
 20
2000.1916249999999
 30
0.0
  0
LINE
  5
7C75
  8
3
  6
CONTINUOUS
 10
996.59706400000005
 20
2795.1916249999999
 30
0.0
 11
721.1444019999999
 21
2795.1916249999999
 31
0.0
  0
LINE
  5
7C76
  8
3
  6
CONTINUOUS
 10
1036.597064
 20
1913.191624999999
 30
0.0
 11
721.1444019999999
 21
1913.191624999999
 31
0.0
  0
LINE
  5
7C77
  8
3
  6
CONTINUOUS
 10
741.1444019999999
 20
2755.1916249999999
 30
0.0
 11
741.1444019999999
 21
1953.191624999999
 31
0.0
  0
INSERT
  5
7C78
  8
3
  6
CONTINUOUS
  2
_OPEN
 10
741.1444019999999
 20
2795.1916249999999
 30
0.0
 41
40.0
 42
40.0
 43
40.0
 50
90.0
  0
INSERT
  5
7C79
  8
3
  6
CONTINUOUS
  2
_OPEN
 10
741.1444019999999
 20
1913.191624999999
 30
0.0
 41
40.0
 42
40.0
 43
40.0
 50
270.0
  0
TEXT
  5
7C7A
  8
3
 10
721.1444019999999
 20
2290.7261778571428
 30
0.0
 40
60.0
  1
882
 50
90.0
  0
POINT
  5
7C7B
  8
3
  6
CONTINUOUS
 10
1006.597064
 20
2795.1916249999999
 30
0.0
  0
POINT
  5
7C7C
  8
3
  6
CONTINUOUS
 10
1046.5970639999989
 20
1913.191624999999
 30
0.0
  0
POINT
  5
7C7D
  8
3
  6
CONTINUOUS
 10
741.1444019999999
 20
1913.191624999999
 30
0.0
  0
POINT
  5
7C84
  8
3
  6
CONTINUOUS
 10
1646.597064
 20
2680.1916249999999
 30
0.0
  0
POINT
  5
7C8C
  8
3
  6
CONTINUOUS
 10
2046.597064
 20
1913.191624999999
 30
0.0
  0
POINT
  5
7C96
  8
3
  6
CONTINUOUS
 10
1046.5970639999989
 20
1913.191624999999
 30
0.0
  0
POINT
  5
7C9F
  8
3
  6
CONTINUOUS
 10
1006.597064
 20
2795.1916249999999
 30
0.0
  0
LINE
  5
7CA2
  8
3
  6
CONTINUOUS
 10
996.59706400000005
 20
2768.1916249999999
 30
0.0
 11
939.95143200000007
 21
2768.1916249999999
 31
0.0
  0
LINE
  5
7CA3
  8
3
  6
CONTINUOUS
 10
996.59706400000005
 20
2368.1916249999999
 30
0.0
 11
939.95143200000007
 21
2368.1916249999999
 31
0.0
  0
LINE
  5
7CA4
  8
3
  6
CONTINUOUS
 10
959.95143199999995
 20
2728.1916249999999
 30
0.0
 11
959.95143199999995
 21
2408.1916249999999
 31
0.0
  0
INSERT
  5
7CA5
  8
3
  6
CONTINUOUS
  2
_OPEN
 10
959.95143199999995
 20
2768.1916249999999
 30
0.0
 41
40.0
 42
40.0
 43
40.0
 50
90.0
  0
INSERT
  5
7CA6
  8
3
  6
CONTINUOUS
  2
_OPEN
 10
959.95143199999995
 20
2368.1916249999999
 30
0.0
 41
40.0
 42
40.0
 43
40.0
 50
270.0
  0
TEXT
  5
7CA7
  8
3
 10
939.95143200000007
 20
2470.329059857143
 30
0.0
 40
60.0
  1
400
 50
90.0
  0
POINT
  5
7CA8
  8
3
  6
CONTINUOUS
 10
1006.597064
 20
2768.1916249999999
 30
0.0
  0
POINT
  5
7CA9
  8
3
  6
CONTINUOUS
 10
1006.597064
 20
2368.1916249999999
 30
0.0
  0
POINT
  5
7CAA
  8
3
  6
CONTINUOUS
 10
959.95143199999995
 20
2368.1916249999999
 30
0.0
  0
LINE
  5
7CAB
  8
3
  6
CONTINUOUS
 10
1046.5970639999989
 20
3988.9616249999999
 30
0.0
 11
1046.5970639999989
 21
4104.9451239999989
 31
0.0
  0
LINE
  5
7CAC
  8
3
  6
CONTINUOUS
 10
2046.597064
 20
3988.9616249999999
 30
0.0
 11
2046.597064
 21
4104.9451239999989
 31
0.0
  0
LINE
  5
7CAD
  8
3
  6
CONTINUOUS
 10
1086.597064
 20
4084.9451239999989
 30
0.0
 11
2006.597064
 21
4084.9451239999989
 31
0.0
  0
INSERT
  5
7CAE
  8
3
  6
CONTINUOUS
  2
_OPEN
 10
1046.5970639999989
 20
4084.9451239999989
 30
0.0
 41
40.0
 42
40.0
 43
40.0
 50
180.0
  0
INSERT
  5
7CAF
  8
3
  6
CONTINUOUS
  2
_OPEN
 10
2046.597064
 20
4084.9451239999989
 30
0.0
 41
40.0
 42
40.0
 43
40.0
  0
TEXT
  5
7CB0
  8
3
 10
1414.7835589999991
 20
4104.9451239999989
 30
0.0
 40
60.0
  1
1000
  0
POINT
  5
7CB1
  8
3
  6
CONTINUOUS
 10
1046.5970639999989
 20
3978.9616249999999
 30
0.0
  0
POINT
  5
7CB2
  8
3
  6
CONTINUOUS
 10
2046.597064
 20
3978.9616249999999
 30
0.0
  0
POINT
  5
7CB3
  8
3
  6
CONTINUOUS
 10
2046.597064
 20
4084.9451239999989
 30
0.0
  0
POINT
  5
7CB9
  8
4
  6
BYBLOCK
 62
     2
 10
3169.5593789999998
 20
2913.0478819999998
 30
0.0
  0
POINT
  5
7CBA
  8
3
  6
CONTINUOUS
 10
2839.5593789999998
 20
2735.1916249999999
 30
0.0
  0
POINT
  5
7CC3
  8
3
  6
CONTINUOUS
 10
3319.5593789999989
 20
2768.1916249999999
 30
0.0
  0
POINT
  5
7CC4
  8
4
  6
BYBLOCK
 62
     2
 10
3169.5593789999998
 20
2913.0478819999998
 30
0.0
  0
POINT
  5
7CCE
  8
3
  6
CONTINUOUS
 10
3363.5593789999998
 20
1913.191624999999
 30
0.0
  0
POINT
  5
7CD8
  8
3
  6
CONTINUOUS
 10
2975.5593789999989
 20
1913.191624999999
 30
0.0
  0
LINE
  5
7CDB
  8
3
  6
CONTINUOUS
 10
3319.5593789999989
 20
2778.191624999999
 30
0.0
 11
3319.5593789999989
 21
2836.8762190000002
 31
0.0
  0
LINE
  5
7CDC
  8
3
  6
CONTINUOUS
 10
3019.5593789999998
 20
2778.191624999999
 30
0.0
 11
3019.5593789999998
 21
2836.8762190000002
 31
0.0
  0
LINE
  5
7CDD
  8
3
  6
CONTINUOUS
 10
3279.5593789999998
 20
2816.8762190000002
 30
0.0
 11
3059.5593789999989
 21
2816.8762190000002
 31
0.0
  0
INSERT
  5
7CDE
  8
3
  6
CONTINUOUS
  2
_OPEN
 10
3319.5593789999989
 20
2816.8762190000002
 30
0.0
 41
40.0
 42
40.0
 43
40.0
  0
INSERT
  5
7CDF
  8
3
  6
CONTINUOUS
  2
_OPEN
 10
3019.5593789999998
 20
2816.8762190000002
 30
0.0
 41
40.0
 42
40.0
 43
40.0
 50
180.0
  0
TEXT
  5
7CE0
  8
3
 10
3079.5593798571422
 20
2836.8762190000002
 30
0.0
 40
60.0
  1
300
  0
POINT
  5
7CE1
  8
3
  6
CONTINUOUS
 10
3319.5593789999989
 20
2768.1916249999999
 30
0.0
  0
POINT
  5
7CE2
  8
3
  6
CONTINUOUS
 10
3019.5593789999998
 20
2768.1916249999999
 30
0.0
  0
POINT
  5
7CE3
  8
3
  6
CONTINUOUS
 10
3019.5593789999998
 20
2816.8762190000002
 30
0.0
  0
DIMENSION
  5
7D05
  8
3
  6
CONTINUOUS
  2
*D1
 10
847.49613300000021
 20
1913.191624999999
 30
0.0
 11
847.49613299999987
 21
1764.620196428571
 31
0.0
 70
   128
 13
1046.5970639999989
 23
2000.1916249999999
 33
0.0
 14
1046.5970639999989
 24
1913.191624999999
 34
0.0
 50
90.0
1001
ACAD
1000
DSTYLE
1002
{
1070
   287
1070
     3
1070
    40
1040
20.0
1070
   143
1040
0.039
1070
   172
1070
     1
1070
   271
1070
     0
1070
   279
1070
     0
1070
   288
1070
     1
1002
}
  0
DIMENSION
  5
7D14
  8
3
  6
CONTINUOUS
  2
*D2
 10
3169.5593789999998
 20
1757.3042820000001
 30
0.0
 11
3072.5593789999989
 21
1804.4257186100201
 31
0.0
 70
   128
 13
2975.5593789999989
 23
1913.191624999999
 33
0.0
 14
3169.5593789999998
 24
1815.842571961487
 34
0.0
1001
ACAD
1000
DSTYLE
1002
{
1070
   288
1070
     1
1070
   172
1070
     1
1070
    40
1040
20.0
1070
   271
1070
     0
1070
   143
1040
0.039
1002
}
  0
DIMENSION
  5
7D22
  8
3
  6
CONTINUOUS
  2
*D3
 10
3363.5593789999998
 20
1757.3042820000001
 30
0.0
 11
3279.8222219999989
 21
1757.3042820000001
 31
0.0
 70
   128
 13
3169.5593789999998
 23
1789.0936799999999
 33
0.0
 14
3363.5593789999998
 24
1913.191624999999
 34
0.0
1001
ACAD
1000
DSTYLE
1002
{
1070
   287
1070
     4
1070
    40
1040
20.0
1070
    75
1070
     1
1070
   143
1040
0.039
1070
   172
1070
     1
1070
   271
1070
     0
1070
   279
1070
     1
1070
   288
1070
     1
1002
}
  0
DIMENSION
  5
7D4C
  8
3
  6
CONTINUOUS
  2
*D4
 10
3169.5593789999998
 20
2945.7404630000001
 30
0.0
 11
2985.2736647142851
 21
2945.7404630000001
 31
0.0
 70
   128
  1
MAX\P380
 13
2839.5593789999998
 23
2735.1916249999999
 33
0.0
 14
3169.5593789999998
 24
2912.859280317607
 34
0.0
1001
ACAD
1000
DSTYLE
1002
{
1070
   287
1070
     3
1070
    40
1040
20.0
1070
   143
1040
0.039
1070
   172
1070
     1
1070
   271
1070
     0
1070
   279
1070
     0
1070
   288
1070
     1
1002
}
  0
DIMENSION
  5
7D5A
  8
3
  6
CONTINUOUS
  2
*D5
 10
3320.5593789999998
 20
2945.7404630000001
 30
0.0
 11
3238.8755609999989
 21
2945.4895739999988
 31
0.0
 70
   128
 13
3169.5593789999998
 23
2911.6711577465721
 33
0.0
 14
3320.5593789999998
 24
2595.1916249999999
 34
0.0
1001
ACAD
1000
DSTYLE
1002
{
1070
   287
1070
     4
1070
    40
1040
20.0
1070
    75
1070
     1
1070
   143
1040
0.039
1070
   172
1070
     1
1070
   271
1070
     0
1070
   279
1070
     1
1070
   288
1070
     1
1002
}
  0
DIMENSION
  5
7D94
  8
3
  2
*D6
 10
1306.597064
 20
1785.819519199958
 30
0.0
 11
1176.597064
 21
1836.6543142318219
 31
0.0
 70
   128
 13
1046.5970639999989
 23
1913.191624999999
 33
0.0
 14
1306.597064
 24
1821.7029046368641
 34
0.0
1001
ACAD
1000
DSTYLE
1002
{
1070
   288
1070
     1
1070
   172
1070
     1
1070
    40
1040
20.0
1070
    45
1040
5.0
1070
   271
1070
     0
1070
   143
1040
0.039
1002
}
  0
DIMENSION
  5
7DA0
  8
3
  2
*D7
 10
2046.597064
 20
1785.819519199958
 30
0.0
 11
1676.597064
 21
1835.819519199958
 31
0.0
 70
     0
 13
1306.597064
 23
1821.7029046368641
 33
0.0
 14
2046.597064
 24
1913.191624999999
 34
0.0
1001
ACAD
1000
DSTYLE
1002
{
1070
   287
1070
     4
1070
    40
1040
20.0
1070
    75
1070
     1
1070
   143
1040
0.039
1070
   172
1070
     1
1070
   271
1070
     0
1070
   279
1070
     1
1070
   288
1070
     1
1002
}
  0
DIMENSION
  5
7DD0
  8
3
  2
*D8
 10
1306.597064
 20
2903.6665673654388
 30
0.0
 11
1169.454206857142
 21
2903.6665673654388
 31
0.0
 70
   128
 13
1006.597064
 23
2795.1916249999999
 33
0.0
 14
1306.597064
 24
2809.213472876475
 34
0.0
1001
ACAD
1000
DSTYLE
1002
{
1070
   287
1070
     3
1070
    40
1040
20.0
1070
   143
1040
0.039
1070
   172
1070
     1
1070
   271
1070
     0
1070
   279
1070
     0
1070
   288
1070
     1
1002
}
  0
DIMENSION
  5
7DDC
  8
3
  2
*D9
 10
1646.597064
 20
2903.6665673654388
 30
0.0
 11
1476.597064
 21
2953.6665673654388
 31
0.0
 70
     0
 13
1306.597064
 23
2809.213472876475
 33
0.0
 14
1646.597064
 24
2680.1916249999999
 34
0.0
1001
ACAD
1000
DSTYLE
1002
{
1070
   287
1070
     4
1070
    40
1040
20.0
1070
    75
1070
     1
1070
   143
1040
0.039
1070
   172
1070
     1
1070
   271
1070
     0
1070
   279
1070
     1
1070
   288
1070
     1
1002
}
  0
DIMENSION
  5
7DE8
  8
3
  2
*D10
 10
847.49613299999987
 20
2380.1916249999999
 30
0.0
 11
797.49613299999953
 21
2190.1916249999999
 31
0.0
 70
     0
 13
1046.5970639999989
 23
2000.1916249999999
 33
0.0
 14
904.40961881674593
 24
2380.1916249999999
 34
0.0
 50
90.0
1001
ACAD
1000
DSTYLE
1002
{
1070
   287
1070
     4
1070
    40
1040
20.0
1070
    75
1070
     1
1070
   143
1040
0.039
1070
   172
1070
     1
1070
   271
1070
     0
1070
   279
1070
     1
1070
   288
1070
     1
1002
}
  0
DIMENSION
  5
7DF4
  8
3
  2
*D11
 10
847.49613299999987
 20
2768.1916249999999
 30
0.0
 11
797.49613299999953
 21
2574.1916249999999
 31
0.0
 70
     0
 13
904.40961881674593
 23
2380.1916249999999
 33
0.0
 14
1006.597064
 24
2768.1916249999999
 34
0.0
 50
90.0
1001
ACAD
1000
DSTYLE
1002
{
1070
   287
1070
     4
1070
    40
1040
20.0
1070
    75
1070
     1
1070
   143
1040
0.039
1070
   172
1070
     1
1070
   271
1070
     0
1070
   279
1070
     1
1070
   288
1070
     1
1002
}
  0
DIMENSION
  5
7E01
  8
3
  2
*D12
 10
2046.597064
 20
3026.7865276264688
 30
0.0
 11
1494.2296202319119
 21
3026.7865276264688
 31
0.0
 70
   128
 13
1006.597064
 23
2795.1916249999999
 33
0.0
 14
2046.597064
 24
2080.1916249999999
 34
0.0
1001
ACAD
1000
DSTYLE
1002
{
1070
   287
1070
     3
1070
    40
1040
20.0
1070
   143
1040
0.039
1070
   172
1070
     1
1070
   271
1070
     0
1070
   279
1070
     0
1070
   288
1070
     1
1002
}
  0
DIMENSION
  5
7E2F
  8
3
  2
*D13
 10
3489.131317595296
 20
2165.191624999999
 30
0.0
 11
3489.131317595296
 21
2377.4966459858442
 31
0.0
 70
   128
 13
3329.5593789999989
 23
2595.1916249999999
 33
0.0
 14
3329.5593789999989
 24
2165.191624999999
 34
0.0
 50
90.0
1001
ACAD
1000
DSTYLE
1002
{
1070
   287
1070
     3
1070
     3
1000
φ<>
1070
    40
1040
20.0
1070
   143
1040
0.039
1070
   172
1070
     1
1070
   271
1070
     0
1070
   279
1070
     0
1070
   288
1070
     1
1002
}
  0
ENDSEC
  0
EOF
