  0
SECTION
  2
HEADER
  9
$ACADVER
  1
AC1009
  9
$INSBASE
 10
0.0
 20
0.0
 30
0.0
  9
$EXTMIN
 10
500.0
 20
600.0
 30
0.0
  9
$EXTMAX
 10
3700.0
 20
5573.3045229999998
 30
0.0
  9
$LIMMIN
 10
0.0
 20
0.0
  9
$LIMMAX
 10
297.0
 20
210.0
  9
$ORTHOMODE
 70
     0
  9
$REGENMODE
 70
     1
  9
$FILLMODE
 70
     0
  9
$QTEXTMODE
 70
     0
  9
$MIRRTEXT
 70
     1
  9
$DRAGMODE
 70
     2
  9
$LTSCALE
 40
100.0
  9
$OSMODE
 70
    37
  9
$ATTMODE
 70
     1
  9
$TEXTSIZE
 40
180.0
  9
$TRACEWID
 40
0.05
  9
$TEXTSTYLE
  7
STANDARD
  9
$CLAYER
  8
3
  9
$CELTYPE
  6
BYLAYER
  9
$CECOLOR
 62
   256
  9
$DIMSCALE
 40
20.0
  9
$DIMASZ
 40
2.0
  9
$DIMEXO
 40
0.5
  9
$DIMDLI
 40
10.0
  9
$DIMRND
 40
0.0
  9
$DIMDLE
 40
0.0
  9
$DIMEXE
 40
1.0
  9
$DIMTP
 40
1.0
  9
$DIMTM
 40
1.0
  9
$DIMTXT
 40
3.0
  9
$DIMCEN
 40
0.0
  9
$DIMTSZ
 40
0.0
  9
$DIMTOL
 70
     0
  9
$DIMLIM
 70
     0
  9
$DIMTIH
 70
     0
  9
$DIMTOH
 70
     0
  9
$DIMSE1
 70
     0
  9
$DIMSE2
 70
     0
  9
$DIMTAD
 70
     1
  9
$DIMZIN
 70
     8
  9
$DIMBLK
  1

  9
$DIMASO
 70
     1
  9
$DIMSHO
 70
     1
  9
$DIMPOST
  1

  9
$DIMAPOST
  1

  9
$DIMALT
 70
     0
  9
$DIMALTD
 70
     2
  9
$DIMALTF
 40
0.039
  9
$DIMLFAC
 40
1.0
  9
$DIMTOFL
 70
     1
  9
$DIMTVP
 40
0.0
  9
$DIMTIX
 70
     0
  9
$DIMSOXD
 70
     0
  9
$DIMSAH
 70
     1
  9
$DIMBLK1
  1
OPEN
  9
$DIMBLK2
  1
OPEN
  9
$DIMSTYLE
  2
IGA
  9
$DIMCLRD
 70
     0
  9
$DIMCLRE
 70
     0
  9
$DIMCLRT
 70
     0
  9
$DIMTFAC
 40
10.0
  9
$DIMGAP
 40
1.0
  9
$LUNITS
 70
     2
  9
$LUPREC
 70
     3
  9
$SKETCHINC
 40
0.1
  9
$FILLETRAD
 40
50.0
  9
$AUNITS
 70
     0
  9
$AUPREC
 70
     0
  9
$MENU
  1
acad
  9
$ELEVATION
 40
0.0
  9
$PELEVATION
 40
0.0
  9
$THICKNESS
 40
0.0
  9
$LIMCHECK
 70
     0
  9
$BLIPMODE
 70
     0
  9
$CHAMFERA
 40
0.5
  9
$CHAMFERB
 40
0.5
  9
$SKPOLY
 70
     0
  9
$TDCREATE
 40
2450724.4378229161
  9
$TDUPDATE
 40
2454953.7659987961
  9
$TDINDWG
 40
0.0069040509
  9
$TDUSRTIMER
 40
0.0069040509
  9
$USRTIMER
 70
     1
  9
$ANGBASE
 50
0.0
  9
$ANGDIR
 70
     0
  9
$PDMODE
 70
     0
  9
$PDSIZE
 40
0.0
  9
$PLINEWID
 40
0.0
  9
$COORDS
 70
     1
  9
$SPLFRAME
 70
     0
  9
$SPLINETYPE
 70
     6
  9
$SPLINESEGS
 70
     8
  9
$ATTDIA
 70
     0
  9
$ATTREQ
 70
     1
  9
$HANDLING
 70
 10241
  9
$HANDSEED
  5
7F02
  9
$SURFTAB1
 70
     6
  9
$SURFTAB2
 70
     6
  9
$SURFTYPE
 70
     6
  9
$SURFU
 70
     6
  9
$SURFV
 70
     6
  9
$UCSNAME
  2

  9
$UCSORG
 10
0.0
 20
0.0
 30
0.0
  9
$UCSXDIR
 10
1.0
 20
0.0
 30
0.0
  9
$UCSYDIR
 10
0.0
 20
1.0
 30
0.0
  9
$PUCSNAME
  2

  9
$PUCSORG
 10
0.0
 20
0.0
 30
0.0
  9
$PUCSXDIR
 10
1.0
 20
0.0
 30
0.0
  9
$PUCSYDIR
 10
0.0
 20
1.0
 30
0.0
  9
$USERI1
 70
     0
  9
$USERI2
 70
     0
  9
$USERI3
 70
     0
  9
$USERI4
 70
     0
  9
$USERI5
 70
     0
  9
$USERR1
 40
0.0
  9
$USERR2
 40
0.0
  9
$USERR3
 40
0.0
  9
$USERR4
 40
0.0
  9
$USERR5
 40
0.0
  9
$WORLDVIEW
 70
     1
  9
$SHADEDGE
 70
     3
  9
$SHADEDIF
 70
    70
  9
$TILEMODE
 70
     1
  9
$MAXACTVP
 70
    16
  9
$PLIMCHECK
 70
     0
  9
$PEXTMIN
 10
1.0000000000000000E+020
 20
1.0000000000000000E+020
 30
1.0000000000000000E+020
  9
$PEXTMAX
 10
-1.0000000000000000E+020
 20
-1.0000000000000000E+020
 30
-1.0000000000000000E+020
  9
$PLIMMIN
 10
0.0
 20
0.0
  9
$PLIMMAX
 10
12.0
 20
9.0
  9
$UNITMODE
 70
     0
  9
$VISRETAIN
 70
     0
  9
$PLINEGEN
 70
     0
  9
$PSLTSCALE
 70
     1
  0
ENDSEC
  0
SECTION
  2
TABLES
  0
TABLE
  2
VPORT
 70
     2
  0
VPORT
  2
*ACTIVE
 70
     0
 10
0.0
 20
0.0
 11
1.0
 21
1.0
 12
6292.1124769529506
 22
3086.6374998146398
 13
0.0
 23
0.0
 14
10.0
 24
10.0
 15
10.0
 25
10.0
 16
0.0
 26
0.0
 36
1.0
 17
0.0
 27
0.0
 37
0.0
 40
5011.4968576296578
 41
3.1666666666666661
 42
50.0
 43
0.0
 44
0.0
 50
0.0
 51
0.0
 71
     0
 72
   100
 73
     1
 74
     0
 75
     0
 76
     0
 77
     0
 78
     0
  0
ENDTAB
  0
TABLE
  2
LTYPE
 70
     2
  0
LTYPE
  2
CONTINUOUS
 70
     0
  3
Solid line
 72
    65
 73
     0
 40
0.0
  0
LTYPE
  2
CENTER
 70
     0
  3
____ _ ____ _ ____ _ ____ _ ____ _ ____ _ ____ 
 72
    65
 73
     4
 40
2.0
 49
1.25
 49
-0.25
 49
0.25
 49
-0.25
  0
ENDTAB
  0
TABLE
  2
LAYER
 70
     6
  0
LAYER
  2
0
 70
     0
 62
     7
  6
CONTINUOUS
  0
LAYER
  2
3
 70
     0
 62
     2
  6
CONTINUOUS
  0
LAYER
  2
2
 70
     0
 62
     3
  6
CENTER
  0
LAYER
  2
1
 70
     0
 62
     4
  6
CONTINUOUS
  0
LAYER
  2
4
 70
     0
 62
     7
  6
CONTINUOUS
  0
LAYER
  2
DEFPOINTS
 70
     0
 62
     7
  6
CONTINUOUS
  0
ENDTAB
  0
TABLE
  2
STYLE
 70
     1
  0
STYLE
  2
STANDARD
 70
     0
 40
0.0
 41
1.0
 50
0.0
 71
     0
 42
180.0
  3
simplex.shx
  4
extfont.shx
  0
ENDTAB
  0
TABLE
  2
VIEW
 70
     0
  0
ENDTAB
  0
TABLE
  2
UCS
 70
     0
  0
ENDTAB
  0
TABLE
  2
APPID
 70
     1
  0
APPID
  2
ACAD
 70
     0
  0
ENDTAB
  0
TABLE
  2
DIMSTYLE
 70
     1
  0
DIMSTYLE
  2
IGA
 70
     0
  3

  4

  5

  6
OPEN
  7
OPEN
 40
2.0
 41
2.0
 42
0.5
 43
10.0
 44
1.0
 45
0.0
 46
0.0
 47
1.0
 48
1.0
140
3.0
141
0.0
142
0.0
143
0.03937
144
1.0
145
0.0
146
10.0
147
1.0
 71
     0
 72
     0
 73
     0
 74
     0
 75
     0
 76
     0
 77
     1
 78
     8
170
     0
171
     2
172
     0
173
     1
174
     0
175
     0
176
     0
177
     0
178
     0
  0
ENDTAB
  0
ENDSEC
  0
SECTION
  2
BLOCKS
  0
BLOCK
  8
0
  2
$MODEL_SPACE
 70
     0
 10
0.0
 20
0.0
 30
0.0
  3
$MODEL_SPACE
  1

  0
ENDBLK
  5
1B
  8
0
  0
BLOCK
 67
     1
  8
0
  2
$PAPER_SPACE
 70
     0
 10
0.0
 20
0.0
 30
0.0
  3
$PAPER_SPACE
  1

  0
ENDBLK
  5
18
 67
     1
  8
0
  0
BLOCK
  8
0
  2
_OPEN
 70
     0
 10
0.0
 20
0.0
 30
0.0
  3
_OPEN
  1

  0
LINE
  5
7B81
  8
0
  6
BYBLOCK
 62
     0
 10
-1.0
 20
0.166667
 30
0.0
 11
0.0
 21
0.0
 31
0.0
  0
LINE
  5
7B82
  8
0
  6
BYBLOCK
 62
     0
 10
0.0
 20
0.0
 30
0.0
 11
-1.0
 21
-0.166667
 31
0.0
  0
LINE
  5
7B83
  8
0
  6
BYBLOCK
 62
     0
 10
0.0
 20
0.0
 30
0.0
 11
-1.0
 21
0.0
 31
0.0
  0
ENDBLK
  5
7B84
  8
0
  0
BLOCK
  8
0
  2
*D1
 70
     1
 10
0.0
 20
0.0
 30
0.0
  3
*D1
  1

  0
LINE
  5
7E77
  8
3
  6
CONTINUOUS
 62
     0
 10
1074.5783149999991
 20
2239.0872889999991
 30
0.0
 11
1010.202181
 21
2239.0872890000001
 31
0.0
  0
LINE
  5
7E78
  8
3
  6
CONTINUOUS
 62
     0
 10
1074.5783149999991
 20
1839.0872890000001
 30
0.0
 11
1010.202181
 21
1839.0872890000001
 31
0.0
  0
LINE
  5
7E79
  8
3
  6
CONTINUOUS
 62
     0
 10
1030.2021810000001
 20
2199.0872890000001
 30
0.0
 11
1030.2021810000001
 21
1879.0872890000001
 31
0.0
  0
INSERT
  5
7E7A
  8
3
  6
CONTINUOUS
 62
     0
  2
_OPEN
 10
1030.2021810000001
 20
2239.0872889999991
 30
0.0
 41
40.0
 42
40.0
 43
40.0
 50
90.0
  0
INSERT
  5
7E7B
  8
3
  6
CONTINUOUS
 62
     0
  2
_OPEN
 10
1030.2021810000001
 20
1839.0872890000001
 30
0.0
 41
40.0
 42
40.0
 43
40.0
 50
270.0
  0
TEXT
  8
3
  40
60
  5
7EF3
  62
0
  72
0
  71
0
 10
860.202
 20
1901.32
 30
0.000000
  1
400
  0
POINT
  5
7E7D
  8
DEFPOINTS
  6
CONTINUOUS
 62
     0
 10
1084.578315
 20
2239.0872889999991
 30
0.0
  0
POINT
  5
7E7E
  8
DEFPOINTS
  6
CONTINUOUS
 62
     0
 10
1084.578315
 20
1839.0872890000001
 30
0.0
  0
POINT
  5
7E7F
  8
DEFPOINTS
  6
CONTINUOUS
 62
     0
 10
1030.2021810000001
 20
1839.0872890000001
 30
0.0
  0
ENDBLK
  5
7B91
  8
0
  0
BLOCK
  8
0
  2
*D2
 70
     1
 10
0.0
 20
0.0
 30
0.0
  3
*D2
  1

  0
LINE
  5
7E80
  8
3
  6
CONTINUOUS
 62
     0
 10
1020.202181
 20
1839.0872890000001
 30
0.0
 11
880.37585000000036
 21
1839.0872890000001
 31
0.0
  0
LINE
  5
7E81
  8
3
  6
CONTINUOUS
 62
     0
 10
863.77575243986121
 20
2227.0872889999991
 30
0.0
 11
920.37585000000036
 21
2227.0872889999991
 31
0.0
  0
LINE
  5
7E82
  8
3
  6
CONTINUOUS
 62
     0
 10
900.37585000000036
 20
1879.0872890000001
 30
0.0
 11
900.37585000000036
 21
2187.0872890000001
 31
0.0
  0
INSERT
  5
7E83
  8
3
  6
CONTINUOUS
 62
     0
  2
_OPEN
 10
900.37585000000036
 20
1839.0872890000001
 30
0.0
 41
40.0
 42
40.0
 43
40.0
 50
270.0
  0
INSERT
  5
7E84
  8
3
  6
CONTINUOUS
 62
     0
  2
_OPEN
 10
900.37585000000036
 20
2227.0872889999991
 30
0.0
 41
40.0
 42
40.0
 43
40.0
 50
90.0
  0
TEXT
  8
3
  40
60
  5
7EF4
  62
0
  72
0
  71
0
 10
730.376
 20
1909.69
 30
0.000000
  1
388
  0
POINT
  5
7E86
  8
DEFPOINTS
  6
CONTINUOUS
 62
     0
 10
1030.2021810000001
 20
1839.0872890000001
 30
0.0
  0
POINT
  5
7E87
  8
DEFPOINTS
  6
CONTINUOUS
 62
     0
 10
853.77575243986121
 20
2227.0872889999991
 30
0.0
  0
POINT
  5
7E88
  8
DEFPOINTS
  6
CONTINUOUS
 62
     0
 10
900.37585000000036
 20
2227.0872889999991
 30
0.0
  0
ENDBLK
  5
7E39
  8
0
  0
BLOCK
  8
0
  2
*D3
 70
     1
 10
0.0
 20
0.0
 30
0.0
  3
*D3
  1

  0
LINE
  5
7E10
  8
0
  6
BYBLOCK
 62
     0
 10
1124.5783149999991
 20
1702.0872890000001
 30
0.0
 11
1124.5783149999991
 21
1543.9224630000001
 31
0.0
  0
LINE
  5
7E11
  8
0
  6
BYBLOCK
 62
     0
 10
1384.578315
 20
1612.2864200648321
 30
0.0
 11
1384.578315
 21
1543.9224630000001
 31
0.0
  0
LINE
  5
7E12
  8
0
  6
BYBLOCK
 62
     0
 10
1164.5783149999991
 20
1563.9224630000001
 30
0.0
 11
1344.578315
 21
1563.9224630000001
 31
0.0
  0
TEXT
  5
7E13
  8
3
 62
     0
 10
1177.4354578571431
 20
1587.578339836643
 30
0.0
 40
60.0
  1
260
  0
INSERT
  5
7E14
  8
0
  6
BYBLOCK
 62
     0
  2
_OPEN
 10
1124.5783149999991
 20
1563.9224630000001
 30
0.0
 41
40.0
 42
40.0
 43
40.0
 50
180.0
  0
INSERT
  5
7E15
  8
0
  6
BYBLOCK
 62
     0
  2
_OPEN
 10
1384.578315
 20
1563.9224630000001
 30
0.0
 41
40.0
 42
40.0
 43
40.0
  0
POINT
  5
7E16
  8
DEFPOINTS
  6
BYBLOCK
 62
     0
 10
1124.5783149999991
 20
1712.0872890000001
 30
0.0
  0
POINT
  5
7E17
  8
DEFPOINTS
  6
BYBLOCK
 62
     0
 10
1384.578315
 20
1622.2864200648321
 30
0.0
  0
POINT
  5
7E18
  8
DEFPOINTS
  6
BYBLOCK
 62
     0
 10
1384.578315
 20
1563.9224630000001
 30
0.0
  0
ENDBLK
  5
7E19
  8
0
  0
BLOCK
  8
0
  2
*D4
 70
     1
 10
0.0
 20
0.0
 30
0.0
  3
*D4
  1

  0
LINE
  5
7E89
  8
3
  6
CONTINUOUS
 62
     0
 10
2124.5783149999988
 20
1702.0872890000001
 30
0.0
 11
2124.5783149999988
 21
1543.9224630000001
 31
0.0
  0
LINE
  5
7E8A
  8
3
  6
CONTINUOUS
 62
     0
 10
1424.5783149999991
 20
1563.9224630000001
 30
0.0
 11
2084.5783149999988
 21
1563.9224630000001
 31
0.0
  0
INSERT
  5
7E8B
  8
3
  6
CONTINUOUS
 62
     0
  2
_OPEN
 10
1384.578315
 20
1563.9224630000001
 30
0.0
 41
40.0
 42
40.0
 43
40.0
 50
180.0
  0
INSERT
  5
7E8C
  8
3
  6
CONTINUOUS
 62
     0
  2
_OPEN
 10
2124.5783149999988
 20
1563.9224630000001
 30
0.0
 41
40.0
 42
40.0
 43
40.0
  0
TEXT
  8
3
  40
60
  5
7EF5
  62
0
  72
0
  71
0
 10
1634.58
 20
1507.72
 30
0.000000
  1
740
  0
POINT
  5
7E8E
  8
DEFPOINTS
  6
CONTINUOUS
 62
     0
 10
1384.578315
 20
1622.2864200648321
 30
0.0
  0
POINT
  5
7E8F
  8
DEFPOINTS
  6
CONTINUOUS
 62
     0
 10
2124.5783149999988
 20
1712.0872890000001
 30
0.0
  0
POINT
  5
7E90
  8
DEFPOINTS
  6
CONTINUOUS
 62
     0
 10
2124.5783149999988
 20
1563.9224630000001
 30
0.0
  0
ENDBLK
  5
7E0E
  8
0
  0
BLOCK
  8
0
  2
*D5
 70
     1
 10
0.0
 20
0.0
 30
0.0
  3
*D5
  1

  0
LINE
  5
7E91
  8
3
  6
CONTINUOUS
 62
     0
 10
1384.578315
 20
2623.2807144866019
 30
0.0
 11
1384.578315
 21
2671.991896
 31
0.0
  0
LINE
  5
7E92
  8
3
  6
CONTINUOUS
 62
     0
 10
1716.578315
 20
2210.0872890000001
 30
0.0
 11
1716.578315
 21
2671.991896
 31
0.0
  0
LINE
  5
7E93
  8
3
  6
CONTINUOUS
 62
     0
 10
1424.5783149999991
 20
2651.991896
 30
0.0
 11
1676.578315
 21
2651.991896
 31
0.0
  0
INSERT
  5
7E94
  8
3
  6
CONTINUOUS
 62
     0
  2
_OPEN
 10
1384.578315
 20
2651.991896
 30
0.0
 41
40.0
 42
40.0
 43
40.0
 50
180.0
  0
INSERT
  5
7E95
  8
3
  6
CONTINUOUS
 62
     0
  2
_OPEN
 10
1716.578315
 20
2651.991896
 30
0.0
 41
40.0
 42
40.0
 43
40.0
  0
TEXT
  8
3
  40
60
  5
7EF6
  62
0
  72
0
  71
0
 10
1430.58
 20
2595.79
 30
0.000000
  1
332
  0
POINT
  5
7E97
  8
DEFPOINTS
  6
CONTINUOUS
 62
     0
 10
1384.578315
 20
2613.2807144866019
 30
0.0
  0
POINT
  5
7E98
  8
DEFPOINTS
  6
CONTINUOUS
 62
     0
 10
1716.578315
 20
2200.0872890000001
 30
0.0
  0
POINT
  5
7E99
  8
DEFPOINTS
  6
CONTINUOUS
 62
     0
 10
1716.578315
 20
2651.991896
 30
0.0
  0
ENDBLK
  5
7E54
  8
0
  0
BLOCK
  8
0
  2
*D6
 70
     1
 10
0.0
 20
0.0
 30
0.0
  3
*D6
  1

  0
LINE
  5
7D7A
  8
0
  6
BYBLOCK
 62
     0
 10
3099.5310899999999
 20
1702.0872890000001
 30
0.0
 11
3099.5310899999999
 21
1523.2380629999991
 31
0.0
  0
LINE
  5
7D7B
  8
0
  6
BYBLOCK
 62
     0
 10
3293.5310899999999
 20
1641.9189004167069
 30
0.0
 11
3293.5310899999999
 21
1523.2380629999991
 31
0.0
  0
LINE
  5
7D7C
  8
0
  6
BYBLOCK
 62
     0
 10
3139.5310899999999
 20
1543.238063
 30
0.0
 11
3253.5310899999999
 21
1543.238063
 31
0.0
  0
TEXT
  5
7D7D
  8
3
 62
     0
 10
3123.6739471428568
 20
1561.7312295593269
 30
0.0
 40
60.0
  1
194
  0
INSERT
  5
7D7E
  8
0
  6
BYBLOCK
 62
     0
  2
_OPEN
 10
3099.5310899999999
 20
1543.238063
 30
0.0
 41
40.0
 42
40.0
 43
40.0
 50
180.0
  0
INSERT
  5
7D7F
  8
0
  6
BYBLOCK
 62
     0
  2
_OPEN
 10
3293.5310899999999
 20
1543.238063
 30
0.0
 41
40.0
 42
40.0
 43
40.0
  0
POINT
  5
7D80
  8
DEFPOINTS
  6
BYBLOCK
 62
     0
 10
3099.5310899999999
 20
1712.0872890000001
 30
0.0
  0
POINT
  5
7D81
  8
DEFPOINTS
  6
BYBLOCK
 62
     0
 10
3293.5310899999999
 20
1651.9189004167069
 30
0.0
  0
POINT
  5
7D82
  8
DEFPOINTS
  6
BYBLOCK
 62
     0
 10
3293.5310899999999
 20
1543.238063
 30
0.0
  0
ENDBLK
  5
7D83
  8
0
  0
BLOCK
  8
0
  2
*D7
 70
     1
 10
0.0
 20
0.0
 30
0.0
  3
*D7
  1

  0
LINE
  5
7D70
  8
0
  6
BYBLOCK
 62
     0
 10
3487.5310899999999
 20
1702.0872890000001
 30
0.0
 11
3487.5310899999999
 21
1523.2380629999991
 31
0.0
  0
LINE
  5
7D71
  8
0
  6
BYBLOCK
 62
     0
 10
3333.5310899999999
 20
1543.238063
 30
0.0
 11
3447.5310899999999
 21
1543.238063
 31
0.0
  0
TEXT
  5
7D72
  8
3
 62
     0
 10
3322.6326951428568
 20
1559.85037274959
 30
0.0
 40
60.0
  1
194
  0
INSERT
  5
7D73
  8
0
  6
BYBLOCK
 62
     0
  2
_OPEN
 10
3293.5310899999999
 20
1543.238063
 30
0.0
 41
40.0
 42
40.0
 43
40.0
 50
180.0
  0
INSERT
  5
7D74
  8
0
  6
BYBLOCK
 62
     0
  2
_OPEN
 10
3487.5310899999999
 20
1543.238063
 30
0.0
 41
40.0
 42
40.0
 43
40.0
  0
POINT
  5
7D75
  8
DEFPOINTS
  6
BYBLOCK
 62
     0
 10
3293.5310899999999
 20
1651.9189004167069
 30
0.0
  0
POINT
  5
7D76
  8
DEFPOINTS
  6
BYBLOCK
 62
     0
 10
3487.5310899999999
 20
1712.0872890000001
 30
0.0
  0
POINT
  5
7D77
  8
DEFPOINTS
  6
BYBLOCK
 62
     0
 10
3487.5310899999999
 20
1543.238063
 30
0.0
  0
ENDBLK
  5
7D78
  8
0
  0
BLOCK
  8
0
  2
*D8
 70
     1
 10
0.0
 20
0.0
 30
0.0
  3
*D8
  1

  0
LINE
  5
7E9A
  8
3
  6
CONTINUOUS
 62
     0
 10
3143.5310899999999
 20
2537.0872890000001
 30
0.0
 11
3143.5310899999999
 21
2623.5292020000002
 31
0.0
  0
LINE
  5
7E9B
  8
3
  6
CONTINUOUS
 62
     0
 10
3443.5310899999999
 20
2537.0872890000001
 30
0.0
 11
3443.5310899999999
 21
2623.5292020000002
 31
0.0
  0
LINE
  5
7E9C
  8
3
  6
CONTINUOUS
 62
     0
 10
3103.5310899999999
 20
2603.5292020000002
 30
0.0
 11
3063.5310899999999
 21
2603.5292020000002
 31
0.0
  0
LINE
  5
7E9D
  8
3
  6
CONTINUOUS
 62
     0
 10
3483.5310899999999
 20
2603.5292020000002
 30
0.0
 11
3523.5310899999999
 21
2603.5292020000002
 31
0.0
  0
LINE
  5
7E9E
  8
3
  6
CONTINUOUS
 62
     0
 10
3143.5310899999999
 20
2603.5292020000002
 30
0.0
 11
3443.5310899999999
 21
2603.5292020000002
 31
0.0
  0
INSERT
  5
7E9F
  8
3
  6
CONTINUOUS
 62
     0
  2
_OPEN
 10
3143.5310899999999
 20
2603.5292020000002
 30
0.0
 41
40.0
 42
40.0
 43
40.0
  0
INSERT
  5
7EA0
  8
3
  6
CONTINUOUS
 62
     0
  2
_OPEN
 10
3443.5310899999999
 20
2603.5292020000002
 30
0.0
 41
40.0
 42
40.0
 43
40.0
 50
180.0
  0
TEXT
  8
3
  40
60
  5
7EF7
  62
0
  72
0
  71
0
 10
3160.67
 20
2547.33
 30
0.000000
  1
300
  0
POINT
  5
7EA2
  8
DEFPOINTS
  6
CONTINUOUS
 62
     0
 10
3143.5310899999999
 20
2527.0872890000001
 30
0.0
  0
POINT
  5
7EA3
  8
DEFPOINTS
  6
CONTINUOUS
 62
     0
 10
3443.5310899999999
 20
2527.0872890000001
 30
0.0
  0
POINT
  5
7EA4
  8
DEFPOINTS
  6
CONTINUOUS
 62
     0
 10
3443.5310899999999
 20
2603.5292020000002
 30
0.0
  0
ENDBLK
  5
7D1E
  8
0
  0
BLOCK
  8
0
  2
*D9
 70
     1
 10
0.0
 20
0.0
 30
0.0
  3
*D9
  1

  0
LINE
  5
7EA5
  8
3
  6
CONTINUOUS
 62
     0
 10
2963.5310899999999
 20
2457.0872890000001
 30
0.0
 11
2963.5310899999999
 21
2799.4107853538162
 31
0.0
  0
LINE
  5
7EA6
  8
3
  6
CONTINUOUS
 62
     0
 10
3253.5310899999999
 20
2779.4107853538162
 30
0.0
 11
3003.5310899999999
 21
2779.4107853538162
 31
0.0
  0
INSERT
  5
7EA7
  8
3
  6
CONTINUOUS
 62
     0
  2
_OPEN
 10
3293.5310899999999
 20
2779.4107853538162
 30
0.0
 41
40.0
 42
40.0
 43
40.0
  0
INSERT
  5
7EA8
  8
3
  6
CONTINUOUS
 62
     0
  2
_OPEN
 10
2963.5310899999999
 20
2779.4107853538162
 30
0.0
 41
40.0
 42
40.0
 43
40.0
 50
180.0
  0
TEXT
  8
3
  40
60
  5
7EF8
  62
0
  72
0
  71
0
 10
3008.53
 20
2773.21
 30
0.000000
  1
MAX
  0
TEXT
  8
3
  40
60
  5
7EF9
  62
0
  72
0
  71
0
 10
3008.53
 20
2695.21
 30
0.000000
  1
380
  0
POINT
  5
7EAA
  8
DEFPOINTS
  6
CONTINUOUS
 62
     0
 10
3293.5310899999999
 20
2694.2895779999999
 30
0.0
  0
POINT
  5
7EAB
  8
DEFPOINTS
  6
CONTINUOUS
 62
     0
 10
2963.5310899999999
 20
2447.0872890000001
 30
0.0
  0
POINT
  5
7EAC
  8
DEFPOINTS
  6
CONTINUOUS
 62
     0
 10
2963.5310899999999
 20
2779.4107853538162
 30
0.0
  0
ENDBLK
  5
7DD8
  8
0
  0
BLOCK
  8
0
  2
*D10
 70
     1
 10
0.0
 20
0.0
 30
0.0
  3
*D10
  1

  0
LINE
  5
7EAD
  8
3
  6
CONTINUOUS
 62
     0
 10
3453.5310899999999
 20
2442.0872890000001
 30
0.0
 11
3625.789032000001
 21
2442.0872890000001
 31
0.0
  0
LINE
  5
7EAE
  8
3
  6
CONTINUOUS
 62
     0
 10
3453.5310899999999
 20
2012.0872890000001
 30
0.0
 11
3625.789032000001
 21
2012.0872889999989
 31
0.0
  0
LINE
  5
7EAF
  8
3
  6
CONTINUOUS
 62
     0
 10
3605.7890320000001
 20
2402.0872890000001
 30
0.0
 11
3605.7890320000001
 21
2052.0872890000001
 31
0.0
  0
INSERT
  5
7EB0
  8
3
  6
CONTINUOUS
 62
     0
  2
_OPEN
 10
3605.7890320000001
 20
2442.0872890000001
 30
0.0
 41
40.0
 42
40.0
 43
40.0
 50
90.0
  0
INSERT
  5
7EB1
  8
3
  6
CONTINUOUS
 62
     0
  2
_OPEN
 10
3605.7890320000001
 20
2012.0872889999989
 30
0.0
 41
40.0
 42
40.0
 43
40.0
 50
270.0
  0
TEXT
  8
3
  40
60
  5
7EFA
  62
0
  72
0
  71
0
 10
3435.79
 20
2106.38
 30
0.000000
  1
φ430
  0
POINT
  5
7EB3
  8
DEFPOINTS
  6
CONTINUOUS
 62
     0
 10
3443.5310899999999
 20
2442.0872890000001
 30
0.0
  0
POINT
  5
7EB4
  8
DEFPOINTS
  6
CONTINUOUS
 62
     0
 10
3443.5310899999999
 20
2012.0872890000001
 30
0.0
  0
POINT
  5
7EB5
  8
DEFPOINTS
  6
CONTINUOUS
 62
     0
 10
3605.7890320000001
 20
2012.0872889999989
 30
0.0
  0
ENDBLK
  5
7D8E
  8
0
  0
BLOCK
  8
0
  2
*D11
 70
     1
 10
0.0
 20
0.0
 30
0.0
  3
*D11
  1

  0
LINE
  5
7EB6
  8
3
  6
CONTINUOUS
 62
     0
 10
1124.5783149999991
 20
3892.9528789999999
 30
0.0
 11
1124.5783149999991
 21
4050.2892670000001
 31
0.0
  0
LINE
  5
7EB7
  8
3
  6
CONTINUOUS
 62
     0
 10
2124.5783149999988
 20
3892.9528789999999
 30
0.0
 11
2124.5783149999988
 21
4050.2892670000001
 31
0.0
  0
LINE
  5
7EB8
  8
3
  6
CONTINUOUS
 62
     0
 10
1164.5783149999991
 20
4030.2892669999992
 30
0.0
 11
2084.5783149999988
 21
4030.2892669999992
 31
0.0
  0
INSERT
  5
7EB9
  8
3
  6
CONTINUOUS
 62
     0
  2
_OPEN
 10
1124.5783149999991
 20
4030.2892669999992
 30
0.0
 41
40.0
 42
40.0
 43
40.0
 50
180.0
  0
INSERT
  5
7EBA
  8
3
  6
CONTINUOUS
 62
     0
  2
_OPEN
 10
2124.5783149999988
 20
4030.2892669999992
 30
0.0
 41
40.0
 42
40.0
 43
40.0
  0
TEXT
  8
3
  40
60
  5
7EFB
  62
0
  72
0
  71
0
 10
1492.33
 20
3974.09
 30
0.000000
  1
1000
  0
POINT
  5
7EBC
  8
DEFPOINTS
  6
CONTINUOUS
 62
     0
 10
1124.5783149999991
 20
3882.952878999999
 30
0.0
  0
POINT
  5
7EBD
  8
DEFPOINTS
  6
CONTINUOUS
 62
     0
 10
2124.5783149999988
 20
3882.952878999999
 30
0.0
  0
POINT
  5
7EBE
  8
DEFPOINTS
  6
CONTINUOUS
 62
     0
 10
2124.5783149999988
 20
4030.2892669999992
 30
0.0
  0
ENDBLK
  5
7CBE
  8
0
  0
BLOCK
  8
0
  2
*D12
 70
     1
 10
0.0
 20
0.0
 30
0.0
  3
*D12
  1

  0
LINE
  5
7EBF
  8
3
  6
CONTINUOUS
 62
     0
 10
2134.5783150000002
 20
3882.952878999999
 30
0.0
 11
2302.3980780000011
 21
3882.952878999999
 31
0.0
  0
LINE
  5
7EC0
  8
3
  6
CONTINUOUS
 62
     0
 10
2134.5783150000002
 20
3494.9528789999999
 30
0.0
 11
2302.3980780000011
 21
3494.9528789999999
 31
0.0
  0
LINE
  5
7EC1
  8
3
  6
CONTINUOUS
 62
     0
 10
2282.3980780000011
 20
3842.9528789999999
 30
0.0
 11
2282.3980780000011
 21
3534.9528789999999
 31
0.0
  0
INSERT
  5
7EC2
  8
3
  6
CONTINUOUS
 62
     0
  2
_OPEN
 10
2282.3980780000011
 20
3882.952878999999
 30
0.0
 41
40.0
 42
40.0
 43
40.0
 50
90.0
  0
INSERT
  5
7EC3
  8
3
  6
CONTINUOUS
 62
     0
  2
_OPEN
 10
2282.3980780000011
 20
3494.9528789999999
 30
0.0
 41
40.0
 42
40.0
 43
40.0
 50
270.0
  0
TEXT
  8
3
  40
60
  5
7EFC
  62
0
  72
0
  71
0
 10
2112.40
 20
3592.85
 30
0.000000
  1
388
  0
POINT
  5
7EC5
  8
DEFPOINTS
  6
CONTINUOUS
 62
     0
 10
2124.5783149999988
 20
3882.952878999999
 30
0.0
  0
POINT
  5
7EC6
  8
DEFPOINTS
  6
CONTINUOUS
 62
     0
 10
2124.5783149999988
 20
3494.9528789999999
 30
0.0
  0
POINT
  5
7EC7
  8
DEFPOINTS
  6
CONTINUOUS
 62
     0
 10
2282.3980780000011
 20
3494.9528789999999
 30
0.0
  0
ENDBLK
  5
7C76
  8
0
  0
BLOCK
  8
0
  2
*D13
 70
     1
 10
0.0
 20
0.0
 30
0.0
  3
*D13
  1

  0
LINE
  5
7EC8
  8
3
  6
CONTINUOUS
 62
     0
 10
1084.578315
 20
2276.0872890000001
 30
0.0
 11
1084.578315
 21
2671.991896
 31
0.0
  0
LINE
  5
7EC9
  8
3
  6
CONTINUOUS
 62
     0
 10
1344.578315
 20
2651.991896
 30
0.0
 11
1124.5783149999991
 21
2651.991896
 31
0.0
  0
INSERT
  5
7ECA
  8
3
  6
CONTINUOUS
 62
     0
  2
_OPEN
 10
1384.578315
 20
2651.991896
 30
0.0
 41
40.0
 42
40.0
 43
40.0
  0
INSERT
  5
7ECB
  8
3
  6
CONTINUOUS
 62
     0
  2
_OPEN
 10
1084.578315
 20
2651.991896
 30
0.0
 41
40.0
 42
40.0
 43
40.0
 50
180.0
  0
TEXT
  8
3
  40
60
  5
7EFD
  62
0
  72
0
  71
0
 10
1114.58
 20
2595.79
 30
0.000000
  1
300
  0
POINT
  5
7ECD
  8
DEFPOINTS
  6
CONTINUOUS
 62
     0
 10
1384.578315
 20
2611.23564767067
 30
0.0
  0
POINT
  5
7ECE
  8
DEFPOINTS
  6
CONTINUOUS
 62
     0
 10
1084.578315
 20
2266.0872890000001
 30
0.0
  0
POINT
  5
7ECF
  8
DEFPOINTS
  6
CONTINUOUS
 62
     0
 10
1084.578315
 20
2651.991896
 30
0.0
  0
ENDBLK
  5
7E04
  8
0
  0
BLOCK
  8
0
  2
*D14
 70
     1
 10
0.0
 20
0.0
 30
0.0
  3
*D14
  1

  0
LINE
  5
7ED0
  8
3
  6
CONTINUOUS
 62
     0
 10
1114.5783149999991
 20
1712.0872890000001
 30
0.0
 11
749.6870200000003
 21
1712.0872890000001
 31
0.0
  0
LINE
  5
7ED1
  8
3
  6
CONTINUOUS
 62
     0
 10
922.34776339415112
 20
2227.0872889999991
 30
0.0
 11
749.68702000000042
 21
2227.0872889999991
 31
0.0
  0
LINE
  5
7ED2
  8
3
  6
CONTINUOUS
 62
     0
 10
769.68702000000019
 20
1752.0872890000001
 30
0.0
 11
769.68702000000042
 21
2187.0872890000001
 31
0.0
  0
INSERT
  5
7ED3
  8
3
  6
CONTINUOUS
 62
     0
  2
_OPEN
 10
769.68702000000019
 20
1712.0872890000001
 30
0.0
 41
40.0
 42
40.0
 43
40.0
 50
270.0
  0
INSERT
  5
7ED4
  8
3
  6
CONTINUOUS
 62
     0
  2
_OPEN
 10
769.68702000000042
 20
2227.0872889999991
 30
0.0
 41
40.0
 42
40.0
 43
40.0
 50
90.0
  0
TEXT
  8
3
  40
60
  5
7EFE
  62
0
  72
0
  71
0
 10
599.687
 20
1807.78
 30
0.000000
  1
515
  0
POINT
  5
7ED6
  8
DEFPOINTS
  6
CONTINUOUS
 62
     0
 10
1124.5783149999991
 20
1712.0872890000001
 30
0.0
  0
POINT
  5
7ED7
  8
DEFPOINTS
  6
CONTINUOUS
 62
     0
 10
932.34776339415112
 20
2227.0872889999991
 30
0.0
  0
POINT
  5
7ED8
  8
DEFPOINTS
  6
CONTINUOUS
 62
     0
 10
769.68702000000042
 20
2227.0872889999991
 30
0.0
  0
ENDBLK
  5
7E44
  8
0
  0
BLOCK
  8
0
  2
*D15
 70
     1
 10
0.0
 20
0.0
 30
0.0
  3
*D15
  1

  0
LINE
  5
7ED9
  8
3
  6
CONTINUOUS
 62
     0
 10
1114.5783149999991
 20
1712.0872890000001
 30
0.0
 11
632.20429300000023
 21
1712.0872890000001
 31
0.0
  0
LINE
  5
7EDA
  8
3
  6
CONTINUOUS
 62
     0
 10
1104.578315
 20
2527.0872890000001
 30
0.0
 11
632.20429300000035
 21
2527.0872890000001
 31
0.0
  0
LINE
  5
7EDB
  8
3
  6
CONTINUOUS
 62
     0
 10
652.20429300000023
 20
1752.0872890000001
 30
0.0
 11
652.20429300000035
 21
2487.0872890000001
 31
0.0
  0
INSERT
  5
7EDC
  8
3
  6
CONTINUOUS
 62
     0
  2
_OPEN
 10
652.20429300000023
 20
1712.0872890000001
 30
0.0
 41
40.0
 42
40.0
 43
40.0
 50
270.0
  0
INSERT
  5
7EDD
  8
3
  6
CONTINUOUS
 62
     0
  2
_OPEN
 10
652.20429300000035
 20
2527.0872890000001
 30
0.0
 41
40.0
 42
40.0
 43
40.0
 50
90.0
  0
TEXT
  8
3
  40
60
  5
7EFF
  62
0
  72
0
  71
0
 10
482.204
 20
2063.94
 30
0.000000
  1
815
  0
POINT
  5
7EDF
  8
DEFPOINTS
  6
CONTINUOUS
 62
     0
 10
1124.5783149999991
 20
1712.0872890000001
 30
0.0
  0
POINT
  5
7EE0
  8
DEFPOINTS
  6
CONTINUOUS
 62
     0
 10
1114.5783149999991
 20
2527.0872890000001
 30
0.0
  0
POINT
  5
7EE1
  8
DEFPOINTS
  6
CONTINUOUS
 62
     0
 10
652.20429300000035
 20
2527.0872890000001
 30
0.0
  0
ENDBLK
  5
7CA1
  8
0
  0
BLOCK
  8
0
  2
*D16
 70
     1
 10
0.0
 20
0.0
 30
0.0
  3
*D16
  1

  0
LINE
  5
7EE2
  8
3
  6
CONTINUOUS
 62
     0
 10
1104.578315
 20
2527.0872890000001
 30
0.0
 11
749.68701999999996
 21
2527.0872890000001
 31
0.0
  0
LINE
  5
7EE3
  8
3
  6
CONTINUOUS
 62
     0
 10
769.68701999999996
 20
2267.0872890000001
 30
0.0
 11
769.68702000000008
 21
2487.0872890000001
 31
0.0
  0
INSERT
  5
7EE4
  8
3
  6
CONTINUOUS
 62
     0
  2
_OPEN
 10
769.68701999999996
 20
2227.0872889999991
 30
0.0
 41
40.0
 42
40.0
 43
40.0
 50
270.0
  0
INSERT
  5
7EE5
  8
3
  6
CONTINUOUS
 62
     0
  2
_OPEN
 10
769.68702000000008
 20
2527.0872890000001
 30
0.0
 41
40.0
 42
40.0
 43
40.0
 50
90.0
  0
TEXT
  8
3
  40
60
  5
7F00
  62
0
  72
0
  71
0
 10
599.687
 20
2270.89
 30
0.000000
  1
300
  0
POINT
  5
7EE7
  8
DEFPOINTS
  6
CONTINUOUS
 62
     0
 10
853.77575243986121
 20
2227.0872889999991
 30
0.0
  0
POINT
  5
7EE8
  8
DEFPOINTS
  6
CONTINUOUS
 62
     0
 10
1114.5783149999991
 20
2527.0872890000001
 30
0.0
  0
POINT
  5
7EE9
  8
DEFPOINTS
  6
CONTINUOUS
 62
     0
 10
769.68702000000008
 20
2527.0872890000001
 30
0.0
  0
ENDBLK
  5
7E23
  8
0
  0
BLOCK
  8
0
  2
*D17
 70
     1
 10
0.0
 20
0.0
 30
0.0
  3
*D17
  1

  0
LINE
  5
7DC5
  8
0
  6
BYBLOCK
 62
     0
 10
3293.5310899999999
 20
2704.2895779999999
 30
0.0
 11
3293.5310899999999
 21
2799.4107853538162
 31
0.0
  0
LINE
  5
7DC6
  8
0
  6
BYBLOCK
 62
     0
 10
3444.5310899999999
 20
2452.0872890000001
 30
0.0
 11
3444.5310899999999
 21
2799.4107853538162
 31
0.0
  0
LINE
  5
7DC7
  8
0
  6
BYBLOCK
 62
     0
 10
3333.5310899999999
 20
2779.4107853538162
 30
0.0
 11
3404.531089999999
 21
2779.4107853538162
 31
0.0
  0
TEXT
  5
7DC8
  8
3
 62
     0
 10
3301.8293356249078
 20
2802.4454126333831
 30
0.0
 40
60.0
  1
151
  0
INSERT
  5
7DC9
  8
0
  6
BYBLOCK
 62
     0
  2
_OPEN
 10
3293.5310899999999
 20
2779.4107853538162
 30
0.0
 41
40.0
 42
40.0
 43
40.0
 50
180.0
  0
INSERT
  5
7DCA
  8
0
  6
BYBLOCK
 62
     0
  2
_OPEN
 10
3444.5310899999999
 20
2779.4107853538162
 30
0.0
 41
40.0
 42
40.0
 43
40.0
  0
POINT
  5
7DCB
  8
DEFPOINTS
  6
BYBLOCK
 62
     0
 10
3293.5310899999999
 20
2694.2895779999999
 30
0.0
  0
POINT
  5
7DCC
  8
DEFPOINTS
  6
BYBLOCK
 62
     0
 10
3444.5310899999999
 20
2442.0872890000001
 30
0.0
  0
POINT
  5
7DCD
  8
DEFPOINTS
  6
BYBLOCK
 62
     0
 10
3444.5310899999999
 20
2779.4107853538162
 30
0.0
  0
ENDBLK
  5
7DCE
  8
0
  0
BLOCK
  8
0
  2
*D18
 70
     1
 10
0.0
 20
0.0
 30
0.0
  3
*D18
  1

  0
LINE
  5
7EEA
  8
3
 62
     0
 10
1084.578315
 20
2276.0872890000001
 30
0.0
 11
1084.578315
 21
2798.3971700322122
 31
0.0
  0
LINE
  5
7EEB
  8
3
 62
     0
 10
2124.5783149999988
 20
1802.0872890000001
 30
0.0
 11
2124.5783149999988
 21
2798.3971700322122
 31
0.0
  0
LINE
  5
7EEC
  8
3
 62
     0
 10
1124.5783149999991
 20
2778.3971700322122
 30
0.0
 11
2084.5783149999988
 21
2778.3971700322122
 31
0.0
  0
INSERT
  5
7EED
  8
3
 62
     0
  2
_OPEN
 10
1084.578315
 20
2778.3971700322122
 30
0.0
 41
40.0
 42
40.0
 43
40.0
 50
180.0
  0
INSERT
  5
7EEE
  8
3
 62
     0
  2
_OPEN
 10
2124.5783149999988
 20
2778.3971700322122
 30
0.0
 41
40.0
 42
40.0
 43
40.0
  0
TEXT
  8
3
  40
60
  5
7F01
  62
0
  72
0
  71
0
 10
1542.18
 20
2722.20
 30
0.000000
  1
1040
  0
POINT
  5
7EF0
  8
DEFPOINTS
 62
     0
 10
1084.578315
 20
2266.0872890000001
 30
0.0
  0
POINT
  5
7EF1
  8
DEFPOINTS
 62
     0
 10
2124.5783149999988
 20
1792.0872890000001
 30
0.0
  0
POINT
  5
7EF2
  8
DEFPOINTS
 62
     0
 10
2124.5783149999988
 20
2778.3971700322122
 30
0.0
  0
ENDBLK
  5
7DE4
  8
0
  0
ENDSEC
  0
SECTION
  2
ENTITIES
  0
CIRCLE
  5
7AA1
  8
1
  6
CONTINUOUS
 10
1384.578315
 20
2227.0872889999991
 30
0.0
 40
240.0
  0
LINE
  5
7AA2
  8
1
  6
CONTINUOUS
 10
1339.9383150000001
 20
2137.5972889999998
 30
0.0
 11
1889.668314999999
 21
1863.3972889999991
 31
0.0
  0
LINE
  5
7AA3
  8
1
  6
CONTINUOUS
 10
1949.9583149999989
 20
1966.857289
 30
0.0
 11
1440.4383150000001
 21
2310.0272890000001
 31
0.0
  0
LINE
  5
7AA4
  8
1
  6
CONTINUOUS
 10
1124.5783149999991
 20
1712.0872890000001
 30
0.0
 11
2124.5783149999988
 21
1712.0872890000001
 31
0.0
  0
LINE
  5
7AA5
  8
1
  6
CONTINUOUS
 10
1399.078315
 20
2447.0872890000001
 30
0.0
 11
2079.0783149999988
 21
2042.0872890000001
 31
0.0
  0
LINE
  5
7AA6
  8
1
  6
CONTINUOUS
 10
1114.5783149999991
 20
1792.0872890000001
 30
0.0
 11
2124.5783149999988
 21
1792.0872890000001
 31
0.0
  0
ARC
  5
7AA7
  8
1
  6
CONTINUOUS
 10
1357.578315
 20
2200.0872890000001
 30
0.0
 40
360.00999999999988
 50
274.30000000000001
 51
5.8300000000000001
  0
ARC
  5
7AA8
  8
1
  6
CONTINUOUS
 10
1406.5783149999991
 20
2205.0872890000001
 30
0.0
 40
310.75999999999999
 50
5.8300000000000001
 51
97.310000000000016
  0
LINE
  5
7AA9
  8
1
  6
CONTINUOUS
 10
1114.5783149999991
 20
2527.0872890000001
 30
0.0
 11
1654.578315
 21
2527.0872890000001
 31
0.0
  0
LINE
  5
7AAA
  8
1
  6
CONTINUOUS
 10
1209.078315
 20
1792.0872890000001
 30
0.0
 11
1209.078315
 21
2332.0872889999991
 31
0.0
  0
CIRCLE
  5
7AAB
  8
1
  6
CONTINUOUS
 10
1384.578315
 20
2227.0872889999991
 30
0.0
 40
100.0
  0
LINE
  5
7AAC
  8
1
  6
CONTINUOUS
 10
1084.578315
 20
2266.0872890000001
 30
0.0
 11
1084.578315
 21
1812.0872890000001
 31
0.0
  0
LINE
  5
7AAD
  8
2
  6
CENTER
 10
1384.578315
 20
1622.2864200648321
 30
0.0
 11
1384.578315
 21
2613.2807144866019
 31
0.0
  0
LINE
  5
7AAE
  8
1
  6
CONTINUOUS
 10
1114.5783149999991
 20
1792.0872890000001
 30
0.0
 11
1114.5783149999991
 21
2527.0872890000001
 31
0.0
  0
LINE
  5
7AAF
  8
1
  6
CONTINUOUS
 10
1104.578315
 20
2239.0872889999991
 30
0.0
 11
1104.578315
 21
1839.2172889999999
 31
0.0
  0
CIRCLE
  5
7AB0
  8
1
  6
CONTINUOUS
 10
1384.578315
 20
2227.0872889999991
 30
0.0
 40
215.0
  0
LINE
  5
7AB1
  8
1
  6
CONTINUOUS
 10
1084.578315
 20
1839.0872890000001
 30
0.0
 11
1384.578315
 21
1841.0872890000001
 31
0.0
  0
LINE
  5
7AB2
  8
1
  6
CONTINUOUS
 10
1124.5783149999991
 20
1792.0872890000001
 30
0.0
 11
1124.5783149999991
 21
1712.0872890000001
 31
0.0
  0
LINE
  5
7AB3
  8
1
  6
CONTINUOUS
 10
1209.078315
 20
2332.0872889999991
 30
0.0
 11
1399.078315
 21
2447.0872890000001
 31
0.0
  0
LINE
  5
7AB4
  8
2
  6
CENTER
 62
     3
 10
932.34776339415112
 20
2227.0872889999991
 30
0.0
 11
1935.516808301174
 21
2227.0872889999991
 31
0.0
  0
ARC
  5
7AB5
  8
1
  6
CONTINUOUS
 10
1401.578315
 20
2244.0872890000001
 30
0.0
 40
271.43999999999988
 50
97.310000000000016
 51
181.06
  0
LINE
  5
7AB6
  8
1
  6
CONTINUOUS
 10
1130.1783150000001
 20
2239.0872889999991
 30
0.0
 11
1084.578315
 21
2239.0872889999991
 31
0.0
  0
LINE
  5
7AB7
  8
1
  6
CONTINUOUS
 10
1654.578315
 20
1792.0872890000001
 30
0.0
 11
1654.578315
 21
2527.0872890000001
 31
0.0
  0
LINE
  5
7AB8
  8
2
  6
CENTER
 10
1976.4483150000001
 20
1917.0872890000001
 30
0.0
 11
1856.448314999999
 21
1917.0872890000001
 31
0.0
  0
ARC
  5
7AB9
  8
1
  6
CONTINUOUS
 10
1916.4483150000001
 20
1917.0872890000001
 30
0.0
 40
101.0
 50
322.88
 51
217.12
  0
CIRCLE
  5
7ABA
  8
1
  6
CONTINUOUS
 10
1916.4483150000001
 20
1917.0872890000001
 30
0.0
 40
60.0
  0
LINE
  5
7ABB
  8
1
  6
CONTINUOUS
 10
1816.448314999999
 20
1792.0872890000001
 30
0.0
 11
1816.448314999999
 21
1829.0872890000001
 31
0.0
  0
LINE
  5
7ABC
  8
1
  6
CONTINUOUS
 10
1816.448314999999
 20
1829.0872890000001
 30
0.0
 11
1835.9083149999999
 21
1856.137289
 31
0.0
  0
LINE
  5
7ABD
  8
1
  6
CONTINUOUS
 10
2124.5783149999988
 20
1792.0872890000001
 30
0.0
 11
2124.5783149999988
 21
1712.0872890000001
 31
0.0
  0
LINE
  5
7ABE
  8
2
  6
CENTER
 10
1916.4483150000001
 20
1857.0872890000001
 30
0.0
 11
1916.4483150000001
 21
1977.0872889999989
 31
0.0
  0
LINE
  5
7ABF
  8
1
  6
CONTINUOUS
 10
2016.448314999999
 20
1829.0872890000001
 30
0.0
 11
1996.9783149999989
 21
1856.137289
 31
0.0
  0
LINE
  5
7AC0
  8
1
  6
CONTINUOUS
 10
2016.448314999999
 20
1792.0872890000001
 30
0.0
 11
2016.448314999999
 21
1829.0872890000001
 31
0.0
  0
LINE
  5
7AC1
  8
1
  6
CONTINUOUS
 10
2079.0783149999988
 20
1792.0872890000001
 30
0.0
 11
2079.0783149999988
 21
2042.0872890000001
 31
0.0
  0
LINE
  5
7AC2
  8
1
  6
CONTINUOUS
 10
1398.5783149999991
 20
3494.9528789999999
 30
0.0
 11
1902.4483150000001
 21
3494.9528789999999
 31
0.0
  0
LINE
  5
7AC3
  8
1
  6
CONTINUOUS
 10
1124.5783149999991
 20
3882.952878999999
 30
0.0
 11
2124.5783149999988
 21
3882.952878999999
 31
0.0
  0
LINE
  5
7AC4
  8
1
  6
CONTINUOUS
 10
1724.5783149999991
 20
3538.952878999999
 30
0.0
 11
1084.578315
 21
3538.952878999999
 31
0.0
  0
LINE
  5
7AC5
  8
1
  6
CONTINUOUS
 10
1724.5783149999991
 20
3838.9528789999999
 30
0.0
 11
1084.578315
 21
3838.9528789999999
 31
0.0
  0
LINE
  5
7AC6
  8
1
  6
CONTINUOUS
 10
2079.0783149999988
 20
3358.9528789999999
 30
0.0
 11
1209.078315
 21
3358.9528789999999
 31
0.0
  0
LINE
  5
7AC7
  8
1
  6
CONTINUOUS
 10
2079.0783149999988
 20
3458.9528789999999
 30
0.0
 11
1209.078315
 21
3458.9528789999999
 31
0.0
  0
LINE
  5
7AC8
  8
1
  6
CONTINUOUS
 10
1124.5783149999991
 20
3494.9528789999999
 30
0.0
 11
1370.578315
 21
3494.9528789999999
 31
0.0
  0
LINE
  5
7AC9
  8
1
  6
CONTINUOUS
 10
1488.1083149999999
 20
3383.9528789999999
 30
0.0
 11
1284.578315
 21
3383.9528789999999
 31
0.0
  0
LINE
  5
7ACA
  8
1
  6
CONTINUOUS
 10
1488.1083149999999
 20
3433.9528789999999
 30
0.0
 11
1284.578315
 21
3433.9528789999999
 31
0.0
  0
LINE
  5
7ACB
  8
1
  6
CONTINUOUS
 10
1084.578315
 20
3511.952878999999
 30
0.0
 11
1084.578315
 21
3865.9528789999999
 31
0.0
  0
LINE
  5
7ACC
  8
1
  6
CONTINUOUS
 10
1104.578315
 20
3538.952878999999
 30
0.0
 11
1104.578315
 21
3838.9528789999999
 31
0.0
  0
LINE
  5
7ACD
  8
1
  6
CONTINUOUS
 10
1124.5783149999991
 20
3538.952878999999
 30
0.0
 11
1124.5783149999991
 21
3494.9528789999999
 31
0.0
  0
LINE
  5
7ACE
  8
1
  6
CONTINUOUS
 10
1209.078315
 20
3358.9528789999999
 30
0.0
 11
1209.078315
 21
3458.9528789999999
 31
0.0
  0
LINE
  5
7ACF
  8
1
  6
CONTINUOUS
 10
1284.578315
 20
3383.9528789999999
 30
0.0
 11
1284.578315
 21
3433.9528789999999
 31
0.0
  0
LINE
  5
7AD0
  8
1
  6
CONTINUOUS
 10
1124.5783149999991
 20
3882.952878999999
 30
0.0
 11
1124.5783149999991
 21
3838.9528789999999
 31
0.0
  0
LINE
  5
7AD1
  8
1
  6
CONTINUOUS
 10
1398.5783149999991
 20
3433.9528789999999
 30
0.0
 11
1398.5783149999991
 21
3538.952878999999
 31
0.0
  0
LINE
  5
7AD2
  8
1
  6
CONTINUOUS
 10
1370.578315
 20
3433.9528789999999
 30
0.0
 11
1370.578315
 21
3538.952878999999
 31
0.0
  0
LINE
  5
7AD3
  8
1
  6
CONTINUOUS
 10
1488.1083149999999
 20
3383.9528789999999
 30
0.0
 11
1488.1083149999999
 21
3433.9528789999999
 31
0.0
  0
LINE
  5
7AD4
  8
1
  6
CONTINUOUS
 10
1815.4483150000001
 20
3769.162879
 30
0.0
 11
2017.4483150000001
 21
3769.162879
 31
0.0
  0
LINE
  5
7AD5
  8
1
  6
CONTINUOUS
 10
1815.4483150000001
 20
3526.4828789999988
 30
0.0
 11
2017.4483150000001
 21
3526.4828789999988
 31
0.0
  0
LINE
  5
7AD6
  8
1
  6
CONTINUOUS
 10
1976.4483150000001
 20
3383.9528789999999
 30
0.0
 11
1856.448314999999
 21
3383.9528789999999
 31
0.0
  0
LINE
  5
7AD7
  8
1
  6
CONTINUOUS
 10
1976.4483150000001
 20
3433.9528789999999
 30
0.0
 11
1856.448314999999
 21
3433.9528789999999
 31
0.0
  0
LINE
  5
7AD8
  8
1
  6
CONTINUOUS
 10
1815.4483150000001
 20
3526.4828789999988
 30
0.0
 11
1815.4483150000001
 21
3769.162879
 31
0.0
  0
LINE
  5
7AD9
  8
1
  6
CONTINUOUS
 10
1724.5783149999991
 20
3538.952878999999
 30
0.0
 11
1724.5783149999991
 21
3838.9528789999999
 31
0.0
  0
LINE
  5
7ADA
  8
1
  6
CONTINUOUS
 10
1902.4483150000001
 20
3433.9528789999999
 30
0.0
 11
1902.4483150000001
 21
3526.4828789999988
 31
0.0
  0
LINE
  5
7ADB
  8
1
  6
CONTINUOUS
 10
1856.448314999999
 20
3383.9528789999999
 30
0.0
 11
1856.448314999999
 21
3433.9528789999999
 31
0.0
  0
LINE
  5
7ADC
  8
1
  6
CONTINUOUS
 10
2017.4483150000001
 20
3526.4828789999988
 30
0.0
 11
2017.4483150000001
 21
3769.162879
 31
0.0
  0
LINE
  5
7ADD
  8
1
  6
CONTINUOUS
 10
2124.5783149999988
 20
3882.952878999999
 30
0.0
 11
2124.5783149999988
 21
3494.9528789999999
 31
0.0
  0
LINE
  5
7ADE
  8
1
  6
CONTINUOUS
 10
1930.448314999999
 20
3494.9528789999999
 30
0.0
 11
2124.5783149999988
 21
3494.9528789999999
 31
0.0
  0
LINE
  5
7ADF
  8
1
  6
CONTINUOUS
 10
1930.448314999999
 20
3433.9528789999999
 30
0.0
 11
1930.448314999999
 21
3526.4828789999988
 31
0.0
  0
LINE
  5
7AE0
  8
1
  6
CONTINUOUS
 10
1976.4483150000001
 20
3383.9528789999999
 30
0.0
 11
1976.4483150000001
 21
3433.9528789999999
 31
0.0
  0
LINE
  5
7AE1
  8
1
  6
CONTINUOUS
 10
2079.0783149999988
 20
3358.9528789999999
 30
0.0
 11
2079.0783149999988
 21
3458.9528789999999
 31
0.0
  0
LINE
  5
7B03
  8
1
  6
CONTINUOUS
 10
2988.5310899999999
 20
2125.3172890000001
 30
0.0
 11
2988.5310899999999
 21
2328.8472889999998
 31
0.0
  0
LINE
  5
7B04
  8
1
  6
CONTINUOUS
 10
3038.5310899999999
 20
2125.3172890000001
 30
0.0
 11
3038.5310899999999
 21
2328.8472889999998
 31
0.0
  0
LINE
  5
7B05
  8
1
  6
CONTINUOUS
 10
3063.5310899999999
 20
1792.0872890000001
 30
0.0
 11
3063.5310899999999
 21
2447.0872890000001
 31
0.0
  0
LINE
  5
7B06
  8
1
  6
CONTINUOUS
 10
2963.5310899999999
 20
1792.0872890000001
 30
0.0
 11
2963.5310899999999
 21
2447.0872890000001
 31
0.0
  0
LINE
  5
7B07
  8
1
  6
CONTINUOUS
 10
3443.5310899999999
 20
2527.0872890000001
 30
0.0
 11
3443.5310899999999
 21
1792.0872890000001
 31
0.0
  0
LINE
  5
7B08
  8
1
  6
CONTINUOUS
 10
3143.5310899999999
 20
2527.0872890000001
 30
0.0
 11
3143.5310899999999
 21
1792.0872890000001
 31
0.0
  0
LINE
  5
7B09
  8
1
  6
CONTINUOUS
 10
3443.5310899999999
 20
1839.0872890000001
 30
0.0
 11
3143.5310899999999
 21
2239.0872889999991
 31
0.0
  0
LINE
  5
7B0A
  8
1
  6
CONTINUOUS
 10
3143.5310899999999
 20
1839.0872890000001
 30
0.0
 11
3443.5310899999999
 21
2239.0872889999991
 31
0.0
  0
LINE
  5
7B0B
  8
1
  6
CONTINUOUS
 10
3487.5310899999999
 20
1792.0872890000001
 30
0.0
 11
2963.5310899999999
 21
1792.0872890000001
 31
0.0
  0
LINE
  5
7B0C
  8
1
  6
CONTINUOUS
 10
3487.5310899999999
 20
1712.0872890000001
 30
0.0
 11
3099.5310899999999
 21
1712.0872890000001
 31
0.0
  0
LINE
  5
7B0D
  8
1
  6
CONTINUOUS
 10
3143.5310899999999
 20
1839.0872890000001
 30
0.0
 11
3443.5310899999999
 21
1839.0872890000001
 31
0.0
  0
LINE
  5
7B0E
  8
1
  6
CONTINUOUS
 10
3099.5310899999999
 20
1792.0872890000001
 30
0.0
 11
3099.5310899999999
 21
1712.0872890000001
 31
0.0
  0
LINE
  5
7B0F
  8
1
  6
CONTINUOUS
 10
3038.5310899999999
 20
1903.0872890000001
 30
0.0
 11
3143.5310899999999
 21
1903.0872890000001
 31
0.0
  0
LINE
  5
7B10
  8
1
  6
CONTINUOUS
 10
3038.5310899999999
 20
1931.0872890000001
 30
0.0
 11
3143.5310899999999
 21
1931.0872890000001
 31
0.0
  0
LINE
  5
7B11
  8
1
  6
CONTINUOUS
 10
2988.5310899999999
 20
2125.3172890000001
 30
0.0
 11
3038.5310899999999
 21
2125.3172890000001
 31
0.0
  0
LINE
  5
7B12
  8
1
  6
CONTINUOUS
 10
2988.5310899999999
 20
1857.0872890000001
 30
0.0
 11
3038.5310899999999
 21
1857.0872890000001
 31
0.0
  0
LINE
  5
7B13
  8
1
  6
CONTINUOUS
 10
2988.5310899999999
 20
1977.0872889999989
 30
0.0
 11
3038.5310899999999
 21
1977.0872889999989
 31
0.0
  0
LINE
  5
7B14
  8
1
  6
CONTINUOUS
 10
2988.5310899999999
 20
1857.0872890000001
 30
0.0
 11
2988.5310899999999
 21
1977.0872889999989
 31
0.0
  0
LINE
  5
7B15
  8
1
  6
CONTINUOUS
 10
3038.5310899999999
 20
1857.0872890000001
 30
0.0
 11
3038.5310899999999
 21
1977.0872889999989
 31
0.0
  0
LINE
  5
7B16
  8
1
  6
CONTINUOUS
 10
3487.5310899999999
 20
1792.0872890000001
 30
0.0
 11
3487.5310899999999
 21
1712.0872890000001
 31
0.0
  0
LINE
  5
7B17
  8
1
  6
CONTINUOUS
 10
3143.5310899999999
 20
2527.0872890000001
 30
0.0
 11
3443.5310899999999
 21
2527.0872890000001
 31
0.0
  0
LINE
  5
7B18
  8
1
  6
CONTINUOUS
 10
3143.5310899999999
 20
2239.0872889999991
 30
0.0
 11
3443.5310899999999
 21
2239.0872889999991
 31
0.0
  0
LINE
  5
7B19
  8
1
  6
CONTINUOUS
 10
3038.5310899999999
 20
2214.8472889999998
 30
0.0
 11
3143.5310899999999
 21
2214.8472889999998
 31
0.0
  0
LINE
  5
7B1A
  8
1
  6
CONTINUOUS
 10
3038.5310899999999
 20
2242.8472889999998
 30
0.0
 11
3143.5310899999999
 21
2242.8472889999998
 31
0.0
  0
LINE
  5
7B1B
  8
1
  6
CONTINUOUS
 10
2988.5310899999999
 20
2328.8472889999998
 30
0.0
 11
3038.5310899999999
 21
2328.8472889999998
 31
0.0
  0
LINE
  5
7B1C
  8
1
  6
CONTINUOUS
 10
2963.5310899999999
 20
2447.0872890000001
 30
0.0
 11
3063.5310899999999
 21
2447.0872890000001
 31
0.0
  0
LINE
  5
7B3D
  8
2
  6
CENTER
 10
3293.5310899999999
 20
2573.992017
 30
0.0
 11
3293.5310899999999
 21
1653.799769271483
 31
0.0
  0
LINE
  5
7B3E
  8
2
  6
CENTER
 10
2172.2934180000002
 20
3688.9528789999999
 30
0.0
 11
1035.152672438056
 21
3688.9528789999999
 31
0.0
  0
LINE
  5
7B3F
  8
2
  6
CENTER
 10
2895.9052088432431
 20
2227.0872889999991
 30
0.0
 11
3495.63814
 21
2227.0872889999991
 31
0.0
  0
LINE
  5
7B40
  8
2
  6
CENTER
 10
1384.578315
 20
3302.022805941383
 30
0.0
 11
1384.578315
 21
3943.752547066535
 31
0.0
  0
LINE
  5
7B60
  8
4
  6
CONTINUOUS
 10
3700.0
 20
1000.0
 30
0.0
 11
3700.0
 21
600.0
 31
0.0
  0
LINE
  5
7B61
  8
4
  6
CONTINUOUS
 10
2300.0
 20
1000.0
 30
0.0
 11
2300.0
 21
600.0
 31
0.0
  0
LINE
  5
7B62
  8
4
  6
CONTINUOUS
 10
1300.0
 20
1000.0
 30
0.0
 11
1300.0
 21
600.0
 31
0.0
  0
LINE
  5
7B65
  8
4
  6
CONTINUOUS
 10
1300.0
 20
600.0
 30
0.0
 11
3700.0
 21
600.0
 31
0.0
  0
LINE
  5
7B66
  8
4
  6
CONTINUOUS
 10
1300.0
 20
800.0
 30
0.0
 11
3700.0
 21
800.0
 31
0.0
  0
TEXT
  5
7B67
  8
4
  6
CONTINUOUS
 10
1377.004162
 20
863.086052
 30
0.0
 40
100.0
  1
機器名称
  0
TEXT
  5
7B68
  8
4
  6
CONTINUOUS
 10
1372.516212
 20
643.29031299999986
 30
0.0
 40
100.0
  1
機器型番
  0
TEXT
  5
7B69
  8
4
  6
CONTINUOUS
 10
2355.3574910000002
 20
845.14353800000015
 30
0.0
 40
100.0
  1
ミツヤ多翼送風機
  0
TEXT
  5
7B6A
  8
4
  6
CONTINUOUS
 10
2373.3089909999999
 20
634.31916899999999
 30
0.0
 40
100.0
  1
MF#2 1/2-4
  0
TEXT
  5
7B6C
  8
4
  6
CONTINUOUS
 10
1809.5715309999989
 20
4766.8576830000002
 30
0.0
 40
108.0
  1
床置ベット
  0
TEXT
  5
7B6D
  8
4
  6
CONTINUOUS
 10
632.33518700000002
 20
5067.7619520000007
 30
0.0
 40
144.0
  1
ベルト駆動式片吸込両持多翼ファン
  0
LINE
  5
7B6E
  8
4
  6
CONTINUOUS
 10
500.0
 20
4938.8175090000004
 30
0.0
 11
3700.0
 21
4938.8175090000004
 31
0.0
  0
LINE
  5
7B6F
  8
4
  6
CONTINUOUS
 10
500.0
 20
5338.8175090000004
 30
0.0
 11
3700.0
 21
5338.8175090000004
 31
0.0
  0
LINE
  5
7B70
  8
4
  6
CONTINUOUS
 10
1300.0
 20
1000.0
 30
0.0
 11
3700.0
 21
1000.0
 31
0.0
  0
LINE
  5
7B71
  8
4
  6
CONTINUOUS
 10
500.0
 20
5338.8175090000004
 30
0.0
 11
500.0
 21
4938.8175090000004
 31
0.0
  0
TEXT
  5
7B72
  8
4
  6
CONTINUOUS
 10
937.85386600000004
 20
4764.6389549999994
 30
0.0
 40
108.0
  1
右回転左横向
  0
TEXT
  5
7B73
  8
4
  6
CONTINUOUS
 10
2937.9391179999998
 20
5412.122163
 30
0.0
 40
112.0
  1
No.
  0
TEXT
  5
7B74
  8
4
  6
CONTINUOUS
 10
2622.5921250000001
 20
4766.8576830000002
 30
0.0
 40
108.0
  1
縮尺：1/20
  0
LINE
  5
7B75
  8
4
  6
CONTINUOUS
 10
3700.0
 20
5338.8175090000004
 30
0.0
 11
3700.0
 21
4938.8175090000004
 31
0.0
  0
LINE
  5
7B77
  8
4
  6
CONTINUOUS
 10
2881.234845
 20
5362.5271659999999
 30
0.0
 11
2881.234845
 21
5573.3045229999998
 31
0.0
  0
LINE
  5
7B78
  8
4
  6
CONTINUOUS
 10
2881.234845
 20
5573.3045229999998
 30
0.0
 11
3700.0
 21
5573.3045229999998
 31
0.0
  0
LINE
  5
7B79
  8
4
  6
CONTINUOUS
 10
3700.0
 20
5573.3045229999998
 30
0.0
 11
3700.0
 21
5362.5271659999999
 31
0.0
  0
LINE
  5
7B7A
  8
4
  6
CONTINUOUS
 10
3700.0
 20
5362.5271659999999
 30
0.0
 11
2881.234845
 21
5362.5271659999999
 31
0.0
  0
DIMENSION
  5
7B92
  8
3
  6
CONTINUOUS
  2
*D1
 10
1030.2021810000001
 20
1839.0872890000001
 30
0.0
 11
1030.2021810000001
 21
2007.5200030000001
 31
0.0
 70
   128
 13
1084.578315
 23
2239.0872889999991
 33
0.0
 14
1084.578315
 24
1839.0872890000001
 34
0.0
 50
90.0
1001
ACAD
1000
DSTYLE
1002
{
1070
   287
1070
     3
1070
    40
1040
20.0
1070
   143
1040
0.039
1070
   172
1070
     1
1070
   271
1070
     0
1070
   279
1070
     0
1070
   288
1070
     1
1002
}
  0
DIMENSION
  5
7B9F
  8
3
  6
CONTINUOUS
  2
*D2
 10
900.37585000000036
 20
2227.0872889999991
 30
0.0
 11
900.3758499999999
 21
2015.8897730000001
 31
0.0
 70
   128
 13
1030.2021810000001
 23
1839.0872890000001
 33
0.0
 14
853.77575243986121
 24
2227.0872889999991
 34
0.0
 50
90.0
1001
ACAD
1000
DSTYLE
1002
{
1070
   287
1070
     3
1070
    40
1040
20.0
1070
   143
1040
0.039
1070
   172
1070
     1
1070
   271
1070
     0
1070
   279
1070
     0
1070
   288
1070
     1
1002
}
  0
DIMENSION
  5
7BC7
  8
3
  6
CONTINUOUS
  2
*D3
 10
1384.578315
 20
1563.9224630000001
 30
0.0
 11
1254.578315
 21
1617.578339836643
 31
0.0
 70
   128
 13
1124.5783149999991
 23
1712.0872890000001
 33
0.0
 14
1384.578315
 24
1622.2864200648321
 34
0.0
1001
ACAD
1000
DSTYLE
1002
{
1070
   288
1070
     1
1070
   172
1070
     1
1070
    40
1040
20.0
1070
   271
1070
     0
1070
   143
1040
0.039
1002
}
  0
DIMENSION
  5
7BD3
  8
3
  6
CONTINUOUS
  2
*D4
 10
2124.5783149999988
 20
1563.9224630000001
 30
0.0
 11
1754.5783149999991
 21
1613.9224630000001
 31
0.0
 70
     0
 13
1384.578315
 23
1622.2864200648321
 33
0.0
 14
2124.5783149999988
 24
1712.0872890000001
 34
0.0
1001
ACAD
1000
DSTYLE
1002
{
1070
   287
1070
     4
1070
    40
1040
20.0
1070
    75
1070
     1
1070
   143
1040
0.039
1070
   172
1070
     1
1070
   271
1070
     0
1070
   279
1070
     1
1070
   288
1070
     1
1002
}
  0
DIMENSION
  5
7C0A
  8
3
  6
CONTINUOUS
  2
*D5
 10
1716.578315
 20
2651.991896
 30
0.0
 11
1550.578315
 21
2701.991896
 31
0.0
 70
     0
 13
1384.578315
 23
2613.2807144866019
 33
0.0
 14
1716.578315
 24
2200.0872890000001
 34
0.0
1001
ACAD
1000
DSTYLE
1002
{
1070
   287
1070
     3
1070
    40
1040
20.0
1070
   143
1040
0.039
1070
   172
1070
     1
1070
   271
1070
     0
1070
   279
1070
     0
1070
   288
1070
     1
1002
}
  0
DIMENSION
  5
7C19
  8
3
  6
CONTINUOUS
  2
*D6
 10
3293.5310899999999
 20
1543.238063
 30
0.0
 11
3196.5310899999999
 21
1591.7312295593269
 31
0.0
 70
   128
 13
3099.5310899999999
 23
1712.0872890000001
 33
0.0
 14
3293.5310899999999
 24
1651.9189004167069
 34
0.0
1001
ACAD
1000
DSTYLE
1002
{
1070
   288
1070
     1
1070
   172
1070
     1
1070
    40
1040
20.0
1070
   271
1070
     0
1070
   143
1040
0.039
1002
}
  0
DIMENSION
  5
7C27
  8
3
  6
CONTINUOUS
  2
*D7
 10
3487.5310899999999
 20
1543.238063
 30
0.0
 11
3395.489838
 21
1589.85037274959
 31
0.0
 70
   128
 13
3293.5310899999999
 23
1651.9189004167069
 33
0.0
 14
3487.5310899999999
 24
1712.0872890000001
 34
0.0
1001
ACAD
1000
DSTYLE
1002
{
1070
   288
1070
     1
1070
   172
1070
     1
1070
    75
1070
     1
1070
    40
1040
20.0
1070
   271
1070
     0
1070
   143
1040
0.039
1002
}
  0
DIMENSION
  5
7C34
  8
3
  6
CONTINUOUS
  2
*D8
 10
3443.5310899999999
 20
2603.5292020000002
 30
0.0
 11
3280.6739469999989
 21
2603.5292020000002
 31
0.0
 70
   128
 13
3143.5310899999999
 23
2527.0872890000001
 33
0.0
 14
3443.5310899999999
 24
2527.0872890000001
 34
0.0
1001
ACAD
1000
DSTYLE
1002
{
1070
   287
1070
     3
1070
    40
1040
20.0
1070
   143
1040
0.039
1070
   172
1070
     1
1070
   271
1070
     0
1070
   279
1070
     0
1070
   288
1070
     1
1002
}
  0
DIMENSION
  5
7C4E
  8
3
  6
CONTINUOUS
  2
*D9
 10
2963.5310899999999
 20
2779.4107853538162
 30
0.0
 11
3128.5310899999999
 21
2879.4107853538162
 31
0.0
 70
     0
  1
MAX\P380
 13
3293.5310899999999
 23
2694.2895779999999
 33
0.0
 14
2963.5310899999999
 24
2447.0872890000001
 34
0.0
1001
ACAD
1000
DSTYLE
1002
{
1070
   287
1070
     4
1070
    40
1040
20.0
1070
    75
1070
     1
1070
   143
1040
0.039
1070
   172
1070
     1
1070
   271
1070
     0
1070
   279
1070
     1
1070
   288
1070
     1
1002
}
  0
DIMENSION
  5
7C5D
  8
3
  6
CONTINUOUS
  2
*D10
 10
3605.7890320000001
 20
2012.0872889999989
 30
0.0
 11
3605.7890320000001
 21
2212.579240999999
 31
0.0
 70
   128
 13
3443.5310899999999
 23
2442.0872890000001
 33
0.0
 14
3443.5310899999999
 24
2012.0872890000001
 34
0.0
 50
90.0
1001
ACAD
1000
DSTYLE
1002
{
1070
   287
1070
     3
1070
     3
1000
φ<>
1070
    40
1040
20.0
1070
   143
1040
0.039
1070
   172
1070
     1
1070
   271
1070
     0
1070
   279
1070
     0
1070
   288
1070
     1
1002
}
  0
DIMENSION
  5
7C6A
  8
3
  6
CONTINUOUS
  2
*D11
 10
2124.5783149999988
 20
4030.2892669999992
 30
0.0
 11
1612.326687
 21
4030.2892669999992
 31
0.0
 70
   128
 13
1124.5783149999991
 23
3882.952878999999
 33
0.0
 14
2124.5783149999988
 24
3882.952878999999
 34
0.0
1001
ACAD
1000
DSTYLE
1002
{
1070
   287
1070
     3
1070
    40
1040
20.0
1070
   143
1040
0.039
1070
   172
1070
     1
1070
   271
1070
     0
1070
   279
1070
     0
1070
   288
1070
     1
1002
}
  0
DIMENSION
  5
7C77
  8
3
  6
CONTINUOUS
  2
*D12
 10
2282.3980780000011
 20
3494.9528789999999
 30
0.0
 11
2282.3980780000002
 21
3699.054275
 31
0.0
 70
   128
 13
2124.5783149999988
 23
3882.952878999999
 33
0.0
 14
2124.5783149999988
 24
3494.9528789999999
 34
0.0
 50
90.0
1001
ACAD
1000
DSTYLE
1002
{
1070
   287
1070
     3
1070
    40
1040
20.0
1070
   143
1040
0.039
1070
   172
1070
     1
1070
   271
1070
     0
1070
   279
1070
     0
1070
   288
1070
     1
1002
}
  0
DIMENSION
  5
7C88
  8
3
  6
CONTINUOUS
  2
*D13
 10
1084.578315
 20
2651.991896
 30
0.0
 11
1234.578315
 21
2701.991896
 31
0.0
 70
     0
 13
1384.578315
 23
2611.23564767067
 33
0.0
 14
1084.578315
 24
2266.0872890000001
 34
0.0
1001
ACAD
1000
DSTYLE
1002
{
1070
   287
1070
     4
1070
    40
1040
20.0
1070
    75
1070
     1
1070
   143
1040
0.039
1070
   172
1070
     1
1070
   271
1070
     0
1070
   279
1070
     1
1070
   288
1070
     1
1002
}
  0
DIMENSION
  5
7C95
  8
3
  6
CONTINUOUS
  2
*D14
 10
769.68702000000042
 20
2227.0872889999991
 30
0.0
 11
769.68702000000008
 21
1913.981143
 31
0.0
 70
   128
 13
1124.5783149999991
 23
1712.0872890000001
 33
0.0
 14
932.34776339415112
 24
2227.0872889999991
 34
0.0
 50
90.0
1001
ACAD
1000
DSTYLE
1002
{
1070
   287
1070
     3
1070
    40
1040
20.0
1070
   143
1040
0.039
1070
   172
1070
     1
1070
   271
1070
     0
1070
   279
1070
     0
1070
   288
1070
     1
1002
}
  0
DIMENSION
  5
7CA2
  8
3
  6
CONTINUOUS
  2
*D15
 10
652.20429300000035
 20
2527.0872890000001
 30
0.0
 11
652.20429300000001
 21
2170.1403379999988
 31
0.0
 70
   128
 13
1124.5783149999991
 23
1712.0872890000001
 33
0.0
 14
1114.5783149999991
 24
2527.0872890000001
 34
0.0
 50
90.0
1001
ACAD
1000
DSTYLE
1002
{
1070
   287
1070
     3
1070
    40
1040
20.0
1070
   143
1040
0.039
1070
   172
1070
     1
1070
   271
1070
     0
1070
   279
1070
     0
1070
   288
1070
     1
1002
}
  0
DIMENSION
  5
7CB3
  8
3
  6
CONTINUOUS
  2
*D16
 10
769.68702000000008
 20
2527.0872890000001
 30
0.0
 11
719.68701999999962
 21
2377.0872889999991
 31
0.0
 70
     0
 13
853.77575243986121
 23
2227.0872889999991
 33
0.0
 14
1114.5783149999991
 24
2527.0872890000001
 34
0.0
 50
90.0
1001
ACAD
1000
DSTYLE
1002
{
1070
   287
1070
     4
1070
    40
1040
20.0
1070
    75
1070
     1
1070
   143
1040
0.039
1070
   172
1070
     1
1070
   271
1070
     0
1070
   279
1070
     1
1070
   288
1070
     1
1002
}
  0
LINE
  5
7CD5
  8
1
  6
CONTINUOUS
 10
3444.5310899999999
 20
2442.0872890000001
 30
0.0
 11
3444.5310899999999
 21
2012.0872890000001
 31
0.0
  0
DIMENSION
  5
7CE5
  8
3
  6
CONTINUOUS
  2
*D17
 10
3444.5310899999999
 20
2779.4107853538162
 30
0.0
 11
3360.4007641963358
 21
2832.445412633384
 31
0.0
 70
   128
 13
3293.5310899999999
 23
2694.2895779999999
 33
0.0
 14
3444.5310899999999
 24
2442.0872890000001
 34
0.0
1001
ACAD
1000
DSTYLE
1002
{
1070
   288
1070
     1
1070
   172
1070
     1
1070
    40
1040
20.0
1070
   271
1070
     0
1070
   143
1040
0.039
1002
}
  0
DIMENSION
  5
7DE5
  8
3
  2
*D18
 10
2124.5783149999988
 20
2778.3971700322122
 30
0.0
 11
1662.1754933448969
 21
2778.3971700322122
 31
0.0
 70
   128
 13
1084.578315
 23
2266.0872890000001
 33
0.0
 14
2124.5783149999988
 24
1792.0872890000001
 34
0.0
1001
ACAD
1000
DSTYLE
1002
{
1070
   287
1070
     3
1070
    40
1040
20.0
1070
   143
1040
0.039
1070
   172
1070
     1
1070
   271
1070
     0
1070
   279
1070
     0
1070
   288
1070
     1
1002
}
  0
ENDSEC
  0
EOF
