  0
SECTION
  2
HEADER
  9
$ACADVER
  1
AC1009
  9
$INSBASE
 10
0.0
 20
0.0
 30
0.0
  9
$EXTMIN
 10
500.0
 20
600.0
 30
0.0
  9
$EXTMAX
 10
3700.0
 20
5573.3045229999998
 30
0.0
  9
$LIMMIN
 10
0.0
 20
0.0
  9
$LIMMAX
 10
297.0
 20
210.0
  9
$ORTHOMODE
 70
     0
  9
$REGENMODE
 70
     1
  9
$FILLMODE
 70
     0
  9
$QTEXTMODE
 70
     0
  9
$MIRRTEXT
 70
     1
  9
$DRAGMODE
 70
     2
  9
$LTSCALE
 40
100.0
  9
$OSMODE
 70
    37
  9
$ATTMODE
 70
     1
  9
$TEXTSIZE
 40
180.0
  9
$TRACEWID
 40
0.05
  9
$TEXTSTYLE
  7
STANDARD
  9
$CLAYER
  8
3
  9
$CELTYPE
  6
BYLAYER
  9
$CECOLOR
 62
   256
  9
$DIMSCALE
 40
20.0
  9
$DIMASZ
 40
2.0
  9
$DIMEXO
 40
0.5
  9
$DIMDLI
 40
10.0
  9
$DIMRND
 40
0.0
  9
$DIMDLE
 40
0.0
  9
$DIMEXE
 40
1.0
  9
$DIMTP
 40
1.0
  9
$DIMTM
 40
1.0
  9
$DIMTXT
 40
3.0
  9
$DIMCEN
 40
0.0
  9
$DIMTSZ
 40
0.0
  9
$DIMTOL
 70
     0
  9
$DIMLIM
 70
     0
  9
$DIMTIH
 70
     0
  9
$DIMTOH
 70
     0
  9
$DIMSE1
 70
     0
  9
$DIMSE2
 70
     0
  9
$DIMTAD
 70
     1
  9
$DIMZIN
 70
     8
  9
$DIMBLK
  1

  9
$DIMASO
 70
     1
  9
$DIMSHO
 70
     1
  9
$DIMPOST
  1

  9
$DIMAPOST
  1

  9
$DIMALT
 70
     0
  9
$DIMALTD
 70
     2
  9
$DIMALTF
 40
0.039
  9
$DIMLFAC
 40
1.0
  9
$DIMTOFL
 70
     1
  9
$DIMTVP
 40
0.0
  9
$DIMTIX
 70
     0
  9
$DIMSOXD
 70
     0
  9
$DIMSAH
 70
     1
  9
$DIMBLK1
  1
OPEN
  9
$DIMBLK2
  1
OPEN
  9
$DIMSTYLE
  2
IGA
  9
$DIMCLRD
 70
     0
  9
$DIMCLRE
 70
     0
  9
$DIMCLRT
 70
     0
  9
$DIMTFAC
 40
10.0
  9
$DIMGAP
 40
1.0
  9
$LUNITS
 70
     2
  9
$LUPREC
 70
     3
  9
$SKETCHINC
 40
0.1
  9
$FILLETRAD
 40
50.0
  9
$AUNITS
 70
     0
  9
$AUPREC
 70
     0
  9
$MENU
  1
acad
  9
$ELEVATION
 40
0.0
  9
$PELEVATION
 40
0.0
  9
$THICKNESS
 40
0.0
  9
$LIMCHECK
 70
     0
  9
$BLIPMODE
 70
     0
  9
$CHAMFERA
 40
0.5
  9
$CHAMFERB
 40
0.5
  9
$SKPOLY
 70
     0
  9
$TDCREATE
 40
2450724.4095515041
  9
$TDUPDATE
 40
2454953.7659459952
  9
$TDINDWG
 40
0.0049805556
  9
$TDUSRTIMER
 40
0.0049805556
  9
$USRTIMER
 70
     1
  9
$ANGBASE
 50
0.0
  9
$ANGDIR
 70
     0
  9
$PDMODE
 70
     0
  9
$PDSIZE
 40
0.0
  9
$PLINEWID
 40
0.0
  9
$COORDS
 70
     1
  9
$SPLFRAME
 70
     0
  9
$SPLINETYPE
 70
     6
  9
$SPLINESEGS
 70
     8
  9
$ATTDIA
 70
     0
  9
$ATTREQ
 70
     1
  9
$HANDLING
 70
 10241
  9
$HANDSEED
  5
7ECD
  9
$SURFTAB1
 70
     6
  9
$SURFTAB2
 70
     6
  9
$SURFTYPE
 70
     6
  9
$SURFU
 70
     6
  9
$SURFV
 70
     6
  9
$UCSNAME
  2

  9
$UCSORG
 10
0.0
 20
0.0
 30
0.0
  9
$UCSXDIR
 10
1.0
 20
0.0
 30
0.0
  9
$UCSYDIR
 10
0.0
 20
1.0
 30
0.0
  9
$PUCSNAME
  2

  9
$PUCSORG
 10
0.0
 20
0.0
 30
0.0
  9
$PUCSXDIR
 10
1.0
 20
0.0
 30
0.0
  9
$PUCSYDIR
 10
0.0
 20
1.0
 30
0.0
  9
$USERI1
 70
     0
  9
$USERI2
 70
     0
  9
$USERI3
 70
     0
  9
$USERI4
 70
     0
  9
$USERI5
 70
     0
  9
$USERR1
 40
0.0
  9
$USERR2
 40
0.0
  9
$USERR3
 40
0.0
  9
$USERR4
 40
0.0
  9
$USERR5
 40
0.0
  9
$WORLDVIEW
 70
     1
  9
$SHADEDGE
 70
     3
  9
$SHADEDIF
 70
    70
  9
$TILEMODE
 70
     1
  9
$MAXACTVP
 70
    16
  9
$PLIMCHECK
 70
     0
  9
$PEXTMIN
 10
1.0000000000000000E+020
 20
1.0000000000000000E+020
 30
1.0000000000000000E+020
  9
$PEXTMAX
 10
-1.0000000000000000E+020
 20
-1.0000000000000000E+020
 30
-1.0000000000000000E+020
  9
$PLIMMIN
 10
0.0
 20
0.0
  9
$PLIMMAX
 10
12.0
 20
9.0
  9
$UNITMODE
 70
     0
  9
$VISRETAIN
 70
     0
  9
$PLINEGEN
 70
     0
  9
$PSLTSCALE
 70
     1
  0
ENDSEC
  0
SECTION
  2
TABLES
  0
TABLE
  2
VPORT
 70
     2
  0
VPORT
  2
*ACTIVE
 70
     0
 10
0.0
 20
0.0
 11
1.0
 21
1.0
 12
6292.1124769529506
 22
3086.6374998146398
 13
0.0
 23
0.0
 14
10.0
 24
10.0
 15
10.0
 25
10.0
 16
0.0
 26
0.0
 36
1.0
 17
0.0
 27
0.0
 37
0.0
 40
5011.4968576296578
 41
3.1666666666666661
 42
50.0
 43
0.0
 44
0.0
 50
0.0
 51
0.0
 71
     0
 72
   100
 73
     1
 74
     0
 75
     0
 76
     0
 77
     0
 78
     0
  0
ENDTAB
  0
TABLE
  2
LTYPE
 70
     2
  0
LTYPE
  2
CONTINUOUS
 70
     0
  3
Solid line
 72
    65
 73
     0
 40
0.0
  0
LTYPE
  2
CENTER
 70
     0
  3
____ _ ____ _ ____ _ ____ _ ____ _ ____ _ ____ 
 72
    65
 73
     4
 40
2.0
 49
1.25
 49
-0.25
 49
0.25
 49
-0.25
  0
ENDTAB
  0
TABLE
  2
LAYER
 70
     6
  0
LAYER
  2
0
 70
     0
 62
     7
  6
CONTINUOUS
  0
LAYER
  2
3
 70
     0
 62
     2
  6
CONTINUOUS
  0
LAYER
  2
2
 70
     0
 62
     3
  6
CENTER
  0
LAYER
  2
1
 70
     0
 62
     4
  6
CONTINUOUS
  0
LAYER
  2
4
 70
     0
 62
     7
  6
CONTINUOUS
  0
LAYER
  2
DEFPOINTS
 70
     0
 62
     7
  6
CONTINUOUS
  0
ENDTAB
  0
TABLE
  2
STYLE
 70
     1
  0
STYLE
  2
STANDARD
 70
     0
 40
0.0
 41
1.0
 50
0.0
 71
     0
 42
180.0
  3
simplex.shx
  4
extfont.shx
  0
ENDTAB
  0
TABLE
  2
VIEW
 70
     0
  0
ENDTAB
  0
TABLE
  2
UCS
 70
     0
  0
ENDTAB
  0
TABLE
  2
APPID
 70
     1
  0
APPID
  2
ACAD
 70
     0
  0
ENDTAB
  0
TABLE
  2
DIMSTYLE
 70
     1
  0
DIMSTYLE
  2
IGA
 70
     0
  3

  4

  5

  6
OPEN
  7
OPEN
 40
2.0
 41
2.0
 42
0.5
 43
10.0
 44
1.0
 45
0.0
 46
0.0
 47
1.0
 48
1.0
140
3.0
141
0.0
142
0.0
143
0.03937
144
1.0
145
0.0
146
10.0
147
1.0
 71
     0
 72
     0
 73
     0
 74
     0
 75
     0
 76
     0
 77
     1
 78
     8
170
     0
171
     2
172
     0
173
     1
174
     0
175
     0
176
     0
177
     0
178
     0
  0
ENDTAB
  0
ENDSEC
  0
SECTION
  2
BLOCKS
  0
BLOCK
  8
0
  2
$MODEL_SPACE
 70
     0
 10
0.0
 20
0.0
 30
0.0
  3
$MODEL_SPACE
  1

  0
ENDBLK
  5
1B
  8
0
  0
BLOCK
 67
     1
  8
0
  2
$PAPER_SPACE
 70
     0
 10
0.0
 20
0.0
 30
0.0
  3
$PAPER_SPACE
  1

  0
ENDBLK
  5
18
 67
     1
  8
0
  0
BLOCK
  8
0
  2
_OPEN
 70
     0
 10
0.0
 20
0.0
 30
0.0
  3
_OPEN
  1

  0
LINE
  5
7B66
  8
0
  6
BYBLOCK
 62
     0
 10
-1.0
 20
0.166667
 30
0.0
 11
0.0
 21
0.0
 31
0.0
  0
LINE
  5
7B67
  8
0
  6
BYBLOCK
 62
     0
 10
0.0
 20
0.0
 30
0.0
 11
-1.0
 21
-0.166667
 31
0.0
  0
LINE
  5
7B68
  8
0
  6
BYBLOCK
 62
     0
 10
0.0
 20
0.0
 30
0.0
 11
-1.0
 21
0.0
 31
0.0
  0
ENDBLK
  5
7B69
  8
0
  0
BLOCK
  8
0
  2
*D1
 70
     1
 10
0.0
 20
0.0
 30
0.0
  3
*D1
  1

  0
LINE
  5
7E2D
  8
3
  6
CONTINUOUS
 62
     0
 10
1360.3544139999999
 20
2715.4768399999998
 30
0.0
 11
1360.3544139999999
 21
2829.4160350000002
 31
0.0
  0
LINE
  5
7E2E
  8
3
  6
CONTINUOUS
 62
     0
 10
1760.3544139999999
 20
2715.4768399999998
 30
0.0
 11
1760.3544139999999
 21
2829.4160350000002
 31
0.0
  0
LINE
  5
7E2F
  8
3
  6
CONTINUOUS
 62
     0
 10
1400.3544139999999
 20
2809.4160350000002
 30
0.0
 11
1720.3544139999999
 21
2809.4160350000002
 31
0.0
  0
INSERT
  5
7E30
  8
3
  6
CONTINUOUS
 62
     0
  2
_OPEN
 10
1360.3544139999999
 20
2809.4160350000002
 30
0.0
 41
40.0
 42
40.0
 43
40.0
 50
180.0
  0
INSERT
  5
7E31
  8
3
  6
CONTINUOUS
 62
     0
  2
_OPEN
 10
1760.3544139999999
 20
2809.4160350000002
 30
0.0
 41
40.0
 42
40.0
 43
40.0
  0
TEXT
  8
3
  40
60
  5
7EBC
  62
0
  72
0
  71
0
 10
1430.53
 20
2753.22
 30
0.000000
  1
400
  0
POINT
  5
7E33
  8
DEFPOINTS
  6
CONTINUOUS
 62
     0
 10
1360.3544139999999
 20
2705.4768399999998
 30
0.0
  0
POINT
  5
7E34
  8
DEFPOINTS
  6
CONTINUOUS
 62
     0
 10
1760.3544139999999
 20
2705.4768399999998
 30
0.0
  0
POINT
  5
7E35
  8
DEFPOINTS
  6
CONTINUOUS
 62
     0
 10
1760.3544139999999
 20
2809.4160350000002
 30
0.0
  0
ENDBLK
  5
7CF4
  8
0
  0
BLOCK
  8
0
  2
*D2
 70
     1
 10
0.0
 20
0.0
 30
0.0
  3
*D2
  1

  0
LINE
  5
7E36
  8
3
  6
CONTINUOUS
 62
     0
 10
1360.3544139999999
 20
2715.4768399999998
 30
0.0
 11
1360.3544139999999
 21
2960.7679750000002
 31
0.0
  0
LINE
  5
7E37
  8
3
  6
CONTINUOUS
 62
     0
 10
1748.3544139999999
 20
2922.9465409999989
 30
0.0
 11
1748.3544139999999
 21
2960.7679750000002
 31
0.0
  0
LINE
  5
7E38
  8
3
  6
CONTINUOUS
 62
     0
 10
1400.3544139999999
 20
2940.7679750000002
 30
0.0
 11
1708.3544139999999
 21
2940.7679750000002
 31
0.0
  0
INSERT
  5
7E39
  8
3
  6
CONTINUOUS
 62
     0
  2
_OPEN
 10
1360.3544139999999
 20
2940.7679750000002
 30
0.0
 41
40.0
 42
40.0
 43
40.0
 50
180.0
  0
INSERT
  5
7E3A
  8
3
  6
CONTINUOUS
 62
     0
  2
_OPEN
 10
1748.3544139999999
 20
2940.7679750000002
 30
0.0
 41
40.0
 42
40.0
 43
40.0
  0
TEXT
  8
3
  40
60
  5
7EBD
  62
0
  72
0
  71
0
 10
1422.05
 20
2884.57
 30
0.000000
  1
388
  0
POINT
  5
7E3C
  8
DEFPOINTS
  6
CONTINUOUS
 62
     0
 10
1360.3544139999999
 20
2705.4768399999998
 30
0.0
  0
POINT
  5
7E3D
  8
DEFPOINTS
  6
CONTINUOUS
 62
     0
 10
1748.3544139999999
 20
2912.9465409999998
 30
0.0
  0
POINT
  5
7E3E
  8
DEFPOINTS
  6
CONTINUOUS
 62
     0
 10
1748.3544139999999
 20
2940.7679750000002
 30
0.0
  0
ENDBLK
  5
7CDF
  8
0
  0
BLOCK
  8
0
  2
*D3
 70
     1
 10
0.0
 20
0.0
 30
0.0
  3
*D3
  1

  0
LINE
  5
7E3F
  8
3
  6
CONTINUOUS
 62
     0
 10
2048.354413999999
 20
2685.4768399999989
 30
0.0
 11
2048.354413999999
 21
2960.7679750000002
 31
0.0
  0
LINE
  5
7E40
  8
3
  6
CONTINUOUS
 62
     0
 10
1788.3544139999999
 20
2940.7679750000002
 30
0.0
 11
2008.3544139999999
 21
2940.7679750000002
 31
0.0
  0
INSERT
  5
7E41
  8
3
  6
CONTINUOUS
 62
     0
  2
_OPEN
 10
1748.3544139999999
 20
2940.7679750000002
 30
0.0
 41
40.0
 42
40.0
 43
40.0
 50
180.0
  0
INSERT
  5
7E42
  8
3
  6
CONTINUOUS
 62
     0
  2
_OPEN
 10
2048.354413999999
 20
2940.7679750000002
 30
0.0
 41
40.0
 42
40.0
 43
40.0
  0
TEXT
  8
3
  40
60
  5
7EBE
  62
0
  72
0
  71
0
 10
1778.35
 20
2884.57
 30
0.000000
  1
300
  0
POINT
  5
7E44
  8
DEFPOINTS
  6
CONTINUOUS
 62
     0
 10
1748.3544139999999
 20
2912.9465409999998
 30
0.0
  0
POINT
  5
7E45
  8
DEFPOINTS
  6
CONTINUOUS
 62
     0
 10
2048.354413999999
 20
2675.4768399999989
 30
0.0
  0
POINT
  5
7E46
  8
DEFPOINTS
  6
CONTINUOUS
 62
     0
 10
2048.354413999999
 20
2940.7679750000002
 30
0.0
  0
ENDBLK
  5
7CE9
  8
0
  0
BLOCK
  8
0
  2
*D4
 70
     1
 10
0.0
 20
0.0
 30
0.0
  3
*D4
  1

  0
LINE
  5
7E47
  8
3
  6
CONTINUOUS
 62
     0
 10
1797.3544139999999
 20
2705.4768399999998
 30
0.0
 11
2245.9926869999999
 21
2705.4768399999998
 31
0.0
  0
LINE
  5
7E48
  8
3
  6
CONTINUOUS
 62
     0
 10
2196.227519
 20
2405.4768399999998
 30
0.0
 11
2245.9926869999999
 21
2405.4768399999998
 31
0.0
  0
LINE
  5
7E49
  8
3
  6
CONTINUOUS
 62
     0
 10
2225.9926869999999
 20
2745.4768399999998
 30
0.0
 11
2225.9926869999999
 21
2785.4768399999989
 31
0.0
  0
LINE
  5
7E4A
  8
3
  6
CONTINUOUS
 62
     0
 10
2225.9926869999999
 20
2365.4768399999989
 30
0.0
 11
2225.9926869999999
 21
2325.4768399999989
 31
0.0
  0
LINE
  5
7E4B
  8
3
  6
CONTINUOUS
 62
     0
 10
2225.9926869999999
 20
2705.4768399999998
 30
0.0
 11
2225.9926869999999
 21
2405.4768399999998
 31
0.0
  0
INSERT
  5
7E4C
  8
3
  6
CONTINUOUS
 62
     0
  2
_OPEN
 10
2225.9926869999999
 20
2705.4768399999998
 30
0.0
 41
40.0
 42
40.0
 43
40.0
 50
270.0
  0
INSERT
  5
7E4D
  8
3
  6
CONTINUOUS
 62
     0
  2
_OPEN
 10
2225.9926869999999
 20
2405.4768399999998
 30
0.0
 41
40.0
 42
40.0
 43
40.0
 50
90.0
  0
TEXT
  8
3
  40
60
  5
7EBF
  62
0
  72
0
  71
0
 10
2055.99
 20
2436.42
 30
0.000000
  1
300
  0
POINT
  5
7E4F
  8
DEFPOINTS
  6
CONTINUOUS
 62
     0
 10
1787.3544139999999
 20
2705.4768399999998
 30
0.0
  0
POINT
  5
7E50
  8
DEFPOINTS
  6
CONTINUOUS
 62
     0
 10
2186.227519
 20
2405.4768399999998
 30
0.0
  0
POINT
  5
7E51
  8
DEFPOINTS
  6
CONTINUOUS
 62
     0
 10
2225.9926869999999
 20
2405.4768399999998
 30
0.0
  0
ENDBLK
  5
7D09
  8
0
  0
BLOCK
  8
0
  2
*D5
 70
     1
 10
0.0
 20
0.0
 30
0.0
  3
*D5
  1

  0
LINE
  5
7E52
  8
3
  6
CONTINUOUS
 62
     0
 10
2018.3544139999999
 20
1985.4768399999989
 30
0.0
 11
2245.9926869999999
 21
1985.4768399999989
 31
0.0
  0
LINE
  5
7E53
  8
3
  6
CONTINUOUS
 62
     0
 10
2225.9926869999999
 20
2365.4768399999989
 30
0.0
 11
2225.9926869999999
 21
2025.47684
 31
0.0
  0
INSERT
  5
7E54
  8
3
  6
CONTINUOUS
 62
     0
  2
_OPEN
 10
2225.9926869999999
 20
2405.4768399999998
 30
0.0
 41
40.0
 42
40.0
 43
40.0
 50
90.0
  0
INSERT
  5
7E55
  8
3
  6
CONTINUOUS
 62
     0
  2
_OPEN
 10
2225.9926869999999
 20
1985.4768399999989
 30
0.0
 41
40.0
 42
40.0
 43
40.0
 50
270.0
  0
TEXT
  8
3
  40
60
  5
7EC0
  62
0
  72
0
  71
0
 10
2055.99
 20
2089.28
 30
0.000000
  1
420
  0
POINT
  5
7E57
  8
DEFPOINTS
  6
CONTINUOUS
 62
     0
 10
2186.227519
 20
2405.4768399999998
 30
0.0
  0
POINT
  5
7E58
  8
DEFPOINTS
  6
CONTINUOUS
 62
     0
 10
2008.3544139999999
 20
1985.4768399999989
 30
0.0
  0
POINT
  5
7E59
  8
DEFPOINTS
  6
CONTINUOUS
 62
     0
 10
2225.9926869999999
 20
1985.4768399999989
 30
0.0
  0
ENDBLK
  5
7CFE
  8
0
  0
BLOCK
  8
0
  2
*D6
 70
     1
 10
0.0
 20
0.0
 30
0.0
  3
*D6
  1

  0
LINE
  5
7E5A
  8
3
  6
CONTINUOUS
 62
     0
 10
1008.354414
 20
1975.4768399999989
 30
0.0
 11
1008.354414
 21
1831.4386493198051
 31
0.0
  0
LINE
  5
7E5B
  8
3
  6
CONTINUOUS
 62
     0
 10
1748.3544139999999
 20
1899.625055735054
 30
0.0
 11
1748.3544139999999
 21
1831.4386493198051
 31
0.0
  0
LINE
  5
7E5C
  8
3
  6
CONTINUOUS
 62
     0
 10
1048.3544139999999
 20
1851.4386493198051
 30
0.0
 11
1708.3544139999999
 21
1851.4386493198051
 31
0.0
  0
INSERT
  5
7E5D
  8
3
  6
CONTINUOUS
 62
     0
  2
_OPEN
 10
1008.354414
 20
1851.4386493198051
 30
0.0
 41
40.0
 42
40.0
 43
40.0
 50
180.0
  0
INSERT
  5
7E5E
  8
3
  6
CONTINUOUS
 62
     0
  2
_OPEN
 10
1748.3544139999999
 20
1851.4386493198051
 30
0.0
 41
40.0
 42
40.0
 43
40.0
  0
TEXT
  8
3
  40
60
  5
7EC1
  62
0
  72
0
  71
0
 10
1226.99
 20
1795.24
 30
0.000000
  1
740
  0
POINT
  5
7E60
  8
DEFPOINTS
  6
CONTINUOUS
 62
     0
 10
1008.354414
 20
1985.4768399999989
 30
0.0
  0
POINT
  5
7E61
  8
DEFPOINTS
  6
CONTINUOUS
 62
     0
 10
1748.3544139999999
 20
1909.625055735054
 30
0.0
  0
POINT
  5
7E62
  8
DEFPOINTS
  6
CONTINUOUS
 62
     0
 10
1748.3544139999999
 20
1851.4386493198051
 30
0.0
  0
ENDBLK
  5
7DB9
  8
0
  0
BLOCK
  8
0
  2
*D7
 70
     1
 10
0.0
 20
0.0
 30
0.0
  3
*D7
  1

  0
LINE
  5
7E63
  8
3
  6
CONTINUOUS
 62
     0
 10
2008.3544139999999
 20
1975.4768399999989
 30
0.0
 11
2008.3544139999999
 21
1831.4386493198051
 31
0.0
  0
LINE
  5
7E64
  8
3
  6
CONTINUOUS
 62
     0
 10
1788.3544139999999
 20
1851.4386493198051
 30
0.0
 11
1968.3544139999999
 21
1851.4386493198051
 31
0.0
  0
TEXT
  8
3
  40
60
  5
7EC2
  62
0
  72
0
  71
0
 10
1750.29
 20
1794.89
 30
0.000000
  1
260
  0
INSERT
  5
7E66
  8
3
  6
CONTINUOUS
 62
     0
  2
_OPEN
 10
1748.3544139999999
 20
1851.4386493198051
 30
0.0
 41
40.0
 42
40.0
 43
40.0
 50
180.0
  0
INSERT
  5
7E67
  8
3
  6
CONTINUOUS
 62
     0
  2
_OPEN
 10
2008.3544139999999
 20
1851.4386493198051
 30
0.0
 41
40.0
 42
40.0
 43
40.0
  0
POINT
  5
7E68
  8
DEFPOINTS
  6
CONTINUOUS
 62
     0
 10
1748.3544139999999
 20
1909.625055735054
 30
0.0
  0
POINT
  5
7E69
  8
DEFPOINTS
  6
CONTINUOUS
 62
     0
 10
2008.3544139999999
 20
1985.4768399999989
 30
0.0
  0
POINT
  5
7E6A
  8
DEFPOINTS
  6
CONTINUOUS
 62
     0
 10
2008.3544139999999
 20
1851.4386493198051
 30
0.0
  0
ENDBLK
  5
7DAE
  8
0
  0
BLOCK
  8
0
  2
*D8
 70
     1
 10
0.0
 20
0.0
 30
0.0
  3
*D8
  1

  0
LINE
  5
7E6B
  8
3
  6
CONTINUOUS
 62
     0
 10
1807.3544139999999
 20
2705.4768399999998
 30
0.0
 11
2398.642081
 21
2705.4768399999998
 31
0.0
  0
LINE
  5
7E6C
  8
3
  6
CONTINUOUS
 62
     0
 10
2018.3544139999999
 20
1985.4768399999989
 30
0.0
 11
2398.642081
 21
1985.4768399999989
 31
0.0
  0
LINE
  5
7E6D
  8
3
  6
CONTINUOUS
 62
     0
 10
2378.642081
 20
2665.4768399999998
 30
0.0
 11
2378.642081
 21
2025.47684
 31
0.0
  0
INSERT
  5
7E6E
  8
3
  6
CONTINUOUS
 62
     0
  2
_OPEN
 10
2378.642081
 20
2705.4768399999998
 30
0.0
 41
40.0
 42
40.0
 43
40.0
 50
90.0
  0
INSERT
  5
7E6F
  8
3
  6
CONTINUOUS
 62
     0
  2
_OPEN
 10
2378.642081
 20
1985.4768399999989
 30
0.0
 41
40.0
 42
40.0
 43
40.0
 50
270.0
  0
TEXT
  8
3
  40
60
  5
7EC3
  62
0
  72
0
  71
0
 10
2208.64
 20
2246.83
 30
0.000000
  1
720
  0
POINT
  5
7E71
  8
DEFPOINTS
  6
CONTINUOUS
 62
     0
 10
1797.3544139999999
 20
2705.4768399999998
 30
0.0
  0
POINT
  5
7E72
  8
DEFPOINTS
  6
CONTINUOUS
 62
     0
 10
2008.3544139999999
 20
1985.4768399999989
 30
0.0
  0
POINT
  5
7E73
  8
DEFPOINTS
  6
CONTINUOUS
 62
     0
 10
2378.642081
 20
1985.4768399999989
 30
0.0
  0
ENDBLK
  5
7D14
  8
0
  0
BLOCK
  8
0
  2
*D9
 70
     1
 10
0.0
 20
0.0
 30
0.0
  3
*D9
  1

  0
LINE
  5
7D7C
  8
0
  6
BYBLOCK
 62
     0
 10
2981.8325049999989
 20
1975.4768399999989
 30
0.0
 11
2981.8325049999989
 21
1828.334653639419
 31
0.0
  0
LINE
  5
7D7D
  8
0
  6
BYBLOCK
 62
     0
 10
3175.8325049999999
 20
1934.1642422074631
 30
0.0
 11
3175.8325049999999
 21
1828.334653639419
 31
0.0
  0
LINE
  5
7D7E
  8
0
  6
BYBLOCK
 62
     0
 10
3021.8325049999999
 20
1848.334653639419
 30
0.0
 11
3135.8325049999989
 21
1848.334653639419
 31
0.0
  0
TEXT
  5
7D7F
  8
3
 62
     0
 10
3005.9753621428572
 20
1869.2825507354239
 30
0.0
 40
60.0
  1
194
  0
INSERT
  5
7D80
  8
0
  6
BYBLOCK
 62
     0
  2
_OPEN
 10
2981.8325049999989
 20
1848.334653639419
 30
0.0
 41
40.0
 42
40.0
 43
40.0
 50
180.0
  0
INSERT
  5
7D81
  8
0
  6
BYBLOCK
 62
     0
  2
_OPEN
 10
3175.8325049999999
 20
1848.334653639419
 30
0.0
 41
40.0
 42
40.0
 43
40.0
  0
POINT
  5
7D82
  8
DEFPOINTS
  6
BYBLOCK
 62
     0
 10
2981.8325049999989
 20
1985.4768399999989
 30
0.0
  0
POINT
  5
7D83
  8
DEFPOINTS
  6
BYBLOCK
 62
     0
 10
3175.8325049999999
 20
1944.1642422074631
 30
0.0
  0
POINT
  5
7D84
  8
DEFPOINTS
  6
BYBLOCK
 62
     0
 10
3175.8325049999999
 20
1848.334653639419
 30
0.0
  0
ENDBLK
  5
7D85
  8
0
  0
BLOCK
  8
0
  2
*D10
 70
     1
 10
0.0
 20
0.0
 30
0.0
  3
*D10
  1

  0
LINE
  5
7E74
  8
3
  6
CONTINUOUS
 62
     0
 10
3369.8325049999999
 20
1975.4768399999989
 30
0.0
 11
3369.8325049999999
 21
1828.334653639419
 31
0.0
  0
LINE
  5
7E75
  8
3
  6
CONTINUOUS
 62
     0
 10
3215.8325049999999
 20
1848.334653639419
 30
0.0
 11
3329.8325049999999
 21
1848.334653639419
 31
0.0
  0
TEXT
  8
3
  40
60
  5
7EC4
  62
0
  72
0
  71
0
 10
3163.34
 20
1790.97
 30
0.000000
  1
194
  0
INSERT
  5
7E77
  8
3
  6
CONTINUOUS
 62
     0
  2
_OPEN
 10
3175.8325049999999
 20
1848.334653639419
 30
0.0
 41
40.0
 42
40.0
 43
40.0
 50
180.0
  0
INSERT
  5
7E78
  8
3
  6
CONTINUOUS
 62
     0
  2
_OPEN
 10
3369.8325049999999
 20
1848.334653639419
 30
0.0
 41
40.0
 42
40.0
 43
40.0
  0
POINT
  5
7E79
  8
DEFPOINTS
  6
CONTINUOUS
 62
     0
 10
3175.8325049999999
 20
1944.1642422074631
 30
0.0
  0
POINT
  5
7E7A
  8
DEFPOINTS
  6
CONTINUOUS
 62
     0
 10
3369.8325049999999
 20
1985.4768399999989
 30
0.0
  0
POINT
  5
7E7B
  8
DEFPOINTS
  6
CONTINUOUS
 62
     0
 10
3369.8325049999999
 20
1848.334653639419
 30
0.0
  0
ENDBLK
  5
7D8F
  8
0
  0
BLOCK
  8
0
  2
*D11
 70
     1
 10
0.0
 20
0.0
 30
0.0
  3
*D11
  1

  0
LINE
  5
7E7C
  8
3
  6
CONTINUOUS
 62
     0
 10
3025.8325049999999
 20
2715.4768399999998
 30
0.0
 11
3025.8325049999999
 21
2771.3192530000001
 31
0.0
  0
LINE
  5
7E7D
  8
3
  6
CONTINUOUS
 62
     0
 10
3325.8325049999989
 20
2715.4768399999998
 30
0.0
 11
3325.8325049999989
 21
2771.3192530000001
 31
0.0
  0
LINE
  5
7E7E
  8
3
  6
CONTINUOUS
 62
     0
 10
2985.8325049999989
 20
2751.3192530000001
 30
0.0
 11
2945.8325049999999
 21
2751.3192530000001
 31
0.0
  0
LINE
  5
7E7F
  8
3
  6
CONTINUOUS
 62
     0
 10
3365.8325049999999
 20
2751.3192530000001
 30
0.0
 11
3405.8325049999999
 21
2751.3192530000001
 31
0.0
  0
LINE
  5
7E80
  8
3
  6
CONTINUOUS
 62
     0
 10
3025.8325049999999
 20
2751.3192530000001
 30
0.0
 11
3325.8325049999989
 21
2751.3192530000001
 31
0.0
  0
INSERT
  5
7E81
  8
3
  6
CONTINUOUS
 62
     0
  2
_OPEN
 10
3025.8325049999999
 20
2751.3192530000001
 30
0.0
 41
40.0
 42
40.0
 43
40.0
  0
INSERT
  5
7E82
  8
3
  6
CONTINUOUS
 62
     0
  2
_OPEN
 10
3325.8325049999989
 20
2751.3192530000001
 30
0.0
 41
40.0
 42
40.0
 43
40.0
 50
180.0
  0
TEXT
  8
3
  40
60
  5
7EC5
  62
0
  72
0
  71
0
 10
3042.98
 20
2695.12
 30
0.000000
  1
300
  0
POINT
  5
7E84
  8
DEFPOINTS
  6
CONTINUOUS
 62
     0
 10
3025.8325049999999
 20
2705.4768399999998
 30
0.0
  0
POINT
  5
7E85
  8
DEFPOINTS
  6
CONTINUOUS
 62
     0
 10
3325.8325049999989
 20
2705.4768399999998
 30
0.0
  0
POINT
  5
7E86
  8
DEFPOINTS
  6
CONTINUOUS
 62
     0
 10
3325.8325049999989
 20
2751.3192530000001
 30
0.0
  0
ENDBLK
  5
7BFA
  8
0
  0
BLOCK
  8
0
  2
*D12
 70
     1
 10
0.0
 20
0.0
 30
0.0
  3
*D12
  1

  0
LINE
  5
7E87
  8
3
  6
CONTINUOUS
 62
     0
 10
2845.8325049999999
 20
2730.4768399999998
 30
0.0
 11
2845.8325049999999
 21
2909.214117999999
 31
0.0
  0
LINE
  5
7E88
  8
3
  6
CONTINUOUS
 62
     0
 10
3175.8325049999999
 20
2857.518248258742
 30
0.0
 11
3175.8325049999999
 21
2909.214117999999
 31
0.0
  0
LINE
  5
7E89
  8
3
  6
CONTINUOUS
 62
     0
 10
2885.8325049999989
 20
2889.214117999999
 30
0.0
 11
3135.8325049999989
 21
2889.214117999999
 31
0.0
  0
INSERT
  5
7E8A
  8
3
  6
CONTINUOUS
 62
     0
  2
_OPEN
 10
2845.8325049999999
 20
2889.214117999999
 30
0.0
 41
40.0
 42
40.0
 43
40.0
 50
180.0
  0
INSERT
  5
7E8B
  8
3
  6
CONTINUOUS
 62
     0
  2
_OPEN
 10
3175.8325049999999
 20
2889.214117999999
 30
0.0
 41
40.0
 42
40.0
 43
40.0
  0
TEXT
  8
3
  40
60
  5
7EC6
  62
0
  72
0
  71
0
 10
2910.12
 20
2883.01
 30
0.000000
  1
MAX
  0
TEXT
  8
3
  40
60
  5
7EC7
  62
0
  72
0
  71
0
 10
2910.12
 20
2805.01
 30
0.000000
  1
380
  0
POINT
  5
7E8D
  8
DEFPOINTS
  6
CONTINUOUS
 62
     0
 10
2845.8325049999999
 20
2720.4768399999989
 30
0.0
  0
POINT
  5
7E8E
  8
DEFPOINTS
  6
CONTINUOUS
 62
     0
 10
3175.8325049999999
 20
2847.518248258742
 30
0.0
  0
POINT
  5
7E8F
  8
DEFPOINTS
  6
CONTINUOUS
 62
     0
 10
3175.8325049999999
 20
2889.214117999999
 30
0.0
  0
ENDBLK
  5
7E0A
  8
0
  0
BLOCK
  8
0
  2
*D13
 70
     1
 10
0.0
 20
0.0
 30
0.0
  3
*D13
  1

  0
LINE
  5
7E90
  8
3
  6
CONTINUOUS
 62
     0
 10
3335.8325049999989
 20
2620.4768399999998
 30
0.0
 11
3531.0188659999999
 21
2620.4768399999998
 31
0.0
  0
LINE
  5
7E91
  8
3
  6
CONTINUOUS
 62
     0
 10
3335.8325049999989
 20
2190.4768399999998
 30
0.0
 11
3531.0188659999999
 21
2190.4768399999998
 31
0.0
  0
LINE
  5
7E92
  8
3
  6
CONTINUOUS
 62
     0
 10
3511.0188659999999
 20
2580.4768399999998
 30
0.0
 11
3511.0188659999999
 21
2230.4768399999989
 31
0.0
  0
INSERT
  5
7E93
  8
3
  6
CONTINUOUS
 62
     0
  2
_OPEN
 10
3511.0188659999999
 20
2620.4768399999998
 30
0.0
 41
40.0
 42
40.0
 43
40.0
 50
90.0
  0
INSERT
  5
7E94
  8
3
  6
CONTINUOUS
 62
     0
  2
_OPEN
 10
3511.0188659999999
 20
2190.4768399999998
 30
0.0
 41
40.0
 42
40.0
 43
40.0
 50
270.0
  0
TEXT
  8
3
  40
60
  5
7EC8
  62
0
  72
0
  71
0
 10
3341.02
 20
2289.20
 30
0.000000
  1
φ430
  0
POINT
  5
7E96
  8
DEFPOINTS
  6
CONTINUOUS
 62
     0
 10
3325.8325049999989
 20
2620.4768399999998
 30
0.0
  0
POINT
  5
7E97
  8
DEFPOINTS
  6
CONTINUOUS
 62
     0
 10
3325.8325049999989
 20
2190.4768399999998
 30
0.0
  0
POINT
  5
7E98
  8
DEFPOINTS
  6
CONTINUOUS
 62
     0
 10
3511.0188659999999
 20
2190.4768399999998
 30
0.0
  0
ENDBLK
  5
7DFB
  8
0
  0
BLOCK
  8
0
  2
*D14
 70
     1
 10
0.0
 20
0.0
 30
0.0
  3
*D14
  1

  0
LINE
  5
7E99
  8
3
  6
CONTINUOUS
 62
     0
 10
1008.354414
 20
3974.2468399999998
 30
0.0
 11
1008.354414
 21
4130.3529349999999
 31
0.0
  0
LINE
  5
7E9A
  8
3
  6
CONTINUOUS
 62
     0
 10
2008.3544139999999
 20
3974.2468399999998
 30
0.0
 11
2008.3544139999999
 21
4130.3529349999999
 31
0.0
  0
LINE
  5
7E9B
  8
3
  6
CONTINUOUS
 62
     0
 10
1048.3544139999999
 20
4110.3529349999999
 30
0.0
 11
1968.3544139999999
 21
4110.3529349999999
 31
0.0
  0
INSERT
  5
7E9C
  8
3
  6
CONTINUOUS
 62
     0
  2
_OPEN
 10
1008.354414
 20
4110.3529349999999
 30
0.0
 41
40.0
 42
40.0
 43
40.0
 50
180.0
  0
INSERT
  5
7E9D
  8
3
  6
CONTINUOUS
 62
     0
  2
_OPEN
 10
2008.3544139999999
 20
4110.3529349999999
 30
0.0
 41
40.0
 42
40.0
 43
40.0
  0
TEXT
  8
3
  40
60
  5
7EC9
  62
0
  72
0
  71
0
 10
1396.60
 20
4054.15
 30
0.000000
  1
1000
  0
POINT
  5
7E9F
  8
DEFPOINTS
  6
CONTINUOUS
 62
     0
 10
1008.354414
 20
3964.2468399999989
 30
0.0
  0
POINT
  5
7EA0
  8
DEFPOINTS
  6
CONTINUOUS
 62
     0
 10
2008.3544139999999
 20
3964.2468399999989
 30
0.0
  0
POINT
  5
7EA1
  8
DEFPOINTS
  6
CONTINUOUS
 62
     0
 10
2008.3544139999999
 20
4110.3529349999999
 30
0.0
  0
ENDBLK
  5
7D1F
  8
0
  0
BLOCK
  8
0
  2
*D15
 70
     1
 10
0.0
 20
0.0
 30
0.0
  3
*D15
  1

  0
LINE
  5
7EA2
  8
3
  6
CONTINUOUS
 62
     0
 10
998.35441400000013
 20
3964.2468399999989
 30
0.0
 11
822.84782300000074
 21
3964.2468399999989
 31
0.0
  0
LINE
  5
7EA3
  8
3
  6
CONTINUOUS
 62
     0
 10
998.35441400000013
 20
3576.2468399999989
 30
0.0
 11
822.84782300000052
 21
3576.2468399999989
 31
0.0
  0
LINE
  5
7EA4
  8
3
  6
CONTINUOUS
 62
     0
 10
842.84782300000063
 20
3924.2468399999998
 30
0.0
 11
842.84782300000063
 21
3616.2468399999998
 31
0.0
  0
INSERT
  5
7EA5
  8
3
  6
CONTINUOUS
 62
     0
  2
_OPEN
 10
842.84782300000063
 20
3964.2468399999989
 30
0.0
 41
40.0
 42
40.0
 43
40.0
 50
90.0
  0
INSERT
  5
7EA6
  8
3
  6
CONTINUOUS
 62
     0
  2
_OPEN
 10
842.84782300000063
 20
3576.2468399999989
 30
0.0
 41
40.0
 42
40.0
 43
40.0
 50
270.0
  0
TEXT
  8
3
  40
60
  5
7ECA
  62
0
  72
0
  71
0
 10
672.848
 20
3663.73
 30
0.000000
  1
388
  0
POINT
  5
7EA8
  8
DEFPOINTS
  6
CONTINUOUS
 62
     0
 10
1008.354414
 20
3964.2468399999989
 30
0.0
  0
POINT
  5
7EA9
  8
DEFPOINTS
  6
CONTINUOUS
 62
     0
 10
1008.354414
 20
3576.2468399999989
 30
0.0
  0
POINT
  5
7EAA
  8
DEFPOINTS
  6
CONTINUOUS
 62
     0
 10
842.84782300000063
 20
3576.2468399999989
 30
0.0
  0
ENDBLK
  5
7D2A
  8
0
  0
BLOCK
  8
0
  2
*D16
 70
     1
 10
0.0
 20
0.0
 30
0.0
  3
*D16
  1

  0
LINE
  5
7EAB
  8
3
  6
CONTINUOUS
 62
     0
 10
3326.8325049999999
 20
2630.4768399999998
 30
0.0
 11
3326.8325049999999
 21
2909.214117999999
 31
0.0
  0
LINE
  5
7EAC
  8
3
  6
CONTINUOUS
 62
     0
 10
3215.8325049999999
 20
2889.214117999999
 30
0.0
 11
3286.8325049999989
 21
2889.214117999999
 31
0.0
  0
TEXT
  8
3
  40
60
  5
7ECB
  62
0
  72
0
  71
0
 10
3132.48
 20
2833.89
 30
0.000000
  1
151
  0
INSERT
  5
7EAE
  8
3
  6
CONTINUOUS
 62
     0
  2
_OPEN
 10
3175.8325049999999
 20
2889.214117999999
 30
0.0
 41
40.0
 42
40.0
 43
40.0
 50
180.0
  0
INSERT
  5
7EAF
  8
3
  6
CONTINUOUS
 62
     0
  2
_OPEN
 10
3326.8325049999999
 20
2889.214117999999
 30
0.0
 41
40.0
 42
40.0
 43
40.0
  0
POINT
  5
7EB0
  8
DEFPOINTS
  6
CONTINUOUS
 62
     0
 10
3175.8325049999999
 20
2847.518248258742
 30
0.0
  0
POINT
  5
7EB1
  8
DEFPOINTS
  6
CONTINUOUS
 62
     0
 10
3326.8325049999999
 20
2620.4768399999998
 30
0.0
  0
POINT
  5
7EB2
  8
DEFPOINTS
  6
CONTINUOUS
 62
     0
 10
3326.8325049999999
 20
2889.214117999999
 30
0.0
  0
ENDBLK
  5
7DE3
  8
0
  0
BLOCK
  8
0
  2
*D17
 70
     1
 10
0.0
 20
0.0
 30
0.0
  3
*D17
  1

  0
LINE
  5
7EB3
  8
3
 62
     0
 10
2048.354413999999
 20
2685.4768399999989
 30
0.0
 11
2048.354413999999
 21
3085.2618968851889
 31
0.0
  0
LINE
  5
7EB4
  8
3
 62
     0
 10
1008.354414
 20
2075.4768399999989
 30
0.0
 11
1008.354414
 21
3085.2618968851889
 31
0.0
  0
LINE
  5
7EB5
  8
3
 62
     0
 10
2008.3544139999999
 20
3065.2618968851889
 30
0.0
 11
1048.3544139999999
 21
3065.2618968851889
 31
0.0
  0
INSERT
  5
7EB6
  8
3
 62
     0
  2
_OPEN
 10
2048.354413999999
 20
3065.2618968851889
 30
0.0
 41
40.0
 42
40.0
 43
40.0
  0
INSERT
  5
7EB7
  8
3
 62
     0
  2
_OPEN
 10
1008.354414
 20
3065.2618968851889
 30
0.0
 41
40.0
 42
40.0
 43
40.0
 50
180.0
  0
TEXT
  8
3
  40
60
  5
7ECC
  62
0
  72
0
  71
0
 10
1427.91
 20
3009.06
 30
0.000000
  1
1040
  0
POINT
  5
7EB9
  8
DEFPOINTS
 62
     0
 10
2048.354413999999
 20
2675.4768399999989
 30
0.0
  0
POINT
  5
7EBA
  8
DEFPOINTS
 62
     0
 10
1008.354414
 20
2065.4768399999998
 30
0.0
  0
POINT
  5
7EBB
  8
DEFPOINTS
 62
     0
 10
1008.354414
 20
3065.2618968851889
 30
0.0
  0
ENDBLK
  5
7DEF
  8
0
  0
ENDSEC
  0
SECTION
  2
ENTITIES
  0
LINE
  5
7ADA
  8
1
  6
CONTINUOUS
 10
3325.8325049999989
 20
2685.4768399999989
 30
0.0
 11
3025.8325049999999
 21
2685.4768399999989
 31
0.0
  0
LINE
  5
7ADB
  8
1
  6
CONTINUOUS
 10
3325.8325049999989
 20
2065.4768399999998
 30
0.0
 11
3025.8325049999999
 21
2065.4768399999998
 31
0.0
  0
LINE
  5
7ADC
  8
1
  6
CONTINUOUS
 10
3352.8325049999999
 20
2705.4768399999998
 30
0.0
 11
2998.8325049999999
 21
2705.4768399999998
 31
0.0
  0
LINE
  5
7ADD
  8
1
  6
CONTINUOUS
 10
3369.8325049999999
 20
2065.4768399999998
 30
0.0
 11
2845.8325049999999
 21
2065.4768399999998
 31
0.0
  0
LINE
  5
7ADE
  8
1
  6
CONTINUOUS
 10
3369.8325049999999
 20
1985.4768399999989
 30
0.0
 11
2981.8325049999989
 21
1985.4768399999989
 31
0.0
  0
LINE
  5
7ADF
  8
1
  6
CONTINUOUS
 10
1787.3544139999999
 20
2705.4768399999998
 30
0.0
 11
1333.3544139999999
 21
2705.4768399999998
 31
0.0
  0
ARC
  5
7AE0
  8
1
  6
CONTINUOUS
 10
1721.3544139999999
 20
2432.4768399999998
 30
0.0
 40
360.00999999999988
 50
184.2999999999999
 51
275.82999999999993
  0
LINE
  5
7AE1
  8
1
  6
CONTINUOUS
 10
1008.354414
 20
2065.4768399999998
 30
0.0
 11
2048.354413999999
 21
2065.4768399999998
 31
0.0
  0
LINE
  5
7AE2
  8
1
  6
CONTINUOUS
 10
1760.3544139999999
 20
2685.4768399999989
 30
0.0
 11
1360.494414
 21
2685.4768399999989
 31
0.0
  0
LINE
  5
7AE3
  8
1
  6
CONTINUOUS
 10
1733.8544139999999
 20
2720.4768399999989
 30
0.0
 11
1053.8544139999999
 21
2315.4768399999998
 31
0.0
  0
LINE
  5
7AE4
  8
1
  6
CONTINUOUS
 10
2008.3544139999999
 20
1985.4768399999989
 30
0.0
 11
1008.354414
 21
1985.4768399999989
 31
0.0
  0
LINE
  5
7AE5
  8
1
  6
CONTINUOUS
 10
1190.1744140000001
 20
2244.396839999999
 30
0.0
 11
1704.504414
 21
2495.3468399999988
 31
0.0
  0
LINE
  5
7AE6
  8
1
  6
CONTINUOUS
 10
1779.274414
 20
2310.376839999999
 30
0.0
 11
1235.044414
 21
2133.4168399999999
 31
0.0
  0
LINE
  5
7AEC
  8
1
  6
CONTINUOUS
 10
1360.3544139999999
 20
2705.4768399999998
 30
0.0
 11
1362.3544139999999
 21
2405.4768399999998
 31
0.0
  0
LINE
  5
7AED
  8
1
  6
CONTINUOUS
 10
1008.354414
 20
2065.4768399999998
 30
0.0
 11
1008.354414
 21
1985.4768399999989
 31
0.0
  0
LINE
  5
7AEE
  8
1
  6
CONTINUOUS
 10
1053.8544139999999
 20
2065.4768399999998
 30
0.0
 11
1053.8544139999999
 21
2315.4768399999998
 31
0.0
  0
CIRCLE
  5
7AEF
  8
1
  6
CONTINUOUS
 10
1216.4844139999991
 20
2190.4768399999998
 30
0.0
 40
60.0
  0
ARC
  5
7AF0
  8
1
  6
CONTINUOUS
 10
1216.4844139999991
 20
2190.4768399999998
 30
0.0
 40
101.0
 50
322.88
 51
217.12
  0
LINE
  5
7AF1
  8
2
  6
CENTER
 10
1156.484414
 20
2190.4768399999998
 30
0.0
 11
1276.484414
 21
2190.4768399999998
 31
0.0
  0
LINE
  5
7AF2
  8
1
  6
CONTINUOUS
 10
1116.484414
 20
2065.4768399999998
 30
0.0
 11
1116.484414
 21
2102.4768399999998
 31
0.0
  0
LINE
  5
7AF3
  8
1
  6
CONTINUOUS
 10
1116.484414
 20
2102.4768399999998
 30
0.0
 11
1135.954414
 21
2129.5168399999989
 31
0.0
  0
LINE
  5
7AF4
  8
2
  6
CENTER
 10
1216.4844139999991
 20
2130.4768399999989
 30
0.0
 11
1216.4844139999991
 21
2250.4768399999998
 31
0.0
  0
LINE
  5
7AF5
  8
1
  6
CONTINUOUS
 10
1316.484414
 20
2102.4768399999998
 30
0.0
 11
1297.024414
 21
2129.5168399999989
 31
0.0
  0
LINE
  5
7AF6
  8
1
  6
CONTINUOUS
 10
1316.484414
 20
2065.4768399999998
 30
0.0
 11
1316.484414
 21
2102.4768399999998
 31
0.0
  0
CIRCLE
  5
7AF7
  8
1
  6
CONTINUOUS
 10
1748.3544139999999
 20
2405.4768399999998
 30
0.0
 40
240.0
  0
ARC
  5
7AF8
  8
1
  6
CONTINUOUS
 10
1726.3544139999999
 20
2383.4768399999989
 30
0.0
 40
310.75999999999999
 50
275.82999999999993
 51
7.3099999999999996
  0
ARC
  5
7AF9
  8
1
  6
CONTINUOUS
 10
1765.3544139999999
 20
2388.4768399999998
 30
0.0
 40
271.43999999999988
 50
7.3099999999999996
 51
91.060000000000016
  0
LINE
  5
7AFA
  8
1
  6
CONTINUOUS
 10
1448.3544139999999
 20
2675.4768399999989
 30
0.0
 11
2048.354413999999
 21
2675.4768399999989
 31
0.0
  0
LINE
  5
7AFB
  8
2
  6
CENTER
 10
1748.3544139999999
 20
4027.4354260814212
 30
0.0
 11
1748.3544139999999
 21
3302.8465540000002
 31
0.0
  0
LINE
  5
7AFC
  8
1
  6
CONTINUOUS
 10
1448.3544139999999
 20
2675.4768399999989
 30
0.0
 11
1448.3544139999999
 21
2065.4768399999998
 31
0.0
  0
CIRCLE
  5
7AFD
  8
1
  6
CONTINUOUS
 10
1748.3544139999999
 20
2405.4768399999998
 30
0.0
 40
100.0
  0
LINE
  5
7AFE
  8
1
  6
CONTINUOUS
 10
1923.8544139999999
 20
2065.4768399999998
 30
0.0
 11
1923.8544139999999
 21
2605.4768399999998
 31
0.0
  0
CIRCLE
  5
7AFF
  8
1
  6
CONTINUOUS
 10
1748.3544139999999
 20
2405.4768399999998
 30
0.0
 40
215.0
  0
LINE
  5
7B00
  8
2
  6
CENTER
 10
1099.77944
 20
2405.4768399999998
 30
0.0
 11
2186.227519
 21
2405.4768399999998
 31
0.0
  0
LINE
  5
7B01
  8
1
  6
CONTINUOUS
 10
1923.8544139999999
 20
2605.4768399999998
 30
0.0
 11
1733.8544139999999
 21
2720.4768399999989
 31
0.0
  0
LINE
  5
7B02
  8
1
  6
CONTINUOUS
 10
1760.3544139999999
 20
2659.8668399999988
 30
0.0
 11
1760.3544139999999
 21
2705.4768399999998
 31
0.0
  0
LINE
  5
7B03
  8
1
  6
CONTINUOUS
 10
3025.8325049999999
 20
2065.4768399999998
 30
0.0
 11
3025.8325049999999
 21
2705.4768399999998
 31
0.0
  0
LINE
  5
7B04
  8
1
  6
CONTINUOUS
 10
2870.8325049999999
 20
2303.7068399999989
 30
0.0
 11
2870.8325049999999
 21
2507.23684
 31
0.0
  0
LINE
  5
7B05
  8
1
  6
CONTINUOUS
 10
2920.8325049999989
 20
2303.7068399999989
 30
0.0
 11
2920.8325049999989
 21
2507.23684
 31
0.0
  0
LINE
  5
7B06
  8
1
  6
CONTINUOUS
 10
2945.8325049999999
 20
2065.4768399999998
 30
0.0
 11
2945.8325049999999
 21
2720.4768399999989
 31
0.0
  0
LINE
  5
7B07
  8
1
  6
CONTINUOUS
 10
2845.8325049999999
 20
2065.4768399999998
 30
0.0
 11
2845.8325049999999
 21
2720.4768399999989
 31
0.0
  0
LINE
  5
7B08
  8
1
  6
CONTINUOUS
 10
2048.354413999999
 20
2675.4768399999989
 30
0.0
 11
2048.354413999999
 21
2065.4768399999998
 31
0.0
  0
LINE
  5
7B09
  8
1
  6
CONTINUOUS
 10
2008.3544139999999
 20
2065.4768399999998
 30
0.0
 11
2008.3544139999999
 21
1985.4768399999989
 31
0.0
  0
LINE
  5
7B0A
  8
1
  6
CONTINUOUS
 10
2981.8325049999989
 20
2065.4768399999998
 30
0.0
 11
2981.8325049999989
 21
1985.4768399999989
 31
0.0
  0
LINE
  5
7B0B
  8
1
  6
CONTINUOUS
 10
2920.8325049999989
 20
2393.23684
 30
0.0
 11
3025.8325049999999
 21
2393.23684
 31
0.0
  0
LINE
  5
7B0C
  8
1
  6
CONTINUOUS
 10
2920.8325049999989
 20
2421.23684
 30
0.0
 11
3025.8325049999999
 21
2421.23684
 31
0.0
  0
LINE
  5
7B0D
  8
1
  6
CONTINUOUS
 10
2920.8325049999989
 20
2176.4768399999989
 30
0.0
 11
3025.8325049999999
 21
2176.4768399999989
 31
0.0
  0
LINE
  5
7B0E
  8
1
  6
CONTINUOUS
 10
2920.8325049999989
 20
2204.4768399999989
 30
0.0
 11
3025.8325049999999
 21
2204.4768399999989
 31
0.0
  0
LINE
  5
7B0F
  8
1
  6
CONTINUOUS
 10
2870.8325049999999
 20
2303.7068399999989
 30
0.0
 11
2920.8325049999989
 21
2303.7068399999989
 31
0.0
  0
LINE
  5
7B10
  8
1
  6
CONTINUOUS
 10
2870.8325049999999
 20
2130.4768399999989
 30
0.0
 11
2920.8325049999989
 21
2130.4768399999989
 31
0.0
  0
LINE
  5
7B11
  8
1
  6
CONTINUOUS
 10
2870.8325049999999
 20
2250.4768399999998
 30
0.0
 11
2920.8325049999989
 21
2250.4768399999998
 31
0.0
  0
LINE
  5
7B12
  8
1
  6
CONTINUOUS
 10
2870.8325049999999
 20
2130.4768399999989
 30
0.0
 11
2870.8325049999999
 21
2250.4768399999998
 31
0.0
  0
LINE
  5
7B13
  8
1
  6
CONTINUOUS
 10
2920.8325049999989
 20
2130.4768399999989
 30
0.0
 11
2920.8325049999989
 21
2250.4768399999998
 31
0.0
  0
LINE
  5
7B14
  8
1
  6
CONTINUOUS
 10
2845.8325049999999
 20
2720.4768399999989
 30
0.0
 11
2945.8325049999999
 21
2720.4768399999989
 31
0.0
  0
LINE
  5
7B15
  8
1
  6
CONTINUOUS
 10
2870.8325049999999
 20
2507.23684
 30
0.0
 11
2920.8325049999989
 21
2507.23684
 31
0.0
  0
LINE
  5
7B16
  8
1
  6
CONTINUOUS
 10
3325.8325049999989
 20
2065.4768399999998
 30
0.0
 11
3325.8325049999989
 21
2705.4768399999998
 31
0.0
  0
LINE
  5
7B17
  8
1
  6
CONTINUOUS
 10
3369.8325049999999
 20
2065.4768399999998
 30
0.0
 11
3369.8325049999999
 21
1985.4768399999989
 31
0.0
  0
LINE
  5
7B18
  8
1
  6
CONTINUOUS
 10
1359.284414
 20
3620.2468399999998
 30
0.0
 11
1759.284414
 21
3920.2468399999998
 31
0.0
  0
LINE
  5
7B19
  8
1
  6
CONTINUOUS
 10
1759.284414
 20
3620.2468399999998
 30
0.0
 11
1359.284414
 21
3920.2468399999998
 31
0.0
  0
LINE
  5
7B1A
  8
1
  6
CONTINUOUS
 10
1053.8544139999999
 20
3540.2468399999998
 30
0.0
 11
1923.8544139999999
 21
3540.2468399999998
 31
0.0
  0
LINE
  5
7B1B
  8
1
  6
CONTINUOUS
 10
1053.8544139999999
 20
3440.2468399999989
 30
0.0
 11
1923.8544139999999
 21
3440.2468399999989
 31
0.0
  0
LINE
  5
7B1C
  8
1
  6
CONTINUOUS
 10
2008.3544139999999
 20
3964.2468399999989
 30
0.0
 11
1008.354414
 21
3964.2468399999989
 31
0.0
  0
LINE
  5
7B1D
  8
1
  6
CONTINUOUS
 10
1359.284414
 20
3920.2468399999998
 30
0.0
 11
2048.354413999999
 21
3920.2468399999998
 31
0.0
  0
LINE
  5
7B1E
  8
1
  6
CONTINUOUS
 10
1359.284414
 20
3620.2468399999998
 30
0.0
 11
2048.354413999999
 21
3620.2468399999998
 31
0.0
  0
LINE
  5
7B1F
  8
1
  6
CONTINUOUS
 10
1734.3544139999999
 20
3576.2468399999989
 30
0.0
 11
1230.484414
 21
3576.2468399999989
 31
0.0
  0
LINE
  5
7B27
  8
1
  6
CONTINUOUS
 10
1202.484414
 20
3576.2468399999989
 30
0.0
 11
1008.354414
 21
3576.2468399999989
 31
0.0
  0
LINE
  5
7B28
  8
1
  6
CONTINUOUS
 10
1008.354414
 20
3964.2468399999989
 30
0.0
 11
1008.354414
 21
3576.2468399999989
 31
0.0
  0
LINE
  5
7B29
  8
1
  6
CONTINUOUS
 10
1053.8544139999999
 20
3440.2468399999989
 30
0.0
 11
1053.8544139999999
 21
3540.2468399999998
 31
0.0
  0
LINE
  5
7B2A
  8
1
  6
CONTINUOUS
 10
1115.4844139999991
 20
3606.96684
 30
0.0
 11
1115.4844139999991
 21
3849.6468399999999
 31
0.0
  0
LINE
  5
7B2B
  8
1
  6
CONTINUOUS
 10
1317.484414
 20
3606.96684
 30
0.0
 11
1317.484414
 21
3849.6468399999999
 31
0.0
  0
LINE
  5
7B2C
  8
1
  6
CONTINUOUS
 10
1359.284414
 20
3620.2468399999998
 30
0.0
 11
1359.284414
 21
3920.2468399999998
 31
0.0
  0
LINE
  5
7B2D
  8
1
  6
CONTINUOUS
 10
1156.484414
 20
3515.2468399999989
 30
0.0
 11
1276.484414
 21
3515.2468399999989
 31
0.0
  0
LINE
  5
7B2E
  8
1
  6
CONTINUOUS
 10
1156.484414
 20
3465.2468399999989
 30
0.0
 11
1276.484414
 21
3465.2468399999989
 31
0.0
  0
LINE
  5
7B2F
  8
1
  6
CONTINUOUS
 10
1317.484414
 20
3606.96684
 30
0.0
 11
1115.4844139999991
 21
3606.96684
 31
0.0
  0
LINE
  5
7B30
  8
1
  6
CONTINUOUS
 10
1156.484414
 20
3465.2468399999989
 30
0.0
 11
1156.484414
 21
3515.2468399999989
 31
0.0
  0
LINE
  5
7B31
  8
1
  6
CONTINUOUS
 10
1202.484414
 20
3515.2468399999989
 30
0.0
 11
1202.484414
 21
3606.96684
 31
0.0
  0
LINE
  5
7B32
  8
1
  6
CONTINUOUS
 10
1276.484414
 20
3465.2468399999989
 30
0.0
 11
1276.484414
 21
3515.2468399999989
 31
0.0
  0
LINE
  5
7B33
  8
1
  6
CONTINUOUS
 10
1230.484414
 20
3515.2468399999989
 30
0.0
 11
1230.484414
 21
3606.96684
 31
0.0
  0
LINE
  5
7B34
  8
1
  6
CONTINUOUS
 10
1317.484414
 20
3849.6468399999999
 30
0.0
 11
1115.4844139999991
 21
3849.6468399999999
 31
0.0
  0
LINE
  5
7B35
  8
1
  6
CONTINUOUS
 10
2008.3544139999999
 20
3576.2468399999989
 30
0.0
 11
1762.3544139999999
 21
3576.2468399999989
 31
0.0
  0
LINE
  5
7B36
  8
1
  6
CONTINUOUS
 10
1646.5944139999999
 20
3515.2468399999989
 30
0.0
 11
1850.1244139999999
 21
3515.2468399999989
 31
0.0
  0
LINE
  5
7B37
  8
1
  6
CONTINUOUS
 10
1646.5944139999999
 20
3465.2468399999989
 30
0.0
 11
1850.1244139999999
 21
3465.2468399999989
 31
0.0
  0
LINE
  5
7B38
  8
1
  6
CONTINUOUS
 10
1646.5944139999999
 20
3465.2468399999989
 30
0.0
 11
1646.5944139999999
 21
3515.2468399999989
 31
0.0
  0
LINE
  5
7B39
  8
1
  6
CONTINUOUS
 10
1759.284414
 20
3620.2468399999998
 30
0.0
 11
1759.284414
 21
3920.2468399999998
 31
0.0
  0
LINE
  5
7B3A
  8
1
  6
CONTINUOUS
 10
1764.1244139999999
 20
3515.2468399999989
 30
0.0
 11
1764.1244139999999
 21
3620.2468399999998
 31
0.0
  0
LINE
  5
7B3B
  8
1
  6
CONTINUOUS
 10
1736.1244139999999
 20
3515.2468399999989
 30
0.0
 11
1736.1244139999999
 21
3620.2468399999998
 31
0.0
  0
LINE
  5
7B3C
  8
1
  6
CONTINUOUS
 10
1850.1244139999999
 20
3465.2468399999989
 30
0.0
 11
1850.1244139999999
 21
3515.2468399999989
 31
0.0
  0
LINE
  5
7B3D
  8
1
  6
CONTINUOUS
 10
1923.8544139999999
 20
3440.2468399999989
 30
0.0
 11
1923.8544139999999
 21
3540.2468399999998
 31
0.0
  0
LINE
  5
7B3E
  8
1
  6
CONTINUOUS
 10
2048.354413999999
 20
3620.2468399999998
 30
0.0
 11
2048.354413999999
 21
3920.2468399999998
 31
0.0
  0
LINE
  5
7B3F
  8
1
  6
CONTINUOUS
 10
2008.3544139999999
 20
3620.2468399999998
 30
0.0
 11
2008.3544139999999
 21
3576.2468399999989
 31
0.0
  0
LINE
  5
7B40
  8
1
  6
CONTINUOUS
 10
2008.3544139999999
 20
3964.2468399999989
 30
0.0
 11
2008.3544139999999
 21
3920.2468399999998
 31
0.0
  0
LINE
  5
7B41
  8
2
  6
CENTER
 10
3175.8325049999999
 20
2760.552180903192
 30
0.0
 11
3175.8325049999999
 21
1944.1642422074631
 31
0.0
  0
LINE
  5
7B42
  8
2
  6
CENTER
 10
2128.8433254002848
 20
3770.2468399999998
 30
0.0
 11
973.22355500000003
 21
3770.2468399999998
 31
0.0
  0
LINE
  5
7B43
  8
2
  6
CENTER
 10
1748.3544139999999
 20
2912.9465409999998
 30
0.0
 11
1748.3544139999999
 21
1909.625055735054
 31
0.0
  0
LINE
  5
7B44
  8
2
  6
CENTER
 10
2758.1278790000001
 20
2405.4768399999998
 30
0.0
 11
3367.1322270000001
 21
2405.4768399999998
 31
0.0
  0
LINE
  5
7B45
  8
4
  6
CONTINUOUS
 10
3700.0
 20
1000.0
 30
0.0
 11
3700.0
 21
600.0
 31
0.0
  0
LINE
  5
7B46
  8
4
  6
CONTINUOUS
 10
2300.0
 20
1000.0
 30
0.0
 11
2300.0
 21
600.0
 31
0.0
  0
LINE
  5
7B47
  8
4
  6
CONTINUOUS
 10
1300.0
 20
1000.0
 30
0.0
 11
1300.0
 21
600.0
 31
0.0
  0
LINE
  5
7B4A
  8
4
  6
CONTINUOUS
 10
1300.0
 20
600.0
 30
0.0
 11
3700.0
 21
600.0
 31
0.0
  0
LINE
  5
7B4B
  8
4
  6
CONTINUOUS
 10
1300.0
 20
800.0
 30
0.0
 11
3700.0
 21
800.0
 31
0.0
  0
TEXT
  5
7B4C
  8
4
  6
CONTINUOUS
 10
1377.004162
 20
863.086052
 30
0.0
 40
100.0
  1
機器名称
  0
TEXT
  5
7B4D
  8
4
  6
CONTINUOUS
 10
1372.516212
 20
643.29031299999986
 30
0.0
 40
100.0
  1
機器型番
  0
TEXT
  5
7B4E
  8
4
  6
CONTINUOUS
 10
2355.3574910000002
 20
845.14353800000015
 30
0.0
 40
100.0
  1
ミツヤ多翼送風機
  0
TEXT
  5
7B4F
  8
4
  6
CONTINUOUS
 10
2373.3089909999999
 20
634.31916899999999
 30
0.0
 40
100.0
  1
MF#2 1/2-4
  0
TEXT
  5
7B51
  8
4
  6
CONTINUOUS
 10
1809.5715309999989
 20
4766.8576830000002
 30
0.0
 40
108.0
  1
床置ベット
  0
TEXT
  5
7B52
  8
4
  6
CONTINUOUS
 10
632.33518700000002
 20
5067.7619520000007
 30
0.0
 40
144.0
  1
ベルト駆動式片吸込両持多翼ファン
  0
LINE
  5
7B53
  8
4
  6
CONTINUOUS
 10
500.0
 20
4938.8175090000004
 30
0.0
 11
3700.0
 21
4938.8175090000004
 31
0.0
  0
LINE
  5
7B54
  8
4
  6
CONTINUOUS
 10
500.0
 20
5338.8175090000004
 30
0.0
 11
3700.0
 21
5338.8175090000004
 31
0.0
  0
LINE
  5
7B55
  8
4
  6
CONTINUOUS
 10
1300.0
 20
1000.0
 30
0.0
 11
3700.0
 21
1000.0
 31
0.0
  0
LINE
  5
7B56
  8
4
  6
CONTINUOUS
 10
500.0
 20
5338.8175090000004
 30
0.0
 11
500.0
 21
4938.8175090000004
 31
0.0
  0
TEXT
  5
7B57
  8
4
  6
CONTINUOUS
 10
937.85386600000004
 20
4764.6389549999994
 30
0.0
 40
108.0
  1
右回転上向
  0
TEXT
  5
7B58
  8
4
  6
CONTINUOUS
 10
2937.9391179999998
 20
5412.122163
 30
0.0
 40
112.0
  1
No.
  0
TEXT
  5
7B59
  8
4
  6
CONTINUOUS
 10
2622.5921250000001
 20
4766.8576830000002
 30
0.0
 40
108.0
  1
縮尺：1/20
  0
LINE
  5
7B5A
  8
4
  6
CONTINUOUS
 10
3700.0
 20
5338.8175090000004
 30
0.0
 11
3700.0
 21
4938.8175090000004
 31
0.0
  0
LINE
  5
7B5C
  8
4
  6
CONTINUOUS
 10
2881.234845
 20
5362.5271659999999
 30
0.0
 11
2881.234845
 21
5573.3045229999998
 31
0.0
  0
LINE
  5
7B5D
  8
4
  6
CONTINUOUS
 10
2881.234845
 20
5573.3045229999998
 30
0.0
 11
3700.0
 21
5573.3045229999998
 31
0.0
  0
LINE
  5
7B5E
  8
4
  6
CONTINUOUS
 10
3700.0
 20
5573.3045229999998
 30
0.0
 11
3700.0
 21
5362.5271659999999
 31
0.0
  0
LINE
  5
7B5F
  8
4
  6
CONTINUOUS
 10
3700.0
 20
5362.5271659999999
 30
0.0
 11
2881.234845
 21
5362.5271659999999
 31
0.0
  0
DIMENSION
  5
7B77
  8
3
  6
CONTINUOUS
  2
*D1
 10
1760.3544139999999
 20
2809.4160350000002
 30
0.0
 11
1550.525848
 21
2809.4160350000002
 31
0.0
 70
   128
 13
1360.3544139999999
 23
2705.4768399999998
 33
0.0
 14
1760.3544139999999
 24
2705.4768399999998
 34
0.0
1001
ACAD
1000
DSTYLE
1002
{
1070
   287
1070
     3
1070
    40
1040
20.0
1070
   143
1040
0.039
1070
   172
1070
     1
1070
   271
1070
     0
1070
   279
1070
     0
1070
   288
1070
     1
1002
}
  0
DIMENSION
  5
7B84
  8
3
  6
CONTINUOUS
  2
*D2
 10
1748.3544139999999
 20
2940.7679750000002
 30
0.0
 11
1542.045329
 21
2940.7679750000002
 31
0.0
 70
   128
 13
1360.3544139999999
 23
2705.4768399999998
 33
0.0
 14
1748.3544139999999
 24
2912.9465409999998
 34
0.0
1001
ACAD
1000
DSTYLE
1002
{
1070
   287
1070
     3
1070
    40
1040
20.0
1070
   143
1040
0.039
1070
   172
1070
     1
1070
   271
1070
     0
1070
   279
1070
     0
1070
   288
1070
     1
1002
}
  0
DIMENSION
  5
7B90
  8
3
  6
CONTINUOUS
  2
*D3
 10
2048.354413999999
 20
2940.7679750000002
 30
0.0
 11
1898.354413999999
 21
2990.7679750000002
 31
0.0
 70
     0
 13
1748.3544139999999
 23
2912.9465409999998
 33
0.0
 14
2048.354413999999
 24
2675.4768399999989
 34
0.0
1001
ACAD
1000
DSTYLE
1002
{
1070
   287
1070
     4
1070
    40
1040
20.0
1070
    75
1070
     1
1070
   143
1040
0.039
1070
   172
1070
     1
1070
   271
1070
     0
1070
   279
1070
     1
1070
   288
1070
     1
1002
}
  0
DIMENSION
  5
7B9D
  8
3
  6
CONTINUOUS
  2
*D4
 10
2225.9926869999999
 20
2405.4768399999998
 30
0.0
 11
2225.9926869999999
 21
2542.6196970000001
 31
0.0
 70
   128
 13
1787.3544139999999
 23
2705.4768399999998
 33
0.0
 14
2186.227519
 24
2405.4768399999998
 34
0.0
 50
90.0
1001
ACAD
1000
DSTYLE
1002
{
1070
   287
1070
     3
1070
    40
1040
20.0
1070
   143
1040
0.039
1070
   172
1070
     1
1070
   271
1070
     0
1070
   279
1070
     0
1070
   288
1070
     1
1002
}
  0
DIMENSION
  5
7BA9
  8
3
  6
CONTINUOUS
  2
*D5
 10
2225.9926869999999
 20
1985.4768399999989
 30
0.0
 11
2175.992686999999
 21
2195.4768399999998
 31
0.0
 70
     0
 13
2186.227519
 23
2405.4768399999998
 33
0.0
 14
2008.3544139999999
 24
1985.4768399999989
 34
0.0
 50
90.0
1001
ACAD
1000
DSTYLE
1002
{
1070
   287
1070
     4
1070
    40
1040
20.0
1070
    75
1070
     1
1070
   143
1040
0.039
1070
   172
1070
     1
1070
   271
1070
     0
1070
   279
1070
     1
1070
   288
1070
     1
1002
}
  0
DIMENSION
  5
7BB6
  8
3
  6
CONTINUOUS
  2
*D6
 10
1748.3544139999999
 20
1851.4386493198051
 30
0.0
 11
1346.9933140000001
 21
1851.4386493198051
 31
0.0
 70
   128
 13
1008.354414
 23
1985.4768399999989
 33
0.0
 14
1748.3544139999999
 24
1909.625055735054
 34
0.0
1001
ACAD
1000
DSTYLE
1002
{
1070
   287
1070
     3
1070
    40
1040
20.0
1070
   143
1040
0.039
1070
   172
1070
     1
1070
   271
1070
     0
1070
   279
1070
     0
1070
   288
1070
     1
1002
}
  0
DIMENSION
  5
7BC4
  8
3
  6
CONTINUOUS
  2
*D7
 10
2008.3544139999999
 20
1851.4386493198051
 30
0.0
 11
1870.2920790000001
 21
1851.086019319805
 31
0.0
 70
   128
 13
1748.3544139999999
 23
1909.625055735054
 33
0.0
 14
2008.3544139999999
 24
1985.4768399999989
 34
0.0
1001
ACAD
1000
DSTYLE
1002
{
1070
   287
1070
     4
1070
    40
1040
20.0
1070
    75
1070
     1
1070
   143
1040
0.039
1070
   172
1070
     1
1070
   271
1070
     0
1070
   279
1070
     1
1070
   288
1070
     1
1002
}
  0
DIMENSION
  5
7BD1
  8
3
  6
CONTINUOUS
  2
*D8
 10
2378.642081
 20
1985.4768399999989
 30
0.0
 11
2378.642081
 21
2353.0262889999999
 31
0.0
 70
   128
 13
1797.3544139999999
 23
2705.4768399999998
 33
0.0
 14
2008.3544139999999
 24
1985.4768399999989
 34
0.0
 50
90.0
1001
ACAD
1000
DSTYLE
1002
{
1070
   287
1070
     3
1070
    40
1040
20.0
1070
   143
1040
0.039
1070
   172
1070
     1
1070
   271
1070
     0
1070
   279
1070
     0
1070
   288
1070
     1
1002
}
  0
DIMENSION
  5
7BE0
  8
3
  6
CONTINUOUS
  2
*D9
 10
3175.8325049999999
 20
1848.334653639419
 30
0.0
 11
3078.8325049999999
 21
1899.2825507354239
 31
0.0
 70
   128
 13
2981.8325049999989
 23
1985.4768399999989
 33
0.0
 14
3175.8325049999999
 24
1944.1642422074631
 34
0.0
1001
ACAD
1000
DSTYLE
1002
{
1070
   288
1070
     1
1070
   172
1070
     1
1070
    40
1040
20.0
1070
   271
1070
     0
1070
   143
1040
0.039
1002
}
  0
DIMENSION
  5
7BEE
  8
3
  6
CONTINUOUS
  2
*D10
 10
3369.8325049999999
 20
1848.334653639419
 30
0.0
 11
3283.3402289999999
 21
1847.174936639419
 31
0.0
 70
   128
 13
3175.8325049999999
 23
1944.1642422074631
 33
0.0
 14
3369.8325049999999
 24
1985.4768399999989
 34
0.0
1001
ACAD
1000
DSTYLE
1002
{
1070
   287
1070
     4
1070
    40
1040
20.0
1070
    75
1070
     1
1070
   143
1040
0.039
1070
   172
1070
     1
1070
   271
1070
     0
1070
   279
1070
     1
1070
   288
1070
     1
1002
}
  0
DIMENSION
  5
7BFB
  8
3
  6
CONTINUOUS
  2
*D11
 10
3325.8325049999989
 20
2751.3192530000001
 30
0.0
 11
3162.9753620000001
 21
2751.3192530000001
 31
0.0
 70
   128
 13
3025.8325049999999
 23
2705.4768399999998
 33
0.0
 14
3325.8325049999989
 24
2705.4768399999998
 34
0.0
1001
ACAD
1000
DSTYLE
1002
{
1070
   287
1070
     3
1070
    40
1040
20.0
1070
   143
1040
0.039
1070
   172
1070
     1
1070
   271
1070
     0
1070
   279
1070
     0
1070
   288
1070
     1
1002
}
  0
DIMENSION
  5
7C08
  8
3
  6
CONTINUOUS
  2
*D12
 10
3175.8325049999999
 20
2889.214117999999
 30
0.0
 11
3030.1182192857141
 21
2889.214117999999
 31
0.0
 70
   128
  1
MAX\P380
 13
2845.8325049999999
 23
2720.4768399999989
 33
0.0
 14
3175.8325049999999
 24
2847.518248258742
 34
0.0
1001
ACAD
1000
DSTYLE
1002
{
1070
   287
1070
     3
1070
    40
1040
20.0
1070
   143
1040
0.039
1070
   172
1070
     1
1070
   271
1070
     0
1070
   279
1070
     0
1070
   288
1070
     1
1002
}
  0
DIMENSION
  5
7C25
  8
3
  6
CONTINUOUS
  2
*D13
 10
3511.0188659999999
 20
2190.4768399999998
 30
0.0
 11
3511.0188659999999
 21
2395.3978780000002
 31
0.0
 70
   128
 13
3325.8325049999989
 23
2620.4768399999998
 33
0.0
 14
3325.8325049999989
 24
2190.4768399999998
 34
0.0
 50
90.0
1001
ACAD
1000
DSTYLE
1002
{
1070
   287
1070
     3
1070
     3
1000
φ<>
1070
    40
1040
20.0
1070
   143
1040
0.039
1070
   172
1070
     1
1070
   271
1070
     0
1070
   279
1070
     0
1070
   288
1070
     1
1002
}
  0
DIMENSION
  5
7C32
  8
3
  6
CONTINUOUS
  2
*D14
 10
2008.3544139999999
 20
4110.3529349999999
 30
0.0
 11
1516.6037710000001
 21
4110.3529349999999
 31
0.0
 70
   128
 13
1008.354414
 23
3964.2468399999989
 33
0.0
 14
2008.3544139999999
 24
3964.2468399999989
 34
0.0
1001
ACAD
1000
DSTYLE
1002
{
1070
   287
1070
     3
1070
    40
1040
20.0
1070
   143
1040
0.039
1070
   172
1070
     1
1070
   271
1070
     0
1070
   279
1070
     0
1070
   288
1070
     1
1002
}
  0
DIMENSION
  5
7C3F
  8
3
  6
CONTINUOUS
  2
*D15
 10
842.84782300000063
 20
3576.2468399999989
 30
0.0
 11
842.84782300000006
 21
3769.9259339999999
 31
0.0
 70
   128
 13
1008.354414
 23
3964.2468399999989
 33
0.0
 14
1008.354414
 24
3576.2468399999989
 34
0.0
 50
90.0
1001
ACAD
1000
DSTYLE
1002
{
1070
   287
1070
     3
1070
    40
1040
20.0
1070
   143
1040
0.039
1070
   172
1070
     1
1070
   271
1070
     0
1070
   279
1070
     0
1070
   288
1070
     1
1002
}
  0
LINE
  5
7CAE
  8
1
  6
CONTINUOUS
 10
3326.8325049999999
 20
2190.4768399999998
 30
0.0
 11
3326.8325049999999
 21
2620.4768399999998
 31
0.0
  0
DIMENSION
  5
7CBE
  8
3
  6
CONTINUOUS
  2
*D16
 10
3326.8325049999999
 20
2889.214117999999
 30
0.0
 11
3252.4840679999988
 21
2890.0908850000001
 31
0.0
 70
   128
 13
3175.8325049999999
 23
2847.518248258742
 33
0.0
 14
3326.8325049999999
 24
2620.4768399999998
 34
0.0
1001
ACAD
1000
DSTYLE
1002
{
1070
   287
1070
     4
1070
    40
1040
20.0
1070
    75
1070
     1
1070
   143
1040
0.039
1070
   172
1070
     1
1070
   271
1070
     0
1070
   279
1070
     1
1070
   288
1070
     1
1002
}
  0
DIMENSION
  5
7DF0
  8
3
  2
*D17
 10
1008.354414
 20
3065.2618968851889
 30
0.0
 11
1547.907786793701
 21
3065.2618968851889
 31
0.0
 70
   128
 13
2048.354413999999
 23
2675.4768399999989
 33
0.0
 14
1008.354414
 24
2065.4768399999998
 34
0.0
1001
ACAD
1000
DSTYLE
1002
{
1070
   287
1070
     3
1070
    40
1040
20.0
1070
   143
1040
0.039
1070
   172
1070
     1
1070
   271
1070
     0
1070
   279
1070
     0
1070
   288
1070
     1
1002
}
  0
ENDSEC
  0
EOF
