  0
SECTION
  2
HEADER
  9
$ACADVER
  1
AC1009
  9
$INSBASE
 10
0.0
 20
0.0
 30
0.0
  9
$EXTMIN
 10
500.0
 20
600.0
 30
0.0
  9
$EXTMAX
 10
3700.0
 20
5573.3045229999998
 30
0.0
  9
$LIMMIN
 10
0.0
 20
0.0
  9
$LIMMAX
 10
297.0
 20
210.0
  9
$ORTHOMODE
 70
     0
  9
$REGENMODE
 70
     1
  9
$FILLMODE
 70
     0
  9
$QTEXTMODE
 70
     0
  9
$MIRRTEXT
 70
     1
  9
$DRAGMODE
 70
     2
  9
$LTSCALE
 40
100.0
  9
$OSMODE
 70
    37
  9
$ATTMODE
 70
     1
  9
$TEXTSIZE
 40
180.0
  9
$TRACEWID
 40
0.05
  9
$TEXTSTYLE
  7
STANDARD
  9
$CLAYER
  8
3
  9
$CELTYPE
  6
BYLAYER
  9
$CECOLOR
 62
   256
  9
$DIMSCALE
 40
20.0
  9
$DIMASZ
 40
2.0
  9
$DIMEXO
 40
0.5
  9
$DIMDLI
 40
10.0
  9
$DIMRND
 40
0.0
  9
$DIMDLE
 40
0.0
  9
$DIMEXE
 40
1.0
  9
$DIMTP
 40
1.0
  9
$DIMTM
 40
1.0
  9
$DIMTXT
 40
3.0
  9
$DIMCEN
 40
0.0
  9
$DIMTSZ
 40
0.0
  9
$DIMTOL
 70
     0
  9
$DIMLIM
 70
     0
  9
$DIMTIH
 70
     0
  9
$DIMTOH
 70
     0
  9
$DIMSE1
 70
     0
  9
$DIMSE2
 70
     0
  9
$DIMTAD
 70
     1
  9
$DIMZIN
 70
     8
  9
$DIMBLK
  1

  9
$DIMASO
 70
     1
  9
$DIMSHO
 70
     1
  9
$DIMPOST
  1

  9
$DIMAPOST
  1

  9
$DIMALT
 70
     0
  9
$DIMALTD
 70
     2
  9
$DIMALTF
 40
0.039
  9
$DIMLFAC
 40
1.0
  9
$DIMTOFL
 70
     1
  9
$DIMTVP
 40
0.0
  9
$DIMTIX
 70
     0
  9
$DIMSOXD
 70
     0
  9
$DIMSAH
 70
     1
  9
$DIMBLK1
  1
OPEN
  9
$DIMBLK2
  1
OPEN
  9
$DIMSTYLE
  2
IGA
  9
$DIMCLRD
 70
     0
  9
$DIMCLRE
 70
     0
  9
$DIMCLRT
 70
     0
  9
$DIMTFAC
 40
10.0
  9
$DIMGAP
 40
1.0
  9
$LUNITS
 70
     2
  9
$LUPREC
 70
     3
  9
$SKETCHINC
 40
0.1
  9
$FILLETRAD
 40
50.0
  9
$AUNITS
 70
     0
  9
$AUPREC
 70
     0
  9
$MENU
  1
acad
  9
$ELEVATION
 40
0.0
  9
$PELEVATION
 40
0.0
  9
$THICKNESS
 40
0.0
  9
$LIMCHECK
 70
     0
  9
$BLIPMODE
 70
     0
  9
$CHAMFERA
 40
0.5
  9
$CHAMFERB
 40
0.5
  9
$SKPOLY
 70
     0
  9
$TDCREATE
 40
2450723.6540399301
  9
$TDUPDATE
 40
2454953.7658969909
  9
$TDINDWG
 40
0.0046008333
  9
$TDUSRTIMER
 40
0.0046008333
  9
$USRTIMER
 70
     1
  9
$ANGBASE
 50
0.0
  9
$ANGDIR
 70
     0
  9
$PDMODE
 70
     0
  9
$PDSIZE
 40
0.0
  9
$PLINEWID
 40
0.0
  9
$COORDS
 70
     1
  9
$SPLFRAME
 70
     0
  9
$SPLINETYPE
 70
     6
  9
$SPLINESEGS
 70
     8
  9
$ATTDIA
 70
     0
  9
$ATTREQ
 70
     1
  9
$HANDLING
 70
 10241
  9
$HANDSEED
  5
7FF4
  9
$SURFTAB1
 70
     6
  9
$SURFTAB2
 70
     6
  9
$SURFTYPE
 70
     6
  9
$SURFU
 70
     6
  9
$SURFV
 70
     6
  9
$UCSNAME
  2

  9
$UCSORG
 10
0.0
 20
0.0
 30
0.0
  9
$UCSXDIR
 10
1.0
 20
0.0
 30
0.0
  9
$UCSYDIR
 10
0.0
 20
1.0
 30
0.0
  9
$PUCSNAME
  2

  9
$PUCSORG
 10
0.0
 20
0.0
 30
0.0
  9
$PUCSXDIR
 10
1.0
 20
0.0
 30
0.0
  9
$PUCSYDIR
 10
0.0
 20
1.0
 30
0.0
  9
$USERI1
 70
     0
  9
$USERI2
 70
     0
  9
$USERI3
 70
     0
  9
$USERI4
 70
     0
  9
$USERI5
 70
     0
  9
$USERR1
 40
0.0
  9
$USERR2
 40
0.0
  9
$USERR3
 40
0.0
  9
$USERR4
 40
0.0
  9
$USERR5
 40
0.0
  9
$WORLDVIEW
 70
     1
  9
$SHADEDGE
 70
     3
  9
$SHADEDIF
 70
    70
  9
$TILEMODE
 70
     1
  9
$MAXACTVP
 70
    16
  9
$PLIMCHECK
 70
     0
  9
$PEXTMIN
 10
1.0000000000000000E+020
 20
1.0000000000000000E+020
 30
1.0000000000000000E+020
  9
$PEXTMAX
 10
-1.0000000000000000E+020
 20
-1.0000000000000000E+020
 30
-1.0000000000000000E+020
  9
$PLIMMIN
 10
0.0
 20
0.0
  9
$PLIMMAX
 10
12.0
 20
9.0
  9
$UNITMODE
 70
     0
  9
$VISRETAIN
 70
     0
  9
$PLINEGEN
 70
     0
  9
$PSLTSCALE
 70
     1
  0
ENDSEC
  0
SECTION
  2
TABLES
  0
TABLE
  2
VPORT
 70
     2
  0
VPORT
  2
*ACTIVE
 70
     0
 10
0.0
 20
0.0
 11
1.0
 21
1.0
 12
6292.1124769529506
 22
3086.6374998146398
 13
0.0
 23
0.0
 14
10.0
 24
10.0
 15
10.0
 25
10.0
 16
0.0
 26
0.0
 36
1.0
 17
0.0
 27
0.0
 37
0.0
 40
5011.4968576296578
 41
3.1666666666666661
 42
50.0
 43
0.0
 44
0.0
 50
0.0
 51
0.0
 71
     0
 72
   100
 73
     1
 74
     0
 75
     0
 76
     0
 77
     0
 78
     0
  0
ENDTAB
  0
TABLE
  2
LTYPE
 70
     2
  0
LTYPE
  2
CONTINUOUS
 70
     0
  3
Solid line
 72
    65
 73
     0
 40
0.0
  0
LTYPE
  2
CENTER
 70
     0
  3
____ _ ____ _ ____ _ ____ _ ____ _ ____ _ ____ 
 72
    65
 73
     4
 40
2.0
 49
1.25
 49
-0.25
 49
0.25
 49
-0.25
  0
ENDTAB
  0
TABLE
  2
LAYER
 70
     6
  0
LAYER
  2
0
 70
     0
 62
     7
  6
CONTINUOUS
  0
LAYER
  2
3
 70
     0
 62
     2
  6
CONTINUOUS
  0
LAYER
  2
2
 70
     0
 62
     3
  6
CENTER
  0
LAYER
  2
1
 70
     0
 62
     4
  6
CONTINUOUS
  0
LAYER
  2
4
 70
     0
 62
     7
  6
CONTINUOUS
  0
LAYER
  2
DEFPOINTS
 70
     0
 62
     7
  6
CONTINUOUS
  0
ENDTAB
  0
TABLE
  2
STYLE
 70
     1
  0
STYLE
  2
STANDARD
 70
     0
 40
0.0
 41
1.0
 50
0.0
 71
     0
 42
180.0
  3
simplex.shx
  4
extfont.shx
  0
ENDTAB
  0
TABLE
  2
VIEW
 70
     0
  0
ENDTAB
  0
TABLE
  2
UCS
 70
     0
  0
ENDTAB
  0
TABLE
  2
APPID
 70
     1
  0
APPID
  2
ACAD
 70
     0
  0
ENDTAB
  0
TABLE
  2
DIMSTYLE
 70
     1
  0
DIMSTYLE
  2
IGA
 70
     0
  3

  4

  5

  6
OPEN
  7
OPEN
 40
2.0
 41
2.0
 42
0.5
 43
10.0
 44
1.0
 45
0.0
 46
0.0
 47
1.0
 48
1.0
140
3.0
141
0.0
142
0.0
143
0.03937
144
1.0
145
0.0
146
10.0
147
1.0
 71
     0
 72
     0
 73
     0
 74
     0
 75
     0
 76
     0
 77
     1
 78
     8
170
     0
171
     2
172
     0
173
     1
174
     0
175
     0
176
     0
177
     0
178
     0
  0
ENDTAB
  0
ENDSEC
  0
SECTION
  2
BLOCKS
  0
BLOCK
  8
0
  2
$MODEL_SPACE
 70
     0
 10
0.0
 20
0.0
 30
0.0
  3
$MODEL_SPACE
  1

  0
ENDBLK
  5
1B
  8
0
  0
BLOCK
 67
     1
  8
0
  2
$PAPER_SPACE
 70
     0
 10
0.0
 20
0.0
 30
0.0
  3
$PAPER_SPACE
  1

  0
ENDBLK
  5
18
 67
     1
  8
0
  0
BLOCK
  8
0
  2
_OPEN
 70
     0
 10
0.0
 20
0.0
 30
0.0
  3
_OPEN
  1

  0
LINE
  5
7B02
  8
0
  6
BYBLOCK
 62
     0
 10
-1.0
 20
0.166667
 30
0.0
 11
0.0
 21
0.0
 31
0.0
  0
LINE
  5
7B03
  8
0
  6
BYBLOCK
 62
     0
 10
0.0
 20
0.0
 30
0.0
 11
-1.0
 21
-0.166667
 31
0.0
  0
LINE
  5
7B04
  8
0
  6
BYBLOCK
 62
     0
 10
0.0
 20
0.0
 30
0.0
 11
-1.0
 21
0.0
 31
0.0
  0
ENDBLK
  5
7B05
  8
0
  0
BLOCK
  8
0
  2
*D1
 70
     1
 10
0.0
 20
0.0
 30
0.0
  3
*D1
  1

  0
LINE
  5
7F71
  8
3
  6
CONTINUOUS
 62
     0
 10
1873.255813
 20
2505.7100190000001
 30
0.0
 11
2056.248838
 21
2505.7100190000001
 31
0.0
  0
LINE
  5
7F72
  8
3
  6
CONTINUOUS
 62
     0
 10
1873.255813
 20
2105.7100189999992
 30
0.0
 11
2056.248838
 21
2105.7100189999992
 31
0.0
  0
LINE
  5
7F73
  8
3
  6
CONTINUOUS
 62
     0
 10
2036.248838
 20
2465.7100190000001
 30
0.0
 11
2036.248838
 21
2145.7100190000001
 31
0.0
  0
INSERT
  5
7F74
  8
3
  6
CONTINUOUS
 62
     0
  2
_OPEN
 10
2036.248838
 20
2505.7100190000001
 30
0.0
 41
40.0
 42
40.0
 43
40.0
 50
90.0
  0
INSERT
  5
7F75
  8
3
  6
CONTINUOUS
 62
     0
  2
_OPEN
 10
2036.248838
 20
2105.7100189999992
 30
0.0
 41
40.0
 42
40.0
 43
40.0
 50
270.0
  0
TEXT
  8
3
  40
60
  5
7FE6
  62
0
  72
0
  71
0
 10
1866.25
 20
2186.22
 30
0.000000
  1
400
  0
POINT
  5
7F77
  8
DEFPOINTS
  6
CONTINUOUS
 62
     0
 10
1863.255813
 20
2505.7100190000001
 30
0.0
  0
POINT
  5
7F78
  8
DEFPOINTS
  6
CONTINUOUS
 62
     0
 10
1863.255813
 20
2105.7100189999992
 30
0.0
  0
POINT
  5
7F79
  8
DEFPOINTS
  6
CONTINUOUS
 62
     0
 10
2036.248838
 20
2105.7100189999992
 30
0.0
  0
ENDBLK
  5
7E44
  8
0
  0
BLOCK
  8
0
  2
*D2
 70
     1
 10
0.0
 20
0.0
 30
0.0
  3
*D2
  1

  0
LINE
  5
7F7A
  8
3
  6
CONTINUOUS
 62
     0
 10
1873.255813
 20
2532.7100190000001
 30
0.0
 11
2327.0376769999998
 21
2532.7100190000001
 31
0.0
  0
LINE
  5
7F7B
  8
3
  6
CONTINUOUS
 62
     0
 10
1833.255813
 20
1737.7100190000001
 30
0.0
 11
2327.0376769999998
 21
1737.7100190000001
 31
0.0
  0
LINE
  5
7F7C
  8
3
  6
CONTINUOUS
 62
     0
 10
2307.0376769999998
 20
2492.7100190000001
 30
0.0
 11
2307.0376769999998
 21
1777.7100190000001
 31
0.0
  0
INSERT
  5
7F7D
  8
3
  6
CONTINUOUS
 62
     0
  2
_OPEN
 10
2307.0376769999998
 20
2532.7100190000001
 30
0.0
 41
40.0
 42
40.0
 43
40.0
 50
90.0
  0
INSERT
  5
7F7E
  8
3
  6
CONTINUOUS
 62
     0
  2
_OPEN
 10
2307.0376769999998
 20
1737.7100190000001
 30
0.0
 41
40.0
 42
40.0
 43
40.0
 50
270.0
  0
TEXT
  8
3
  40
60
  5
7FE7
  62
0
  72
0
  71
0
 10
2137.04
 20
2036.83
 30
0.000000
  1
795
  0
POINT
  5
7F80
  8
DEFPOINTS
  6
CONTINUOUS
 62
     0
 10
1863.255813
 20
2532.7100190000001
 30
0.0
  0
POINT
  5
7F81
  8
DEFPOINTS
  6
CONTINUOUS
 62
     0
 10
1823.255813
 20
1737.7100190000001
 30
0.0
  0
POINT
  5
7F82
  8
DEFPOINTS
  6
CONTINUOUS
 62
     0
 10
2307.0376769999998
 20
1737.7100190000001
 30
0.0
  0
ENDBLK
  5
7E39
  8
0
  0
BLOCK
  8
0
  2
*D3
 70
     1
 10
0.0
 20
0.0
 30
0.0
  3
*D3
  1

  0
LINE
  5
7F17
  8
0
  6
BYBLOCK
 62
     0
 10
1823.255813
 20
1727.7100190000001
 30
0.0
 11
1823.255813
 21
1573.194199156691
 31
0.0
  0
LINE
  5
7F18
  8
0
  6
BYBLOCK
 62
     0
 10
1563.255813
 20
1690.9107516252241
 30
0.0
 11
1563.255813
 21
1573.194199156691
 31
0.0
  0
LINE
  5
7F19
  8
0
  6
BYBLOCK
 62
     0
 10
1783.255813
 20
1593.194199156691
 30
0.0
 11
1603.255813
 21
1593.194199156691
 31
0.0
  0
TEXT
  5
7F1A
  8
3
 62
     0
 10
1616.112955857142
 20
1613.6205556432139
 30
0.0
 40
60.0
  1
260
  0
INSERT
  5
7F1B
  8
0
  6
BYBLOCK
 62
     0
  2
_OPEN
 10
1823.255813
 20
1593.194199156691
 30
0.0
 41
40.0
 42
40.0
 43
40.0
  0
INSERT
  5
7F1C
  8
0
  6
BYBLOCK
 62
     0
  2
_OPEN
 10
1563.255813
 20
1593.194199156691
 30
0.0
 41
40.0
 42
40.0
 43
40.0
 50
180.0
  0
POINT
  5
7F1D
  8
DEFPOINTS
  6
BYBLOCK
 62
     0
 10
1823.255813
 20
1737.7100190000001
 30
0.0
  0
POINT
  5
7F1E
  8
DEFPOINTS
  6
BYBLOCK
 62
     0
 10
1563.255813
 20
1700.910751625225
 30
0.0
  0
POINT
  5
7F1F
  8
DEFPOINTS
  6
BYBLOCK
 62
     0
 10
1563.255813
 20
1593.194199156691
 30
0.0
  0
ENDBLK
  5
7F20
  8
0
  0
BLOCK
  8
0
  2
*D4
 70
     1
 10
0.0
 20
0.0
 30
0.0
  3
*D4
  1

  0
LINE
  5
7F83
  8
3
  6
CONTINUOUS
 62
     0
 10
1563.255813
 20
1690.9107516252241
 30
0.0
 11
1563.255813
 21
1573.194199156691
 31
0.0
  0
LINE
  5
7F84
  8
3
  6
CONTINUOUS
 62
     0
 10
823.25581299999988
 20
1727.7100190000001
 30
0.0
 11
823.25581299999988
 21
1573.194199156691
 31
0.0
  0
LINE
  5
7F85
  8
3
  6
CONTINUOUS
 62
     0
 10
1523.255813
 20
1593.194199156691
 30
0.0
 11
863.25581299999988
 21
1593.194199156691
 31
0.0
  0
INSERT
  5
7F86
  8
3
  6
CONTINUOUS
 62
     0
  2
_OPEN
 10
1563.255813
 20
1593.194199156691
 30
0.0
 41
40.0
 42
40.0
 43
40.0
  0
INSERT
  5
7F87
  8
3
  6
CONTINUOUS
 62
     0
  2
_OPEN
 10
823.25581299999988
 20
1593.194199156691
 30
0.0
 41
40.0
 42
40.0
 43
40.0
 50
180.0
  0
TEXT
  8
3
  40
60
  5
7FE8
  62
0
  72
0
  71
0
 10
1073.26
 20
1536.99
 30
0.000000
  1
740
  0
POINT
  5
7F89
  8
DEFPOINTS
  6
CONTINUOUS
 62
     0
 10
1563.255813
 20
1700.910751625225
 30
0.0
  0
POINT
  5
7F8A
  8
DEFPOINTS
  6
CONTINUOUS
 62
     0
 10
823.25581299999988
 20
1737.7100190000001
 30
0.0
  0
POINT
  5
7F8B
  8
DEFPOINTS
  6
CONTINUOUS
 62
     0
 10
823.25581299999988
 20
1593.194199156691
 30
0.0
  0
ENDBLK
  5
7F15
  8
0
  0
BLOCK
  8
0
  2
*D5
 70
     1
 10
0.0
 20
0.0
 30
0.0
  3
*D5
  1

  0
LINE
  5
7F8C
  8
3
  6
CONTINUOUS
 62
     0
 10
1863.255813
 20
2542.7100190000001
 30
0.0
 11
1863.255813
 21
2607.7522239999998
 31
0.0
  0
LINE
  5
7F8D
  8
3
  6
CONTINUOUS
 62
     0
 10
1563.255813
 20
2579.7386119413459
 30
0.0
 11
1563.255813
 21
2607.7522239999998
 31
0.0
  0
LINE
  5
7F8E
  8
3
  6
CONTINUOUS
 62
     0
 10
1823.255813
 20
2587.7522239999989
 30
0.0
 11
1603.255813
 21
2587.7522239999989
 31
0.0
  0
INSERT
  5
7F8F
  8
3
  6
CONTINUOUS
 62
     0
  2
_OPEN
 10
1863.255813
 20
2587.7522239999989
 30
0.0
 41
40.0
 42
40.0
 43
40.0
  0
INSERT
  5
7F90
  8
3
  6
CONTINUOUS
 62
     0
  2
_OPEN
 10
1563.255813
 20
2587.7522239999989
 30
0.0
 41
40.0
 42
40.0
 43
40.0
 50
180.0
  0
TEXT
  8
3
  40
60
  5
7FE9
  62
0
  72
0
  71
0
 10
1606.11
 20
2531.55
 30
0.000000
  1
300
  0
POINT
  5
7F92
  8
DEFPOINTS
  6
CONTINUOUS
 62
     0
 10
1863.255813
 20
2532.7100190000001
 30
0.0
  0
POINT
  5
7F93
  8
DEFPOINTS
  6
CONTINUOUS
 62
     0
 10
1563.255813
 20
2569.7386119413459
 30
0.0
  0
POINT
  5
7F94
  8
DEFPOINTS
  6
CONTINUOUS
 62
     0
 10
1563.255813
 20
2587.7522239999989
 30
0.0
  0
ENDBLK
  5
7ED3
  8
0
  0
BLOCK
  8
0
  2
*D6
 70
     1
 10
0.0
 20
0.0
 30
0.0
  3
*D6
  1

  0
LINE
  5
7F95
  8
3
  6
CONTINUOUS
 62
     0
 10
1563.255813
 20
2579.7386119413459
 30
0.0
 11
1563.255813
 21
2607.7522239999998
 31
0.0
  0
LINE
  5
7F96
  8
3
  6
CONTINUOUS
 62
     0
 10
1223.255813
 20
2427.7100190000001
 30
0.0
 11
1223.255813
 21
2607.7522239999998
 31
0.0
  0
LINE
  5
7F97
  8
3
  6
CONTINUOUS
 62
     0
 10
1523.255813
 20
2587.7522239999989
 30
0.0
 11
1263.255813
 21
2587.7522239999989
 31
0.0
  0
INSERT
  5
7F98
  8
3
  6
CONTINUOUS
 62
     0
  2
_OPEN
 10
1563.255813
 20
2587.7522239999989
 30
0.0
 41
40.0
 42
40.0
 43
40.0
  0
INSERT
  5
7F99
  8
3
  6
CONTINUOUS
 62
     0
  2
_OPEN
 10
1223.255813
 20
2587.7522239999989
 30
0.0
 41
40.0
 42
40.0
 43
40.0
 50
180.0
  0
TEXT
  8
3
  40
60
  5
7FEA
  62
0
  72
0
  71
0
 10
1273.26
 20
2531.55
 30
0.000000
  1
340
  0
POINT
  5
7F9B
  8
DEFPOINTS
  6
CONTINUOUS
 62
     0
 10
1563.255813
 20
2569.7386119413459
 30
0.0
  0
POINT
  5
7F9C
  8
DEFPOINTS
  6
CONTINUOUS
 62
     0
 10
1223.255813
 20
2417.7100190000001
 30
0.0
  0
POINT
  5
7F9D
  8
DEFPOINTS
  6
CONTINUOUS
 62
     0
 10
1223.255813
 20
2587.7522239999989
 30
0.0
  0
ENDBLK
  5
7EDE
  8
0
  0
BLOCK
  8
0
  2
*D7
 70
     1
 10
0.0
 20
0.0
 30
0.0
  3
*D7
  1

  0
LINE
  5
7F9E
  8
3
  6
CONTINUOUS
 62
     0
 10
3207.7921430000001
 20
2515.7100190000001
 30
0.0
 11
3207.7921430000001
 21
2642.4098879999988
 31
0.0
  0
LINE
  5
7F9F
  8
3
  6
CONTINUOUS
 62
     0
 10
2907.7921430000001
 20
2515.7100190000001
 30
0.0
 11
2907.7921430000001
 21
2642.4098879999988
 31
0.0
  0
LINE
  5
7FA0
  8
3
  6
CONTINUOUS
 62
     0
 10
3167.7921430000001
 20
2622.4098879999988
 30
0.0
 11
2947.7921430000001
 21
2622.4098879999988
 31
0.0
  0
INSERT
  5
7FA1
  8
3
  6
CONTINUOUS
 62
     0
  2
_OPEN
 10
3207.7921430000001
 20
2622.4098879999988
 30
0.0
 41
40.0
 42
40.0
 43
40.0
  0
INSERT
  5
7FA2
  8
3
  6
CONTINUOUS
 62
     0
  2
_OPEN
 10
2907.7921430000001
 20
2622.4098879999988
 30
0.0
 41
40.0
 42
40.0
 43
40.0
 50
180.0
  0
TEXT
  8
3
  40
60
  5
7FEB
  62
0
  72
0
  71
0
 10
2924.94
 20
2566.21
 30
0.000000
  1
300
  0
POINT
  5
7FA4
  8
DEFPOINTS
  6
CONTINUOUS
 62
     0
 10
3207.7921430000001
 20
2505.7100190000001
 30
0.0
  0
POINT
  5
7FA5
  8
DEFPOINTS
  6
CONTINUOUS
 62
     0
 10
2907.7921430000001
 20
2505.7100190000001
 30
0.0
  0
POINT
  5
7FA6
  8
DEFPOINTS
  6
CONTINUOUS
 62
     0
 10
2907.7921430000001
 20
2622.4098879999988
 30
0.0
  0
ENDBLK
  5
7E00
  8
0
  0
BLOCK
  8
0
  2
*D8
 70
     1
 10
0.0
 20
0.0
 30
0.0
  3
*D8
  1

  0
LINE
  5
7FA7
  8
3
  6
CONTINUOUS
 62
     0
 10
3217.7921430000001
 20
2332.7100190000001
 30
0.0
 11
3403.2660500000002
 21
2332.7100190000001
 31
0.0
  0
LINE
  5
7FA8
  8
3
  6
CONTINUOUS
 62
     0
 10
3217.7921430000001
 20
1902.7100190000001
 30
0.0
 11
3403.2660500000002
 21
1902.7100190000001
 31
0.0
  0
LINE
  5
7FA9
  8
3
  6
CONTINUOUS
 62
     0
 10
3383.2660500000011
 20
2292.7100190000001
 30
0.0
 11
3383.2660500000011
 21
1942.7100190000001
 31
0.0
  0
INSERT
  5
7FAA
  8
3
  6
CONTINUOUS
 62
     0
  2
_OPEN
 10
3383.2660500000011
 20
2332.7100190000001
 30
0.0
 41
40.0
 42
40.0
 43
40.0
 50
90.0
  0
INSERT
  5
7FAB
  8
3
  6
CONTINUOUS
 62
     0
  2
_OPEN
 10
3383.2660500000011
 20
1902.7100190000001
 30
0.0
 41
40.0
 42
40.0
 43
40.0
 50
270.0
  0
TEXT
  8
3
  40
60
  5
7FEC
  62
0
  72
0
  71
0
 10
3213.27
 20
2005.77
 30
0.000000
  1
φ430
  0
POINT
  5
7FAD
  8
DEFPOINTS
  6
CONTINUOUS
 62
     0
 10
3207.7921430000001
 20
2332.7100190000001
 30
0.0
  0
POINT
  5
7FAE
  8
DEFPOINTS
  6
CONTINUOUS
 62
     0
 10
3207.7921430000001
 20
1902.7100190000001
 30
0.0
  0
POINT
  5
7FAF
  8
DEFPOINTS
  6
CONTINUOUS
 62
     0
 10
3383.2660500000011
 20
1902.7100190000001
 30
0.0
  0
ENDBLK
  5
7E9C
  8
0
  0
BLOCK
  8
0
  2
*D9
 70
     1
 10
0.0
 20
0.0
 30
0.0
  3
*D9
  1

  0
LINE
  5
7FB0
  8
3
  6
CONTINUOUS
 62
     0
 10
823.25581299999988
 20
3868.024140999999
 30
0.0
 11
823.25581299999988
 21
4038.6094410000001
 31
0.0
  0
LINE
  5
7FB1
  8
3
  6
CONTINUOUS
 62
     0
 10
1823.255813
 20
3868.024140999999
 30
0.0
 11
1823.255813
 21
4038.6094410000001
 31
0.0
  0
LINE
  5
7FB2
  8
3
  6
CONTINUOUS
 62
     0
 10
863.25581299999988
 20
4018.6094409999992
 30
0.0
 11
1783.255813
 21
4018.6094409999992
 31
0.0
  0
INSERT
  5
7FB3
  8
3
  6
CONTINUOUS
 62
     0
  2
_OPEN
 10
823.25581299999988
 20
4018.6094409999992
 30
0.0
 41
40.0
 42
40.0
 43
40.0
 50
180.0
  0
INSERT
  5
7FB4
  8
3
  6
CONTINUOUS
 62
     0
  2
_OPEN
 10
1823.255813
 20
4018.6094409999992
 30
0.0
 41
40.0
 42
40.0
 43
40.0
  0
TEXT
  8
3
  40
60
  5
7FED
  62
0
  72
0
  71
0
 10
1197.22
 20
3962.41
 30
0.000000
  1
1000
  0
POINT
  5
7FB6
  8
DEFPOINTS
  6
CONTINUOUS
 62
     0
 10
823.25581299999988
 20
3858.024140999999
 30
0.0
  0
POINT
  5
7FB7
  8
DEFPOINTS
  6
CONTINUOUS
 62
     0
 10
1823.255813
 20
3858.024140999999
 30
0.0
  0
POINT
  5
7FB8
  8
DEFPOINTS
  6
CONTINUOUS
 62
     0
 10
1823.255813
 20
4018.6094409999992
 30
0.0
  0
ENDBLK
  5
7DEA
  8
0
  0
BLOCK
  8
0
  2
*D10
 70
     1
 10
0.0
 20
0.0
 30
0.0
  3
*D10
  1

  0
LINE
  5
7FB9
  8
3
  6
CONTINUOUS
 62
     0
 10
1833.255813
 20
3858.024140999999
 30
0.0
 11
2103.3218569999999
 21
3858.024140999999
 31
0.0
  0
LINE
  5
7FBA
  8
3
  6
CONTINUOUS
 62
     0
 10
1833.255813
 20
3470.024140999999
 30
0.0
 11
2103.3218569999999
 21
3470.024140999999
 31
0.0
  0
LINE
  5
7FBB
  8
3
  6
CONTINUOUS
 62
     0
 10
2083.3218569999999
 20
3818.024140999999
 30
0.0
 11
2083.3218569999999
 21
3510.024140999999
 31
0.0
  0
INSERT
  5
7FBC
  8
3
  6
CONTINUOUS
 62
     0
  2
_OPEN
 10
2083.3218569999999
 20
3858.024140999999
 30
0.0
 41
40.0
 42
40.0
 43
40.0
 50
90.0
  0
INSERT
  5
7FBD
  8
3
  6
CONTINUOUS
 62
     0
  2
_OPEN
 10
2083.3218569999999
 20
3470.024140999999
 30
0.0
 41
40.0
 42
40.0
 43
40.0
 50
270.0
  0
TEXT
  8
3
  40
60
  5
7FEE
  62
0
  72
0
  71
0
 10
1913.32
 20
3564.07
 30
0.000000
  1
388
  0
POINT
  5
7FBF
  8
DEFPOINTS
  6
CONTINUOUS
 62
     0
 10
1823.255813
 20
3858.024140999999
 30
0.0
  0
POINT
  5
7FC0
  8
DEFPOINTS
  6
CONTINUOUS
 62
     0
 10
1823.255813
 20
3470.024140999999
 30
0.0
  0
POINT
  5
7FC1
  8
DEFPOINTS
  6
CONTINUOUS
 62
     0
 10
2083.3218569999999
 20
3470.024140999999
 30
0.0
  0
ENDBLK
  5
7DDF
  8
0
  0
BLOCK
  8
0
  2
*D11
 70
     1
 10
0.0
 20
0.0
 30
0.0
  3
*D11
  1

  0
LINE
  5
7FC2
  8
3
  6
CONTINUOUS
 62
     0
 10
1873.255813
 20
2505.7100190000001
 30
0.0
 11
2194.8989969999998
 21
2505.7100190000001
 31
0.0
  0
LINE
  5
7FC3
  8
3
  6
CONTINUOUS
 62
     0
 10
2099.7986649999989
 20
2117.7100189999992
 30
0.0
 11
2194.8989969999998
 21
2117.7100189999992
 31
0.0
  0
LINE
  5
7FC4
  8
3
  6
CONTINUOUS
 62
     0
 10
2174.8989969999998
 20
2465.7100190000001
 30
0.0
 11
2174.8989969999998
 21
2157.7100190000001
 31
0.0
  0
INSERT
  5
7FC5
  8
3
  6
CONTINUOUS
 62
     0
  2
_OPEN
 10
2174.8989969999998
 20
2505.7100190000001
 30
0.0
 41
40.0
 42
40.0
 43
40.0
 50
90.0
  0
INSERT
  5
7FC6
  8
3
  6
CONTINUOUS
 62
     0
  2
_OPEN
 10
2174.8989969999998
 20
2117.7100189999992
 30
0.0
 41
40.0
 42
40.0
 43
40.0
 50
270.0
  0
TEXT
  8
3
  40
60
  5
7FEF
  62
0
  72
0
  71
0
 10
2004.90
 20
2194.23
 30
0.000000
  1
388
  0
POINT
  5
7FC8
  8
DEFPOINTS
  6
CONTINUOUS
 62
     0
 10
1863.255813
 20
2505.7100190000001
 30
0.0
  0
POINT
  5
7FC9
  8
DEFPOINTS
  6
CONTINUOUS
 62
     0
 10
2089.7986649999989
 20
2117.7100189999992
 30
0.0
  0
POINT
  5
7FCA
  8
DEFPOINTS
  6
CONTINUOUS
 62
     0
 10
2174.8989969999998
 20
2117.7100189999992
 30
0.0
  0
ENDBLK
  5
7DD4
  8
0
  0
BLOCK
  8
0
  2
*D12
 70
     1
 10
0.0
 20
0.0
 30
0.0
  3
*D12
  1

  0
LINE
  5
7F22
  8
0
  6
BYBLOCK
 62
     0
 10
2863.7921430000001
 20
1727.7100190000001
 30
0.0
 11
2863.7921430000001
 21
1578.3200289036499
 31
0.0
  0
LINE
  5
7F23
  8
0
  6
BYBLOCK
 62
     0
 10
3057.7921430000001
 20
1700.7983312212291
 30
0.0
 11
3057.7921430000001
 21
1578.3200289036499
 31
0.0
  0
LINE
  5
7F24
  8
0
  6
BYBLOCK
 62
     0
 10
2903.7921430000001
 20
1598.3200289036499
 30
0.0
 11
3017.7921430000001
 21
1598.3200289036499
 31
0.0
  0
TEXT
  5
7F25
  8
3
 62
     0
 10
2887.935000142857
 20
1613.6205556432139
 30
0.0
 40
60.0
  1
194
  0
INSERT
  5
7F26
  8
0
  6
BYBLOCK
 62
     0
  2
_OPEN
 10
2863.7921430000001
 20
1598.3200289036499
 30
0.0
 41
40.0
 42
40.0
 43
40.0
 50
180.0
  0
INSERT
  5
7F27
  8
0
  6
BYBLOCK
 62
     0
  2
_OPEN
 10
3057.7921430000001
 20
1598.3200289036499
 30
0.0
 41
40.0
 42
40.0
 43
40.0
  0
POINT
  5
7F28
  8
DEFPOINTS
  6
BYBLOCK
 62
     0
 10
2863.7921430000001
 20
1737.7100190000001
 30
0.0
  0
POINT
  5
7F29
  8
DEFPOINTS
  6
BYBLOCK
 62
     0
 10
3057.7921430000001
 20
1710.7983312212291
 30
0.0
  0
POINT
  5
7F2A
  8
DEFPOINTS
  6
BYBLOCK
 62
     0
 10
3057.7921430000001
 20
1598.3200289036499
 30
0.0
  0
ENDBLK
  5
7F2B
  8
0
  0
BLOCK
  8
0
  2
*D13
 70
     1
 10
0.0
 20
0.0
 30
0.0
  3
*D13
  1

  0
LINE
  5
7F2D
  8
0
  6
BYBLOCK
 62
     0
 10
3057.7921430000001
 20
1700.7983312212291
 30
0.0
 11
3057.7921430000001
 21
1578.3200289036499
 31
0.0
  0
LINE
  5
7F2E
  8
0
  6
BYBLOCK
 62
     0
 10
3251.7921430000001
 20
1727.7100190000001
 30
0.0
 11
3251.7921430000001
 21
1578.3200289036499
 31
0.0
  0
LINE
  5
7F2F
  8
0
  6
BYBLOCK
 62
     0
 10
3097.7921430000001
 20
1598.3200289036499
 30
0.0
 11
3211.7921430000001
 21
1598.3200289036499
 31
0.0
  0
TEXT
  5
7F30
  8
3
 62
     0
 10
3081.935000142857
 20
1621.6708569444299
 30
0.0
 40
60.0
  1
194
  0
INSERT
  5
7F31
  8
0
  6
BYBLOCK
 62
     0
  2
_OPEN
 10
3057.7921430000001
 20
1598.3200289036499
 30
0.0
 41
40.0
 42
40.0
 43
40.0
 50
180.0
  0
INSERT
  5
7F32
  8
0
  6
BYBLOCK
 62
     0
  2
_OPEN
 10
3251.7921430000001
 20
1598.3200289036499
 30
0.0
 41
40.0
 42
40.0
 43
40.0
  0
POINT
  5
7F33
  8
DEFPOINTS
  6
BYBLOCK
 62
     0
 10
3057.7921430000001
 20
1710.7983312212291
 30
0.0
  0
POINT
  5
7F34
  8
DEFPOINTS
  6
BYBLOCK
 62
     0
 10
3251.7921430000001
 20
1737.7100190000001
 30
0.0
  0
POINT
  5
7F35
  8
DEFPOINTS
  6
BYBLOCK
 62
     0
 10
3251.7921430000001
 20
1598.3200289036499
 30
0.0
  0
ENDBLK
  5
7F36
  8
0
  0
BLOCK
  8
0
  2
*D14
 70
     1
 10
0.0
 20
0.0
 30
0.0
  3
*D14
  1

  0
LINE
  5
7FCB
  8
3
  6
CONTINUOUS
 62
     0
 10
2727.7921430000001
 20
2482.7100190000001
 30
0.0
 11
2727.7921430000001
 21
2776.386211
 31
0.0
  0
LINE
  5
7FCC
  8
3
  6
CONTINUOUS
 62
     0
 10
3057.7921430000001
 20
2738.620066
 30
0.0
 11
3057.7921430000001
 21
2776.386211
 31
0.0
  0
LINE
  5
7FCD
  8
3
  6
CONTINUOUS
 62
     0
 10
2767.7921430000001
 20
2756.386211
 30
0.0
 11
3017.7921430000001
 21
2756.386211
 31
0.0
  0
INSERT
  5
7FCE
  8
3
  6
CONTINUOUS
 62
     0
  2
_OPEN
 10
2727.7921430000001
 20
2756.386211
 30
0.0
 41
40.0
 42
40.0
 43
40.0
 50
180.0
  0
INSERT
  5
7FCF
  8
3
  6
CONTINUOUS
 62
     0
  2
_OPEN
 10
3057.7921430000001
 20
2756.386211
 30
0.0
 41
40.0
 42
40.0
 43
40.0
  0
TEXT
  8
3
  40
60
  5
7FF0
  62
0
  72
0
  71
0
 10
2753.51
 20
2750.19
 30
0.000000
  1
MAX
  0
TEXT
  8
3
  40
60
  5
7FF1
  62
0
  72
0
  71
0
 10
2753.51
 20
2672.19
 30
0.000000
  1
380
  0
POINT
  5
7FD1
  8
DEFPOINTS
  6
CONTINUOUS
 62
     0
 10
2727.7921430000001
 20
2472.7100190000001
 30
0.0
  0
POINT
  5
7FD2
  8
DEFPOINTS
  6
CONTINUOUS
 62
     0
 10
3057.7921430000001
 20
2728.620065999999
 30
0.0
  0
POINT
  5
7FD3
  8
DEFPOINTS
  6
CONTINUOUS
 62
     0
 10
3057.7921430000001
 20
2756.386211
 30
0.0
  0
ENDBLK
  5
7DAF
  8
0
  0
BLOCK
  8
0
  2
*D15
 70
     1
 10
0.0
 20
0.0
 30
0.0
  3
*D15
  1

  0
LINE
  5
7E9E
  8
0
  6
BYBLOCK
 62
     0
 10
3057.7921430000001
 20
2738.620066
 30
0.0
 11
3057.7921430000001
 21
2776.386211
 31
0.0
  0
LINE
  5
7E9F
  8
0
  6
BYBLOCK
 62
     0
 10
3208.7921430000001
 20
2342.7100190000001
 30
0.0
 11
3208.7921430000001
 21
2776.386211
 31
0.0
  0
LINE
  5
7EA0
  8
0
  6
BYBLOCK
 62
     0
 10
3097.7921430000001
 20
2756.386211
 30
0.0
 11
3168.7921430000001
 21
2756.386211
 31
0.0
  0
TEXT
  5
7EA1
  8
3
 62
     0
 10
3060.5113070903162
 20
2780.914196139478
 30
0.0
 40
60.0
  1
151
  0
INSERT
  5
7EA2
  8
0
  6
BYBLOCK
 62
     0
  2
_OPEN
 10
3057.7921430000001
 20
2756.386211
 30
0.0
 41
40.0
 42
40.0
 43
40.0
 50
180.0
  0
INSERT
  5
7EA3
  8
0
  6
BYBLOCK
 62
     0
  2
_OPEN
 10
3208.7921430000001
 20
2756.386211
 30
0.0
 41
40.0
 42
40.0
 43
40.0
  0
POINT
  5
7EA4
  8
DEFPOINTS
  6
BYBLOCK
 62
     0
 10
3057.7921430000001
 20
2728.620065999999
 30
0.0
  0
POINT
  5
7EA5
  8
DEFPOINTS
  6
BYBLOCK
 62
     0
 10
3208.7921430000001
 20
2332.7100190000001
 30
0.0
  0
POINT
  5
7EA6
  8
DEFPOINTS
  6
BYBLOCK
 62
     0
 10
3208.7921430000001
 20
2756.386211
 30
0.0
  0
ENDBLK
  5
7EA7
  8
0
  0
BLOCK
  8
0
  2
*D16
 70
     1
 10
0.0
 20
0.0
 30
0.0
  3
*D16
  1

  0
LINE
  5
7FD4
  8
3
  6
CONTINUOUS
 62
     0
 10
2099.7986649999989
 20
2117.7100189999992
 30
0.0
 11
2194.8989969999998
 21
2117.7100189999992
 31
0.0
  0
LINE
  5
7FD5
  8
3
  6
CONTINUOUS
 62
     0
 10
1833.255813
 20
1737.7100190000001
 30
0.0
 11
2194.8989969999998
 21
1737.7100190000001
 31
0.0
  0
LINE
  5
7FD6
  8
3
  6
CONTINUOUS
 62
     0
 10
2174.8989969999989
 20
2077.7100190000001
 30
0.0
 11
2174.8989969999989
 21
1777.7100190000001
 31
0.0
  0
INSERT
  5
7FD7
  8
3
  6
CONTINUOUS
 62
     0
  2
_OPEN
 10
2174.8989969999989
 20
2117.7100189999992
 30
0.0
 41
40.0
 42
40.0
 43
40.0
 50
90.0
  0
INSERT
  5
7FD8
  8
3
  6
CONTINUOUS
 62
     0
  2
_OPEN
 10
2174.8989969999989
 20
1737.7100190000001
 30
0.0
 41
40.0
 42
40.0
 43
40.0
 50
270.0
  0
TEXT
  8
3
  40
60
  5
7FF2
  62
0
  72
0
  71
0
 10
2004.90
 20
1821.51
 30
0.000000
  1
380
  0
POINT
  5
7FDA
  8
DEFPOINTS
  6
CONTINUOUS
 62
     0
 10
2089.7986649999989
 20
2117.7100189999992
 30
0.0
  0
POINT
  5
7FDB
  8
DEFPOINTS
  6
CONTINUOUS
 62
     0
 10
1823.255813
 20
1737.7100190000001
 30
0.0
  0
POINT
  5
7FDC
  8
DEFPOINTS
  6
CONTINUOUS
 62
     0
 10
2174.8989969999989
 20
1737.7100190000001
 30
0.0
  0
ENDBLK
  5
7D98
  8
0
  0
BLOCK
  8
0
  2
*D17
 70
     1
 10
0.0
 20
0.0
 30
0.0
  3
*D17
  1

  0
LINE
  5
7FDD
  8
3
 62
     0
 10
1863.255813
 20
2542.7100190000001
 30
0.0
 11
1863.255813
 21
2734.310592569916
 31
0.0
  0
LINE
  5
7FDE
  8
3
 62
     0
 10
823.25581299999988
 20
1827.7100190000001
 30
0.0
 11
823.25581299999988
 21
2734.310592569916
 31
0.0
  0
LINE
  5
7FDF
  8
3
 62
     0
 10
1823.255813
 20
2714.310592569916
 30
0.0
 11
863.25581299999988
 21
2714.310592569916
 31
0.0
  0
INSERT
  5
7FE0
  8
3
 62
     0
  2
_OPEN
 10
1863.255813
 20
2714.310592569916
 30
0.0
 41
40.0
 42
40.0
 43
40.0
  0
INSERT
  5
7FE1
  8
3
 62
     0
  2
_OPEN
 10
823.25581299999988
 20
2714.310592569916
 30
0.0
 41
40.0
 42
40.0
 43
40.0
 50
180.0
  0
TEXT
  8
3
  40
60
  5
7FF3
  62
0
  72
0
  71
0
 10
1218.50
 20
2658.11
 30
0.000000
  1
1040
  0
POINT
  5
7FE3
  8
DEFPOINTS
 62
     0
 10
1863.255813
 20
2532.7100190000001
 30
0.0
  0
POINT
  5
7FE4
  8
DEFPOINTS
 62
     0
 10
823.25581299999988
 20
1817.7100190000001
 30
0.0
  0
POINT
  5
7FE5
  8
DEFPOINTS
 62
     0
 10
823.25581299999988
 20
2714.310592569916
 30
0.0
  0
ENDBLK
  5
7F4E
  8
0
  0
ENDSEC
  0
SECTION
  2
ENTITIES
  0
LINE
  5
7A5F
  8
1
  6
CONTINUOUS
 10
1833.255813
 20
1817.7100190000001
 30
0.0
 11
823.25581299999988
 21
1817.7100190000001
 31
0.0
  0
LINE
  5
7A60
  8
1
  6
CONTINUOUS
 10
1823.255813
 20
1737.7100190000001
 30
0.0
 11
823.25581299999988
 21
1737.7100190000001
 31
0.0
  0
LINE
  5
7A61
  8
1
  6
CONTINUOUS
 10
823.25581299999988
 20
1817.7100190000001
 30
0.0
 11
823.25581299999988
 21
1737.7100190000001
 31
0.0
  0
CIRCLE
  5
7A62
  8
1
  6
CONTINUOUS
 10
1563.255813
 20
2117.7100189999992
 30
0.0
 40
240.0
  0
LINE
  5
7A63
  8
1
  6
CONTINUOUS
 10
1833.255813
 20
2417.7100190000001
 30
0.0
 11
1223.255813
 21
2417.7100190000001
 31
0.0
  0
ARC
  5
7A64
  8
1
  6
CONTINUOUS
 10
1541.255813
 20
2139.7100190000001
 30
0.0
 40
310.75999999999999
 50
185.83000000000001
 51
277.30999999999989
  0
ARC
  5
7A65
  8
1
  6
CONTINUOUS
 10
1590.255813
 20
2144.7100190000001
 30
0.0
 40
360.00999999999988
 50
94.299999999999969
 51
185.83000000000001
  0
LINE
  5
7A66
  8
1
  6
CONTINUOUS
 10
1548.755813
 20
2472.7100190000001
 30
0.0
 11
868.7558130000001
 21
2067.7100190000001
 31
0.0
  0
LINE
  5
7A67
  8
1
  6
CONTINUOUS
 10
1008.615813
 20
1998.2200190000001
 30
0.0
 11
1525.295813
 21
2210.2200189999999
 31
0.0
  0
LINE
  5
7A68
  8
1
  6
CONTINUOUS
 10
1587.6458130000001
 20
2020.7300190000001
 30
0.0
 11
1046.0258129999991
 21
1884.5200189999989
 31
0.0
  0
CIRCLE
  5
7A69
  8
1
  6
CONTINUOUS
 10
1563.255813
 20
2117.7100189999992
 30
0.0
 40
215.0
  0
LINE
  5
7A6A
  8
1
  6
CONTINUOUS
 10
1223.255813
 20
2417.7100190000001
 30
0.0
 11
1223.255813
 21
1817.7100190000001
 31
0.0
  0
LINE
  5
7A6B
  8
2
  6
CENTER
 10
971.3858130000001
 20
1942.7100190000001
 30
0.0
 11
1091.3858130000001
 21
1942.7100190000001
 31
0.0
  0
ARC
  5
7A6C
  8
1
  6
CONTINUOUS
 10
1031.3858130000001
 20
1942.7100190000001
 30
0.0
 40
101.0
 50
322.88
 51
217.12
  0
CIRCLE
  5
7A6D
  8
1
  6
CONTINUOUS
 10
1031.3858130000001
 20
1942.7100190000001
 30
0.0
 40
60.0
  0
LINE
  5
7A6E
  8
1
  6
CONTINUOUS
 10
931.3858130000001
 20
1854.7100190000001
 30
0.0
 11
950.85581300000001
 21
1881.7500190000001
 31
0.0
  0
LINE
  5
7A6F
  8
1
  6
CONTINUOUS
 10
931.3858130000001
 20
1817.7100190000001
 30
0.0
 11
931.3858130000001
 21
1854.7100190000001
 31
0.0
  0
LINE
  5
7A70
  8
1
  6
CONTINUOUS
 10
868.7558130000001
 20
1817.7100190000001
 30
0.0
 11
868.7558130000001
 21
2067.7100190000001
 31
0.0
  0
LINE
  5
7A71
  8
2
  6
CENTER
 10
1031.3858130000001
 20
1882.7100190000001
 30
0.0
 11
1031.3858130000001
 21
2002.7100190000001
 31
0.0
  0
LINE
  5
7A72
  8
1
  6
CONTINUOUS
 10
1131.3858130000001
 20
1817.7100190000001
 30
0.0
 11
1131.3858130000001
 21
1854.7100190000001
 31
0.0
  0
LINE
  5
7A73
  8
1
  6
CONTINUOUS
 10
1131.3858130000001
 20
1854.7100190000001
 30
0.0
 11
1111.9258130000001
 21
1881.7500190000001
 31
0.0
  0
LINE
  5
7A74
  8
1
  6
CONTINUOUS
 10
1843.255813
 20
2105.7100189999992
 30
0.0
 11
1843.255813
 21
2505.5700189999998
 31
0.0
  0
LINE
  5
7A75
  8
1
  6
CONTINUOUS
 10
1833.255813
 20
2417.7100190000001
 30
0.0
 11
1833.255813
 21
1817.7100190000001
 31
0.0
  0
LINE
  5
7A76
  8
1
  6
CONTINUOUS
 10
1863.255813
 20
2078.7100190000001
 30
0.0
 11
1863.255813
 21
2532.7100190000001
 31
0.0
  0
LINE
  5
7A77
  8
1
  6
CONTINUOUS
 10
1738.755813
 20
1817.7100190000001
 30
0.0
 11
1738.755813
 21
2357.7100190000001
 31
0.0
  0
ARC
  5
7A78
  8
1
  6
CONTINUOUS
 10
1546.255813
 20
2100.7100190000001
 30
0.0
 40
271.43999999999988
 50
277.30999999999989
 51
1.0600000000000001
  0
CIRCLE
  5
7A7A
  8
1
  6
CONTINUOUS
 10
1563.255813
 20
2117.7100189999992
 30
0.0
 40
100.0
  0
LINE
  5
7A7B
  8
2
  6
CENTER
 10
1563.255813
 20
3986.4586469999999
 30
0.0
 11
1563.255813
 21
3251.9499318478152
 31
0.0
  0
LINE
  5
7A7C
  8
1
  6
CONTINUOUS
 10
1823.255813
 20
1817.7100190000001
 30
0.0
 11
1823.255813
 21
1737.7100190000001
 31
0.0
  0
LINE
  5
7A7D
  8
1
  6
CONTINUOUS
 10
1817.6558130000001
 20
2105.7100189999992
 30
0.0
 11
1863.255813
 21
2105.7100189999992
 31
0.0
  0
LINE
  5
7A7E
  8
1
  6
CONTINUOUS
 10
1863.255813
 20
2505.7100190000001
 30
0.0
 11
1563.255813
 21
2503.7100190000001
 31
0.0
  0
LINE
  5
7A7F
  8
1
  6
CONTINUOUS
 10
1738.755813
 20
2357.7100190000001
 30
0.0
 11
1548.755813
 21
2472.7100190000001
 31
0.0
  0
LINE
  5
7A80
  8
1
  6
CONTINUOUS
 10
3251.7921430000001
 20
1737.7100190000001
 30
0.0
 11
2863.7921430000001
 21
1737.7100190000001
 31
0.0
  0
LINE
  5
7A81
  8
1
  6
CONTINUOUS
 10
3251.7921430000001
 20
1817.7100190000001
 30
0.0
 11
2727.7921430000001
 21
1817.7100190000001
 31
0.0
  0
LINE
  5
7A82
  8
1
  6
CONTINUOUS
 10
2907.7921430000001
 20
2505.7100190000001
 30
0.0
 11
2907.7921430000001
 21
1817.7100190000001
 31
0.0
  0
LINE
  5
7A83
  8
1
  6
CONTINUOUS
 10
3207.7921430000001
 20
2505.7100190000001
 30
0.0
 11
3207.7921430000001
 21
1817.7100190000001
 31
0.0
  0
LINE
  5
7A84
  8
1
  6
CONTINUOUS
 10
2727.7921430000001
 20
1817.7100190000001
 30
0.0
 11
2727.7921430000001
 21
2472.7100190000001
 31
0.0
  0
LINE
  5
7A85
  8
1
  6
CONTINUOUS
 10
2827.7921430000001
 20
1817.7100190000001
 30
0.0
 11
2827.7921430000001
 21
2472.7100190000001
 31
0.0
  0
LINE
  5
7A86
  8
1
  6
CONTINUOUS
 10
3207.7921430000001
 20
2105.7100189999992
 30
0.0
 11
2907.7921430000001
 21
2505.7100190000001
 31
0.0
  0
LINE
  5
7A87
  8
1
  6
CONTINUOUS
 10
2907.7921430000001
 20
2105.7100189999992
 30
0.0
 11
3207.7921430000001
 21
2505.7100190000001
 31
0.0
  0
LINE
  5
7A88
  8
1
  6
CONTINUOUS
 10
2907.7921430000001
 20
2105.7100189999992
 30
0.0
 11
3207.7921430000001
 21
2105.7100189999992
 31
0.0
  0
LINE
  5
7A89
  8
1
  6
CONTINUOUS
 10
2863.7921430000001
 20
1817.7100190000001
 30
0.0
 11
2863.7921430000001
 21
1737.7100190000001
 31
0.0
  0
LINE
  5
7A8A
  8
1
  6
CONTINUOUS
 10
2752.7921430000001
 20
2002.7100190000001
 30
0.0
 11
2802.7921430000001
 21
2002.7100190000001
 31
0.0
  0
LINE
  5
7A8B
  8
1
  6
CONTINUOUS
 10
2752.7921430000001
 20
1882.7100190000001
 30
0.0
 11
2802.7921430000001
 21
1882.7100190000001
 31
0.0
  0
LINE
  5
7A8C
  8
1
  6
CONTINUOUS
 10
2752.7921430000001
 20
2219.4700189999999
 30
0.0
 11
2802.7921430000001
 21
2219.4700189999999
 31
0.0
  0
LINE
  5
7A8D
  8
1
  6
CONTINUOUS
 10
2752.7921430000001
 20
2015.9400189999999
 30
0.0
 11
2802.7921430000001
 21
2015.9400189999999
 31
0.0
  0
LINE
  5
7A8E
  8
1
  6
CONTINUOUS
 10
2752.7921430000001
 20
1882.7100190000001
 30
0.0
 11
2752.7921430000001
 21
2002.7100190000001
 31
0.0
  0
LINE
  5
7A8F
  8
1
  6
CONTINUOUS
 10
2752.7921430000001
 20
2015.9400189999999
 30
0.0
 11
2752.7921430000001
 21
2219.4700189999999
 31
0.0
  0
LINE
  5
7A90
  8
1
  6
CONTINUOUS
 10
2802.7921430000001
 20
1882.7100190000001
 30
0.0
 11
2802.7921430000001
 21
2002.7100190000001
 31
0.0
  0
LINE
  5
7A91
  8
1
  6
CONTINUOUS
 10
2802.7921430000001
 20
1956.7100190000001
 30
0.0
 11
2907.7921430000001
 21
1956.7100190000001
 31
0.0
  0
LINE
  5
7A92
  8
1
  6
CONTINUOUS
 10
2802.7921430000001
 20
1928.7100190000001
 30
0.0
 11
2907.7921430000001
 21
1928.7100190000001
 31
0.0
  0
LINE
  5
7A93
  8
1
  6
CONTINUOUS
 10
2802.7921430000001
 20
2133.4700189999999
 30
0.0
 11
2908.5921429999989
 21
2133.4700189999999
 31
0.0
  0
LINE
  5
7A94
  8
1
  6
CONTINUOUS
 10
2802.7921430000001
 20
2105.4700189999999
 30
0.0
 11
2908.5921429999989
 21
2105.4700189999999
 31
0.0
  0
LINE
  5
7A95
  8
1
  6
CONTINUOUS
 10
2802.7921430000001
 20
2015.9400189999999
 30
0.0
 11
2802.7921430000001
 21
2219.4700189999999
 31
0.0
  0
LINE
  5
7A96
  8
1
  6
CONTINUOUS
 10
2907.7921430000001
 20
2505.7100190000001
 30
0.0
 11
3207.7921430000001
 21
2505.7100190000001
 31
0.0
  0
LINE
  5
7A97
  8
1
  6
CONTINUOUS
 10
2727.7921430000001
 20
2472.7100190000001
 30
0.0
 11
2827.7921430000001
 21
2472.7100190000001
 31
0.0
  0
LINE
  5
7A98
  8
1
  6
CONTINUOUS
 10
3251.7921430000001
 20
1817.7100190000001
 30
0.0
 11
3251.7921430000001
 21
1737.7100190000001
 31
0.0
  0
LINE
  5
7A99
  8
1
  6
CONTINUOUS
 10
1823.255813
 20
3858.024140999999
 30
0.0
 11
823.25581299999988
 21
3858.024140999999
 31
0.0
  0
LINE
  5
7A9A
  8
1
  6
CONTINUOUS
 10
1017.385813
 20
3470.024140999999
 30
0.0
 11
823.25581299999988
 21
3470.024140999999
 31
0.0
  0
LINE
  5
7A9B
  8
1
  6
CONTINUOUS
 10
823.25581299999988
 20
3858.024140999999
 30
0.0
 11
823.25581299999988
 21
3470.024140999999
 31
0.0
  0
LINE
  5
7A9C
  8
1
  6
CONTINUOUS
 10
1223.255813
 20
3514.024140999999
 30
0.0
 11
1863.255813
 21
3514.024140999999
 31
0.0
  0
LINE
  5
7A9D
  8
1
  6
CONTINUOUS
 10
1223.255813
 20
3814.024140999999
 30
0.0
 11
1863.255813
 21
3814.024140999999
 31
0.0
  0
LINE
  5
7A9E
  8
1
  6
CONTINUOUS
 10
868.7558130000001
 20
3334.024140999999
 30
0.0
 11
1738.755813
 21
3334.024140999999
 31
0.0
  0
LINE
  5
7A9F
  8
1
  6
CONTINUOUS
 10
868.7558130000001
 20
3434.0241409999999
 30
0.0
 11
1738.755813
 21
3434.0241409999999
 31
0.0
  0
LINE
  5
7AA0
  8
1
  6
CONTINUOUS
 10
1549.255813
 20
3470.024140999999
 30
0.0
 11
1045.385812999999
 21
3470.024140999999
 31
0.0
  0
LINE
  5
7AA1
  8
1
  6
CONTINUOUS
 10
1132.3858130000001
 20
3501.5441409999999
 30
0.0
 11
1132.3858130000001
 21
3744.2241410000001
 31
0.0
  0
LINE
  5
7AA2
  8
1
  6
CONTINUOUS
 10
930.3858130000001
 20
3501.5441409999999
 30
0.0
 11
930.3858130000001
 21
3744.2241410000001
 31
0.0
  0
LINE
  5
7AA3
  8
1
  6
CONTINUOUS
 10
1132.3858130000001
 20
3501.5441409999999
 30
0.0
 11
930.3858130000001
 21
3501.5441409999999
 31
0.0
  0
LINE
  5
7AA4
  8
1
  6
CONTINUOUS
 10
971.3858130000001
 20
3359.024140999999
 30
0.0
 11
1091.3858130000001
 21
3359.024140999999
 31
0.0
  0
LINE
  5
7AA5
  8
1
  6
CONTINUOUS
 10
971.3858130000001
 20
3409.024140999999
 30
0.0
 11
1091.3858130000001
 21
3409.024140999999
 31
0.0
  0
LINE
  5
7AA6
  8
1
  6
CONTINUOUS
 10
868.7558130000001
 20
3334.024140999999
 30
0.0
 11
868.7558130000001
 21
3434.0241409999999
 31
0.0
  0
LINE
  5
7AA7
  8
1
  6
CONTINUOUS
 10
971.3858130000001
 20
3359.024140999999
 30
0.0
 11
971.3858130000001
 21
3409.024140999999
 31
0.0
  0
LINE
  5
7AA8
  8
1
  6
CONTINUOUS
 10
1017.385813
 20
3409.024140999999
 30
0.0
 11
1017.385813
 21
3501.5441409999999
 31
0.0
  0
LINE
  5
7AA9
  8
1
  6
CONTINUOUS
 10
1045.385812999999
 20
3409.024140999999
 30
0.0
 11
1045.385812999999
 21
3501.5441409999999
 31
0.0
  0
LINE
  5
7AAA
  8
1
  6
CONTINUOUS
 10
1091.3858130000001
 20
3359.024140999999
 30
0.0
 11
1091.3858130000001
 21
3409.024140999999
 31
0.0
  0
LINE
  5
7AAB
  8
1
  6
CONTINUOUS
 10
1132.3858130000001
 20
3744.2241410000001
 30
0.0
 11
930.3858130000001
 21
3744.2241410000001
 31
0.0
  0
LINE
  5
7AAC
  8
1
  6
CONTINUOUS
 10
1223.255813
 20
3514.024140999999
 30
0.0
 11
1223.255813
 21
3814.024140999999
 31
0.0
  0
LINE
  5
7AAD
  8
1
  6
CONTINUOUS
 10
1823.255813
 20
3470.024140999999
 30
0.0
 11
1577.255813
 21
3470.024140999999
 31
0.0
  0
LINE
  5
7AAE
  8
1
  6
CONTINUOUS
 10
1459.7358129999991
 20
3359.024140999999
 30
0.0
 11
1663.255813
 21
3359.024140999999
 31
0.0
  0
LINE
  5
7AAF
  8
1
  6
CONTINUOUS
 10
1459.7358129999991
 20
3409.024140999999
 30
0.0
 11
1663.255813
 21
3409.024140999999
 31
0.0
  0
LINE
  5
7AB0
  8
1
  6
CONTINUOUS
 10
1459.7358129999991
 20
3359.024140999999
 30
0.0
 11
1459.7358129999991
 21
3409.024140999999
 31
0.0
  0
LINE
  5
7AB1
  8
1
  6
CONTINUOUS
 10
1549.255813
 20
3409.024140999999
 30
0.0
 11
1549.255813
 21
3514.024140999999
 31
0.0
  0
LINE
  5
7AB2
  8
1
  6
CONTINUOUS
 10
1577.255813
 20
3409.024140999999
 30
0.0
 11
1577.255813
 21
3514.024140999999
 31
0.0
  0
LINE
  5
7AB3
  8
1
  6
CONTINUOUS
 10
1738.755813
 20
3334.024140999999
 30
0.0
 11
1738.755813
 21
3434.0241409999999
 31
0.0
  0
LINE
  5
7AB4
  8
1
  6
CONTINUOUS
 10
1663.255813
 20
3359.024140999999
 30
0.0
 11
1663.255813
 21
3409.024140999999
 31
0.0
  0
LINE
  5
7AB5
  8
1
  6
CONTINUOUS
 10
1863.255813
 20
3487.0241409999999
 30
0.0
 11
1863.255813
 21
3841.0241409999999
 31
0.0
  0
LINE
  5
7AB6
  8
1
  6
CONTINUOUS
 10
1843.255813
 20
3514.024140999999
 30
0.0
 11
1843.255813
 21
3814.024140999999
 31
0.0
  0
LINE
  5
7AB7
  8
1
  6
CONTINUOUS
 10
1823.255813
 20
3514.024140999999
 30
0.0
 11
1823.255813
 21
3470.024140999999
 31
0.0
  0
LINE
  5
7AB8
  8
1
  6
CONTINUOUS
 10
1823.255813
 20
3858.024140999999
 30
0.0
 11
1823.255813
 21
3814.024140999999
 31
0.0
  0
LINE
  5
7AD8
  8
4
  6
CONTINUOUS
 10
3700.0
 20
1000.0
 30
0.0
 11
3700.0
 21
600.0
 31
0.0
  0
LINE
  5
7AD9
  8
4
  6
CONTINUOUS
 10
2300.0
 20
1000.0
 30
0.0
 11
2300.0
 21
600.0
 31
0.0
  0
LINE
  5
7ADA
  8
4
  6
CONTINUOUS
 10
1300.0
 20
1000.0
 30
0.0
 11
1300.0
 21
600.0
 31
0.0
  0
LINE
  5
7ADD
  8
4
  6
CONTINUOUS
 10
1300.0
 20
600.0
 30
0.0
 11
3700.0
 21
600.0
 31
0.0
  0
LINE
  5
7ADE
  8
4
  6
CONTINUOUS
 10
1300.0
 20
800.0
 30
0.0
 11
3700.0
 21
800.0
 31
0.0
  0
TEXT
  5
7ADF
  8
4
  6
CONTINUOUS
 10
1377.004162
 20
863.086052
 30
0.0
 40
100.0
  1
機器名称
  0
TEXT
  5
7AE0
  8
4
  6
CONTINUOUS
 10
1372.516212
 20
643.29031299999986
 30
0.0
 40
100.0
  1
機器型番
  0
TEXT
  5
7AE1
  8
4
  6
CONTINUOUS
 10
2355.3574910000002
 20
845.14353800000015
 30
0.0
 40
100.0
  1
ミツヤ多翼送風機
  0
TEXT
  5
7AE2
  8
4
  6
CONTINUOUS
 10
2373.3089909999999
 20
634.31916899999999
 30
0.0
 40
100.0
  1
MF#2 1/2-4
  0
TEXT
  5
7AE4
  8
4
  6
CONTINUOUS
 10
1809.5715309999989
 20
4766.8576830000002
 30
0.0
 40
108.0
  1
床置ベット
  0
TEXT
  5
7AE5
  8
4
  6
CONTINUOUS
 10
632.33518700000002
 20
5067.7619520000007
 30
0.0
 40
144.0
  1
ベルト駆動式片吸込両持多翼ファン
  0
LINE
  5
7AE6
  8
4
  6
CONTINUOUS
 10
500.0
 20
4938.8175090000004
 30
0.0
 11
3700.0
 21
4938.8175090000004
 31
0.0
  0
LINE
  5
7AE7
  8
4
  6
CONTINUOUS
 10
500.0
 20
5338.8175090000004
 30
0.0
 11
3700.0
 21
5338.8175090000004
 31
0.0
  0
LINE
  5
7AE8
  8
4
  6
CONTINUOUS
 10
1300.0
 20
1000.0
 30
0.0
 11
3700.0
 21
1000.0
 31
0.0
  0
LINE
  5
7AE9
  8
4
  6
CONTINUOUS
 10
500.0
 20
5338.8175090000004
 30
0.0
 11
500.0
 21
4938.8175090000004
 31
0.0
  0
TEXT
  5
7AEA
  8
4
  6
CONTINUOUS
 10
937.85386600000004
 20
4764.6389549999994
 30
0.0
 40
108.0
  1
右回転右横向
  0
TEXT
  5
7AEB
  8
4
  6
CONTINUOUS
 10
2937.9391179999998
 20
5412.122163
 30
0.0
 40
112.0
  1
No.
  0
TEXT
  5
7AEC
  8
4
  6
CONTINUOUS
 10
2622.5921250000001
 20
4766.8576830000002
 30
0.0
 40
108.0
  1
縮尺：1/20
  0
LINE
  5
7AED
  8
4
  6
CONTINUOUS
 10
3700.0
 20
5338.8175090000004
 30
0.0
 11
3700.0
 21
4938.8175090000004
 31
0.0
  0
LINE
  5
7AEF
  8
4
  6
CONTINUOUS
 10
2881.234845
 20
5362.5271659999999
 30
0.0
 11
2881.234845
 21
5573.3045229999998
 31
0.0
  0
LINE
  5
7AF0
  8
4
  6
CONTINUOUS
 10
2881.234845
 20
5573.3045229999998
 30
0.0
 11
3700.0
 21
5573.3045229999998
 31
0.0
  0
LINE
  5
7AF1
  8
4
  6
CONTINUOUS
 10
3700.0
 20
5573.3045229999998
 30
0.0
 11
3700.0
 21
5362.5271659999999
 31
0.0
  0
LINE
  5
7AF2
  8
4
  6
CONTINUOUS
 10
3700.0
 20
5362.5271659999999
 30
0.0
 11
2881.234845
 21
5362.5271659999999
 31
0.0
  0
LINE
  5
7AFD
  8
2
  6
CENTER
 10
746.48044100000004
 20
3664.024140999999
 30
0.0
 11
1969.0276579999991
 21
3664.024140999999
 31
0.0
  0
LINE
  5
7AFF
  8
2
  6
CENTER
 10
1563.255813
 20
2568.388953362602
 30
0.0
 11
1563.255813
 21
1700.910751625225
 31
0.0
  0
DIMENSION
  5
7B13
  8
3
  6
CONTINUOUS
  2
*D1
 10
2036.248838
 20
2105.7100189999992
 30
0.0
 11
2036.248838
 21
2292.4210910000002
 31
0.0
 70
   128
 13
1863.255813
 23
2505.7100190000001
 33
0.0
 14
1863.255813
 24
2105.7100189999992
 34
0.0
 50
90.0
1001
ACAD
1000
DSTYLE
1002
{
1070
   287
1070
     3
1070
    40
1040
20.0
1070
   143
1040
0.039
1070
   172
1070
     1
1070
   271
1070
     0
1070
   279
1070
     0
1070
   288
1070
     1
1002
}
  0
DIMENSION
  5
7B44
  8
3
  6
CONTINUOUS
  2
*D2
 10
2307.0376769999998
 20
1737.7100190000001
 30
0.0
 11
2307.0376769999989
 21
2143.033089999999
 31
0.0
 70
   128
 13
1863.255813
 23
2532.7100190000001
 33
0.0
 14
1823.255813
 24
1737.7100190000001
 34
0.0
 50
90.0
1001
ACAD
1000
DSTYLE
1002
{
1070
   287
1070
     3
1070
    40
1040
20.0
1070
   143
1040
0.039
1070
   172
1070
     1
1070
   271
1070
     0
1070
   279
1070
     0
1070
   288
1070
     1
1002
}
  0
DIMENSION
  5
7B53
  8
3
  6
CONTINUOUS
  2
*D3
 10
1563.255813
 20
1593.194199156691
 30
0.0
 11
1693.255813
 21
1643.6205556432139
 31
0.0
 70
   128
 13
1823.255813
 23
1737.7100190000001
 33
0.0
 14
1563.255813
 24
1700.910751625225
 34
0.0
1001
ACAD
1000
DSTYLE
1002
{
1070
   288
1070
     1
1070
   172
1070
     1
1070
    40
1040
20.0
1070
   271
1070
     0
1070
   143
1040
0.039
1002
}
  0
DIMENSION
  5
7B5F
  8
3
  6
CONTINUOUS
  2
*D4
 10
823.25581299999988
 20
1593.194199156691
 30
0.0
 11
1193.255813
 21
1643.194199156691
 31
0.0
 70
     0
 13
1563.255813
 23
1700.910751625225
 33
0.0
 14
823.25581299999988
 24
1737.7100190000001
 34
0.0
1001
ACAD
1000
DSTYLE
1002
{
1070
   287
1070
     3
1070
    40
1040
20.0
1070
   143
1040
0.039
1070
   172
1070
     1
1070
   271
1070
     0
1070
   279
1070
     0
1070
   288
1070
     1
1002
}
  0
DIMENSION
  5
7B6C
  8
3
  6
CONTINUOUS
  2
*D5
 10
1563.255813
 20
2587.7522239999989
 30
0.0
 11
1726.1129558571431
 21
2587.7522239999989
 31
0.0
 70
   128
 13
1863.255813
 23
2532.7100190000001
 33
0.0
 14
1563.255813
 24
2569.7386119413459
 34
0.0
1001
ACAD
1000
DSTYLE
1002
{
1070
   287
1070
     3
1070
    40
1040
20.0
1070
   143
1040
0.039
1070
   172
1070
     1
1070
   271
1070
     0
1070
   279
1070
     0
1070
   288
1070
     1
1002
}
  0
DIMENSION
  5
7B78
  8
3
  6
CONTINUOUS
  2
*D6
 10
1223.255813
 20
2587.7522239999989
 30
0.0
 11
1393.255813
 21
2637.7522239999989
 31
0.0
 70
     0
 13
1563.255813
 23
2569.7386119413459
 33
0.0
 14
1223.255813
 24
2417.7100190000001
 34
0.0
1001
ACAD
1000
DSTYLE
1002
{
1070
   287
1070
     3
1070
    40
1040
20.0
1070
   143
1040
0.039
1070
   172
1070
     1
1070
   271
1070
     0
1070
   279
1070
     0
1070
   288
1070
     1
1002
}
  0
DIMENSION
  5
7B85
  8
3
  6
CONTINUOUS
  2
*D7
 10
2907.7921430000001
 20
2622.4098879999988
 30
0.0
 11
3044.935000142857
 21
2622.4098879999988
 31
0.0
 70
   128
 13
3207.7921430000001
 23
2505.7100190000001
 33
0.0
 14
2907.7921430000001
 24
2505.7100190000001
 34
0.0
1001
ACAD
1000
DSTYLE
1002
{
1070
   287
1070
     3
1070
    40
1040
20.0
1070
   143
1040
0.039
1070
   172
1070
     1
1070
   271
1070
     0
1070
   279
1070
     0
1070
   288
1070
     1
1002
}
  0
DIMENSION
  5
7BCB
  8
3
  6
CONTINUOUS
  2
*D8
 10
3383.2660500000011
 20
1902.7100190000001
 30
0.0
 11
3383.2660500000002
 21
2111.9707779999999
 31
0.0
 70
   128
 13
3207.7921430000001
 23
2332.7100190000001
 33
0.0
 14
3207.7921430000001
 24
1902.7100190000001
 34
0.0
 50
90.0
1001
ACAD
1000
DSTYLE
1002
{
1070
   287
1070
     3
1070
     3
1000
φ<>
1070
    40
1040
20.0
1070
   143
1040
0.039
1070
   172
1070
     1
1070
   271
1070
     0
1070
   279
1070
     0
1070
   288
1070
     1
1002
}
  0
DIMENSION
  5
7BF7
  8
3
  6
CONTINUOUS
  2
*D9
 10
1823.255813
 20
4018.6094409999992
 30
0.0
 11
1317.2236250000001
 21
4018.6094409999992
 31
0.0
 70
   128
 13
823.25581299999988
 23
3858.024140999999
 33
0.0
 14
1823.255813
 24
3858.024140999999
 34
0.0
1001
ACAD
1000
DSTYLE
1002
{
1070
   287
1070
     3
1070
    40
1040
20.0
1070
   143
1040
0.039
1070
   172
1070
     1
1070
   271
1070
     0
1070
   279
1070
     0
1070
   288
1070
     1
1002
}
  0
DIMENSION
  5
7C04
  8
3
  6
CONTINUOUS
  2
*D10
 10
2083.3218569999999
 20
3470.024140999999
 30
0.0
 11
2083.3218569999999
 21
3670.2746619999998
 31
0.0
 70
   128
 13
1823.255813
 23
3858.024140999999
 33
0.0
 14
1823.255813
 24
3470.024140999999
 34
0.0
 50
90.0
1001
ACAD
1000
DSTYLE
1002
{
1070
   287
1070
     3
1070
    40
1040
20.0
1070
   143
1040
0.039
1070
   172
1070
     1
1070
   271
1070
     0
1070
   279
1070
     0
1070
   288
1070
     1
1002
}
  0
LINE
  5
7CD3
  8
2
  6
CENTER
 10
3260.852648
 20
2117.7100189999992
 30
0.0
 11
2663.9967019999999
 21
2117.7100189999992
 31
0.0
  0
DIMENSION
  5
7CE0
  8
3
  6
CONTINUOUS
  2
*D11
 10
2174.8989969999998
 20
2117.7100189999992
 30
0.0
 11
2174.8989969999989
 21
2300.4286409999991
 31
0.0
 70
   128
 13
1863.255813
 23
2505.7100190000001
 33
0.0
 14
2089.7986649999989
 24
2117.7100189999992
 34
0.0
 50
90.0
1001
ACAD
1000
DSTYLE
1002
{
1070
   287
1070
     3
1070
    40
1040
20.0
1070
   143
1040
0.039
1070
   172
1070
     1
1070
   271
1070
     0
1070
   279
1070
     0
1070
   288
1070
     1
1002
}
  0
LINE
  5
7CF9
  8
2
  6
CENTER
 10
2082.3473549999999
 20
2117.7100189999992
 30
0.0
 11
770.44683200000009
 21
2117.7100189999992
 31
0.0
  0
LINE
  5
7CFA
  8
2
  6
CENTER
 10
3057.7921430000001
 20
2571.374714
 30
0.0
 11
3057.7921430000001
 21
1710.7983312212291
 31
0.0
  0
DIMENSION
  5
7D09
  8
3
  6
CONTINUOUS
  2
*D12
 10
3057.7921430000001
 20
1598.3200289036499
 30
0.0
 11
2960.7921430000001
 21
1643.6205556432139
 31
0.0
 70
   128
 13
2863.7921430000001
 23
1737.7100190000001
 33
0.0
 14
3057.7921430000001
 24
1710.7983312212291
 34
0.0
1001
ACAD
1000
DSTYLE
1002
{
1070
   288
1070
     1
1070
   172
1070
     1
1070
    40
1040
20.0
1070
   271
1070
     0
1070
   143
1040
0.039
1002
}
  0
DIMENSION
  5
7D17
  8
3
  6
CONTINUOUS
  2
*D13
 10
3251.7921430000001
 20
1598.3200289036499
 30
0.0
 11
3154.7921430000001
 21
1651.6708569444299
 31
0.0
 70
   128
 13
3057.7921430000001
 23
1710.7983312212291
 33
0.0
 14
3251.7921430000001
 24
1737.7100190000001
 34
0.0
1001
ACAD
1000
DSTYLE
1002
{
1070
   288
1070
     1
1070
   172
1070
     1
1070
    40
1040
20.0
1070
   271
1070
     0
1070
   143
1040
0.039
1002
}
  0
DIMENSION
  5
7D3B
  8
3
  6
CONTINUOUS
  2
*D14
 10
3057.7921430000001
 20
2756.386211
 30
0.0
 11
2873.5064287142859
 21
2756.386211
 31
0.0
 70
   128
  1
MAX\P380
 13
2727.7921430000001
 23
2472.7100190000001
 33
0.0
 14
3057.7921430000001
 24
2728.620065999999
 34
0.0
1001
ACAD
1000
DSTYLE
1002
{
1070
   287
1070
     3
1070
    40
1040
20.0
1070
   143
1040
0.039
1070
   172
1070
     1
1070
   271
1070
     0
1070
   279
1070
     0
1070
   288
1070
     1
1002
}
  0
LINE
  5
7D3C
  8
1
  6
CONTINUOUS
 10
3208.7921430000001
 20
2332.7100190000001
 30
0.0
 11
3208.7921430000001
 21
1902.7100190000001
 31
0.0
  0
DIMENSION
  5
7D4C
  8
3
  6
CONTINUOUS
  2
*D15
 10
3208.7921430000001
 20
2756.386211
 30
0.0
 11
3119.0827356617442
 21
2810.914196139478
 31
0.0
 70
   128
 13
3057.7921430000001
 23
2728.620065999999
 33
0.0
 14
3208.7921430000001
 24
2332.7100190000001
 34
0.0
1001
ACAD
1000
DSTYLE
1002
{
1070
   288
1070
     1
1070
   172
1070
     1
1070
    40
1040
20.0
1070
   271
1070
     0
1070
   143
1040
0.039
1002
}
  0
DIMENSION
  5
7D6F
  8
3
  6
CONTINUOUS
  2
*D16
 10
2174.8989969999989
 20
1737.7100190000001
 30
0.0
 11
2124.8989969999989
 21
1927.7100190000001
 31
0.0
 70
     0
 13
2089.7986649999989
 23
2117.7100189999992
 33
0.0
 14
1823.255813
 24
1737.7100190000001
 34
0.0
 50
90.0
1001
ACAD
1000
DSTYLE
1002
{
1070
   287
1070
     3
1070
    40
1040
20.0
1070
   143
1040
0.039
1070
   172
1070
     1
1070
   271
1070
     0
1070
   279
1070
     0
1070
   288
1070
     1
1002
}
  0
DIMENSION
  5
7F43
  8
3
  2
*D17
 10
823.25581299999988
 20
2714.310592569916
 30
0.0
 11
1338.4968210119041
 21
2714.310592569916
 31
0.0
 70
   128
 13
1863.255813
 23
2532.7100190000001
 33
0.0
 14
823.25581299999988
 24
1817.7100190000001
 34
0.0
1001
ACAD
1000
DSTYLE
1002
{
1070
   287
1070
     3
1070
    40
1040
20.0
1070
   143
1040
0.039
1070
   172
1070
     1
1070
   271
1070
     0
1070
   279
1070
     0
1070
   288
1070
     1
1002
}
  0
ENDSEC
  0
EOF
