  0
SECTION
  2
HEADER
  9
$ACADVER
  1
AC1009
  9
$INSBASE
 10
0.0
 20
0.0
 30
0.0
  9
$EXTMIN
 10
500.0
 20
600.0
 30
0.0
  9
$EXTMAX
 10
3700.0
 20
5573.3045229999998
 30
0.0
  9
$LIMMIN
 10
0.0
 20
0.0
  9
$LIMMAX
 10
297.0
 20
210.0
  9
$ORTHOMODE
 70
     0
  9
$REGENMODE
 70
     1
  9
$FILLMODE
 70
     0
  9
$QTEXTMODE
 70
     0
  9
$MIRRTEXT
 70
     1
  9
$DRAGMODE
 70
     2
  9
$LTSCALE
 40
100.0
  9
$OSMODE
 70
    37
  9
$ATTMODE
 70
     1
  9
$TEXTSIZE
 40
180.0
  9
$TRACEWID
 40
0.05
  9
$TEXTSTYLE
  7
STANDARD
  9
$CLAYER
  8
3
  9
$CELTYPE
  6
BYLAYER
  9
$CECOLOR
 62
   256
  9
$DIMSCALE
 40
20.0
  9
$DIMASZ
 40
2.0
  9
$DIMEXO
 40
0.5
  9
$DIMDLI
 40
10.0
  9
$DIMRND
 40
0.0
  9
$DIMDLE
 40
0.0
  9
$DIMEXE
 40
1.0
  9
$DIMTP
 40
1.0
  9
$DIMTM
 40
1.0
  9
$DIMTXT
 40
3.0
  9
$DIMCEN
 40
0.0
  9
$DIMTSZ
 40
0.0
  9
$DIMTOL
 70
     0
  9
$DIMLIM
 70
     0
  9
$DIMTIH
 70
     0
  9
$DIMTOH
 70
     0
  9
$DIMSE1
 70
     0
  9
$DIMSE2
 70
     0
  9
$DIMTAD
 70
     1
  9
$DIMZIN
 70
     8
  9
$DIMBLK
  1

  9
$DIMASO
 70
     1
  9
$DIMSHO
 70
     1
  9
$DIMPOST
  1

  9
$DIMAPOST
  1

  9
$DIMALT
 70
     0
  9
$DIMALTD
 70
     2
  9
$DIMALTF
 40
0.039
  9
$DIMLFAC
 40
1.0
  9
$DIMTOFL
 70
     1
  9
$DIMTVP
 40
0.0
  9
$DIMTIX
 70
     0
  9
$DIMSOXD
 70
     0
  9
$DIMSAH
 70
     1
  9
$DIMBLK1
  1
OPEN
  9
$DIMBLK2
  1
OPEN
  9
$DIMSTYLE
  2
IGA
  9
$DIMCLRD
 70
     0
  9
$DIMCLRE
 70
     0
  9
$DIMCLRT
 70
     0
  9
$DIMTFAC
 40
10.0
  9
$DIMGAP
 40
1.0
  9
$LUNITS
 70
     2
  9
$LUPREC
 70
     3
  9
$SKETCHINC
 40
0.1
  9
$FILLETRAD
 40
50.0
  9
$AUNITS
 70
     0
  9
$AUPREC
 70
     0
  9
$MENU
  1
acad
  9
$ELEVATION
 40
0.0
  9
$PELEVATION
 40
0.0
  9
$THICKNESS
 40
0.0
  9
$LIMCHECK
 70
     0
  9
$BLIPMODE
 70
     0
  9
$CHAMFERA
 40
0.5
  9
$CHAMFERB
 40
0.5
  9
$SKPOLY
 70
     0
  9
$TDCREATE
 40
2450724.3914686339
  9
$TDUPDATE
 40
2454953.7657955321
  9
$TDINDWG
 40
0.0152730787
  9
$TDUSRTIMER
 40
0.0152730787
  9
$USRTIMER
 70
     1
  9
$ANGBASE
 50
0.0
  9
$ANGDIR
 70
     0
  9
$PDMODE
 70
     0
  9
$PDSIZE
 40
0.0
  9
$PLINEWID
 40
0.0
  9
$COORDS
 70
     1
  9
$SPLFRAME
 70
     0
  9
$SPLINETYPE
 70
     6
  9
$SPLINESEGS
 70
     8
  9
$ATTDIA
 70
     0
  9
$ATTREQ
 70
     1
  9
$HANDLING
 70
 10241
  9
$HANDSEED
  5
7FFA
  9
$SURFTAB1
 70
     6
  9
$SURFTAB2
 70
     6
  9
$SURFTYPE
 70
     6
  9
$SURFU
 70
     6
  9
$SURFV
 70
     6
  9
$UCSNAME
  2

  9
$UCSORG
 10
0.0
 20
0.0
 30
0.0
  9
$UCSXDIR
 10
1.0
 20
0.0
 30
0.0
  9
$UCSYDIR
 10
0.0
 20
1.0
 30
0.0
  9
$PUCSNAME
  2

  9
$PUCSORG
 10
0.0
 20
0.0
 30
0.0
  9
$PUCSXDIR
 10
1.0
 20
0.0
 30
0.0
  9
$PUCSYDIR
 10
0.0
 20
1.0
 30
0.0
  9
$USERI1
 70
     0
  9
$USERI2
 70
     0
  9
$USERI3
 70
     0
  9
$USERI4
 70
     0
  9
$USERI5
 70
     0
  9
$USERR1
 40
0.0
  9
$USERR2
 40
0.0
  9
$USERR3
 40
0.0
  9
$USERR4
 40
0.0
  9
$USERR5
 40
0.0
  9
$WORLDVIEW
 70
     1
  9
$SHADEDGE
 70
     3
  9
$SHADEDIF
 70
    70
  9
$TILEMODE
 70
     1
  9
$MAXACTVP
 70
    16
  9
$PLIMCHECK
 70
     0
  9
$PEXTMIN
 10
1.0000000000000000E+020
 20
1.0000000000000000E+020
 30
1.0000000000000000E+020
  9
$PEXTMAX
 10
-1.0000000000000000E+020
 20
-1.0000000000000000E+020
 30
-1.0000000000000000E+020
  9
$PLIMMIN
 10
0.0
 20
0.0
  9
$PLIMMAX
 10
12.0
 20
9.0
  9
$UNITMODE
 70
     0
  9
$VISRETAIN
 70
     0
  9
$PLINEGEN
 70
     0
  9
$PSLTSCALE
 70
     1
  0
ENDSEC
  0
SECTION
  2
TABLES
  0
TABLE
  2
VPORT
 70
     2
  0
VPORT
  2
*ACTIVE
 70
     0
 10
0.0
 20
0.0
 11
1.0
 21
1.0
 12
6292.1124769529506
 22
3086.6374998146398
 13
0.0
 23
0.0
 14
10.0
 24
10.0
 15
10.0
 25
10.0
 16
0.0
 26
0.0
 36
1.0
 17
0.0
 27
0.0
 37
0.0
 40
5011.4968576296578
 41
3.1666666666666661
 42
50.0
 43
0.0
 44
0.0
 50
0.0
 51
0.0
 71
     0
 72
   100
 73
     1
 74
     0
 75
     0
 76
     0
 77
     0
 78
     0
  0
ENDTAB
  0
TABLE
  2
LTYPE
 70
     2
  0
LTYPE
  2
CONTINUOUS
 70
     0
  3
Solid line
 72
    65
 73
     0
 40
0.0
  0
LTYPE
  2
CENTER
 70
     0
  3
____ _ ____ _ ____ _ ____ _ ____ _ ____ _ ____ 
 72
    65
 73
     4
 40
2.0
 49
1.25
 49
-0.25
 49
0.25
 49
-0.25
  0
ENDTAB
  0
TABLE
  2
LAYER
 70
     6
  0
LAYER
  2
0
 70
     0
 62
     7
  6
CONTINUOUS
  0
LAYER
  2
3
 70
     0
 62
     2
  6
CONTINUOUS
  0
LAYER
  2
2
 70
     0
 62
     3
  6
CENTER
  0
LAYER
  2
1
 70
     0
 62
     4
  6
CONTINUOUS
  0
LAYER
  2
4
 70
     0
 62
     7
  6
CONTINUOUS
  0
LAYER
  2
DEFPOINTS
 70
     0
 62
     7
  6
CONTINUOUS
  0
ENDTAB
  0
TABLE
  2
STYLE
 70
     1
  0
STYLE
  2
STANDARD
 70
     0
 40
0.0
 41
1.0
 50
0.0
 71
     0
 42
180.0
  3
simplex.shx
  4
extfont.shx
  0
ENDTAB
  0
TABLE
  2
VIEW
 70
     0
  0
ENDTAB
  0
TABLE
  2
UCS
 70
     0
  0
ENDTAB
  0
TABLE
  2
APPID
 70
     1
  0
APPID
  2
ACAD
 70
     0
  0
ENDTAB
  0
TABLE
  2
DIMSTYLE
 70
     1
  0
DIMSTYLE
  2
IGA
 70
     0
  3

  4

  5

  6
OPEN
  7
OPEN
 40
2.0
 41
2.0
 42
0.5
 43
10.0
 44
1.0
 45
0.0
 46
0.0
 47
1.0
 48
1.0
140
3.0
141
0.0
142
0.0
143
0.03937
144
1.0
145
0.0
146
10.0
147
1.0
 71
     0
 72
     0
 73
     0
 74
     0
 75
     0
 76
     0
 77
     1
 78
     8
170
     0
171
     2
172
     0
173
     1
174
     0
175
     0
176
     0
177
     0
178
     0
  0
ENDTAB
  0
ENDSEC
  0
SECTION
  2
BLOCKS
  0
BLOCK
  8
0
  2
$MODEL_SPACE
 70
     0
 10
0.0
 20
0.0
 30
0.0
  3
$MODEL_SPACE
  1

  0
ENDBLK
  5
1B
  8
0
  0
BLOCK
 67
     1
  8
0
  2
$PAPER_SPACE
 70
     0
 10
0.0
 20
0.0
 30
0.0
  3
$PAPER_SPACE
  1

  0
ENDBLK
  5
18
 67
     1
  8
0
  0
BLOCK
  8
0
  2
_OPEN
 70
     0
 10
0.0
 20
0.0
 30
0.0
  3
_OPEN
  1

  0
LINE
  5
7B66
  8
0
  6
BYBLOCK
 62
     0
 10
-1.0
 20
0.166667
 30
0.0
 11
0.0
 21
0.0
 31
0.0
  0
LINE
  5
7B67
  8
0
  6
BYBLOCK
 62
     0
 10
0.0
 20
0.0
 30
0.0
 11
-1.0
 21
-0.166667
 31
0.0
  0
LINE
  5
7B68
  8
0
  6
BYBLOCK
 62
     0
 10
0.0
 20
0.0
 30
0.0
 11
-1.0
 21
0.0
 31
0.0
  0
ENDBLK
  5
7B69
  8
0
  0
BLOCK
  8
0
  2
*D1
 70
     1
 10
0.0
 20
0.0
 30
0.0
  3
*D1
  1

  0
LINE
  5
7F77
  8
3
  6
CONTINUOUS
 62
     0
 10
1149.5180600000001
 20
2450.5776054261592
 30
0.0
 11
1149.5180600000001
 21
2550.9448084261589
 31
0.0
  0
LINE
  5
7F78
  8
3
  6
CONTINUOUS
 62
     0
 10
1549.5180600000001
 20
2450.5776054261592
 30
0.0
 11
1549.5180600000001
 21
2550.9448084261589
 31
0.0
  0
LINE
  5
7F79
  8
3
  6
CONTINUOUS
 62
     0
 10
1189.5180600000001
 20
2530.9448084261589
 30
0.0
 11
1509.518059999999
 21
2530.9448084261589
 31
0.0
  0
INSERT
  5
7F7A
  8
3
  6
CONTINUOUS
 62
     0
  2
_OPEN
 10
1149.5180600000001
 20
2530.9448084261589
 30
0.0
 41
40.0
 42
40.0
 43
40.0
 50
180.0
  0
INSERT
  5
7F7B
  8
3
  6
CONTINUOUS
 62
     0
  2
_OPEN
 10
1549.5180600000001
 20
2530.9448084261589
 30
0.0
 41
40.0
 42
40.0
 43
40.0
  0
TEXT
  8
3
  40
60
  5
7FEC
  62
0
  72
0
  71
0
 10
1207.62
 20
2474.74
 30
0.000000
  1
400
  0
POINT
  5
7F7D
  8
DEFPOINTS
  6
CONTINUOUS
 62
     0
 10
1149.5180600000001
 20
2440.5776054261601
 30
0.0
  0
POINT
  5
7F7E
  8
DEFPOINTS
  6
CONTINUOUS
 62
     0
 10
1549.5180600000001
 20
2440.5776054261601
 30
0.0
  0
POINT
  5
7F7F
  8
DEFPOINTS
  6
CONTINUOUS
 62
     0
 10
1549.5180600000001
 20
2530.9448084261589
 30
0.0
  0
ENDBLK
  5
7DF1
  8
0
  0
BLOCK
  8
0
  2
*D2
 70
     1
 10
0.0
 20
0.0
 30
0.0
  3
*D2
  1

  0
LINE
  5
7F80
  8
3
  6
CONTINUOUS
 62
     0
 10
1549.5180600000001
 20
2540.9448084261589
 30
0.0
 11
1549.5180600000001
 21
2677.6747734261589
 31
0.0
  0
LINE
  5
7F81
  8
3
  6
CONTINUOUS
 62
     0
 10
1161.5180600000001
 20
2595.5664478400181
 30
0.0
 11
1161.5180600000001
 21
2677.6747734261589
 31
0.0
  0
LINE
  5
7F82
  8
3
  6
CONTINUOUS
 62
     0
 10
1509.518059999999
 20
2657.6747734261589
 30
0.0
 11
1201.5180600000001
 21
2657.6747734261589
 31
0.0
  0
INSERT
  5
7F83
  8
3
  6
CONTINUOUS
 62
     0
  2
_OPEN
 10
1549.5180600000001
 20
2657.6747734261589
 30
0.0
 41
40.0
 42
40.0
 43
40.0
  0
INSERT
  5
7F84
  8
3
  6
CONTINUOUS
 62
     0
  2
_OPEN
 10
1161.5180600000001
 20
2657.6747734261589
 30
0.0
 41
40.0
 42
40.0
 43
40.0
 50
180.0
  0
TEXT
  8
3
  40
60
  5
7FED
  62
0
  72
0
  71
0
 10
1211.49
 20
2601.47
 30
0.000000
  1
388
  0
POINT
  5
7F86
  8
DEFPOINTS
  6
CONTINUOUS
 62
     0
 10
1549.5180600000001
 20
2530.9448084261589
 30
0.0
  0
POINT
  5
7F87
  8
DEFPOINTS
  6
CONTINUOUS
 62
     0
 10
1161.5180600000001
 20
2585.5664478400181
 30
0.0
  0
POINT
  5
7F88
  8
DEFPOINTS
  6
CONTINUOUS
 62
     0
 10
1161.5180600000001
 20
2657.6747734261589
 30
0.0
  0
ENDBLK
  5
7F33
  8
0
  0
BLOCK
  8
0
  2
*D3
 70
     1
 10
0.0
 20
0.0
 30
0.0
  3
*D3
  1

  0
LINE
  5
7F89
  8
3
  6
CONTINUOUS
 62
     0
 10
1161.5180600000001
 20
2595.5664478400181
 30
0.0
 11
1161.5180600000001
 21
2677.6747734261589
 31
0.0
  0
LINE
  5
7F8A
  8
3
  6
CONTINUOUS
 62
     0
 10
861.51806000000033
 20
2420.5776054261601
 30
0.0
 11
861.51806000000033
 21
2677.6747734261589
 31
0.0
  0
LINE
  5
7F8B
  8
3
  6
CONTINUOUS
 62
     0
 10
1121.5180600000001
 20
2657.6747734261589
 30
0.0
 11
901.51806000000045
 21
2657.6747734261589
 31
0.0
  0
INSERT
  5
7F8C
  8
3
  6
CONTINUOUS
 62
     0
  2
_OPEN
 10
1161.5180600000001
 20
2657.6747734261589
 30
0.0
 41
40.0
 42
40.0
 43
40.0
  0
INSERT
  5
7F8D
  8
3
  6
CONTINUOUS
 62
     0
  2
_OPEN
 10
861.51806000000033
 20
2657.6747734261589
 30
0.0
 41
40.0
 42
40.0
 43
40.0
 50
180.0
  0
TEXT
  8
3
  40
60
  5
7FEE
  62
0
  72
0
  71
0
 10
891.518
 20
2601.47
 30
0.000000
  1
300
  0
POINT
  5
7F8F
  8
DEFPOINTS
  6
CONTINUOUS
 62
     0
 10
1161.5180600000001
 20
2585.5664478400181
 30
0.0
  0
POINT
  5
7F90
  8
DEFPOINTS
  6
CONTINUOUS
 62
     0
 10
861.51806000000033
 20
2410.5776054261592
 30
0.0
  0
POINT
  5
7F91
  8
DEFPOINTS
  6
CONTINUOUS
 62
     0
 10
861.51806000000033
 20
2657.6747734261589
 30
0.0
  0
ENDBLK
  5
7F3E
  8
0
  0
BLOCK
  8
0
  2
*D4
 70
     1
 10
0.0
 20
0.0
 30
0.0
  3
*D4
  1

  0
LINE
  5
7F92
  8
3
  6
CONTINUOUS
 62
     0
 10
1586.518059999999
 20
2440.5776054261601
 30
0.0
 11
2024.8691530000001
 21
2440.5776054261601
 31
0.0
  0
LINE
  5
7F93
  8
3
  6
CONTINUOUS
 62
     0
 10
1871.739796054356
 20
2140.5776054261592
 30
0.0
 11
2024.8691530000001
 21
2140.5776054261592
 31
0.0
  0
LINE
  5
7F94
  8
3
  6
CONTINUOUS
 62
     0
 10
2004.8691530000001
 20
2400.5776054261592
 30
0.0
 11
2004.8691530000001
 21
2180.5776054261592
 31
0.0
  0
INSERT
  5
7F95
  8
3
  6
CONTINUOUS
 62
     0
  2
_OPEN
 10
2004.8691530000001
 20
2440.5776054261601
 30
0.0
 41
40.0
 42
40.0
 43
40.0
 50
90.0
  0
INSERT
  5
7F96
  8
3
  6
CONTINUOUS
 62
     0
  2
_OPEN
 10
2004.8691530000001
 20
2140.5776054261592
 30
0.0
 41
40.0
 42
40.0
 43
40.0
 50
270.0
  0
TEXT
  8
3
  40
60
  5
7FEF
  62
0
  72
0
  71
0
 10
1834.87
 20
2197.23
 30
0.000000
  1
300
  0
POINT
  5
7F98
  8
DEFPOINTS
  6
CONTINUOUS
 62
     0
 10
1576.518059999999
 20
2440.5776054261601
 30
0.0
  0
POINT
  5
7F99
  8
DEFPOINTS
  6
CONTINUOUS
 62
     0
 10
1861.739796054356
 20
2140.5776054261592
 30
0.0
  0
POINT
  5
7F9A
  8
DEFPOINTS
  6
CONTINUOUS
 62
     0
 10
2004.8691530000001
 20
2140.5776054261592
 30
0.0
  0
ENDBLK
  5
7F49
  8
0
  0
BLOCK
  8
0
  2
*D5
 70
     1
 10
0.0
 20
0.0
 30
0.0
  3
*D5
  1

  0
LINE
  5
7F9B
  8
3
  6
CONTINUOUS
 62
     0
 10
1864.184739830456
 20
2140.5776054261592
 30
0.0
 11
2024.8691530000001
 21
2140.5776054261592
 31
0.0
  0
LINE
  5
7F9C
  8
3
  6
CONTINUOUS
 62
     0
 10
1911.5180600000001
 20
1720.5776054261589
 30
0.0
 11
2024.8691530000001
 21
1720.5776054261589
 31
0.0
  0
LINE
  5
7F9D
  8
3
  6
CONTINUOUS
 62
     0
 10
2004.8691530000001
 20
2100.5776054261592
 30
0.0
 11
2004.8691530000001
 21
1760.5776054261589
 31
0.0
  0
INSERT
  5
7F9E
  8
3
  6
CONTINUOUS
 62
     0
  2
_OPEN
 10
2004.8691530000001
 20
2140.5776054261592
 30
0.0
 41
40.0
 42
40.0
 43
40.0
 50
90.0
  0
INSERT
  5
7F9F
  8
3
  6
CONTINUOUS
 62
     0
  2
_OPEN
 10
2004.8691530000001
 20
1720.5776054261589
 30
0.0
 41
40.0
 42
40.0
 43
40.0
 50
270.0
  0
TEXT
  8
3
  40
60
  5
7FF0
  62
0
  72
0
  71
0
 10
1834.87
 20
1824.38
 30
0.000000
  1
420
  0
POINT
  5
7FA1
  8
DEFPOINTS
  6
CONTINUOUS
 62
     0
 10
1854.184739830456
 20
2140.5776054261592
 30
0.0
  0
POINT
  5
7FA2
  8
DEFPOINTS
  6
CONTINUOUS
 62
     0
 10
1901.5180600000001
 20
1720.5776054261589
 30
0.0
  0
POINT
  5
7FA3
  8
DEFPOINTS
  6
CONTINUOUS
 62
     0
 10
2004.8691530000001
 20
1720.5776054261589
 30
0.0
  0
ENDBLK
  5
7F54
  8
0
  0
BLOCK
  8
0
  2
*D6
 70
     1
 10
0.0
 20
0.0
 30
0.0
  3
*D6
  1

  0
LINE
  5
7FA4
  8
3
  6
CONTINUOUS
 62
     0
 10
1596.5180600000001
 20
2440.5776054261601
 30
0.0
 11
2172.023502
 21
2440.5776054261601
 31
0.0
  0
LINE
  5
7FA5
  8
3
  6
CONTINUOUS
 62
     0
 10
1911.5180600000001
 20
1720.5776054261589
 30
0.0
 11
2172.023502
 21
1720.5776054261589
 31
0.0
  0
LINE
  5
7FA6
  8
3
  6
CONTINUOUS
 62
     0
 10
2152.023502
 20
2400.5776054261592
 30
0.0
 11
2152.023502
 21
1760.5776054261589
 31
0.0
  0
INSERT
  5
7FA7
  8
3
  6
CONTINUOUS
 62
     0
  2
_OPEN
 10
2152.023502
 20
2440.5776054261601
 30
0.0
 41
40.0
 42
40.0
 43
40.0
 50
90.0
  0
INSERT
  5
7FA8
  8
3
  6
CONTINUOUS
 62
     0
  2
_OPEN
 10
2152.023502
 20
1720.5776054261589
 30
0.0
 41
40.0
 42
40.0
 43
40.0
 50
270.0
  0
TEXT
  8
3
  40
60
  5
7FF1
  62
0
  72
0
  71
0
 10
1982.02
 20
1953.51
 30
0.000000
  1
720
  0
POINT
  5
7FAA
  8
DEFPOINTS
  6
CONTINUOUS
 62
     0
 10
1586.518059999999
 20
2440.5776054261601
 30
0.0
  0
POINT
  5
7FAB
  8
DEFPOINTS
  6
CONTINUOUS
 62
     0
 10
1901.5180600000001
 20
1720.5776054261589
 30
0.0
  0
POINT
  5
7FAC
  8
DEFPOINTS
  6
CONTINUOUS
 62
     0
 10
2152.023502
 20
1720.5776054261589
 30
0.0
  0
ENDBLK
  5
7DBA
  8
0
  0
BLOCK
  8
0
  2
*D7
 70
     1
 10
0.0
 20
0.0
 30
0.0
  3
*D7
  1

  0
LINE
  5
7F1F
  8
0
  6
BYBLOCK
 62
     0
 10
901.51805999999999
 20
2006.4865539999989
 30
0.0
 11
901.51805999999999
 21
1857.358517320039
 31
0.0
  0
LINE
  5
7F20
  8
0
  6
BYBLOCK
 62
     0
 10
1161.518059999999
 20
1915.5262438964719
 30
0.0
 11
1161.518059999999
 21
1857.358517320039
 31
0.0
  0
LINE
  5
7F21
  8
0
  6
BYBLOCK
 62
     0
 10
941.51805999999988
 20
1877.358517320039
 30
0.0
 11
1121.518059999999
 21
1877.358517320039
 31
0.0
  0
TEXT
  5
7F22
  8
3
 62
     0
 10
954.37520285714265
 20
1895.7634709244189
 30
0.0
 40
60.0
  1
260
  0
INSERT
  5
7F23
  8
0
  6
BYBLOCK
 62
     0
  2
_OPEN
 10
901.51805999999999
 20
1877.358517320039
 30
0.0
 41
40.0
 42
40.0
 43
40.0
 50
180.0
  0
INSERT
  5
7F24
  8
0
  6
BYBLOCK
 62
     0
  2
_OPEN
 10
1161.518059999999
 20
1877.358517320039
 30
0.0
 41
40.0
 42
40.0
 43
40.0
  0
POINT
  5
7F25
  8
DEFPOINTS
  6
BYBLOCK
 62
     0
 10
901.51805999999999
 20
2016.4865539999989
 30
0.0
  0
POINT
  5
7F26
  8
DEFPOINTS
  6
BYBLOCK
 62
     0
 10
1161.518059999999
 20
1925.5262438964719
 30
0.0
  0
POINT
  5
7F27
  8
DEFPOINTS
  6
BYBLOCK
 62
     0
 10
1161.518059999999
 20
1877.358517320039
 30
0.0
  0
ENDBLK
  5
7F28
  8
0
  0
BLOCK
  8
0
  2
*D8
 70
     1
 10
0.0
 20
0.0
 30
0.0
  3
*D8
  1

  0
LINE
  5
7FAD
  8
3
  6
CONTINUOUS
 62
     0
 10
1161.5180600000001
 20
1619.6172953226319
 30
0.0
 11
1161.5180600000001
 21
1561.449568746199
 31
0.0
  0
LINE
  5
7FAE
  8
3
  6
CONTINUOUS
 62
     0
 10
1901.5180600000001
 20
1710.5776054261589
 30
0.0
 11
1901.5180600000001
 21
1561.449568746199
 31
0.0
  0
LINE
  5
7FAF
  8
3
  6
CONTINUOUS
 62
     0
 10
1201.5180600000001
 20
1581.449568746199
 30
0.0
 11
1861.5180600000001
 21
1581.449568746199
 31
0.0
  0
INSERT
  5
7FB0
  8
3
  6
CONTINUOUS
 62
     0
  2
_OPEN
 10
1161.5180600000001
 20
1581.449568746199
 30
0.0
 41
40.0
 42
40.0
 43
40.0
 50
180.0
  0
INSERT
  5
7FB1
  8
3
  6
CONTINUOUS
 62
     0
  2
_OPEN
 10
1901.5180600000001
 20
1581.449568746199
 30
0.0
 41
40.0
 42
40.0
 43
40.0
  0
TEXT
  8
3
  40
60
  5
7FF2
  62
0
  72
0
  71
0
 10
1411.52
 20
1525.25
 30
0.000000
  1
740
  0
POINT
  5
7FB3
  8
DEFPOINTS
  6
CONTINUOUS
 62
     0
 10
1161.5180600000001
 20
1629.6172953226319
 30
0.0
  0
POINT
  5
7FB4
  8
DEFPOINTS
  6
CONTINUOUS
 62
     0
 10
1901.5180600000001
 20
1720.5776054261589
 30
0.0
  0
POINT
  5
7FB5
  8
DEFPOINTS
  6
CONTINUOUS
 62
     0
 10
1901.5180600000001
 20
1581.449568746199
 30
0.0
  0
ENDBLK
  5
7F12
  8
0
  0
BLOCK
  8
0
  2
*D9
 70
     1
 10
0.0
 20
0.0
 30
0.0
  3
*D9
  1

  0
LINE
  5
7EF3
  8
0
  6
BYBLOCK
 62
     0
 10
2944.880294
 20
2006.4865539999989
 30
0.0
 11
2944.880294
 21
1856.7955251887629
 31
0.0
  0
LINE
  5
7EF4
  8
0
  6
BYBLOCK
 62
     0
 10
3138.880294
 20
1947.6316577080449
 30
0.0
 11
3138.880294
 21
1856.7955251887629
 31
0.0
  0
LINE
  5
7EF5
  8
0
  6
BYBLOCK
 62
     0
 10
2984.880294
 20
1876.795525188764
 30
0.0
 11
3098.880294
 21
1876.795525188764
 31
0.0
  0
TEXT
  5
7EF6
  8
3
 62
     0
 10
2969.0231511428569
 20
1900.8049698558591
 30
0.0
 40
60.0
  1
194
  0
INSERT
  5
7EF7
  8
0
  6
BYBLOCK
 62
     0
  2
_OPEN
 10
2944.880294
 20
1876.795525188764
 30
0.0
 41
40.0
 42
40.0
 43
40.0
 50
180.0
  0
INSERT
  5
7EF8
  8
0
  6
BYBLOCK
 62
     0
  2
_OPEN
 10
3138.880294
 20
1876.795525188764
 30
0.0
 41
40.0
 42
40.0
 43
40.0
  0
POINT
  5
7EF9
  8
DEFPOINTS
  6
BYBLOCK
 62
     0
 10
2944.880294
 20
2016.4865539999989
 30
0.0
  0
POINT
  5
7EFA
  8
DEFPOINTS
  6
BYBLOCK
 62
     0
 10
3138.880294
 20
1957.6316577080449
 30
0.0
  0
POINT
  5
7EFB
  8
DEFPOINTS
  6
BYBLOCK
 62
     0
 10
3138.880294
 20
1876.795525188764
 30
0.0
  0
ENDBLK
  5
7EFC
  8
0
  0
BLOCK
  8
0
  2
*D10
 70
     1
 10
0.0
 20
0.0
 30
0.0
  3
*D10
  1

  0
LINE
  5
7EFE
  8
0
  6
BYBLOCK
 62
     0
 10
3138.880294
 20
1947.6316577080449
 30
0.0
 11
3138.880294
 21
1856.4903811887641
 31
0.0
  0
LINE
  5
7EFF
  8
0
  6
BYBLOCK
 62
     0
 10
3332.880294
 20
2006.4865539999989
 30
0.0
 11
3332.880294
 21
1856.4903811887641
 31
0.0
  0
LINE
  5
7F00
  8
0
  6
BYBLOCK
 62
     0
 10
3178.880294
 20
1876.490381188763
 30
0.0
 11
3292.880294
 21
1876.490381188763
 31
0.0
  0
TEXT
  5
7F01
  8
3
 62
     0
 10
3163.0231511428569
 20
1906.62130200658
 30
0.0
 40
60.0
  1
194
  0
INSERT
  5
7F02
  8
0
  6
BYBLOCK
 62
     0
  2
_OPEN
 10
3138.880294
 20
1876.490381188763
 30
0.0
 41
40.0
 42
40.0
 43
40.0
 50
180.0
  0
INSERT
  5
7F03
  8
0
  6
BYBLOCK
 62
     0
  2
_OPEN
 10
3332.880294
 20
1876.490381188763
 30
0.0
 41
40.0
 42
40.0
 43
40.0
  0
POINT
  5
7F04
  8
DEFPOINTS
  6
BYBLOCK
 62
     0
 10
3138.880294
 20
1957.6316577080449
 30
0.0
  0
POINT
  5
7F05
  8
DEFPOINTS
  6
BYBLOCK
 62
     0
 10
3332.880294
 20
2016.4865539999989
 30
0.0
  0
POINT
  5
7F06
  8
DEFPOINTS
  6
BYBLOCK
 62
     0
 10
3332.880294
 20
1876.490381188763
 30
0.0
  0
ENDBLK
  5
7F07
  8
0
  0
BLOCK
  8
0
  2
*D11
 70
     1
 10
0.0
 20
0.0
 30
0.0
  3
*D11
  1

  0
LINE
  5
7FB6
  8
3
  6
CONTINUOUS
 62
     0
 10
2988.880294
 20
2430.5776054261592
 30
0.0
 11
2988.880294
 21
2493.7623684261598
 31
0.0
  0
LINE
  5
7FB7
  8
3
  6
CONTINUOUS
 62
     0
 10
3288.880294
 20
2450.5776054261592
 30
0.0
 11
3288.880294
 21
2493.7623684261598
 31
0.0
  0
LINE
  5
7FB8
  8
3
  6
CONTINUOUS
 62
     0
 10
3028.880294
 20
2473.7623684261598
 30
0.0
 11
3248.880294
 21
2473.7623684261598
 31
0.0
  0
INSERT
  5
7FB9
  8
3
  6
CONTINUOUS
 62
     0
  2
_OPEN
 10
2988.880294
 20
2473.7623684261598
 30
0.0
 41
40.0
 42
40.0
 43
40.0
 50
180.0
  0
INSERT
  5
7FBA
  8
3
  6
CONTINUOUS
 62
     0
  2
_OPEN
 10
3288.880294
 20
2473.7623684261598
 30
0.0
 41
40.0
 42
40.0
 43
40.0
  0
TEXT
  8
3
  40
60
  5
7FF3
  62
0
  72
0
  71
0
 10
3031.74
 20
2417.56
 30
0.000000
  1
300
  0
POINT
  5
7FBC
  8
DEFPOINTS
  6
CONTINUOUS
 62
     0
 10
2988.880294
 20
2420.5776054261601
 30
0.0
  0
POINT
  5
7FBD
  8
DEFPOINTS
  6
CONTINUOUS
 62
     0
 10
3288.880294
 20
2440.5776054261601
 30
0.0
  0
POINT
  5
7FBE
  8
DEFPOINTS
  6
CONTINUOUS
 62
     0
 10
3288.880294
 20
2473.7623684261598
 30
0.0
  0
ENDBLK
  5
7D7D
  8
0
  0
BLOCK
  8
0
  2
*D12
 70
     1
 10
0.0
 20
0.0
 30
0.0
  3
*D12
  1

  0
LINE
  5
7FBF
  8
3
  6
CONTINUOUS
 62
     0
 10
3138.880294
 20
2577.6715157959752
 30
0.0
 11
3138.880294
 21
2640.7707492412501
 31
0.0
  0
LINE
  5
7FC0
  8
3
  6
CONTINUOUS
 62
     0
 10
2808.880294
 20
2465.5776054261601
 30
0.0
 11
2808.880294
 21
2640.7707492412501
 31
0.0
  0
LINE
  5
7FC1
  8
3
  6
CONTINUOUS
 62
     0
 10
3098.880294
 20
2620.7707492412501
 30
0.0
 11
2848.880294
 21
2620.7707492412501
 31
0.0
  0
INSERT
  5
7FC2
  8
3
  6
CONTINUOUS
 62
     0
  2
_OPEN
 10
3138.880294
 20
2620.7707492412501
 30
0.0
 41
40.0
 42
40.0
 43
40.0
  0
INSERT
  5
7FC3
  8
3
  6
CONTINUOUS
 62
     0
  2
_OPEN
 10
2808.880294
 20
2620.7707492412501
 30
0.0
 41
40.0
 42
40.0
 43
40.0
 50
180.0
  0
TEXT
  8
3
  40
60
  5
7FF4
  62
0
  72
0
  71
0
 10
2853.88
 20
2614.57
 30
0.000000
  1
MAX
  0
TEXT
  8
3
  40
60
  5
7FF5
  62
0
  72
0
  71
0
 10
2853.88
 20
2536.57
 30
0.000000
  1
380
  0
POINT
  5
7FC5
  8
DEFPOINTS
  6
CONTINUOUS
 62
     0
 10
3138.880294
 20
2567.6715157959752
 30
0.0
  0
POINT
  5
7FC6
  8
DEFPOINTS
  6
CONTINUOUS
 62
     0
 10
2808.880294
 20
2455.5776054261592
 30
0.0
  0
POINT
  5
7FC7
  8
DEFPOINTS
  6
CONTINUOUS
 62
     0
 10
2808.880294
 20
2620.7707492412501
 30
0.0
  0
ENDBLK
  5
7EA1
  8
0
  0
BLOCK
  8
0
  2
*D13
 70
     1
 10
0.0
 20
0.0
 30
0.0
  3
*D13
  1

  0
LINE
  5
7FC8
  8
3
  6
CONTINUOUS
 62
     0
 10
901.51805999999999
 20
4005.2565540000001
 30
0.0
 11
901.51805999999999
 21
4153.9908340000002
 31
0.0
  0
LINE
  5
7FC9
  8
3
  6
CONTINUOUS
 62
     0
 10
1901.5180600000001
 20
4005.2565540000001
 30
0.0
 11
1901.5180600000001
 21
4153.9908340000002
 31
0.0
  0
LINE
  5
7FCA
  8
3
  6
CONTINUOUS
 62
     0
 10
941.51805999999988
 20
4133.9908340000002
 30
0.0
 11
1861.5180600000001
 21
4133.9908340000002
 31
0.0
  0
INSERT
  5
7FCB
  8
3
  6
CONTINUOUS
 62
     0
  2
_OPEN
 10
901.51805999999999
 20
4133.9908340000002
 30
0.0
 41
40.0
 42
40.0
 43
40.0
 50
180.0
  0
INSERT
  5
7FCC
  8
3
  6
CONTINUOUS
 62
     0
  2
_OPEN
 10
1901.5180600000001
 20
4133.9908340000002
 30
0.0
 41
40.0
 42
40.0
 43
40.0
  0
TEXT
  8
3
  40
60
  5
7FF6
  62
0
  72
0
  71
0
 10
1254.09
 20
4077.79
 30
0.000000
  1
1000
  0
POINT
  5
7FCE
  8
DEFPOINTS
  6
CONTINUOUS
 62
     0
 10
901.51805999999999
 20
3995.2565540000001
 30
0.0
  0
POINT
  5
7FCF
  8
DEFPOINTS
  6
CONTINUOUS
 62
     0
 10
1901.5180600000001
 20
3995.2565540000001
 30
0.0
  0
POINT
  5
7FD0
  8
DEFPOINTS
  6
CONTINUOUS
 62
     0
 10
1901.5180600000001
 20
4133.9908340000002
 30
0.0
  0
ENDBLK
  5
7D67
  8
0
  0
BLOCK
  8
0
  2
*D14
 70
     1
 10
0.0
 20
0.0
 30
0.0
  3
*D14
  1

  0
LINE
  5
7FD1
  8
3
  6
CONTINUOUS
 62
     0
 10
1911.5180600000001
 20
3995.2565540000001
 30
0.0
 11
2123.2981690000001
 21
3995.2565540000001
 31
0.0
  0
LINE
  5
7FD2
  8
3
  6
CONTINUOUS
 62
     0
 10
1911.5180600000001
 20
3607.2565540000001
 30
0.0
 11
2123.2981690000001
 21
3607.2565540000001
 31
0.0
  0
LINE
  5
7FD3
  8
3
  6
CONTINUOUS
 62
     0
 10
2103.2981690000001
 20
3955.2565540000001
 30
0.0
 11
2103.2981690000001
 21
3647.2565540000001
 31
0.0
  0
INSERT
  5
7FD4
  8
3
  6
CONTINUOUS
 62
     0
  2
_OPEN
 10
2103.2981690000001
 20
3995.2565540000001
 30
0.0
 41
40.0
 42
40.0
 43
40.0
 50
90.0
  0
INSERT
  5
7FD5
  8
3
  6
CONTINUOUS
 62
     0
  2
_OPEN
 10
2103.2981690000001
 20
3607.2565540000001
 30
0.0
 41
40.0
 42
40.0
 43
40.0
 50
270.0
  0
TEXT
  8
3
  40
60
  5
7FF7
  62
0
  72
0
  71
0
 10
1933.30
 20
3695.11
 30
0.000000
  1
388
  0
POINT
  5
7FD7
  8
DEFPOINTS
  6
CONTINUOUS
 62
     0
 10
1901.5180600000001
 20
3995.2565540000001
 30
0.0
  0
POINT
  5
7FD8
  8
DEFPOINTS
  6
CONTINUOUS
 62
     0
 10
1901.5180600000001
 20
3607.2565540000001
 30
0.0
  0
POINT
  5
7FD9
  8
DEFPOINTS
  6
CONTINUOUS
 62
     0
 10
2103.2981690000001
 20
3607.2565540000001
 30
0.0
  0
ENDBLK
  5
7D5C
  8
0
  0
BLOCK
  8
0
  2
*D15
 70
     1
 10
0.0
 20
0.0
 30
0.0
  3
*D15
  1

  0
LINE
  5
7FDA
  8
3
  6
CONTINUOUS
 62
     0
 10
3298.8802939999991
 20
2355.5776054261592
 30
0.0
 11
3481.7256270000012
 21
2355.5776054261592
 31
0.0
  0
LINE
  5
7FDB
  8
3
  6
CONTINUOUS
 62
     0
 10
3298.8802939999991
 20
1925.5776054261589
 30
0.0
 11
3481.7256270000012
 21
1925.5776054261589
 31
0.0
  0
LINE
  5
7FDC
  8
3
  6
CONTINUOUS
 62
     0
 10
3461.7256269999998
 20
2315.5776054261592
 30
0.0
 11
3461.7256269999998
 21
1965.5776054261589
 31
0.0
  0
INSERT
  5
7FDD
  8
3
  6
CONTINUOUS
 62
     0
  2
_OPEN
 10
3461.7256269999998
 20
2355.5776054261592
 30
0.0
 41
40.0
 42
40.0
 43
40.0
 50
90.0
  0
INSERT
  5
7FDE
  8
3
  6
CONTINUOUS
 62
     0
  2
_OPEN
 10
3461.7256269999998
 20
1925.5776054261589
 30
0.0
 41
40.0
 42
40.0
 43
40.0
 50
270.0
  0
TEXT
  8
3
  40
60
  5
7FF8
  62
0
  72
0
  71
0
 10
3291.73
 20
1992.52
 30
0.000000
  1
φ430
  0
POINT
  5
7FE0
  8
DEFPOINTS
  6
CONTINUOUS
 62
     0
 10
3288.880294
 20
2355.5776054261592
 30
0.0
  0
POINT
  5
7FE1
  8
DEFPOINTS
  6
CONTINUOUS
 62
     0
 10
3288.880294
 20
1925.5776054261589
 30
0.0
  0
POINT
  5
7FE2
  8
DEFPOINTS
  6
CONTINUOUS
 62
     0
 10
3461.7256269999998
 20
1925.5776054261589
 30
0.0
  0
ENDBLK
  5
7E54
  8
0
  0
BLOCK
  8
0
  2
*D16
 70
     1
 10
0.0
 20
0.0
 30
0.0
  3
*D16
  1

  0
LINE
  5
7E8D
  8
0
  6
BYBLOCK
 62
     0
 10
3138.880294
 20
2873.5804643698152
 30
0.0
 11
3138.880294
 21
2936.6796978150901
 31
0.0
  0
LINE
  5
7E8E
  8
0
  6
BYBLOCK
 62
     0
 10
3289.880294
 20
2661.4865540000001
 30
0.0
 11
3289.880294
 21
2936.6796978150901
 31
0.0
  0
LINE
  5
7E8F
  8
0
  6
BYBLOCK
 62
     0
 10
3178.880294
 20
2916.6796978150901
 30
0.0
 11
3249.880294
 21
2916.6796978150901
 31
0.0
  0
TEXT
  5
7E90
  8
3
 62
     0
 10
3147.898997345374
 20
2944.607012481536
 30
0.0
 40
60.0
  1
151
  0
INSERT
  5
7E91
  8
0
  6
BYBLOCK
 62
     0
  2
_OPEN
 10
3138.880294
 20
2916.6796978150901
 30
0.0
 41
40.0
 42
40.0
 43
40.0
 50
180.0
  0
INSERT
  5
7E92
  8
0
  6
BYBLOCK
 62
     0
  2
_OPEN
 10
3289.880294
 20
2916.6796978150901
 30
0.0
 41
40.0
 42
40.0
 43
40.0
  0
POINT
  5
7E93
  8
DEFPOINTS
  6
BYBLOCK
 62
     0
 10
3138.880294
 20
2863.5804643698152
 30
0.0
  0
POINT
  5
7E94
  8
DEFPOINTS
  6
BYBLOCK
 62
     0
 10
3289.880294
 20
2651.4865540000001
 30
0.0
  0
POINT
  5
7E95
  8
DEFPOINTS
  6
BYBLOCK
 62
     0
 10
3289.880294
 20
2916.6796978150901
 30
0.0
  0
ENDBLK
  5
7E96
  8
0
  0
BLOCK
  8
0
  2
*D17
 70
     1
 10
0.0
 20
0.0
 30
0.0
  3
*D17
  1

  0
LINE
  5
7FE3
  8
3
 62
     0
 10
861.51806000000033
 20
2420.5776054261601
 30
0.0
 11
861.51806000000033
 21
2790.7389708605078
 31
0.0
  0
LINE
  5
7FE4
  8
3
 62
     0
 10
1901.5180600000001
 20
1810.5776054261589
 30
0.0
 11
1901.5180600000001
 21
2790.7389708605078
 31
0.0
  0
LINE
  5
7FE5
  8
3
 62
     0
 10
901.51806000000045
 20
2770.7389708605078
 30
0.0
 11
1861.5180600000001
 21
2770.7389708605078
 31
0.0
  0
INSERT
  5
7FE6
  8
3
 62
     0
  2
_OPEN
 10
861.51806000000033
 20
2770.7389708605078
 30
0.0
 41
40.0
 42
40.0
 43
40.0
 50
180.0
  0
INSERT
  5
7FE7
  8
3
 62
     0
  2
_OPEN
 10
1901.5180600000001
 20
2770.7389708605078
 30
0.0
 41
40.0
 42
40.0
 43
40.0
  0
TEXT
  8
3
  40
60
  5
7FF9
  62
0
  72
0
  71
0
 10
1299.56
 20
2714.54
 30
0.000000
  1
1040
  0
POINT
  5
7FE9
  8
DEFPOINTS
 62
     0
 10
861.51806000000033
 20
2410.5776054261592
 30
0.0
  0
POINT
  5
7FEA
  8
DEFPOINTS
 62
     0
 10
1901.5180600000001
 20
1800.5776054261589
 30
0.0
  0
POINT
  5
7FEB
  8
DEFPOINTS
 62
     0
 10
1901.5180600000001
 20
2770.7389708605078
 30
0.0
  0
ENDBLK
  5
7EAD
  8
0
  0
ENDSEC
  0
SECTION
  2
ENTITIES
  0
LINE
  5
7AA3
  8
1
  6
CONTINUOUS
 10
1130.59806
 20
2045.477605426159
 30
0.0
 11
1674.8280599999989
 21
1868.517605426159
 31
0.0
  0
LINE
  5
7AA4
  8
1
  6
CONTINUOUS
 10
1719.6980599999999
 20
1979.497605426159
 30
0.0
 11
1205.3680599999991
 21
2230.447605426159
 31
0.0
  0
LINE
  5
7AA5
  8
1
  6
CONTINUOUS
 10
1175.518059999999
 20
3607.2565540000001
 30
0.0
 11
1679.38806
 21
3607.2565540000001
 31
0.0
  0
LINE
  5
7AA6
  8
1
  6
CONTINUOUS
 10
901.51806000000045
 20
1720.5776054261589
 30
0.0
 11
1901.5180600000001
 21
1720.5776054261589
 31
0.0
  0
LINE
  5
7AA7
  8
2
  6
CENTER
 10
1753.38806
 20
1925.5776054261589
 30
0.0
 11
1633.38806
 21
1925.5776054261589
 31
0.0
  0
ARC
  5
7AA8
  8
1
  6
CONTINUOUS
 10
1693.38806
 20
1925.5776054261589
 30
0.0
 40
101.0
 50
322.88
 51
217.12
  0
CIRCLE
  5
7AA9
  8
1
  6
CONTINUOUS
 10
1693.38806
 20
1925.5776054261589
 30
0.0
 40
60.0
  0
LINE
  5
7AAA
  8
1
  6
CONTINUOUS
 10
1176.0180600000001
 20
2455.5776054261592
 30
0.0
 11
1856.0180600000001
 21
2050.5776054261592
 31
0.0
  0
LINE
  5
7AAB
  8
1
  6
CONTINUOUS
 10
1592.38806
 20
3880.6565540000001
 30
0.0
 11
1794.38806
 21
3880.6565540000001
 31
0.0
  0
LINE
  5
7AAC
  8
1
  6
CONTINUOUS
 10
1592.38806
 20
3637.9765539999999
 30
0.0
 11
1794.38806
 21
3637.9765539999999
 31
0.0
  0
LINE
  5
7AAD
  8
1
  6
CONTINUOUS
 10
901.51805999999999
 20
3995.2565540000001
 30
0.0
 11
1901.5180600000001
 21
3995.2565540000001
 31
0.0
  0
LINE
  5
7AAE
  8
1
  6
CONTINUOUS
 10
1856.0180600000001
 20
3471.2565539999991
 30
0.0
 11
986.01805999999988
 21
3471.2565539999991
 31
0.0
  0
LINE
  5
7AAF
  8
1
  6
CONTINUOUS
 10
1856.0180600000001
 20
3571.2565540000001
 30
0.0
 11
986.01805999999988
 21
3571.2565540000001
 31
0.0
  0
LINE
  5
7AB0
  8
1
  6
CONTINUOUS
 10
1753.38806
 20
3496.2565540000001
 30
0.0
 11
1633.38806
 21
3496.2565540000001
 31
0.0
  0
LINE
  5
7AB1
  8
1
  6
CONTINUOUS
 10
1753.38806
 20
3546.2565540000001
 30
0.0
 11
1633.38806
 21
3546.2565540000001
 31
0.0
  0
LINE
  5
7AB2
  8
1
  6
CONTINUOUS
 10
1901.5180600000001
 20
1800.5776054261589
 30
0.0
 11
861.51806000000033
 21
1800.5776054261589
 31
0.0
  0
CIRCLE
  5
7AB3
  8
1
  6
CONTINUOUS
 10
1161.5180600000001
 20
2140.5776054261592
 30
0.0
 40
240.0
  0
LINE
  5
7AB4
  8
1
  6
CONTINUOUS
 10
986.01806000000033
 20
2340.5776054261601
 30
0.0
 11
1176.0180600000001
 21
2455.5776054261592
 31
0.0
  0
LINE
  5
7AB5
  8
1
  6
CONTINUOUS
 10
1461.518059999999
 20
2410.5776054261592
 30
0.0
 11
861.51806000000033
 21
2410.5776054261592
 31
0.0
  0
ARC
  5
7AB6
  8
1
  6
CONTINUOUS
 10
1144.5180600000001
 20
2123.5776054261592
 30
0.0
 40
271.43999999999988
 50
88.939999999999998
 51
172.69
  0
ARC
  5
7AB7
  8
1
  6
CONTINUOUS
 10
1183.518059999999
 20
2118.5776054261592
 30
0.0
 40
310.75999999999999
 50
172.69
 51
264.17000000000002
  0
CIRCLE
  5
7AB8
  8
1
  6
CONTINUOUS
 10
1161.5180600000001
 20
2140.5776054261592
 30
0.0
 40
215.0
  0
LINE
  5
7AB9
  8
1
  6
CONTINUOUS
 10
986.01806000000033
 20
1800.5776054261589
 30
0.0
 11
986.01806000000033
 21
2340.5776054261601
 31
0.0
  0
LINE
  5
7ABA
  8
1
  6
CONTINUOUS
 10
861.51806000000033
 20
2410.5776054261592
 30
0.0
 11
861.51806000000033
 21
1800.5776054261589
 31
0.0
  0
LINE
  5
7ABB
  8
1
  6
CONTINUOUS
 10
901.51806000000045
 20
1800.5776054261589
 30
0.0
 11
901.51806000000045
 21
1720.5776054261589
 31
0.0
  0
CIRCLE
  5
7ABC
  8
1
  6
CONTINUOUS
 10
1161.5180600000001
 20
2140.5776054261592
 30
0.0
 40
100.0
  0
LINE
  5
7ABD
  8
1
  6
CONTINUOUS
 10
1461.518059999999
 20
2410.5776054261592
 30
0.0
 11
1461.518059999999
 21
1800.5776054261589
 31
0.0
  0
LINE
  5
7ABE
  8
1
  6
CONTINUOUS
 10
1549.5180600000001
 20
2440.5776054261601
 30
0.0
 11
1547.518059999999
 21
2140.5776054261592
 31
0.0
  0
LINE
  5
7ABF
  8
2
  6
CENTER
 10
1161.518059999999
 20
4048.748591248243
 30
0.0
 11
1161.518059999999
 21
3368.8056580000002
 31
0.0
  0
ARC
  5
7AC0
  8
1
  6
CONTINUOUS
 10
1188.518059999999
 20
2167.5776054261592
 30
0.0
 40
360.00999999999988
 50
264.17000000000002
 51
355.69999999999987
  0
LINE
  5
7AC1
  8
2
  6
CENTER
 10
3338.8296761026172
 20
2140.5776054261592
 30
0.0
 11
2759.8895935131982
 21
2140.5776054261592
 31
0.0
  0
LINE
  5
7AC2
  8
1
  6
CONTINUOUS
 10
1593.38806
 20
1800.5776054261589
 30
0.0
 11
1593.38806
 21
1837.5776054261589
 31
0.0
  0
LINE
  5
7AC3
  8
1
  6
CONTINUOUS
 10
1593.38806
 20
1837.5776054261589
 30
0.0
 11
1612.84806
 21
1864.6176054261589
 31
0.0
  0
LINE
  5
7AC4
  8
1
  6
CONTINUOUS
 10
1149.5180600000001
 20
2420.5776054261601
 30
0.0
 11
1549.38806
 21
2420.5776054261601
 31
0.0
  0
LINE
  5
7AC5
  8
1
  6
CONTINUOUS
 10
1122.5180600000001
 20
2440.5776054261601
 30
0.0
 11
1576.518059999999
 21
2440.5776054261601
 31
0.0
  0
LINE
  5
7AC6
  8
1
  6
CONTINUOUS
 10
1149.5180600000001
 20
2394.967605426159
 30
0.0
 11
1149.5180600000001
 21
2440.5776054261601
 31
0.0
  0
LINE
  5
7AC7
  8
1
  6
CONTINUOUS
 10
1550.58806
 20
3651.2565540000001
 30
0.0
 11
861.51805999999999
 21
3651.2565540000001
 31
0.0
  0
LINE
  5
7AC8
  8
1
  6
CONTINUOUS
 10
1550.58806
 20
3951.2565540000001
 30
0.0
 11
861.51805999999999
 21
3951.2565540000001
 31
0.0
  0
LINE
  5
7AC9
  8
1
  6
CONTINUOUS
 10
901.51805999999999
 20
3607.2565540000001
 30
0.0
 11
1147.5180600000001
 21
3607.2565540000001
 31
0.0
  0
LINE
  5
7ACA
  8
1
  6
CONTINUOUS
 10
861.51805999999999
 20
3651.2565540000001
 30
0.0
 11
861.51805999999999
 21
3951.2565540000001
 31
0.0
  0
LINE
  5
7ACB
  8
1
  6
CONTINUOUS
 10
901.51805999999999
 20
3651.2565540000001
 30
0.0
 11
901.51805999999999
 21
3607.2565540000001
 31
0.0
  0
LINE
  5
7ACC
  8
1
  6
CONTINUOUS
 10
986.01805999999988
 20
3471.2565539999991
 30
0.0
 11
986.01805999999988
 21
3571.2565540000001
 31
0.0
  0
LINE
  5
7ACD
  8
1
  6
CONTINUOUS
 10
901.51805999999999
 20
3995.2565540000001
 30
0.0
 11
901.51805999999999
 21
3951.2565540000001
 31
0.0
  0
LINE
  5
7ACE
  8
1
  6
CONTINUOUS
 10
1150.58806
 20
3651.2565540000001
 30
0.0
 11
1550.58806
 21
3951.2565540000001
 31
0.0
  0
LINE
  5
7ACF
  8
1
  6
CONTINUOUS
 10
1550.58806
 20
3651.2565540000001
 30
0.0
 11
1150.58806
 21
3951.2565540000001
 31
0.0
  0
LINE
  5
7AD0
  8
1
  6
CONTINUOUS
 10
1150.58806
 20
3651.2565540000001
 30
0.0
 11
1150.58806
 21
3951.2565540000001
 31
0.0
  0
LINE
  5
7AD1
  8
1
  6
CONTINUOUS
 10
1263.278059999999
 20
3496.2565540000001
 30
0.0
 11
1059.758059999999
 21
3496.2565540000001
 31
0.0
  0
LINE
  5
7AD2
  8
1
  6
CONTINUOUS
 10
1263.278059999999
 20
3546.2565540000001
 30
0.0
 11
1059.758059999999
 21
3546.2565540000001
 31
0.0
  0
LINE
  5
7AD3
  8
1
  6
CONTINUOUS
 10
1059.758059999999
 20
3496.2565540000001
 30
0.0
 11
1059.758059999999
 21
3546.2565540000001
 31
0.0
  0
LINE
  5
7AD4
  8
1
  6
CONTINUOUS
 10
1173.7480599999999
 20
3546.2565540000001
 30
0.0
 11
1173.7480599999999
 21
3651.2565540000001
 31
0.0
  0
LINE
  5
7AD5
  8
1
  6
CONTINUOUS
 10
1145.748059999999
 20
3546.2565540000001
 30
0.0
 11
1145.748059999999
 21
3651.2565540000001
 31
0.0
  0
LINE
  5
7AD6
  8
1
  6
CONTINUOUS
 10
1263.278059999999
 20
3496.2565540000001
 30
0.0
 11
1263.278059999999
 21
3546.2565540000001
 31
0.0
  0
LINE
  5
7AD7
  8
1
  6
CONTINUOUS
 10
1550.58806
 20
3651.2565540000001
 30
0.0
 11
1550.58806
 21
3951.2565540000001
 31
0.0
  0
LINE
  5
7AD8
  8
1
  6
CONTINUOUS
 10
1592.38806
 20
3637.9765539999999
 30
0.0
 11
1592.38806
 21
3880.6565540000001
 31
0.0
  0
LINE
  5
7AD9
  8
1
  6
CONTINUOUS
 10
1633.38806
 20
3496.2565540000001
 30
0.0
 11
1633.38806
 21
3546.2565540000001
 31
0.0
  0
LINE
  5
7ADA
  8
1
  6
CONTINUOUS
 10
3288.880294
 20
2420.5776054261601
 30
0.0
 11
2988.880294
 21
2420.5776054261601
 31
0.0
  0
LINE
  5
7ADB
  8
1
  6
CONTINUOUS
 10
3288.880294
 20
1800.5776054261589
 30
0.0
 11
2988.880294
 21
1800.5776054261589
 31
0.0
  0
LINE
  5
7ADC
  8
1
  6
CONTINUOUS
 10
3315.880294
 20
2440.5776054261601
 30
0.0
 11
2961.880294
 21
2440.5776054261601
 31
0.0
  0
LINE
  5
7ADD
  8
1
  6
CONTINUOUS
 10
3332.880294
 20
1800.5776054261589
 30
0.0
 11
2808.880294
 21
1800.5776054261589
 31
0.0
  0
LINE
  5
7ADE
  8
1
  6
CONTINUOUS
 10
3332.880294
 20
1720.5776054261589
 30
0.0
 11
2944.880294
 21
1720.5776054261589
 31
0.0
  0
LINE
  5
7AE7
  8
1
  6
CONTINUOUS
 10
1901.5180600000001
 20
1800.5776054261589
 30
0.0
 11
1901.5180600000001
 21
1720.5776054261589
 31
0.0
  0
LINE
  5
7AE8
  8
2
  6
CENTER
 10
1693.38806
 20
1865.5776054261589
 30
0.0
 11
1693.38806
 21
1985.5776054261589
 31
0.0
  0
LINE
  5
7AE9
  8
1
  6
CONTINUOUS
 10
1793.38806
 20
1837.5776054261589
 30
0.0
 11
1773.91806
 21
1864.6176054261589
 31
0.0
  0
LINE
  5
7AEA
  8
1
  6
CONTINUOUS
 10
1793.38806
 20
1800.5776054261589
 30
0.0
 11
1793.38806
 21
1837.5776054261589
 31
0.0
  0
LINE
  5
7AEB
  8
1
  6
CONTINUOUS
 10
1856.0180600000001
 20
1800.5776054261589
 30
0.0
 11
1856.0180600000001
 21
2050.5776054261592
 31
0.0
  0
LINE
  5
7B03
  8
1
  6
CONTINUOUS
 10
2988.880294
 20
1800.5776054261589
 30
0.0
 11
2988.880294
 21
2440.5776054261601
 31
0.0
  0
LINE
  5
7B04
  8
1
  6
CONTINUOUS
 10
2833.880294
 20
2038.8076054261589
 30
0.0
 11
2833.880294
 21
2242.3376054261589
 31
0.0
  0
LINE
  5
7B05
  8
1
  6
CONTINUOUS
 10
2883.880294
 20
2038.8076054261589
 30
0.0
 11
2883.880294
 21
2242.3376054261589
 31
0.0
  0
LINE
  5
7B06
  8
1
  6
CONTINUOUS
 10
2908.880294
 20
1800.5776054261589
 30
0.0
 11
2908.880294
 21
2455.5776054261592
 31
0.0
  0
LINE
  5
7B07
  8
1
  6
CONTINUOUS
 10
2808.880294
 20
1800.5776054261589
 30
0.0
 11
2808.880294
 21
2455.5776054261592
 31
0.0
  0
LINE
  5
7B0A
  8
1
  6
CONTINUOUS
 10
2944.880294
 20
1800.5776054261589
 30
0.0
 11
2944.880294
 21
1720.5776054261589
 31
0.0
  0
LINE
  5
7B0B
  8
1
  6
CONTINUOUS
 10
2883.880294
 20
2128.3376054261589
 30
0.0
 11
2988.880294
 21
2128.3376054261589
 31
0.0
  0
LINE
  5
7B0C
  8
1
  6
CONTINUOUS
 10
2883.880294
 20
2156.3376054261589
 30
0.0
 11
2988.880294
 21
2156.3376054261589
 31
0.0
  0
LINE
  5
7B0D
  8
1
  6
CONTINUOUS
 10
2883.880294
 20
1911.5776054261589
 30
0.0
 11
2988.880294
 21
1911.5776054261589
 31
0.0
  0
LINE
  5
7B0E
  8
1
  6
CONTINUOUS
 10
2883.880294
 20
1939.5776054261589
 30
0.0
 11
2988.880294
 21
1939.5776054261589
 31
0.0
  0
LINE
  5
7B0F
  8
1
  6
CONTINUOUS
 10
2833.880294
 20
2038.8076054261589
 30
0.0
 11
2883.880294
 21
2038.8076054261589
 31
0.0
  0
LINE
  5
7B10
  8
1
  6
CONTINUOUS
 10
2833.880294
 20
1865.5776054261589
 30
0.0
 11
2883.880294
 21
1865.5776054261589
 31
0.0
  0
LINE
  5
7B11
  8
1
  6
CONTINUOUS
 10
2833.880294
 20
1985.5776054261589
 30
0.0
 11
2883.880294
 21
1985.5776054261589
 31
0.0
  0
LINE
  5
7B12
  8
1
  6
CONTINUOUS
 10
2833.880294
 20
1865.5776054261589
 30
0.0
 11
2833.880294
 21
1985.5776054261589
 31
0.0
  0
LINE
  5
7B13
  8
1
  6
CONTINUOUS
 10
2883.880294
 20
1865.5776054261589
 30
0.0
 11
2883.880294
 21
1985.5776054261589
 31
0.0
  0
LINE
  5
7B14
  8
1
  6
CONTINUOUS
 10
2808.880294
 20
2455.5776054261592
 30
0.0
 11
2908.880294
 21
2455.5776054261592
 31
0.0
  0
LINE
  5
7B15
  8
1
  6
CONTINUOUS
 10
2833.880294
 20
2242.3376054261589
 30
0.0
 11
2883.880294
 21
2242.3376054261589
 31
0.0
  0
LINE
  5
7B16
  8
1
  6
CONTINUOUS
 10
3288.880294
 20
1800.5776054261589
 30
0.0
 11
3288.880294
 21
2440.5776054261601
 31
0.0
  0
LINE
  5
7B17
  8
1
  6
CONTINUOUS
 10
3332.880294
 20
1800.5776054261589
 30
0.0
 11
3332.880294
 21
1720.5776054261589
 31
0.0
  0
LINE
  5
7B20
  8
1
  6
CONTINUOUS
 10
1794.38806
 20
3637.9765539999999
 30
0.0
 11
1794.38806
 21
3880.6565540000001
 31
0.0
  0
LINE
  5
7B21
  8
1
  6
CONTINUOUS
 10
1901.5180600000001
 20
3995.2565540000001
 30
0.0
 11
1901.5180600000001
 21
3607.2565540000001
 31
0.0
  0
LINE
  5
7B22
  8
1
  6
CONTINUOUS
 10
1707.38806
 20
3607.2565540000001
 30
0.0
 11
1901.5180600000001
 21
3607.2565540000001
 31
0.0
  0
LINE
  5
7B23
  8
1
  6
CONTINUOUS
 10
1707.38806
 20
3546.2565540000001
 30
0.0
 11
1707.38806
 21
3637.9765539999999
 31
0.0
  0
LINE
  5
7B24
  8
1
  6
CONTINUOUS
 10
1679.38806
 20
3546.2565540000001
 30
0.0
 11
1679.38806
 21
3637.9765539999999
 31
0.0
  0
LINE
  5
7B25
  8
1
  6
CONTINUOUS
 10
1753.38806
 20
3496.2565540000001
 30
0.0
 11
1753.38806
 21
3546.2565540000001
 31
0.0
  0
LINE
  5
7B26
  8
1
  6
CONTINUOUS
 10
1856.0180600000001
 20
3471.2565539999991
 30
0.0
 11
1856.0180600000001
 21
3571.2565540000001
 31
0.0
  0
LINE
  5
7B41
  8
2
  6
CENTER
 10
1161.5180600000001
 20
2585.5664478400181
 30
0.0
 11
1161.5180600000001
 21
1626.9287825644401
 31
0.0
  0
LINE
  5
7B42
  8
2
  6
CENTER
 10
1857.8249512929831
 20
2140.5776054261592
 30
0.0
 11
773.66607599999952
 21
2140.5776054261592
 31
0.0
  0
LINE
  5
7B43
  8
2
  6
CENTER
 10
3138.880294
 20
2483.4647127077019
 30
0.0
 11
3138.880294
 21
1661.7227091342049
 31
0.0
  0
LINE
  5
7B44
  8
2
  6
CENTER
 10
829.59972359379015
 20
3801.2565540000001
 30
0.0
 11
1951.3688510657771
 21
3801.2565540000001
 31
0.0
  0
LINE
  5
7B45
  8
4
  6
CONTINUOUS
 10
3700.0
 20
1000.0
 30
0.0
 11
3700.0
 21
600.0
 31
0.0
  0
LINE
  5
7B46
  8
4
  6
CONTINUOUS
 10
2300.0
 20
1000.0
 30
0.0
 11
2300.0
 21
600.0
 31
0.0
  0
LINE
  5
7B47
  8
4
  6
CONTINUOUS
 10
1300.0
 20
1000.0
 30
0.0
 11
1300.0
 21
600.0
 31
0.0
  0
LINE
  5
7B4A
  8
4
  6
CONTINUOUS
 10
1300.0
 20
600.0
 30
0.0
 11
3700.0
 21
600.0
 31
0.0
  0
LINE
  5
7B4B
  8
4
  6
CONTINUOUS
 10
1300.0
 20
800.0
 30
0.0
 11
3700.0
 21
800.0
 31
0.0
  0
TEXT
  5
7B4C
  8
4
  6
CONTINUOUS
 10
1377.004162
 20
863.086052
 30
0.0
 40
100.0
  1
機器名称
  0
TEXT
  5
7B4D
  8
4
  6
CONTINUOUS
 10
1372.516212
 20
643.29031299999986
 30
0.0
 40
100.0
  1
機器型番
  0
TEXT
  5
7B4E
  8
4
  6
CONTINUOUS
 10
2355.3574910000002
 20
845.14353800000015
 30
0.0
 40
100.0
  1
ミツヤ多翼送風機
  0
TEXT
  5
7B4F
  8
4
  6
CONTINUOUS
 10
2373.3089909999999
 20
634.31916899999999
 30
0.0
 40
100.0
  1
MF#2 1/2-4
  0
TEXT
  5
7B51
  8
4
  6
CONTINUOUS
 10
1809.5715309999989
 20
4766.8576830000002
 30
0.0
 40
108.0
  1
床置ベット
  0
TEXT
  5
7B52
  8
4
  6
CONTINUOUS
 10
632.33518700000002
 20
5067.7619520000007
 30
0.0
 40
144.0
  1
ベルト駆動式片吸込両持多翼ファン
  0
LINE
  5
7B53
  8
4
  6
CONTINUOUS
 10
500.0
 20
4938.8175090000004
 30
0.0
 11
3700.0
 21
4938.8175090000004
 31
0.0
  0
LINE
  5
7B54
  8
4
  6
CONTINUOUS
 10
500.0
 20
5338.8175090000004
 30
0.0
 11
3700.0
 21
5338.8175090000004
 31
0.0
  0
LINE
  5
7B55
  8
4
  6
CONTINUOUS
 10
1300.0
 20
1000.0
 30
0.0
 11
3700.0
 21
1000.0
 31
0.0
  0
LINE
  5
7B56
  8
4
  6
CONTINUOUS
 10
500.0
 20
5338.8175090000004
 30
0.0
 11
500.0
 21
4938.8175090000004
 31
0.0
  0
TEXT
  5
7B57
  8
4
  6
CONTINUOUS
 10
937.85386600000004
 20
4764.6389549999994
 30
0.0
 40
108.0
  1
左回転上向
  0
TEXT
  5
7B58
  8
4
  6
CONTINUOUS
 10
2937.9391179999998
 20
5412.122163
 30
0.0
 40
112.0
  1
No.
  0
TEXT
  5
7B59
  8
4
  6
CONTINUOUS
 10
2622.5921250000001
 20
4766.8576830000002
 30
0.0
 40
108.0
  1
縮尺：1/20
  0
LINE
  5
7B5A
  8
4
  6
CONTINUOUS
 10
3700.0
 20
5338.8175090000004
 30
0.0
 11
3700.0
 21
4938.8175090000004
 31
0.0
  0
LINE
  5
7B5C
  8
4
  6
CONTINUOUS
 10
2881.234845
 20
5362.5271659999999
 30
0.0
 11
2881.234845
 21
5573.3045229999998
 31
0.0
  0
LINE
  5
7B5D
  8
4
  6
CONTINUOUS
 10
2881.234845
 20
5573.3045229999998
 30
0.0
 11
3700.0
 21
5573.3045229999998
 31
0.0
  0
LINE
  5
7B5E
  8
4
  6
CONTINUOUS
 10
3700.0
 20
5573.3045229999998
 30
0.0
 11
3700.0
 21
5362.5271659999999
 31
0.0
  0
LINE
  5
7B5F
  8
4
  6
CONTINUOUS
 10
3700.0
 20
5362.5271659999999
 30
0.0
 11
2881.234845
 21
5362.5271659999999
 31
0.0
  0
DIMENSION
  5
7B77
  8
3
  6
CONTINUOUS
  2
*D1
 10
1549.5180600000001
 20
2530.9448084261589
 30
0.0
 11
1327.621245
 21
2530.9448084261589
 31
0.0
 70
   128
 13
1149.5180600000001
 23
2440.5776054261601
 33
0.0
 14
1549.5180600000001
 24
2440.5776054261601
 34
0.0
1001
ACAD
1000
DSTYLE
1002
{
1070
   287
1070
     3
1070
    40
1040
20.0
1070
   143
1040
0.039
1070
   172
1070
     1
1070
   271
1070
     0
1070
   279
1070
     0
1070
   288
1070
     1
1002
}
  0
DIMENSION
  5
7B84
  8
3
  6
CONTINUOUS
  2
*D2
 10
1161.5180600000001
 20
2657.6747734261589
 30
0.0
 11
1331.493714
 21
2657.6747734261589
 31
0.0
 70
   128
 13
1549.5180600000001
 23
2530.9448084261589
 33
0.0
 14
1161.5180600000001
 24
2585.5664478400181
 34
0.0
1001
ACAD
1000
DSTYLE
1002
{
1070
   287
1070
     3
1070
    40
1040
20.0
1070
   143
1040
0.039
1070
   172
1070
     1
1070
   271
1070
     0
1070
   279
1070
     0
1070
   288
1070
     1
1002
}
  0
DIMENSION
  5
7B90
  8
3
  6
CONTINUOUS
  2
*D3
 10
861.51806000000033
 20
2657.6747734261589
 30
0.0
 11
1011.51806
 21
2707.6747734261589
 31
0.0
 70
     0
 13
1161.5180600000001
 23
2585.5664478400181
 33
0.0
 14
861.51806000000033
 24
2410.5776054261592
 34
0.0
1001
ACAD
1000
DSTYLE
1002
{
1070
   287
1070
     3
1070
    40
1040
20.0
1070
   143
1040
0.039
1070
   172
1070
     1
1070
   271
1070
     0
1070
   279
1070
     0
1070
   288
1070
     1
1002
}
  0
DIMENSION
  5
7B9D
  8
3
  6
CONTINUOUS
  2
*D4
 10
2004.8691530000001
 20
2140.5776054261592
 30
0.0
 11
2004.8691530000001
 21
2303.4347482833018
 31
0.0
 70
   128
 13
1576.518059999999
 23
2440.5776054261601
 33
0.0
 14
1861.739796054356
 24
2140.5776054261592
 34
0.0
 50
90.0
1001
ACAD
1000
DSTYLE
1002
{
1070
   287
1070
     3
1070
    40
1040
20.0
1070
   143
1040
0.039
1070
   172
1070
     1
1070
   271
1070
     0
1070
   279
1070
     0
1070
   288
1070
     1
1002
}
  0
DIMENSION
  5
7BA9
  8
3
  6
CONTINUOUS
  2
*D5
 10
2004.8691530000001
 20
1720.5776054261589
 30
0.0
 11
1954.869152999999
 21
1930.5776054261601
 31
0.0
 70
     0
 13
1854.184739830456
 23
2140.5776054261592
 33
0.0
 14
1901.5180600000001
 24
1720.5776054261589
 34
0.0
 50
90.0
1001
ACAD
1000
DSTYLE
1002
{
1070
   287
1070
     3
1070
    40
1040
20.0
1070
   143
1040
0.039
1070
   172
1070
     1
1070
   271
1070
     0
1070
   279
1070
     0
1070
   288
1070
     1
1002
}
  0
DIMENSION
  5
7BB6
  8
3
  6
CONTINUOUS
  2
*D6
 10
2152.023502
 20
1720.5776054261589
 30
0.0
 11
2152.023502
 21
2059.709775426159
 31
0.0
 70
   128
 13
1586.518059999999
 23
2440.5776054261601
 33
0.0
 14
1901.5180600000001
 24
1720.5776054261589
 34
0.0
 50
90.0
1001
ACAD
1000
DSTYLE
1002
{
1070
   287
1070
     3
1070
    40
1040
20.0
1070
   143
1040
0.039
1070
   172
1070
     1
1070
   271
1070
     0
1070
   279
1070
     0
1070
   288
1070
     1
1002
}
  0
DIMENSION
  5
7BC5
  8
3
  6
CONTINUOUS
  2
*D7
 10
1161.5180600000001
 20
1581.449568746199
 30
0.0
 11
1031.5180600000001
 21
1629.8545223505789
 31
0.0
 12
0.0
 22
-295.90894857384041
 32
0.0
 70
   128
 13
901.51806000000045
 23
1720.5776054261589
 33
0.0
 14
1161.5180600000001
 24
1629.6172953226319
 34
0.0
1001
ACAD
1000
DSTYLE
1002
{
1070
   288
1070
     1
1070
   172
1070
     1
1070
    40
1040
20.0
1070
   271
1070
     0
1070
   143
1040
0.039
1002
}
  0
DIMENSION
  5
7BD1
  8
3
  6
CONTINUOUS
  2
*D8
 10
1901.5180600000001
 20
1581.449568746199
 30
0.0
 11
1531.5180600000001
 21
1631.449568746199
 31
0.0
 70
     0
 13
1161.5180600000001
 23
1629.6172953226319
 33
0.0
 14
1901.5180600000001
 24
1720.5776054261589
 34
0.0
1001
ACAD
1000
DSTYLE
1002
{
1070
   287
1070
     3
1070
    40
1040
20.0
1070
   143
1040
0.039
1070
   172
1070
     1
1070
   271
1070
     0
1070
   279
1070
     0
1070
   288
1070
     1
1002
}
  0
DIMENSION
  5
7BE0
  8
3
  6
CONTINUOUS
  2
*D9
 10
3138.880294
 20
1580.8865766149229
 30
0.0
 11
3041.880294
 21
1634.896021282018
 31
0.0
 12
0.0
 22
-295.90894857384041
 32
0.0
 70
   128
 13
2944.880294
 23
1720.5776054261589
 33
0.0
 14
3138.880294
 24
1661.7227091342049
 34
0.0
1001
ACAD
1000
DSTYLE
1002
{
1070
   288
1070
     1
1070
   172
1070
     1
1070
    40
1040
20.0
1070
   271
1070
     0
1070
   143
1040
0.039
1002
}
  0
DIMENSION
  5
7BEE
  8
3
  6
CONTINUOUS
  2
*D10
 10
3332.880294
 20
1580.581432614923
 30
0.0
 11
3235.880294
 21
1640.71235343274
 31
0.0
 12
0.0
 22
-295.90894857384041
 32
0.0
 70
   128
 13
3138.880294
 23
1661.7227091342049
 33
0.0
 14
3332.880294
 24
1720.5776054261589
 34
0.0
1001
ACAD
1000
DSTYLE
1002
{
1070
   288
1070
     1
1070
   172
1070
     1
1070
    40
1040
20.0
1070
   271
1070
     0
1070
   143
1040
0.039
1002
}
  0
DIMENSION
  5
7BFB
  8
3
  6
CONTINUOUS
  2
*D11
 10
3288.880294
 20
2473.7623684261598
 30
0.0
 11
3151.7374368571432
 21
2473.7623684261598
 31
0.0
 70
   128
 13
2988.880294
 23
2420.5776054261601
 33
0.0
 14
3288.880294
 24
2440.5776054261601
 34
0.0
1001
ACAD
1000
DSTYLE
1002
{
1070
   287
1070
     3
1070
    40
1040
20.0
1070
   143
1040
0.039
1070
   172
1070
     1
1070
   271
1070
     0
1070
   279
1070
     0
1070
   288
1070
     1
1002
}
  0
DIMENSION
  5
7C15
  8
3
  6
CONTINUOUS
  2
*D12
 10
2808.880294
 20
2620.7707492412501
 30
0.0
 11
2973.880294
 21
2720.7707492412501
 31
0.0
 70
     0
  1
MAX\P380
 13
3138.880294
 23
2567.6715157959752
 33
0.0
 14
2808.880294
 24
2455.5776054261592
 34
0.0
1001
ACAD
1000
DSTYLE
1002
{
1070
   287
1070
     3
1070
    40
1040
20.0
1070
   143
1040
0.039
1070
   172
1070
     1
1070
   271
1070
     0
1070
   279
1070
     0
1070
   288
1070
     1
1002
}
  0
DIMENSION
  5
7C22
  8
3
  6
CONTINUOUS
  2
*D13
 10
1901.5180600000001
 20
4133.9908340000002
 30
0.0
 11
1374.0910409999999
 21
4133.9908340000002
 31
0.0
 70
   128
 13
901.51805999999999
 23
3995.2565540000001
 33
0.0
 14
1901.5180600000001
 24
3995.2565540000001
 34
0.0
1001
ACAD
1000
DSTYLE
1002
{
1070
   287
1070
     3
1070
    40
1040
20.0
1070
   143
1040
0.039
1070
   172
1070
     1
1070
   271
1070
     0
1070
   279
1070
     0
1070
   288
1070
     1
1002
}
  0
DIMENSION
  5
7C2F
  8
3
  6
CONTINUOUS
  2
*D14
 10
2103.2981690000001
 20
3607.2565540000001
 30
0.0
 11
2103.2981690000001
 21
3801.3113990000002
 31
0.0
 70
   128
 13
1901.5180600000001
 23
3995.2565540000001
 33
0.0
 14
1901.5180600000001
 24
3607.2565540000001
 34
0.0
 50
90.0
1001
ACAD
1000
DSTYLE
1002
{
1070
   287
1070
     3
1070
    40
1040
20.0
1070
   143
1040
0.039
1070
   172
1070
     1
1070
   271
1070
     0
1070
   279
1070
     0
1070
   288
1070
     1
1002
}
  0
DIMENSION
  5
7C43
  8
3
  6
CONTINUOUS
  2
*D15
 10
3461.7256269999998
 20
1925.5776054261589
 30
0.0
 11
3461.7256269999998
 21
2098.7204625690169
 31
0.0
 70
   128
 13
3288.880294
 23
2355.5776054261592
 33
0.0
 14
3288.880294
 24
1925.5776054261589
 34
0.0
 50
90.0
1001
ACAD
1000
DSTYLE
1002
{
1070
   287
1070
     3
1070
     3
1000
φ<>
1070
    40
1040
20.0
1070
   143
1040
0.039
1070
   172
1070
     1
1070
   271
1070
     0
1070
   279
1070
     0
1070
   288
1070
     1
1002
}
  0
LINE
  5
7D04
  8
1
  6
CONTINUOUS
 10
3289.880294
 20
1925.5776054261589
 30
0.0
 11
3289.880294
 21
2355.5776054261592
 31
0.0
  0
DIMENSION
  5
7D14
  8
3
  6
CONTINUOUS
  2
*D16
 10
3289.880294
 20
2620.7707492412501
 30
0.0
 11
3206.4704259168029
 21
2678.6980639076951
 31
0.0
 12
0.0
 22
-295.90894857384041
 32
0.0
 70
   128
 13
3138.880294
 23
2567.6715157959752
 33
0.0
 14
3289.880294
 24
2355.5776054261592
 34
0.0
1001
ACAD
1000
DSTYLE
1002
{
1070
   288
1070
     1
1070
   172
1070
     1
1070
    40
1040
20.0
1070
   271
1070
     0
1070
   143
1040
0.039
1002
}
  0
DIMENSION
  5
7EAE
  8
3
  2
*D17
 10
1901.5180600000001
 20
2770.7389708605078
 30
0.0
 11
1419.5556230337679
 21
2770.7389708605078
 31
0.0
 70
   128
 13
861.51806000000033
 23
2410.5776054261592
 33
0.0
 14
1901.5180600000001
 24
1800.5776054261589
 34
0.0
1001
ACAD
1000
DSTYLE
1002
{
1070
   287
1070
     3
1070
    40
1040
20.0
1070
   143
1040
0.039
1070
   172
1070
     1
1070
   271
1070
     0
1070
   279
1070
     0
1070
   288
1070
     1
1002
}
  0
ENDSEC
  0
EOF
