  0
SECTION
  2
HEADER
  9
$ACADVER
  1
AC1009
  9
$INSBASE
 10
0.0
 20
0.0
 30
0.0
  9
$EXTMIN
 10
500.0
 20
600.0
 30
0.0
  9
$EXTMAX
 10
3700.0
 20
5573.3045229999998
 30
0.0
  9
$LIMMIN
 10
0.0
 20
0.0
  9
$LIMMAX
 10
297.0
 20
210.0
  9
$ORTHOMODE
 70
     0
  9
$REGENMODE
 70
     1
  9
$FILLMODE
 70
     0
  9
$QTEXTMODE
 70
     0
  9
$MIRRTEXT
 70
     1
  9
$DRAGMODE
 70
     2
  9
$LTSCALE
 40
100.0
  9
$OSMODE
 70
    37
  9
$ATTMODE
 70
     1
  9
$TEXTSIZE
 40
180.0
  9
$TRACEWID
 40
0.05
  9
$TEXTSTYLE
  7
STANDARD
  9
$CLAYER
  8
1
  9
$CELTYPE
  6
BYLAYER
  9
$CECOLOR
 62
   256
  9
$DIMSCALE
 40
20.0
  9
$DIMASZ
 40
2.0
  9
$DIMEXO
 40
0.5
  9
$DIMDLI
 40
10.0
  9
$DIMRND
 40
0.0
  9
$DIMDLE
 40
0.0
  9
$DIMEXE
 40
1.0
  9
$DIMTP
 40
1.0
  9
$DIMTM
 40
1.0
  9
$DIMTXT
 40
3.0
  9
$DIMCEN
 40
0.0
  9
$DIMTSZ
 40
0.0
  9
$DIMTOL
 70
     0
  9
$DIMLIM
 70
     0
  9
$DIMTIH
 70
     0
  9
$DIMTOH
 70
     0
  9
$DIMSE1
 70
     0
  9
$DIMSE2
 70
     0
  9
$DIMTAD
 70
     1
  9
$DIMZIN
 70
     8
  9
$DIMBLK
  1

  9
$DIMASO
 70
     1
  9
$DIMSHO
 70
     1
  9
$DIMPOST
  1

  9
$DIMAPOST
  1

  9
$DIMALT
 70
     0
  9
$DIMALTD
 70
     2
  9
$DIMALTF
 40
0.039
  9
$DIMLFAC
 40
1.0
  9
$DIMTOFL
 70
     1
  9
$DIMTVP
 40
0.0
  9
$DIMTIX
 70
     0
  9
$DIMSOXD
 70
     0
  9
$DIMSAH
 70
     1
  9
$DIMBLK1
  1
OPEN
  9
$DIMBLK2
  1
OPEN
  9
$DIMSTYLE
  2
IGA
  9
$DIMCLRD
 70
     0
  9
$DIMCLRE
 70
     0
  9
$DIMCLRT
 70
     0
  9
$DIMTFAC
 40
10.0
  9
$DIMGAP
 40
1.0
  9
$LUNITS
 70
     2
  9
$LUPREC
 70
     3
  9
$SKETCHINC
 40
0.1
  9
$FILLETRAD
 40
50.0
  9
$AUNITS
 70
     0
  9
$AUPREC
 70
     0
  9
$MENU
  1
acad
  9
$ELEVATION
 40
0.0
  9
$PELEVATION
 40
0.0
  9
$THICKNESS
 40
0.0
  9
$LIMCHECK
 70
     0
  9
$BLIPMODE
 70
     0
  9
$CHAMFERA
 40
0.5
  9
$CHAMFERB
 40
0.5
  9
$SKPOLY
 70
     0
  9
$TDCREATE
 40
2450728.5789476852
  9
$TDUPDATE
 40
2454953.7656967938
  9
$TDINDWG
 40
0.0101391204
  9
$TDUSRTIMER
 40
0.0101391204
  9
$USRTIMER
 70
     1
  9
$ANGBASE
 50
0.0
  9
$ANGDIR
 70
     0
  9
$PDMODE
 70
     0
  9
$PDSIZE
 40
0.0
  9
$PLINEWID
 40
0.0
  9
$COORDS
 70
     1
  9
$SPLFRAME
 70
     0
  9
$SPLINETYPE
 70
     6
  9
$SPLINESEGS
 70
     8
  9
$ATTDIA
 70
     0
  9
$ATTREQ
 70
     1
  9
$HANDLING
 70
 10241
  9
$HANDSEED
  5
7FDF
  9
$SURFTAB1
 70
     6
  9
$SURFTAB2
 70
     6
  9
$SURFTYPE
 70
     6
  9
$SURFU
 70
     6
  9
$SURFV
 70
     6
  9
$UCSNAME
  2

  9
$UCSORG
 10
0.0
 20
0.0
 30
0.0
  9
$UCSXDIR
 10
1.0
 20
0.0
 30
0.0
  9
$UCSYDIR
 10
0.0
 20
1.0
 30
0.0
  9
$PUCSNAME
  2

  9
$PUCSORG
 10
0.0
 20
0.0
 30
0.0
  9
$PUCSXDIR
 10
1.0
 20
0.0
 30
0.0
  9
$PUCSYDIR
 10
0.0
 20
1.0
 30
0.0
  9
$USERI1
 70
     0
  9
$USERI2
 70
     0
  9
$USERI3
 70
     0
  9
$USERI4
 70
     0
  9
$USERI5
 70
     0
  9
$USERR1
 40
0.0
  9
$USERR2
 40
0.0
  9
$USERR3
 40
0.0
  9
$USERR4
 40
0.0
  9
$USERR5
 40
0.0
  9
$WORLDVIEW
 70
     1
  9
$SHADEDGE
 70
     3
  9
$SHADEDIF
 70
    70
  9
$TILEMODE
 70
     1
  9
$MAXACTVP
 70
    16
  9
$PLIMCHECK
 70
     0
  9
$PEXTMIN
 10
1.0000000000000000E+020
 20
1.0000000000000000E+020
 30
1.0000000000000000E+020
  9
$PEXTMAX
 10
-1.0000000000000000E+020
 20
-1.0000000000000000E+020
 30
-1.0000000000000000E+020
  9
$PLIMMIN
 10
0.0
 20
0.0
  9
$PLIMMAX
 10
12.0
 20
9.0
  9
$UNITMODE
 70
     0
  9
$VISRETAIN
 70
     0
  9
$PLINEGEN
 70
     0
  9
$PSLTSCALE
 70
     1
  0
ENDSEC
  0
SECTION
  2
TABLES
  0
TABLE
  2
VPORT
 70
     2
  0
VPORT
  2
*ACTIVE
 70
     0
 10
0.0
 20
0.0
 11
1.0
 21
1.0
 12
6292.1124769529506
 22
3086.6374998146398
 13
0.0
 23
0.0
 14
10.0
 24
10.0
 15
10.0
 25
10.0
 16
0.0
 26
0.0
 36
1.0
 17
0.0
 27
0.0
 37
0.0
 40
5011.4968576296578
 41
3.1666666666666661
 42
50.0
 43
0.0
 44
0.0
 50
0.0
 51
0.0
 71
     0
 72
   100
 73
     1
 74
     0
 75
     0
 76
     0
 77
     0
 78
     0
  0
ENDTAB
  0
TABLE
  2
LTYPE
 70
     2
  0
LTYPE
  2
CONTINUOUS
 70
     0
  3
Solid line
 72
    65
 73
     0
 40
0.0
  0
LTYPE
  2
CENTER
 70
     0
  3
____ _ ____ _ ____ _ ____ _ ____ _ ____ _ ____ 
 72
    65
 73
     4
 40
2.0
 49
1.25
 49
-0.25
 49
0.25
 49
-0.25
  0
ENDTAB
  0
TABLE
  2
LAYER
 70
     6
  0
LAYER
  2
0
 70
     0
 62
     7
  6
CONTINUOUS
  0
LAYER
  2
3
 70
     0
 62
     2
  6
CONTINUOUS
  0
LAYER
  2
2
 70
     0
 62
     3
  6
CENTER
  0
LAYER
  2
1
 70
     0
 62
     4
  6
CONTINUOUS
  0
LAYER
  2
4
 70
     0
 62
     7
  6
CONTINUOUS
  0
LAYER
  2
DEFPOINTS
 70
     0
 62
     7
  6
CONTINUOUS
  0
ENDTAB
  0
TABLE
  2
STYLE
 70
     1
  0
STYLE
  2
STANDARD
 70
     0
 40
0.0
 41
1.0
 50
0.0
 71
     0
 42
180.0
  3
simplex.shx
  4
extfont.shx
  0
ENDTAB
  0
TABLE
  2
VIEW
 70
     0
  0
ENDTAB
  0
TABLE
  2
UCS
 70
     0
  0
ENDTAB
  0
TABLE
  2
APPID
 70
     1
  0
APPID
  2
ACAD
 70
     0
  0
ENDTAB
  0
TABLE
  2
DIMSTYLE
 70
     1
  0
DIMSTYLE
  2
IGA
 70
     0
  3

  4

  5

  6
OPEN
  7
OPEN
 40
2.0
 41
2.0
 42
0.5
 43
10.0
 44
1.0
 45
0.0
 46
0.0
 47
1.0
 48
1.0
140
3.0
141
0.0
142
0.0
143
0.03937
144
1.0
145
0.0
146
10.0
147
1.0
 71
     0
 72
     0
 73
     0
 74
     0
 75
     0
 76
     0
 77
     1
 78
     8
170
     0
171
     2
172
     0
173
     1
174
     0
175
     0
176
     0
177
     0
178
     0
  0
ENDTAB
  0
ENDSEC
  0
SECTION
  2
BLOCKS
  0
BLOCK
  8
0
  2
$MODEL_SPACE
 70
     0
 10
0.0
 20
0.0
 30
0.0
  3
$MODEL_SPACE
  1

  0
ENDBLK
  5
1B
  8
0
  0
BLOCK
 67
     1
  8
0
  2
$PAPER_SPACE
 70
     0
 10
0.0
 20
0.0
 30
0.0
  3
$PAPER_SPACE
  1

  0
ENDBLK
  5
18
 67
     1
  8
0
  0
BLOCK
  8
0
  2
_OPEN
 70
     0
 10
0.0
 20
0.0
 30
0.0
  3
_OPEN
  1

  0
LINE
  5
7BB4
  8
0
  6
BYBLOCK
 62
     0
 10
-1.0
 20
0.166667
 30
0.0
 11
0.0
 21
0.0
 31
0.0
  0
LINE
  5
7BB5
  8
0
  6
BYBLOCK
 62
     0
 10
0.0
 20
0.0
 30
0.0
 11
-1.0
 21
-0.166667
 31
0.0
  0
LINE
  5
7BB6
  8
0
  6
BYBLOCK
 62
     0
 10
0.0
 20
0.0
 30
0.0
 11
-1.0
 21
0.0
 31
0.0
  0
ENDBLK
  5
7BB7
  8
0
  0
BLOCK
  8
0
  2
*D1
 70
     1
 10
0.0
 20
0.0
 30
0.0
  3
*D1
  1

  0
LINE
  5
7F48
  8
3
  6
CONTINUOUS
 62
     0
 10
1133.24413
 20
2462.810023
 30
0.0
 11
1133.24413
 21
3019.6611349999998
 31
0.0
  0
LINE
  5
7F49
  8
3
  6
CONTINUOUS
 62
     0
 10
1433.24413
 20
2960.1230399999999
 30
0.0
 11
1433.24413
 21
3019.6611349999998
 31
0.0
  0
LINE
  5
7F4A
  8
3
  6
CONTINUOUS
 62
     0
 10
1173.24413
 20
2999.6611349999998
 30
0.0
 11
1393.24413
 21
2999.6611349999998
 31
0.0
  0
INSERT
  5
7F4B
  8
3
  6
CONTINUOUS
 62
     0
  2
_OPEN
 10
1133.24413
 20
2999.6611349999998
 30
0.0
 41
40.0
 42
40.0
 43
40.0
 50
180.0
  0
INSERT
  5
7F4C
  8
3
  6
CONTINUOUS
 62
     0
  2
_OPEN
 10
1433.24413
 20
2999.6611349999998
 30
0.0
 41
40.0
 42
40.0
 43
40.0
  0
TEXT
  8
3
  40
60
  5
7FD0
  62
0
  72
0
  71
0
 10
1150.39
 20
2943.46
 30
0.000000
  1
300
  0
POINT
  5
7F4E
  8
DEFPOINTS
  6
CONTINUOUS
 62
     0
 10
1133.24413
 20
2452.810023
 30
0.0
  0
POINT
  5
7F4F
  8
DEFPOINTS
  6
CONTINUOUS
 62
     0
 10
1433.24413
 20
2950.1230399999999
 30
0.0
  0
POINT
  5
7F50
  8
DEFPOINTS
  6
CONTINUOUS
 62
     0
 10
1433.24413
 20
2999.6611349999998
 30
0.0
  0
ENDBLK
  5
7BC4
  8
0
  0
BLOCK
  8
0
  2
*D2
 70
     1
 10
0.0
 20
0.0
 30
0.0
  3
*D2
  1

  0
LINE
  5
7F51
  8
3
  6
CONTINUOUS
 62
     0
 10
1123.24413
 20
2425.810023
 30
0.0
 11
971.75232500000038
 21
2425.810023
 31
0.0
  0
LINE
  5
7F52
  8
3
  6
CONTINUOUS
 62
     0
 10
1123.24413
 20
2025.810023
 30
0.0
 11
971.75232500000038
 21
2025.810023
 31
0.0
  0
LINE
  5
7F53
  8
3
  6
CONTINUOUS
 62
     0
 10
991.7523250000005
 20
2385.810023
 30
0.0
 11
991.75232500000027
 21
2065.810023
 31
0.0
  0
INSERT
  5
7F54
  8
3
  6
CONTINUOUS
 62
     0
  2
_OPEN
 10
991.7523250000005
 20
2425.810023
 30
0.0
 41
40.0
 42
40.0
 43
40.0
 50
90.0
  0
INSERT
  5
7F55
  8
3
  6
CONTINUOUS
 62
     0
  2
_OPEN
 10
991.75232500000027
 20
2025.810023
 30
0.0
 41
40.0
 42
40.0
 43
40.0
 50
270.0
  0
TEXT
  8
3
  40
60
  5
7FD1
  62
0
  72
0
  71
0
 10
821.752
 20
2086.88
 30
0.000000
  1
400
  0
POINT
  5
7F57
  8
DEFPOINTS
  6
CONTINUOUS
 62
     0
 10
1133.24413
 20
2425.810023
 30
0.0
  0
POINT
  5
7F58
  8
DEFPOINTS
  6
CONTINUOUS
 62
     0
 10
1133.24413
 20
2025.810023
 30
0.0
  0
POINT
  5
7F59
  8
DEFPOINTS
  6
CONTINUOUS
 62
     0
 10
991.75232500000027
 20
2025.810023
 30
0.0
  0
ENDBLK
  5
7BD1
  8
0
  0
BLOCK
  8
0
  2
*D3
 70
     1
 10
0.0
 20
0.0
 30
0.0
  3
*D3
  1

  0
LINE
  5
7F5A
  8
3
  6
CONTINUOUS
 62
     0
 10
1063.2441299999989
 20
2025.810023
 30
0.0
 11
859.24883757569592
 21
2025.810023
 31
0.0
  0
LINE
  5
7F5B
  8
3
  6
CONTINUOUS
 62
     0
 10
932.94309800000008
 20
2413.8100229999991
 30
0.0
 11
859.24883757569614
 21
2413.8100229999991
 31
0.0
  0
LINE
  5
7F5C
  8
3
  6
CONTINUOUS
 62
     0
 10
879.2488375756958
 20
2065.810023
 30
0.0
 11
879.24883757569603
 21
2373.810023
 31
0.0
  0
INSERT
  5
7F5D
  8
3
  6
CONTINUOUS
 62
     0
  2
_OPEN
 10
879.2488375756958
 20
2025.810023
 30
0.0
 41
40.0
 42
40.0
 43
40.0
 50
270.0
  0
INSERT
  5
7F5E
  8
3
  6
CONTINUOUS
 62
     0
  2
_OPEN
 10
879.24883757569603
 20
2413.8100229999991
 30
0.0
 41
40.0
 42
40.0
 43
40.0
 50
90.0
  0
TEXT
  8
3
  40
60
  5
7FD2
  62
0
  72
0
  71
0
 10
709.249
 20
2086.88
 30
0.000000
  1
388
  0
POINT
  5
7F60
  8
DEFPOINTS
  6
CONTINUOUS
 62
     0
 10
1073.24413
 20
2025.810023
 30
0.0
  0
POINT
  5
7F61
  8
DEFPOINTS
  6
CONTINUOUS
 62
     0
 10
942.94309800000008
 20
2413.8100229999991
 30
0.0
  0
POINT
  5
7F62
  8
DEFPOINTS
  6
CONTINUOUS
 62
     0
 10
879.24883757569603
 20
2413.8100229999991
 30
0.0
  0
ENDBLK
  5
7D44
  8
0
  0
BLOCK
  8
0
  2
*D4
 70
     1
 10
0.0
 20
0.0
 30
0.0
  3
*D4
  1

  0
LINE
  5
7F63
  8
3
  6
CONTINUOUS
 62
     0
 10
922.94309800000008
 20
2413.8100229999991
 30
0.0
 11
752.90989301723812
 21
2413.8100229999991
 31
0.0
  0
LINE
  5
7F64
  8
3
  6
CONTINUOUS
 62
     0
 10
1163.24413
 20
1898.810023
 30
0.0
 11
752.90989301723801
 21
1898.810023
 31
0.0
  0
LINE
  5
7F65
  8
3
  6
CONTINUOUS
 62
     0
 10
772.90989301723812
 20
2373.810023
 30
0.0
 11
772.90989301723801
 21
1938.810023
 31
0.0
  0
INSERT
  5
7F66
  8
3
  6
CONTINUOUS
 62
     0
  2
_OPEN
 10
772.90989301723812
 20
2413.8100229999991
 30
0.0
 41
40.0
 42
40.0
 43
40.0
 50
90.0
  0
INSERT
  5
7F67
  8
3
  6
CONTINUOUS
 62
     0
  2
_OPEN
 10
772.90989301723801
 20
1898.810023
 30
0.0
 41
40.0
 42
40.0
 43
40.0
 50
270.0
  0
TEXT
  8
3
  40
60
  5
7FD3
  62
0
  72
0
  71
0
 10
602.910
 20
2043.58
 30
0.000000
  1
515
  0
POINT
  5
7F69
  8
DEFPOINTS
  6
CONTINUOUS
 62
     0
 10
932.94309800000008
 20
2413.8100229999991
 30
0.0
  0
POINT
  5
7F6A
  8
DEFPOINTS
  6
CONTINUOUS
 62
     0
 10
1173.24413
 20
1898.810023
 30
0.0
  0
POINT
  5
7F6B
  8
DEFPOINTS
  6
CONTINUOUS
 62
     0
 10
772.90989301723801
 20
1898.810023
 30
0.0
  0
ENDBLK
  5
7D2C
  8
0
  0
BLOCK
  8
0
  2
*D5
 70
     1
 10
0.0
 20
0.0
 30
0.0
  3
*D5
  1

  0
LINE
  5
7F6C
  8
3
  6
CONTINUOUS
 62
     0
 10
1163.24413
 20
1898.810023
 30
0.0
 11
754.39606801723789
 21
1898.810023
 31
0.0
  0
LINE
  5
7F6D
  8
3
  6
CONTINUOUS
 62
     0
 10
1063.2441299999989
 20
1836.8100229999991
 30
0.0
 11
754.39606801723789
 21
1836.8100229999991
 31
0.0
  0
LINE
  5
7F6E
  8
3
  6
CONTINUOUS
 62
     0
 10
774.39606801723801
 20
1938.810023
 30
0.0
 11
774.39606801723801
 21
1978.810023
 31
0.0
  0
LINE
  5
7F6F
  8
3
  6
CONTINUOUS
 62
     0
 10
774.39606801723801
 20
1796.810023
 30
0.0
 11
774.39606801723789
 21
1619.667165857142
 31
0.0
  0
LINE
  5
7F70
  8
3
  6
CONTINUOUS
 62
     0
 10
774.39606801723801
 20
1898.810023
 30
0.0
 11
774.39606801723801
 21
1836.8100229999991
 31
0.0
  0
INSERT
  5
7F71
  8
3
  6
CONTINUOUS
 62
     0
  2
_OPEN
 10
774.39606801723801
 20
1898.810023
 30
0.0
 41
40.0
 42
40.0
 43
40.0
 50
270.0
  0
INSERT
  5
7F72
  8
3
  6
CONTINUOUS
 62
     0
  2
_OPEN
 10
774.39606801723801
 20
1836.8100229999991
 30
0.0
 41
40.0
 42
40.0
 43
40.0
 50
90.0
  0
TEXT
  8
3
  40
60
  5
7FD4
  62
0
  72
0
  71
0
 10
604.396
 20
1582.04
 30
0.000000
  1
62
  0
POINT
  5
7F74
  8
DEFPOINTS
  6
CONTINUOUS
 62
     0
 10
1173.24413
 20
1898.810023
 30
0.0
  0
POINT
  5
7F75
  8
DEFPOINTS
  6
CONTINUOUS
 62
     0
 10
1073.24413
 20
1836.8100229999991
 30
0.0
  0
POINT
  5
7F76
  8
DEFPOINTS
  6
CONTINUOUS
 62
     0
 10
774.39606801723801
 20
1836.8100229999991
 30
0.0
  0
ENDBLK
  5
7D39
  8
0
  0
BLOCK
  8
0
  2
*D6
 70
     1
 10
0.0
 20
0.0
 30
0.0
  3
*D6
  1

  0
LINE
  5
7F77
  8
3
  6
CONTINUOUS
 62
     0
 10
1073.24413
 20
1826.810023
 30
0.0
 11
1073.24413
 21
1642.583699999999
 31
0.0
  0
LINE
  5
7F78
  8
3
  6
CONTINUOUS
 62
     0
 10
1433.24413
 20
1724.256095715469
 30
0.0
 11
1433.24413
 21
1642.583699999999
 31
0.0
  0
LINE
  5
7F79
  8
3
  6
CONTINUOUS
 62
     0
 10
1113.2441299999989
 20
1662.5836999999999
 30
0.0
 11
1393.24413
 21
1662.5836999999999
 31
0.0
  0
INSERT
  5
7F7A
  8
3
  6
CONTINUOUS
 62
     0
  2
_OPEN
 10
1073.24413
 20
1662.5836999999999
 30
0.0
 41
40.0
 42
40.0
 43
40.0
 50
180.0
  0
INSERT
  5
7F7B
  8
3
  6
CONTINUOUS
 62
     0
  2
_OPEN
 10
1433.24413
 20
1662.5836999999999
 30
0.0
 41
40.0
 42
40.0
 43
40.0
  0
TEXT
  8
3
  40
60
  5
7FD5
  62
0
  72
0
  71
0
 10
1136.72
 20
1606.38
 30
0.000000
  1
360
  0
POINT
  5
7F7D
  8
DEFPOINTS
  6
CONTINUOUS
 62
     0
 10
1073.24413
 20
1836.8100229999991
 30
0.0
  0
POINT
  5
7F7E
  8
DEFPOINTS
  6
CONTINUOUS
 62
     0
 10
1433.24413
 20
1734.256095715469
 30
0.0
  0
POINT
  5
7F7F
  8
DEFPOINTS
  6
CONTINUOUS
 62
     0
 10
1433.24413
 20
1662.5836999999999
 30
0.0
  0
ENDBLK
  5
7E21
  8
0
  0
BLOCK
  8
0
  2
*D7
 70
     1
 10
0.0
 20
0.0
 30
0.0
  3
*D7
  1

  0
LINE
  5
7F80
  8
3
  6
CONTINUOUS
 62
     0
 10
2273.24413
 20
1826.810023
 30
0.0
 11
2273.24413
 21
1642.583699999999
 31
0.0
  0
LINE
  5
7F81
  8
3
  6
CONTINUOUS
 62
     0
 10
1473.24413
 20
1662.5836999999999
 30
0.0
 11
2233.24413
 21
1662.5836999999999
 31
0.0
  0
INSERT
  5
7F82
  8
3
  6
CONTINUOUS
 62
     0
  2
_OPEN
 10
1433.24413
 20
1662.5836999999999
 30
0.0
 41
40.0
 42
40.0
 43
40.0
 50
180.0
  0
INSERT
  5
7F83
  8
3
  6
CONTINUOUS
 62
     0
  2
_OPEN
 10
2273.24413
 20
1662.5836999999999
 30
0.0
 41
40.0
 42
40.0
 43
40.0
  0
TEXT
  8
3
  40
60
  5
7FD6
  62
0
  72
0
  71
0
 10
1733.24
 20
1606.38
 30
0.000000
  1
840
  0
POINT
  5
7F85
  8
DEFPOINTS
  6
CONTINUOUS
 62
     0
 10
1433.24413
 20
1734.256095715469
 30
0.0
  0
POINT
  5
7F86
  8
DEFPOINTS
  6
CONTINUOUS
 62
     0
 10
2273.24413
 20
1836.8100229999991
 30
0.0
  0
POINT
  5
7F87
  8
DEFPOINTS
  6
CONTINUOUS
 62
     0
 10
2273.24413
 20
1662.5836999999999
 30
0.0
  0
ENDBLK
  5
7E16
  8
0
  0
BLOCK
  8
0
  2
*D8
 70
     1
 10
0.0
 20
0.0
 30
0.0
  3
*D8
  1

  0
LINE
  5
7F88
  8
3
  6
CONTINUOUS
 62
     0
 10
3366.3726900000001
 20
2723.810023
 30
0.0
 11
3366.3726900000001
 21
3008.8345939999999
 31
0.0
  0
LINE
  5
7F89
  8
3
  6
CONTINUOUS
 62
     0
 10
3066.3726899999988
 20
2723.810023
 30
0.0
 11
3066.3726899999988
 21
3008.8345939999999
 31
0.0
  0
LINE
  5
7F8A
  8
3
  6
CONTINUOUS
 62
     0
 10
3406.3726899999988
 20
2988.8345939999999
 30
0.0
 11
3446.3726900000001
 21
2988.8345939999999
 31
0.0
  0
LINE
  5
7F8B
  8
3
  6
CONTINUOUS
 62
     0
 10
3026.3726900000001
 20
2988.8345939999999
 30
0.0
 11
2986.3726899999988
 21
2988.8345939999999
 31
0.0
  0
LINE
  5
7F8C
  8
3
  6
CONTINUOUS
 62
     0
 10
3366.3726900000001
 20
2988.8345939999999
 30
0.0
 11
3066.3726899999988
 21
2988.8345939999999
 31
0.0
  0
INSERT
  5
7F8D
  8
3
  6
CONTINUOUS
 62
     0
  2
_OPEN
 10
3366.3726900000001
 20
2988.8345939999999
 30
0.0
 41
40.0
 42
40.0
 43
40.0
 50
180.0
  0
INSERT
  5
7F8E
  8
3
  6
CONTINUOUS
 62
     0
  2
_OPEN
 10
3066.3726899999988
 20
2988.8345939999999
 30
0.0
 41
40.0
 42
40.0
 43
40.0
  0
TEXT
  8
3
  40
60
  5
7FD7
  62
0
  72
0
  71
0
 10
3083.52
 20
2932.63
 30
0.000000
  1
300
  0
POINT
  5
7F90
  8
DEFPOINTS
  6
CONTINUOUS
 62
     0
 10
3366.3726900000001
 20
2713.810023
 30
0.0
  0
POINT
  5
7F91
  8
DEFPOINTS
  6
CONTINUOUS
 62
     0
 10
3066.3726899999988
 20
2713.810023
 30
0.0
  0
POINT
  5
7F92
  8
DEFPOINTS
  6
CONTINUOUS
 62
     0
 10
3066.3726899999988
 20
2988.8345939999999
 30
0.0
  0
ENDBLK
  5
7C21
  8
0
  0
BLOCK
  8
0
  2
*D9
 70
     1
 10
0.0
 20
0.0
 30
0.0
  3
*D9
  1

  0
LINE
  5
7F93
  8
3
  6
CONTINUOUS
 62
     0
 10
2876.3726900000001
 20
2896.810023
 30
0.0
 11
2697.88321
 21
2896.810023
 31
0.0
  0
LINE
  5
7F94
  8
3
  6
CONTINUOUS
 62
     0
 10
2876.3726900000001
 20
1836.8100229999991
 30
0.0
 11
2697.88321
 21
1836.8100229999991
 31
0.0
  0
LINE
  5
7F95
  8
3
  6
CONTINUOUS
 62
     0
 10
2717.88321
 20
2856.8100229999991
 30
0.0
 11
2717.88321
 21
1876.810023
 31
0.0
  0
INSERT
  5
7F96
  8
3
  6
CONTINUOUS
 62
     0
  2
_OPEN
 10
2717.88321
 20
2896.810023
 30
0.0
 41
40.0
 42
40.0
 43
40.0
 50
90.0
  0
INSERT
  5
7F97
  8
3
  6
CONTINUOUS
 62
     0
  2
_OPEN
 10
2717.88321
 20
1836.8100229999991
 30
0.0
 41
40.0
 42
40.0
 43
40.0
 50
270.0
  0
TEXT
  8
3
  40
60
  5
7FD8
  62
0
  72
0
  71
0
 10
2547.88
 20
2270.94
 30
0.000000
  1
1060
  0
POINT
  5
7F99
  8
DEFPOINTS
  6
CONTINUOUS
 62
     0
 10
2886.3726899999988
 20
2896.810023
 30
0.0
  0
POINT
  5
7F9A
  8
DEFPOINTS
  6
CONTINUOUS
 62
     0
 10
2886.3726899999988
 20
1836.8100229999991
 30
0.0
  0
POINT
  5
7F9B
  8
DEFPOINTS
  6
CONTINUOUS
 62
     0
 10
2717.88321
 20
1836.8100229999991
 30
0.0
  0
ENDBLK
  5
7CC3
  8
0
  0
BLOCK
  8
0
  2
*D10
 70
     1
 10
0.0
 20
0.0
 30
0.0
  3
*D10
  1

  0
LINE
  5
7F9C
  8
3
  6
CONTINUOUS
 62
     0
 10
2886.3726899999988
 20
1826.810023
 30
0.0
 11
2886.3726899999988
 21
1646.787187304544
 31
0.0
  0
LINE
  5
7F9D
  8
3
  6
CONTINUOUS
 62
     0
 10
3216.3726900000001
 20
1715.9150874165639
 30
0.0
 11
3216.3726900000001
 21
1646.787187304544
 31
0.0
  0
LINE
  5
7F9E
  8
3
  6
CONTINUOUS
 62
     0
 10
2926.3726899999988
 20
1666.787187304544
 30
0.0
 11
3176.3726899999988
 21
1666.787187304544
 31
0.0
  0
INSERT
  5
7F9F
  8
3
  6
CONTINUOUS
 62
     0
  2
_OPEN
 10
2886.3726899999988
 20
1666.787187304544
 30
0.0
 41
40.0
 42
40.0
 43
40.0
 50
180.0
  0
INSERT
  5
7FA0
  8
3
  6
CONTINUOUS
 62
     0
  2
_OPEN
 10
3216.3726900000001
 20
1666.787187304544
 30
0.0
 41
40.0
 42
40.0
 43
40.0
  0
TEXT
  8
3
  40
60
  5
7FD9
  62
0
  72
0
  71
0
 10
2959.23
 20
1610.59
 30
0.000000
  1
330
  0
POINT
  5
7FA2
  8
DEFPOINTS
  6
CONTINUOUS
 62
     0
 10
2886.3726899999988
 20
1836.8100229999991
 30
0.0
  0
POINT
  5
7FA3
  8
DEFPOINTS
  6
CONTINUOUS
 62
     0
 10
3216.3726900000001
 20
1725.9150874165639
 30
0.0
  0
POINT
  5
7FA4
  8
DEFPOINTS
  6
CONTINUOUS
 62
     0
 10
3216.3726900000001
 20
1666.787187304544
 30
0.0
  0
ENDBLK
  5
7E4D
  8
0
  0
BLOCK
  8
0
  2
*D11
 70
     1
 10
0.0
 20
0.0
 30
0.0
  3
*D11
  1

  0
LINE
  5
7E4F
  8
0
  6
BYBLOCK
 62
     0
 10
3216.3726900000001
 20
1715.9150874165639
 30
0.0
 11
3216.3726900000001
 21
1646.787187304544
 31
0.0
  0
LINE
  5
7E50
  8
0
  6
BYBLOCK
 62
     0
 10
3486.3726899999988
 20
1826.810023
 30
0.0
 11
3486.3726899999988
 21
1646.787187304544
 31
0.0
  0
LINE
  5
7E51
  8
0
  6
BYBLOCK
 62
     0
 10
3256.3726900000001
 20
1666.787187304544
 30
0.0
 11
3446.3726900000001
 21
1666.787187304544
 31
0.0
  0
TEXT
  5
7E52
  8
1
 62
     0
 10
3273.0403720170548
 20
1690.9034360898561
 30
0.0
 40
60.0
  1
270
  0
INSERT
  5
7E53
  8
0
  6
BYBLOCK
 62
     0
  2
_OPEN
 10
3216.3726900000001
 20
1666.787187304544
 30
0.0
 41
40.0
 42
40.0
 43
40.0
 50
180.0
  0
INSERT
  5
7E54
  8
0
  6
BYBLOCK
 62
     0
  2
_OPEN
 10
3486.3726899999988
 20
1666.787187304544
 30
0.0
 41
40.0
 42
40.0
 43
40.0
  0
POINT
  5
7E55
  8
DEFPOINTS
  6
BYBLOCK
 62
     0
 10
3216.3726900000001
 20
1725.9150874165639
 30
0.0
  0
POINT
  5
7E56
  8
DEFPOINTS
  6
BYBLOCK
 62
     0
 10
3486.3726899999988
 20
1836.8100229999991
 30
0.0
  0
POINT
  5
7E57
  8
DEFPOINTS
  6
BYBLOCK
 62
     0
 10
3486.3726899999988
 20
1666.787187304544
 30
0.0
  0
ENDBLK
  5
7E58
  8
0
  0
BLOCK
  8
0
  2
*D12
 70
     1
 10
0.0
 20
0.0
 30
0.0
  3
*D12
  1

  0
LINE
  5
7FA5
  8
3
  6
CONTINUOUS
 62
     0
 10
3376.3726899999988
 20
2628.810023
 30
0.0
 11
3672.4046389999999
 21
2628.810023
 31
0.0
  0
LINE
  5
7FA6
  8
3
  6
CONTINUOUS
 62
     0
 10
3376.3726899999988
 20
2198.810023
 30
0.0
 11
3672.4046389999999
 21
2198.810023
 31
0.0
  0
LINE
  5
7FA7
  8
3
  6
CONTINUOUS
 62
     0
 10
3652.4046389999999
 20
2588.810023
 30
0.0
 11
3652.4046389999999
 21
2238.810023
 31
0.0
  0
INSERT
  5
7FA8
  8
3
  6
CONTINUOUS
 62
     0
  2
_OPEN
 10
3652.4046389999999
 20
2628.810023
 30
0.0
 41
40.0
 42
40.0
 43
40.0
 50
90.0
  0
INSERT
  5
7FA9
  8
3
  6
CONTINUOUS
 62
     0
  2
_OPEN
 10
3652.4046389999999
 20
2198.810023
 30
0.0
 41
40.0
 42
40.0
 43
40.0
 50
270.0
  0
TEXT
  8
3
  40
60
  5
7FDA
  62
0
  72
0
  71
0
 10
3482.40
 20
2308.83
 30
0.000000
  1
φ430
  0
POINT
  5
7FAB
  8
DEFPOINTS
  6
CONTINUOUS
 62
     0
 10
3366.3726900000001
 20
2628.810023
 30
0.0
  0
POINT
  5
7FAC
  8
DEFPOINTS
  6
CONTINUOUS
 62
     0
 10
3366.3726900000001
 20
2198.810023
 30
0.0
  0
POINT
  5
7FAD
  8
DEFPOINTS
  6
CONTINUOUS
 62
     0
 10
3652.4046389999999
 20
2198.810023
 30
0.0
  0
ENDBLK
  5
7E0C
  8
0
  0
BLOCK
  8
0
  2
*D13
 70
     1
 10
0.0
 20
0.0
 30
0.0
  3
*D13
  1

  0
LINE
  5
7FAE
  8
3
  6
CONTINUOUS
 62
     0
 10
1073.24413
 20
4256.7785479999984
 30
0.0
 11
1073.24413
 21
4445.2020350000003
 31
0.0
  0
LINE
  5
7FAF
  8
3
  6
CONTINUOUS
 62
     0
 10
2273.24413
 20
4256.7785479999984
 30
0.0
 11
2273.24413
 21
4445.2020350000003
 31
0.0
  0
LINE
  5
7FB0
  8
3
  6
CONTINUOUS
 62
     0
 10
1113.2441299999989
 20
4425.2020350000003
 30
0.0
 11
2233.24413
 21
4425.2020350000003
 31
0.0
  0
INSERT
  5
7FB1
  8
3
  6
CONTINUOUS
 62
     0
  2
_OPEN
 10
1073.24413
 20
4425.2020350000003
 30
0.0
 41
40.0
 42
40.0
 43
40.0
 50
180.0
  0
INSERT
  5
7FB2
  8
3
  6
CONTINUOUS
 62
     0
  2
_OPEN
 10
2273.24413
 20
4425.2020350000003
 30
0.0
 41
40.0
 42
40.0
 43
40.0
  0
TEXT
  8
3
  40
60
  5
7FDB
  62
0
  72
0
  71
0
 10
1510.61
 20
4369.00
 30
0.000000
  1
1200
  0
POINT
  5
7FB4
  8
DEFPOINTS
  6
CONTINUOUS
 62
     0
 10
1073.24413
 20
4246.7785479999993
 30
0.0
  0
POINT
  5
7FB5
  8
DEFPOINTS
  6
CONTINUOUS
 62
     0
 10
2273.24413
 20
4246.7785479999993
 30
0.0
  0
POINT
  5
7FB6
  8
DEFPOINTS
  6
CONTINUOUS
 62
     0
 10
2273.24413
 20
4425.2020350000003
 30
0.0
  0
ENDBLK
  5
7CB8
  8
0
  0
BLOCK
  8
0
  2
*D14
 70
     1
 10
0.0
 20
0.0
 30
0.0
  3
*D14
  1

  0
LINE
  5
7FB7
  8
3
  6
CONTINUOUS
 62
     0
 10
1063.2441299999989
 20
4246.7785479999993
 30
0.0
 11
881.8606220000006
 21
4246.7785479999993
 31
0.0
  0
LINE
  5
7FB8
  8
3
  6
CONTINUOUS
 62
     0
 10
1063.2441299999989
 20
3646.7785479999989
 30
0.0
 11
881.8606220000006
 21
3646.7785479999998
 31
0.0
  0
LINE
  5
7FB9
  8
3
  6
CONTINUOUS
 62
     0
 10
901.86062200000072
 20
4206.7785479999993
 30
0.0
 11
901.86062200000049
 21
3686.7785479999998
 31
0.0
  0
INSERT
  5
7FBA
  8
3
  6
CONTINUOUS
 62
     0
  2
_OPEN
 10
901.86062200000072
 20
4246.7785479999993
 30
0.0
 41
40.0
 42
40.0
 43
40.0
 50
90.0
  0
INSERT
  5
7FBB
  8
3
  6
CONTINUOUS
 62
     0
  2
_OPEN
 10
901.86062200000049
 20
3646.7785479999998
 30
0.0
 41
40.0
 42
40.0
 43
40.0
 50
270.0
  0
TEXT
  8
3
  40
60
  5
7FDC
  62
0
  72
0
  71
0
 10
731.861
 20
3853.56
 30
0.000000
  1
600
  0
POINT
  5
7FBD
  8
DEFPOINTS
  6
CONTINUOUS
 62
     0
 10
1073.24413
 20
4246.7785479999993
 30
0.0
  0
POINT
  5
7FBE
  8
DEFPOINTS
  6
CONTINUOUS
 62
     0
 10
1073.24413
 20
3646.7785479999989
 30
0.0
  0
POINT
  5
7FBF
  8
DEFPOINTS
  6
CONTINUOUS
 62
     0
 10
901.86062200000049
 20
3646.7785479999998
 30
0.0
  0
ENDBLK
  5
7CAD
  8
0
  0
BLOCK
  8
0
  2
*D15
 70
     1
 10
0.0
 20
0.0
 30
0.0
  3
*D15
  1

  0
LINE
  5
7D9E
  8
0
  6
BYBLOCK
 62
     0
 10
3216.3726900000001
 20
3091.0609199999999
 30
0.0
 11
3216.3726900000001
 21
3112.4438540000001
 31
0.0
  0
LINE
  5
7D9F
  8
0
  6
BYBLOCK
 62
     0
 10
3367.3726899999988
 20
2638.810023
 30
0.0
 11
3367.3726899999988
 21
3112.4438540000001
 31
0.0
  0
LINE
  5
7DA0
  8
0
  6
BYBLOCK
 62
     0
 10
3256.3726900000001
 20
3092.4438540000001
 30
0.0
 11
3327.3726900000001
 21
3092.4438540000001
 31
0.0
  0
TEXT
  5
7DA1
  8
1
 62
     0
 10
3224.2486697924569
 20
3129.6331092042628
 30
0.0
 40
60.0
  1
151
  0
INSERT
  5
7DA2
  8
0
  6
BYBLOCK
 62
     0
  2
_OPEN
 10
3216.3726900000001
 20
3092.4438540000001
 30
0.0
 41
40.0
 42
40.0
 43
40.0
 50
180.0
  0
INSERT
  5
7DA3
  8
0
  6
BYBLOCK
 62
     0
  2
_OPEN
 10
3367.3726899999988
 20
3092.4438540000001
 30
0.0
 41
40.0
 42
40.0
 43
40.0
  0
POINT
  5
7DA4
  8
DEFPOINTS
  6
BYBLOCK
 62
     0
 10
3216.3726900000001
 20
3081.0609199999999
 30
0.0
  0
POINT
  5
7DA5
  8
DEFPOINTS
  6
BYBLOCK
 62
     0
 10
3367.3726899999988
 20
2628.810023
 30
0.0
  0
POINT
  5
7DA6
  8
DEFPOINTS
  6
BYBLOCK
 62
     0
 10
3367.3726899999988
 20
3092.4438540000001
 30
0.0
  0
ENDBLK
  5
7DA7
  8
0
  0
BLOCK
  8
0
  2
*D16
 70
     1
 10
0.0
 20
0.0
 30
0.0
  3
*D16
  1

  0
LINE
  5
7FC0
  8
3
 62
     0
 10
1153.24413
 20
2713.810023
 30
0.0
 11
752.90989301723755
 21
2713.810023
 31
0.0
  0
LINE
  5
7FC1
  8
3
 62
     0
 10
772.90989301723755
 20
2453.810023
 30
0.0
 11
772.90989301723755
 21
2673.810023
 31
0.0
  0
INSERT
  5
7FC2
  8
3
 62
     0
  2
_OPEN
 10
772.90989301723755
 20
2413.8100229999991
 30
0.0
 41
40.0
 42
40.0
 43
40.0
 50
270.0
  0
INSERT
  5
7FC3
  8
3
 62
     0
  2
_OPEN
 10
772.90989301723755
 20
2713.810023
 30
0.0
 41
40.0
 42
40.0
 43
40.0
 50
90.0
  0
TEXT
  8
3
  40
60
  5
7FDD
  62
0
  72
0
  71
0
 10
602.910
 20
2457.61
 30
0.000000
  1
300
  0
POINT
  5
7FC5
  8
DEFPOINTS
 62
     0
 10
932.94309800000008
 20
2413.8100229999991
 30
0.0
  0
POINT
  5
7FC6
  8
DEFPOINTS
 62
     0
 10
1163.24413
 20
2713.810023
 30
0.0
  0
POINT
  5
7FC7
  8
DEFPOINTS
 62
     0
 10
772.90989301723755
 20
2713.810023
 30
0.0
  0
ENDBLK
  5
7D4F
  8
0
  0
BLOCK
  8
0
  2
*D17
 70
     1
 10
0.0
 20
0.0
 30
0.0
  3
*D17
  1

  0
LINE
  5
7FC8
  8
3
 62
     0
 10
1765.24413
 20
2396.810023
 30
0.0
 11
1765.24413
 21
3019.6611349999998
 31
0.0
  0
LINE
  5
7FC9
  8
3
 62
     0
 10
1473.24413
 20
2999.6611349999998
 30
0.0
 11
1725.24413
 21
2999.6611349999998
 31
0.0
  0
INSERT
  5
7FCA
  8
3
 62
     0
  2
_OPEN
 10
1433.24413
 20
2999.6611349999998
 30
0.0
 41
40.0
 42
40.0
 43
40.0
 50
180.0
  0
INSERT
  5
7FCB
  8
3
 62
     0
  2
_OPEN
 10
1765.24413
 20
2999.6611349999998
 30
0.0
 41
40.0
 42
40.0
 43
40.0
  0
TEXT
  8
3
  40
60
  5
7FDE
  62
0
  72
0
  71
0
 10
1479.24
 20
2943.46
 30
0.000000
  1
332
  0
POINT
  5
7FCD
  8
DEFPOINTS
 62
     0
 10
1433.24413
 20
2950.1230399999999
 30
0.0
  0
POINT
  5
7FCE
  8
DEFPOINTS
 62
     0
 10
1765.24413
 20
2386.810023
 30
0.0
  0
POINT
  5
7FCF
  8
DEFPOINTS
 62
     0
 10
1765.24413
 20
2999.6611349999998
 30
0.0
  0
ENDBLK
  5
7D67
  8
0
  0
ENDSEC
  0
SECTION
  2
ENTITIES
  0
LINE
  5
7ACA
  8
1
  6
CONTINUOUS
 10
1073.24413
 20
1836.8100229999991
 30
0.0
 11
2273.24413
 21
1836.8100229999991
 31
0.0
  0
LINE
  5
7ACB
  8
1
  6
CONTINUOUS
 10
2273.24413
 20
4246.7785479999993
 30
0.0
 11
1073.24413
 21
4246.7785479999993
 31
0.0
  0
LINE
  5
7ACC
  8
1
  6
CONTINUOUS
 10
2273.24413
 20
3646.7785479999989
 30
0.0
 11
1073.24413
 21
3646.7785479999989
 31
0.0
  0
LINE
  5
7ACD
  8
1
  6
CONTINUOUS
 10
1073.24413
 20
2896.810023
 30
0.0
 11
2273.24413
 21
2896.810023
 31
0.0
  0
CIRCLE
  5
7ACE
  8
1
  6
CONTINUOUS
 10
1433.24413
 20
2413.8100229999991
 30
0.0
 40
240.0
  0
LINE
  5
7ACF
  8
1
  6
CONTINUOUS
 10
1163.24413
 20
2713.810023
 30
0.0
 11
1703.24413
 21
2713.810023
 31
0.0
  0
ARC
  5
7AD0
  8
1
  6
CONTINUOUS
 10
1455.24413
 20
2391.810023
 30
0.0
 40
310.75999999999999
 50
5.8300000000000001
 51
97.310000000000016
  0
ARC
  5
7AD1
  8
1
  6
CONTINUOUS
 10
1406.24413
 20
2386.810023
 30
0.0
 40
360.00999999999988
 50
274.30000000000001
 51
5.8300000000000001
  0
LINE
  5
7AD2
  8
1
  6
CONTINUOUS
 10
1163.24413
 20
1978.810023
 30
0.0
 11
2173.24413
 21
1978.810023
 31
0.0
  0
LINE
  5
7AD3
  8
1
  6
CONTINUOUS
 10
1447.74413
 20
2633.810023
 30
0.0
 11
2127.7441299999991
 21
2228.810023
 31
0.0
  0
LINE
  5
7AD4
  8
1
  6
CONTINUOUS
 10
1173.24413
 20
1898.810023
 30
0.0
 11
2173.24413
 21
1898.810023
 31
0.0
  0
LINE
  5
7AD5
  8
1
  6
CONTINUOUS
 10
1998.6241299999999
 20
2153.5800229999991
 30
0.0
 11
1489.1041299999999
 21
2496.7500230000001
 31
0.0
  0
LINE
  5
7AD6
  8
1
  6
CONTINUOUS
 10
1388.6041299999999
 20
2324.3200230000002
 30
0.0
 11
1938.33413
 21
2050.120022999999
 31
0.0
  0
LINE
  5
7AD7
  8
1
  6
CONTINUOUS
 10
1113.2441299999989
 20
2856.8100229999991
 30
0.0
 11
2233.24413
 21
2856.8100229999991
 31
0.0
  0
LINE
  5
7AD8
  8
1
  6
CONTINUOUS
 10
2233.24413
 20
1876.810023
 30
0.0
 11
1113.2441299999989
 21
1876.810023
 31
0.0
  0
LINE
  5
7AD9
  8
1
  6
CONTINUOUS
 10
1073.24413
 20
2896.810023
 30
0.0
 11
1073.24413
 21
1836.8100229999991
 31
0.0
  0
LINE
  5
7ADA
  8
1
  6
CONTINUOUS
 10
1153.24413
 20
2425.810023
 30
0.0
 11
1153.24413
 21
2025.940022999999
 31
0.0
  0
LINE
  5
7ADB
  8
1
  6
CONTINUOUS
 10
1163.24413
 20
1978.810023
 30
0.0
 11
1163.24413
 21
2713.810023
 31
0.0
  0
LINE
  5
7ADC
  8
1
  6
CONTINUOUS
 10
1133.24413
 20
2452.810023
 30
0.0
 11
1133.24413
 21
1998.810023
 31
0.0
  0
LINE
  5
7ADD
  8
1
  6
CONTINUOUS
 10
1257.74413
 20
1978.810023
 30
0.0
 11
1257.74413
 21
2518.810023
 31
0.0
  0
LINE
  5
7ADE
  8
1
  6
CONTINUOUS
 10
1113.2441299999989
 20
1876.810023
 30
0.0
 11
1113.2441299999989
 21
2856.8100229999991
 31
0.0
  0
LINE
  5
7ADF
  8
1
  6
CONTINUOUS
 10
1133.24413
 20
2025.810023
 30
0.0
 11
1433.24413
 21
2027.810023
 31
0.0
  0
LINE
  5
7AE0
  8
1
  6
CONTINUOUS
 10
1173.24413
 20
1978.810023
 30
0.0
 11
1173.24413
 21
1898.810023
 31
0.0
  0
ARC
  5
7AE1
  8
1
  6
CONTINUOUS
 10
1450.24413
 20
2430.810023
 30
0.0
 40
271.43999999999988
 50
97.310000000000016
 51
181.06
  0
LINE
  5
7AE2
  8
2
  6
CENTER
 10
942.94309800000008
 20
2413.8100229999991
 30
0.0
 11
2300.94982775475
 21
2413.8100229999991
 31
0.0
  0
CIRCLE
  5
7AE3
  8
1
  6
CONTINUOUS
 10
1433.24413
 20
2413.8100229999991
 30
0.0
 40
100.0
  0
LINE
  5
7AE4
  8
1
  6
CONTINUOUS
 10
1257.74413
 20
2518.810023
 30
0.0
 11
1447.74413
 21
2633.810023
 31
0.0
  0
CIRCLE
  5
7AE5
  8
1
  6
CONTINUOUS
 10
1433.24413
 20
2413.8100229999991
 30
0.0
 40
215.0
  0
LINE
  5
7AE6
  8
1
  6
CONTINUOUS
 10
1178.84413
 20
2425.810023
 30
0.0
 11
1133.24413
 21
2425.810023
 31
0.0
  0
LINE
  5
7AE7
  8
2
  6
CENTER
 10
1433.24413
 20
1734.4009011650719
 30
0.0
 11
1433.24413
 21
2950.1230399999999
 31
0.0
  0
LINE
  5
7AE8
  8
1
  6
CONTINUOUS
 10
2127.7441299999991
 20
1978.810023
 30
0.0
 11
2127.7441299999991
 21
2228.810023
 31
0.0
  0
ARC
  5
7AE9
  8
1
  6
CONTINUOUS
 10
1965.1141299999999
 20
2103.810023
 30
0.0
 40
101.0
 50
322.88
 51
217.12
  0
LINE
  5
7AEA
  8
1
  6
CONTINUOUS
 10
1865.1141299999999
 20
2015.8100229999991
 30
0.0
 11
1884.57413
 21
2042.860023
 31
0.0
  0
LINE
  5
7AEB
  8
1
  6
CONTINUOUS
 10
2065.114129999999
 20
2015.8100229999991
 30
0.0
 11
2045.6441299999999
 21
2042.860023
 31
0.0
  0
LINE
  5
7AEC
  8
1
  6
CONTINUOUS
 10
1703.24413
 20
1978.810023
 30
0.0
 11
1703.24413
 21
2713.810023
 31
0.0
  0
LINE
  5
7AED
  8
1
  6
CONTINUOUS
 10
2233.24413
 20
2856.8100229999991
 30
0.0
 11
2233.24413
 21
1876.810023
 31
0.0
  0
LINE
  5
7AEE
  8
1
  6
CONTINUOUS
 10
1865.1141299999999
 20
1978.810023
 30
0.0
 11
1865.1141299999999
 21
2015.8100229999991
 31
0.0
  0
LINE
  5
7AEF
  8
1
  6
CONTINUOUS
 10
2065.114129999999
 20
1978.810023
 30
0.0
 11
2065.114129999999
 21
2015.8100229999991
 31
0.0
  0
LINE
  5
7AF0
  8
1
  6
CONTINUOUS
 10
2173.24413
 20
1978.810023
 30
0.0
 11
2173.24413
 21
1898.810023
 31
0.0
  0
CIRCLE
  5
7AF1
  8
1
  6
CONTINUOUS
 10
1965.1141299999999
 20
2103.810023
 30
0.0
 40
60.0
  0
LINE
  5
7AF2
  8
2
  6
CENTER
 10
2025.114129999999
 20
2103.810023
 30
0.0
 11
1905.1141299999999
 21
2103.810023
 31
0.0
  0
LINE
  5
7AF3
  8
2
  6
CENTER
 10
1965.1141299999999
 20
2043.810023
 30
0.0
 11
1965.1141299999999
 21
2163.8100229999991
 31
0.0
  0
LINE
  5
7AF4
  8
1
  6
CONTINUOUS
 10
2127.7441299999991
 20
3746.7785479999989
 30
0.0
 11
1257.74413
 21
3746.7785479999989
 31
0.0
  0
LINE
  5
7AF5
  8
1
  6
CONTINUOUS
 10
1773.24413
 20
4126.7785479999993
 30
0.0
 11
1133.24413
 21
4126.7785479999993
 31
0.0
  0
LINE
  5
7AF6
  8
1
  6
CONTINUOUS
 10
1773.24413
 20
3826.7785479999998
 30
0.0
 11
1133.24413
 21
3826.7785479999998
 31
0.0
  0
LINE
  5
7AF7
  8
1
  6
CONTINUOUS
 10
1173.24413
 20
4170.7785479999993
 30
0.0
 11
2173.24413
 21
4170.7785479999993
 31
0.0
  0
LINE
  5
7AF8
  8
1
  6
CONTINUOUS
 10
1447.24413
 20
3782.7785479999989
 30
0.0
 11
1951.1141299999999
 21
3782.7785479999989
 31
0.0
  0
LINE
  5
7AF9
  8
1
  6
CONTINUOUS
 10
1113.2441299999989
 20
4206.7785479999993
 30
0.0
 11
2233.24413
 21
4206.7785479999993
 31
0.0
  0
LINE
  5
7AFA
  8
1
  6
CONTINUOUS
 10
2233.24413
 20
3686.7785479999998
 30
0.0
 11
1113.2441299999989
 21
3686.7785479999998
 31
0.0
  0
LINE
  5
7AFB
  8
1
  6
CONTINUOUS
 10
1073.24413
 20
4246.7785479999993
 30
0.0
 11
1073.24413
 21
3646.7785479999989
 31
0.0
  0
LINE
  5
7AFC
  8
1
  6
CONTINUOUS
 10
1133.24413
 20
3799.7785479999989
 30
0.0
 11
1133.24413
 21
4153.7785480000002
 31
0.0
  0
LINE
  5
7AFD
  8
1
  6
CONTINUOUS
 10
1173.24413
 20
4170.7785479999993
 30
0.0
 11
1173.24413
 21
4126.7785479999993
 31
0.0
  0
LINE
  5
7AFE
  8
1
  6
CONTINUOUS
 10
1113.2441299999989
 20
3686.7785479999998
 30
0.0
 11
1113.2441299999989
 21
4206.7785479999993
 31
0.0
  0
LINE
  5
7AFF
  8
1
  6
CONTINUOUS
 10
1536.77413
 20
3721.7785479999989
 30
0.0
 11
1333.24413
 21
3721.7785479999989
 31
0.0
  0
LINE
  5
7B00
  8
1
  6
CONTINUOUS
 10
1536.77413
 20
3671.7785479999989
 30
0.0
 11
1333.24413
 21
3671.7785479999989
 31
0.0
  0
LINE
  5
7B01
  8
1
  6
CONTINUOUS
 10
1173.24413
 20
3782.7785479999989
 30
0.0
 11
1419.24413
 21
3782.7785479999989
 31
0.0
  0
LINE
  5
7B02
  8
1
  6
CONTINUOUS
 10
1333.24413
 20
3671.7785479999989
 30
0.0
 11
1333.24413
 21
3721.7785479999989
 31
0.0
  0
LINE
  5
7B03
  8
1
  6
CONTINUOUS
 10
1257.74413
 20
3646.7785479999989
 30
0.0
 11
1257.74413
 21
3746.7785479999989
 31
0.0
  0
LINE
  5
7B04
  8
1
  6
CONTINUOUS
 10
1153.24413
 20
3826.7785479999998
 30
0.0
 11
1153.24413
 21
4126.7785479999993
 31
0.0
  0
LINE
  5
7B05
  8
1
  6
CONTINUOUS
 10
1173.24413
 20
3826.7785479999998
 30
0.0
 11
1173.24413
 21
3782.7785479999989
 31
0.0
  0
LINE
  5
7B06
  8
1
  6
CONTINUOUS
 10
1536.77413
 20
3671.7785479999989
 30
0.0
 11
1536.77413
 21
3721.7785479999989
 31
0.0
  0
LINE
  5
7B07
  8
1
  6
CONTINUOUS
 10
1419.24413
 20
3721.7785479999989
 30
0.0
 11
1419.24413
 21
3826.7785479999998
 31
0.0
  0
LINE
  5
7B08
  8
1
  6
CONTINUOUS
 10
1447.24413
 20
3721.7785479999989
 30
0.0
 11
1447.24413
 21
3826.7785479999998
 31
0.0
  0
LINE
  5
7B09
  8
1
  6
CONTINUOUS
 10
2173.24413
 20
4170.7785479999993
 30
0.0
 11
2173.24413
 21
3782.7785479999989
 31
0.0
  0
LINE
  5
7B0A
  8
1
  6
CONTINUOUS
 10
2233.24413
 20
4206.7785479999993
 30
0.0
 11
2233.24413
 21
3686.7785479999998
 31
0.0
  0
LINE
  5
7B0B
  8
1
  6
CONTINUOUS
 10
2025.114129999999
 20
3721.7785479999989
 30
0.0
 11
1905.1141299999999
 21
3721.7785479999989
 31
0.0
  0
LINE
  5
7B0C
  8
1
  6
CONTINUOUS
 10
2025.114129999999
 20
3671.7785479999989
 30
0.0
 11
1905.1141299999999
 21
3671.7785479999989
 31
0.0
  0
LINE
  5
7B0D
  8
1
  6
CONTINUOUS
 10
1864.1141299999999
 20
3814.3085479999991
 30
0.0
 11
2066.1141299999999
 21
3814.3085479999991
 31
0.0
  0
LINE
  5
7B0E
  8
1
  6
CONTINUOUS
 10
1864.1141299999999
 20
4056.9885479999989
 30
0.0
 11
2066.1141299999999
 21
4056.9885479999989
 31
0.0
  0
LINE
  5
7B0F
  8
1
  6
CONTINUOUS
 10
1905.1141299999999
 20
3671.7785479999989
 30
0.0
 11
1905.1141299999999
 21
3721.7785479999989
 31
0.0
  0
LINE
  5
7B10
  8
1
  6
CONTINUOUS
 10
1773.24413
 20
3826.7785479999998
 30
0.0
 11
1773.24413
 21
4126.7785479999993
 31
0.0
  0
LINE
  5
7B11
  8
1
  6
CONTINUOUS
 10
1951.1141299999999
 20
3721.7785479999989
 30
0.0
 11
1951.1141299999999
 21
3814.3085479999991
 31
0.0
  0
LINE
  5
7B12
  8
1
  6
CONTINUOUS
 10
1864.1141299999999
 20
3814.3085479999991
 30
0.0
 11
1864.1141299999999
 21
4056.9885479999989
 31
0.0
  0
LINE
  5
7B13
  8
1
  6
CONTINUOUS
 10
2025.114129999999
 20
3671.7785479999989
 30
0.0
 11
2025.114129999999
 21
3721.7785479999989
 31
0.0
  0
LINE
  5
7B14
  8
1
  6
CONTINUOUS
 10
2127.7441299999991
 20
3646.7785479999989
 30
0.0
 11
2127.7441299999991
 21
3746.7785479999989
 31
0.0
  0
LINE
  5
7B15
  8
1
  6
CONTINUOUS
 10
1979.1141299999999
 20
3782.7785479999989
 30
0.0
 11
2173.24413
 21
3782.7785479999989
 31
0.0
  0
LINE
  5
7B16
  8
1
  6
CONTINUOUS
 10
2066.1141299999999
 20
3814.3085479999991
 30
0.0
 11
2066.1141299999999
 21
4056.9885479999989
 31
0.0
  0
LINE
  5
7B17
  8
1
  6
CONTINUOUS
 10
1979.1141299999999
 20
3721.7785479999989
 30
0.0
 11
1979.1141299999999
 21
3814.3085479999991
 31
0.0
  0
LINE
  5
7B18
  8
1
  6
CONTINUOUS
 10
3486.3726899999988
 20
1836.8100229999991
 30
0.0
 11
2886.3726899999988
 21
1836.8100229999991
 31
0.0
  0
LINE
  5
7B19
  8
1
  6
CONTINUOUS
 10
3486.3726899999988
 20
2896.810023
 30
0.0
 11
2886.3726899999988
 21
2896.810023
 31
0.0
  0
LINE
  5
7B2B
  8
1
  6
CONTINUOUS
 10
2273.24413
 20
2896.810023
 30
0.0
 11
2273.24413
 21
1836.8100229999991
 31
0.0
  0
LINE
  5
7B48
  8
1
  6
CONTINUOUS
 10
3066.3726899999988
 20
2025.810023
 30
0.0
 11
3366.3726900000001
 21
2425.810023
 31
0.0
  0
LINE
  5
7B49
  8
1
  6
CONTINUOUS
 10
3366.3726900000001
 20
2025.810023
 30
0.0
 11
3066.3726899999988
 21
2425.810023
 31
0.0
  0
LINE
  5
7B4A
  8
1
  6
CONTINUOUS
 10
3066.3726899999988
 20
2713.810023
 30
0.0
 11
3066.3726899999988
 21
1978.810023
 31
0.0
  0
LINE
  5
7B4B
  8
1
  6
CONTINUOUS
 10
3366.3726900000001
 20
2713.810023
 30
0.0
 11
3366.3726900000001
 21
1978.810023
 31
0.0
  0
LINE
  5
7B4C
  8
1
  6
CONTINUOUS
 10
2986.3726899999988
 20
1978.810023
 30
0.0
 11
2986.3726899999988
 21
2633.810023
 31
0.0
  0
LINE
  5
7B4D
  8
1
  6
CONTINUOUS
 10
2886.3726899999988
 20
2896.810023
 30
0.0
 11
2886.3726899999988
 21
1836.8100229999991
 31
0.0
  0
LINE
  5
7B4E
  8
1
  6
CONTINUOUS
 10
2926.3726899999988
 20
1876.810023
 30
0.0
 11
2926.3726899999988
 21
2856.8100229999991
 31
0.0
  0
LINE
  5
7B4F
  8
1
  6
CONTINUOUS
 10
3446.3726900000001
 20
2856.8100229999991
 30
0.0
 11
3446.3726900000001
 21
1876.810023
 31
0.0
  0
LINE
  5
7B50
  8
1
  6
CONTINUOUS
 10
3066.3726899999988
 20
2025.810023
 30
0.0
 11
3366.3726900000001
 21
2025.810023
 31
0.0
  0
LINE
  5
7B51
  8
1
  6
CONTINUOUS
 10
3410.3726899999988
 20
1898.810023
 30
0.0
 11
3022.3726900000001
 21
1898.810023
 31
0.0
  0
LINE
  5
7B52
  8
1
  6
CONTINUOUS
 10
3410.3726899999988
 20
1978.810023
 30
0.0
 11
2886.3726899999988
 21
1978.810023
 31
0.0
  0
LINE
  5
7B53
  8
1
  6
CONTINUOUS
 10
3446.3726900000001
 20
1876.810023
 30
0.0
 11
2926.3726899999988
 21
1876.810023
 31
0.0
  0
LINE
  5
7B54
  8
1
  6
CONTINUOUS
 10
3022.3726900000001
 20
1978.810023
 30
0.0
 11
3022.3726900000001
 21
1898.810023
 31
0.0
  0
LINE
  5
7B55
  8
1
  6
CONTINUOUS
 10
3410.3726899999988
 20
1978.810023
 30
0.0
 11
3410.3726899999988
 21
1898.810023
 31
0.0
  0
LINE
  5
7B56
  8
1
  6
CONTINUOUS
 10
3066.3726899999988
 20
2425.810023
 30
0.0
 11
3366.3726900000001
 21
2425.810023
 31
0.0
  0
LINE
  5
7B57
  8
1
  6
CONTINUOUS
 10
3066.3726899999988
 20
2713.810023
 30
0.0
 11
3366.3726900000001
 21
2713.810023
 31
0.0
  0
LINE
  5
7B58
  8
1
  6
CONTINUOUS
 10
2926.3726899999988
 20
2856.8100229999991
 30
0.0
 11
3446.3726900000001
 21
2856.8100229999991
 31
0.0
  0
LINE
  5
7B59
  8
1
  6
CONTINUOUS
 10
2961.3726899999988
 20
2312.040023
 30
0.0
 11
2961.3726899999988
 21
2515.5700230000002
 31
0.0
  0
LINE
  5
7B5A
  8
1
  6
CONTINUOUS
 10
2911.3726899999988
 20
2312.040023
 30
0.0
 11
2911.3726899999988
 21
2515.5700230000002
 31
0.0
  0
LINE
  5
7B5B
  8
1
  6
CONTINUOUS
 10
2961.3726899999988
 20
2117.810023
 30
0.0
 11
3066.3726899999988
 21
2117.810023
 31
0.0
  0
LINE
  5
7B5C
  8
1
  6
CONTINUOUS
 10
2961.3726899999988
 20
2089.810023
 30
0.0
 11
3066.3726899999988
 21
2089.810023
 31
0.0
  0
LINE
  5
7B5D
  8
1
  6
CONTINUOUS
 10
2961.3726899999988
 20
2429.5700230000002
 30
0.0
 11
3066.3726899999988
 21
2429.5700230000002
 31
0.0
  0
LINE
  5
7B5E
  8
1
  6
CONTINUOUS
 10
2961.3726899999988
 20
2401.5700230000002
 30
0.0
 11
3066.3726899999988
 21
2401.5700230000002
 31
0.0
  0
LINE
  5
7B5F
  8
1
  6
CONTINUOUS
 10
2961.3726899999988
 20
2043.810023
 30
0.0
 11
2961.3726899999988
 21
2163.8100229999991
 31
0.0
  0
LINE
  5
7B60
  8
1
  6
CONTINUOUS
 10
2911.3726899999988
 20
2043.810023
 30
0.0
 11
2911.3726899999988
 21
2163.8100229999991
 31
0.0
  0
LINE
  5
7B61
  8
1
  6
CONTINUOUS
 10
2911.3726899999988
 20
2163.8100229999991
 30
0.0
 11
2961.3726899999988
 21
2163.8100229999991
 31
0.0
  0
LINE
  5
7B62
  8
1
  6
CONTINUOUS
 10
2911.3726899999988
 20
2043.810023
 30
0.0
 11
2961.3726899999988
 21
2043.810023
 31
0.0
  0
LINE
  5
7B63
  8
1
  6
CONTINUOUS
 10
2911.3726899999988
 20
2312.040023
 30
0.0
 11
2961.3726899999988
 21
2312.040023
 31
0.0
  0
LINE
  5
7B64
  8
1
  6
CONTINUOUS
 10
2886.3726899999988
 20
2633.810023
 30
0.0
 11
2986.3726899999988
 21
2633.810023
 31
0.0
  0
LINE
  5
7B65
  8
1
  6
CONTINUOUS
 10
2911.3726899999988
 20
2515.5700230000002
 30
0.0
 11
2961.3726899999988
 21
2515.5700230000002
 31
0.0
  0
LINE
  5
7B66
  8
1
  6
CONTINUOUS
 10
3486.3726899999988
 20
2896.810023
 30
0.0
 11
3486.3726899999988
 21
1836.8100229999991
 31
0.0
  0
LINE
  5
7B75
  8
1
  6
CONTINUOUS
 10
2273.24413
 20
4246.7785479999993
 30
0.0
 11
2273.24413
 21
3646.7785479999989
 31
0.0
  0
LINE
  5
7B8F
  8
2
  6
CENTER
 10
3216.3726900000001
 20
3081.0609199999999
 30
0.0
 11
3216.3726900000001
 21
3075.99604
 31
0.0
  0
LINE
  5
7B90
  8
2
  6
CENTER
 10
2393.1339979999998
 20
3976.7785479999998
 30
0.0
 11
1045.3968049999989
 21
3976.7785479999998
 31
0.0
  0
LINE
  5
7B91
  8
2
  6
CENTER
 10
1433.24413
 20
3507.0873979999992
 30
0.0
 11
1433.24413
 21
4313.1406011940426
 31
0.0
  0
LINE
  5
7B92
  8
2
  6
CENTER
 10
2841.7725853694719
 20
2413.8100229999991
 30
0.0
 11
3538.6133619999991
 21
2413.8100229999991
 31
0.0
  0
LINE
  5
7B93
  8
4
  6
CONTINUOUS
 10
3700.0
 20
1000.0
 30
0.0
 11
3700.0
 21
600.0
 31
0.0
  0
LINE
  5
7B94
  8
4
  6
CONTINUOUS
 10
2300.0
 20
1000.0
 30
0.0
 11
2300.0
 21
600.0
 31
0.0
  0
LINE
  5
7B95
  8
4
  6
CONTINUOUS
 10
1300.0
 20
1000.0
 30
0.0
 11
1300.0
 21
600.0
 31
0.0
  0
LINE
  5
7B98
  8
4
  6
CONTINUOUS
 10
1300.0
 20
600.0
 30
0.0
 11
3700.0
 21
600.0
 31
0.0
  0
LINE
  5
7B99
  8
4
  6
CONTINUOUS
 10
1300.0
 20
800.0
 30
0.0
 11
3700.0
 21
800.0
 31
0.0
  0
TEXT
  5
7B9A
  8
4
  6
CONTINUOUS
 10
1377.004162
 20
863.086052
 30
0.0
 40
100.0
  1
機器名称
  0
TEXT
  5
7B9B
  8
4
  6
CONTINUOUS
 10
1372.516212
 20
643.29031299999986
 30
0.0
 40
100.0
  1
機器型番
  0
TEXT
  5
7B9C
  8
4
  6
CONTINUOUS
 10
2355.3574910000002
 20
845.14353800000015
 30
0.0
 40
100.0
  1
ミツヤ多翼送風機
  0
TEXT
  5
7B9D
  8
4
  6
CONTINUOUS
 10
2373.3089909999999
 20
634.31916899999999
 30
0.0
 40
100.0
  1
MF#2 1/2-4
  0
TEXT
  5
7B9F
  8
4
  6
CONTINUOUS
 10
1468.8496620000001
 20
4766.8576830000002
 30
0.0
 40
108.0
  1
天井吊枠防振ベット
  0
TEXT
  5
7BA0
  8
4
  6
CONTINUOUS
 10
632.33518700000002
 20
5067.7619520000007
 30
0.0
 40
144.0
  1
ベルト駆動式片吸込両持多翼ファン
  0
LINE
  5
7BA1
  8
4
  6
CONTINUOUS
 10
500.0
 20
4938.8175090000004
 30
0.0
 11
3700.0
 21
4938.8175090000004
 31
0.0
  0
LINE
  5
7BA2
  8
4
  6
CONTINUOUS
 10
500.0
 20
5338.8175090000004
 30
0.0
 11
3700.0
 21
5338.8175090000004
 31
0.0
  0
LINE
  5
7BA3
  8
4
  6
CONTINUOUS
 10
1300.0
 20
1000.0
 30
0.0
 11
3700.0
 21
1000.0
 31
0.0
  0
LINE
  5
7BA4
  8
4
  6
CONTINUOUS
 10
500.0
 20
5338.8175090000004
 30
0.0
 11
500.0
 21
4938.8175090000004
 31
0.0
  0
TEXT
  5
7BA5
  8
4
  6
CONTINUOUS
 10
534.03535899999986
 20
4764.6389549999994
 30
0.0
 40
108.0
  1
右回転左横向
  0
TEXT
  5
7BA6
  8
4
  6
CONTINUOUS
 10
2937.9391179999998
 20
5412.122163
 30
0.0
 40
112.0
  1
No.
  0
TEXT
  5
7BA7
  8
4
  6
CONTINUOUS
 10
2774.0240530000001
 20
4766.8576830000002
 30
0.0
 40
108.0
  1
縮尺：1/20
  0
LINE
  5
7BA8
  8
4
  6
CONTINUOUS
 10
3700.0
 20
5338.8175090000004
 30
0.0
 11
3700.0
 21
4938.8175090000004
 31
0.0
  0
LINE
  5
7BAA
  8
4
  6
CONTINUOUS
 10
2881.234845
 20
5362.5271659999999
 30
0.0
 11
2881.234845
 21
5573.3045229999998
 31
0.0
  0
LINE
  5
7BAB
  8
4
  6
CONTINUOUS
 10
2881.234845
 20
5573.3045229999998
 30
0.0
 11
3700.0
 21
5573.3045229999998
 31
0.0
  0
LINE
  5
7BAC
  8
4
  6
CONTINUOUS
 10
3700.0
 20
5573.3045229999998
 30
0.0
 11
3700.0
 21
5362.5271659999999
 31
0.0
  0
LINE
  5
7BAD
  8
4
  6
CONTINUOUS
 10
3700.0
 20
5362.5271659999999
 30
0.0
 11
2881.234845
 21
5362.5271659999999
 31
0.0
  0
DIMENSION
  5
7BC5
  8
3
  6
CONTINUOUS
  2
*D1
 10
1433.24413
 20
2999.6611349999998
 30
0.0
 11
1270.386988
 21
2999.6611349999998
 31
0.0
 70
   128
 13
1133.24413
 23
2452.810023
 33
0.0
 14
1433.24413
 24
2950.1230399999999
 34
0.0
1001
ACAD
1000
DSTYLE
1002
{
1070
   287
1070
     3
1070
   287
1070
     3
1070
    40
1040
20.0
1070
   143
1040
0.039
1070
   172
1070
     1
1070
   271
1070
     0
1070
   279
1070
     0
1070
   288
1070
     1
1002
}
  0
DIMENSION
  5
7BD2
  8
3
  6
CONTINUOUS
  2
*D2
 10
991.75232500000027
 20
2025.810023
 30
0.0
 11
991.75232500000004
 21
2193.0840549999998
 31
0.0
 70
   128
 13
1133.24413
 23
2425.810023
 33
0.0
 14
1133.24413
 24
2025.810023
 34
0.0
 50
90.0
1001
ACAD
1000
DSTYLE
1002
{
1070
   287
1070
     3
1070
   287
1070
     3
1070
    40
1040
20.0
1070
   143
1040
0.039
1070
   172
1070
     1
1070
   271
1070
     0
1070
   279
1070
     0
1070
   288
1070
     1
1002
}
  0
DIMENSION
  5
7BDF
  8
3
  6
CONTINUOUS
  2
*D3
 10
879.24883757569603
 20
2413.8100229999991
 30
0.0
 11
879.24883757569557
 21
2193.0840549999998
 31
0.0
 70
   128
 13
1073.24413
 23
2025.810023
 33
0.0
 14
942.94309800000008
 24
2413.8100229999991
 34
0.0
 50
90.0
1001
ACAD
1000
DSTYLE
1002
{
1070
   287
1070
     3
1070
   287
1070
     3
1070
    40
1040
20.0
1070
   143
1040
0.039
1070
   172
1070
     1
1070
   271
1070
     0
1070
   279
1070
     0
1070
   288
1070
     1
1002
}
  0
DIMENSION
  5
7BEC
  8
3
  6
CONTINUOUS
  2
*D4
 10
772.90989301723801
 20
1898.810023
 30
0.0
 11
772.90989301723755
 21
2149.777908
 31
0.0
 70
   128
 13
932.94309800000008
 23
2413.8100229999991
 33
0.0
 14
1173.24413
 24
1898.810023
 34
0.0
 50
90.0
1001
ACAD
1000
DSTYLE
1002
{
1070
   287
1070
     3
1070
   287
1070
     3
1070
    40
1040
20.0
1070
   143
1040
0.039
1070
   172
1070
     1
1070
   271
1070
     0
1070
   279
1070
     0
1070
   288
1070
     1
1002
}
  0
DIMENSION
  5
7BFC
  8
3
  6
CONTINUOUS
  2
*D5
 10
774.39606801723801
 20
1836.8100229999991
 30
0.0
 11
774.39606801723755
 21
1688.2385944285711
 31
0.0
 70
   128
 13
1173.24413
 23
1898.810023
 33
0.0
 14
1073.24413
 24
1836.8100229999991
 34
0.0
 50
90.0
1001
ACAD
1000
DSTYLE
1002
{
1070
   287
1070
     3
1070
   287
1070
     3
1070
    40
1040
20.0
1070
   143
1040
0.039
1070
   172
1070
     1
1070
   271
1070
     0
1070
   279
1070
     0
1070
   288
1070
     1
1002
}
  0
DIMENSION
  5
7C09
  8
3
  6
CONTINUOUS
  2
*D6
 10
1433.24413
 20
1662.5836999999999
 30
0.0
 11
1256.723467
 21
1662.5836999999999
 31
0.0
 70
   128
 13
1073.24413
 23
1836.8100229999991
 33
0.0
 14
1433.24413
 24
1734.256095715469
 34
0.0
1001
ACAD
1000
DSTYLE
1002
{
1070
   287
1070
     3
1070
   287
1070
     3
1070
    40
1040
20.0
1070
   143
1040
0.039
1070
   172
1070
     1
1070
   271
1070
     0
1070
   279
1070
     0
1070
   288
1070
     1
1002
}
  0
DIMENSION
  5
7C15
  8
3
  6
CONTINUOUS
  2
*D7
 10
2273.24413
 20
1662.5836999999999
 30
0.0
 11
1853.24413
 21
1712.5836999999999
 31
0.0
 70
     0
 13
1433.24413
 23
1734.256095715469
 33
0.0
 14
2273.24413
 24
1836.8100229999991
 34
0.0
1001
ACAD
1000
DSTYLE
1002
{
1070
   287
1070
     4
1070
   287
1070
     4
1070
    40
1040
20.0
1070
    75
1070
     1
1070
   143
1040
0.039
1070
   172
1070
     1
1070
   271
1070
     0
1070
   279
1070
     1
1070
   288
1070
     1
1002
}
  0
DIMENSION
  5
7C22
  8
3
  6
CONTINUOUS
  2
*D8
 10
3066.3726899999988
 20
2988.8345939999999
 30
0.0
 11
3203.515547
 21
2988.8345939999999
 31
0.0
 70
   128
 13
3366.3726900000001
 23
2713.810023
 33
0.0
 14
3066.3726899999988
 24
2713.810023
 34
0.0
1001
ACAD
1000
DSTYLE
1002
{
1070
   287
1070
     3
1070
   287
1070
     3
1070
    40
1040
20.0
1070
   143
1040
0.039
1070
   172
1070
     1
1070
   271
1070
     0
1070
   279
1070
     0
1070
   288
1070
     1
1002
}
  0
DIMENSION
  5
7C3D
  8
3
  6
CONTINUOUS
  2
*D9
 10
2717.88321
 20
1836.8100229999991
 30
0.0
 11
2717.88321
 21
2377.1351949999998
 31
0.0
 70
   128
 13
2886.3726899999988
 23
2896.810023
 33
0.0
 14
2886.3726899999988
 24
1836.8100229999991
 34
0.0
 50
90.0
1001
ACAD
1000
DSTYLE
1002
{
1070
   287
1070
     3
1070
   287
1070
     3
1070
    40
1040
20.0
1070
   143
1040
0.039
1070
   172
1070
     1
1070
   271
1070
     0
1070
   279
1070
     0
1070
   288
1070
     1
1002
}
  0
DIMENSION
  5
7C4A
  8
3
  6
CONTINUOUS
  2
*D10
 10
3216.3726900000001
 20
1666.787187304544
 30
0.0
 11
3079.2298328571419
 21
1666.787187304544
 31
0.0
 70
   128
 13
2886.3726899999988
 23
1836.8100229999991
 33
0.0
 14
3216.3726900000001
 24
1725.9150874165639
 34
0.0
1001
ACAD
1000
DSTYLE
1002
{
1070
   287
1070
     3
1070
   287
1070
     3
1070
    40
1040
20.0
1070
   143
1040
0.039
1070
   172
1070
     1
1070
   271
1070
     0
1070
   279
1070
     0
1070
   288
1070
     1
1002
}
  0
DIMENSION
  5
7C58
  8
3
  6
CONTINUOUS
  2
*D11
 10
3486.3726899999988
 20
1666.787187304544
 30
0.0
 11
3350.183229159913
 21
1720.9034360898561
 31
0.0
 70
   128
 13
3216.3726900000001
 23
1725.9150874165639
 33
0.0
 14
3486.3726899999988
 24
1836.8100229999991
 34
0.0
1001
ACAD
1000
DSTYLE
1002
{
1070
   288
1070
     1
1070
   172
1070
     1
1070
    40
1040
20.0
1070
   271
1070
     0
1070
   143
1040
0.039
1002
}
  0
DIMENSION
  5
7C68
  8
3
  6
CONTINUOUS
  2
*D12
 10
3652.4046389999999
 20
2198.810023
 30
0.0
 11
3652.4046389999999
 21
2415.0280779999998
 31
0.0
 70
   128
 13
3366.3726900000001
 23
2628.810023
 33
0.0
 14
3366.3726900000001
 24
2198.810023
 34
0.0
 50
90.0
1001
ACAD
1000
DSTYLE
1002
{
1070
   287
1070
     3
1070
   287
1070
     3
1070
     3
1000
φ<>
1070
    40
1040
20.0
1070
   143
1040
0.039
1070
   172
1070
     1
1070
   271
1070
     0
1070
   279
1070
     0
1070
   288
1070
     1
1002
}
  0
DIMENSION
  5
7C75
  8
3
  6
CONTINUOUS
  2
*D13
 10
2273.24413
 20
4425.2020350000003
 30
0.0
 11
1630.6090839999999
 21
4425.2020350000003
 31
0.0
 70
   128
 13
1073.24413
 23
4246.7785479999993
 33
0.0
 14
2273.24413
 24
4246.7785479999993
 34
0.0
1001
ACAD
1000
DSTYLE
1002
{
1070
   287
1070
     3
1070
   287
1070
     3
1070
    40
1040
20.0
1070
   143
1040
0.039
1070
   172
1070
     1
1070
   271
1070
     0
1070
   279
1070
     0
1070
   288
1070
     1
1002
}
  0
DIMENSION
  5
7C82
  8
3
  6
CONTINUOUS
  2
*D14
 10
901.86062200000049
 20
3646.7785479999998
 30
0.0
 11
901.86062200000003
 21
3959.758159
 31
0.0
 70
   128
 13
1073.24413
 23
4246.7785479999993
 33
0.0
 14
1073.24413
 24
3646.7785479999989
 34
0.0
 50
90.0
1001
ACAD
1000
DSTYLE
1002
{
1070
   287
1070
     3
1070
   287
1070
     3
1070
    40
1040
20.0
1070
   143
1040
0.039
1070
   172
1070
     1
1070
   271
1070
     0
1070
   279
1070
     0
1070
   288
1070
     1
1002
}
  0
LINE
  5
7CC4
  8
1
  6
CONTINUOUS
 10
3367.3726899999988
 20
2628.810023
 30
0.0
 11
3367.3726899999988
 21
2198.810023
 31
0.0
  0
DIMENSION
  5
7CEA
  8
3
  6
CONTINUOUS
  2
*D15
 10
3367.3726899999988
 20
3092.4438540000001
 30
0.0
 11
3282.8200983638849
 21
3159.6331092042642
 31
0.0
 70
   128
 13
3216.3726900000001
 23
3081.0609199999999
 33
0.0
 14
3367.3726899999988
 24
2628.810023
 34
0.0
1001
ACAD
1000
DSTYLE
1002
{
1070
   288
1070
     1
1070
   172
1070
     1
1070
    40
1040
20.0
1070
   271
1070
     0
1070
   143
1040
0.039
1002
}
  0
LINE
  5
7CEB
  8
2
  6
CENTER
 10
3216.3726900000001
 20
2927.9657229999998
 30
0.0
 11
3216.3726900000001
 21
1721.9457052929599
 31
0.0
  0
DIMENSION
  5
7D50
  8
3
  2
*D16
 10
772.90989301723755
 20
2713.810023
 30
0.0
 11
722.90989301723721
 21
2563.810023
 31
0.0
 70
     0
 13
932.94309800000008
 23
2413.8100229999991
 33
0.0
 14
1163.24413
 24
2713.810023
 34
0.0
 50
90.0
1001
ACAD
1000
DSTYLE
1002
{
1070
   287
1070
     4
1070
   287
1070
     4
1070
    40
1040
20.0
1070
    75
1070
     1
1070
   143
1040
0.039
1070
   172
1070
     1
1070
   271
1070
     0
1070
   279
1070
     1
1070
   288
1070
     1
1002
}
  0
DIMENSION
  5
7D5C
  8
3
  2
*D17
 10
1765.24413
 20
2999.6611349999998
 30
0.0
 11
1599.24413
 21
3049.6611349999998
 31
0.0
 70
     0
 13
1433.24413
 23
2950.1230399999999
 33
0.0
 14
1765.24413
 24
2386.810023
 34
0.0
1001
ACAD
1000
DSTYLE
1002
{
1070
   287
1070
     4
1070
   287
1070
     4
1070
    40
1040
20.0
1070
    75
1070
     1
1070
   143
1040
0.039
1070
   172
1070
     1
1070
   271
1070
     0
1070
   279
1070
     1
1070
   288
1070
     1
1002
}
  0
LINE
  5
7E6A
  8
2
  6
CENTER
 10
1173.24413
 20
4240.9932417705058
 30
0.0
 11
1173.24413
 21
4208.5638542294928
 31
0.0
  0
LINE
  5
7E6B
  8
2
  6
CENTER
 10
1189.458823770507
 20
4224.7785479999993
 30
0.0
 11
1157.0294362294931
 21
4224.7785479999993
 31
0.0
  0
CIRCLE
  5
7E6C
  8
1
 10
1173.24413
 20
4224.7785479999993
 30
0.0
 40
6.0
  0
LINE
  5
7E6E
  8
2
  6
CENTER
 10
1689.458823770507
 20
4224.7785479999993
 30
0.0
 11
1657.0294362294931
 21
4224.7785479999993
 31
0.0
  0
LINE
  5
7E6F
  8
2
  6
CENTER
 10
1673.24413
 20
4240.9932417705058
 30
0.0
 11
1673.24413
 21
4208.5638542294928
 31
0.0
  0
CIRCLE
  5
7E70
  8
1
 10
1673.24413
 20
4224.7785479999993
 30
0.0
 40
6.0
  0
CIRCLE
  5
7E71
  8
1
 10
2173.24413
 20
4224.7785479999993
 30
0.0
 40
6.0
  0
LINE
  5
7E72
  8
2
  6
CENTER
 10
2189.458823770507
 20
4224.7785479999993
 30
0.0
 11
2157.0294362294931
 21
4224.7785479999993
 31
0.0
  0
LINE
  5
7E73
  8
2
  6
CENTER
 10
2173.24413
 20
4240.9932417705058
 30
0.0
 11
2173.24413
 21
4208.5638542294928
 31
0.0
  0
LINE
  5
7E74
  8
2
  6
CENTER
 10
1189.458823770507
 20
3668.7785479999989
 30
0.0
 11
1157.0294362294931
 21
3668.7785479999989
 31
0.0
  0
LINE
  5
7E75
  8
2
  6
CENTER
 10
1173.24413
 20
3684.9932417705058
 30
0.0
 11
1173.24413
 21
3652.5638542294928
 31
0.0
  0
CIRCLE
  5
7E76
  8
1
 10
1173.24413
 20
3668.7785479999989
 30
0.0
 40
6.0
  0
CIRCLE
  5
7E77
  8
1
 10
1673.24413
 20
3668.7785479999989
 30
0.0
 40
6.0
  0
LINE
  5
7E78
  8
2
  6
CENTER
 10
1689.458823770507
 20
3668.7785479999989
 30
0.0
 11
1657.0294362294931
 21
3668.7785479999989
 31
0.0
  0
LINE
  5
7E79
  8
2
  6
CENTER
 10
1673.24413
 20
3684.9932417705058
 30
0.0
 11
1673.24413
 21
3652.5638542294928
 31
0.0
  0
LINE
  5
7E7A
  8
2
  6
CENTER
 10
2189.458823770507
 20
3668.7785479999989
 30
0.0
 11
2157.0294362294931
 21
3668.7785479999989
 31
0.0
  0
CIRCLE
  5
7E7B
  8
1
 10
2173.24413
 20
3668.7785479999989
 30
0.0
 40
6.0
  0
LINE
  5
7E7C
  8
2
  6
CENTER
 10
2173.24413
 20
3684.9932417705058
 30
0.0
 11
2173.24413
 21
3652.5638542294928
 31
0.0
  0
ENDSEC
  0
EOF
