  0
SECTION
  2
HEADER
  9
$ACADVER
  1
AC1009
  9
$INSBASE
 10
0.0
 20
0.0
 30
0.0
  9
$EXTMIN
 10
500.0
 20
600.0
 30
0.0
  9
$EXTMAX
 10
3700.0
 20
5573.3045229999998
 30
0.0
  9
$LIMMIN
 10
0.0
 20
0.0
  9
$LIMMAX
 10
297.0
 20
210.0
  9
$ORTHOMODE
 70
     0
  9
$REGENMODE
 70
     1
  9
$FILLMODE
 70
     0
  9
$QTEXTMODE
 70
     0
  9
$MIRRTEXT
 70
     1
  9
$DRAGMODE
 70
     2
  9
$LTSCALE
 40
100.0
  9
$OSMODE
 70
    37
  9
$ATTMODE
 70
     1
  9
$TEXTSIZE
 40
180.0
  9
$TRACEWID
 40
0.05
  9
$TEXTSTYLE
  7
STANDARD
  9
$CLAYER
  8
1
  9
$CELTYPE
  6
BYLAYER
  9
$CECOLOR
 62
   256
  9
$DIMSCALE
 40
20.0
  9
$DIMASZ
 40
2.0
  9
$DIMEXO
 40
0.5
  9
$DIMDLI
 40
10.0
  9
$DIMRND
 40
0.0
  9
$DIMDLE
 40
0.0
  9
$DIMEXE
 40
1.0
  9
$DIMTP
 40
1.0
  9
$DIMTM
 40
1.0
  9
$DIMTXT
 40
3.0
  9
$DIMCEN
 40
0.0
  9
$DIMTSZ
 40
0.0
  9
$DIMTOL
 70
     0
  9
$DIMLIM
 70
     0
  9
$DIMTIH
 70
     0
  9
$DIMTOH
 70
     0
  9
$DIMSE1
 70
     0
  9
$DIMSE2
 70
     0
  9
$DIMTAD
 70
     1
  9
$DIMZIN
 70
     8
  9
$DIMBLK
  1

  9
$DIMASO
 70
     1
  9
$DIMSHO
 70
     1
  9
$DIMPOST
  1

  9
$DIMAPOST
  1

  9
$DIMALT
 70
     0
  9
$DIMALTD
 70
     2
  9
$DIMALTF
 40
0.039
  9
$DIMLFAC
 40
1.0
  9
$DIMTOFL
 70
     1
  9
$DIMTVP
 40
0.0
  9
$DIMTIX
 70
     0
  9
$DIMSOXD
 70
     0
  9
$DIMSAH
 70
     1
  9
$DIMBLK1
  1
OPEN
  9
$DIMBLK2
  1
OPEN
  9
$DIMSTYLE
  2
IGA
  9
$DIMCLRD
 70
     0
  9
$DIMCLRE
 70
     0
  9
$DIMCLRT
 70
     0
  9
$DIMTFAC
 40
10.0
  9
$DIMGAP
 40
1.0
  9
$LUNITS
 70
     2
  9
$LUPREC
 70
     3
  9
$SKETCHINC
 40
0.1
  9
$FILLETRAD
 40
50.0
  9
$AUNITS
 70
     0
  9
$AUPREC
 70
     0
  9
$MENU
  1
acad
  9
$ELEVATION
 40
0.0
  9
$PELEVATION
 40
0.0
  9
$THICKNESS
 40
0.0
  9
$LIMCHECK
 70
     0
  9
$BLIPMODE
 70
     0
  9
$CHAMFERA
 40
0.5
  9
$CHAMFERB
 40
0.5
  9
$SKPOLY
 70
     0
  9
$TDCREATE
 40
2450728.5967069441
  9
$TDUPDATE
 40
2454953.7655434371
  9
$TDINDWG
 40
0.0549288079
  9
$TDUSRTIMER
 40
0.0549288079
  9
$USRTIMER
 70
     1
  9
$ANGBASE
 50
0.0
  9
$ANGDIR
 70
     0
  9
$PDMODE
 70
     0
  9
$PDSIZE
 40
0.0
  9
$PLINEWID
 40
0.0
  9
$COORDS
 70
     1
  9
$SPLFRAME
 70
     0
  9
$SPLINETYPE
 70
     6
  9
$SPLINESEGS
 70
     8
  9
$ATTDIA
 70
     0
  9
$ATTREQ
 70
     1
  9
$HANDLING
 70
 10241
  9
$HANDSEED
  5
7F3E
  9
$SURFTAB1
 70
     6
  9
$SURFTAB2
 70
     6
  9
$SURFTYPE
 70
     6
  9
$SURFU
 70
     6
  9
$SURFV
 70
     6
  9
$UCSNAME
  2

  9
$UCSORG
 10
0.0
 20
0.0
 30
0.0
  9
$UCSXDIR
 10
1.0
 20
0.0
 30
0.0
  9
$UCSYDIR
 10
0.0
 20
1.0
 30
0.0
  9
$PUCSNAME
  2

  9
$PUCSORG
 10
0.0
 20
0.0
 30
0.0
  9
$PUCSXDIR
 10
1.0
 20
0.0
 30
0.0
  9
$PUCSYDIR
 10
0.0
 20
1.0
 30
0.0
  9
$USERI1
 70
     0
  9
$USERI2
 70
     0
  9
$USERI3
 70
     0
  9
$USERI4
 70
     0
  9
$USERI5
 70
     0
  9
$USERR1
 40
0.0
  9
$USERR2
 40
0.0
  9
$USERR3
 40
0.0
  9
$USERR4
 40
0.0
  9
$USERR5
 40
0.0
  9
$WORLDVIEW
 70
     1
  9
$SHADEDGE
 70
     3
  9
$SHADEDIF
 70
    70
  9
$TILEMODE
 70
     1
  9
$MAXACTVP
 70
    16
  9
$PLIMCHECK
 70
     0
  9
$PEXTMIN
 10
1.0000000000000000E+020
 20
1.0000000000000000E+020
 30
1.0000000000000000E+020
  9
$PEXTMAX
 10
-1.0000000000000000E+020
 20
-1.0000000000000000E+020
 30
-1.0000000000000000E+020
  9
$PLIMMIN
 10
0.0
 20
0.0
  9
$PLIMMAX
 10
12.0
 20
9.0
  9
$UNITMODE
 70
     0
  9
$VISRETAIN
 70
     0
  9
$PLINEGEN
 70
     0
  9
$PSLTSCALE
 70
     1
  0
ENDSEC
  0
SECTION
  2
TABLES
  0
TABLE
  2
VPORT
 70
     2
  0
VPORT
  2
*ACTIVE
 70
     0
 10
0.0
 20
0.0
 11
1.0
 21
1.0
 12
6292.1124769529506
 22
3086.6374998146398
 13
0.0
 23
0.0
 14
10.0
 24
10.0
 15
10.0
 25
10.0
 16
0.0
 26
0.0
 36
1.0
 17
0.0
 27
0.0
 37
0.0
 40
5011.4968576296578
 41
3.1666666666666661
 42
50.0
 43
0.0
 44
0.0
 50
0.0
 51
0.0
 71
     0
 72
   100
 73
     1
 74
     0
 75
     0
 76
     0
 77
     0
 78
     0
  0
ENDTAB
  0
TABLE
  2
LTYPE
 70
     2
  0
LTYPE
  2
CONTINUOUS
 70
     0
  3
Solid line
 72
    65
 73
     0
 40
0.0
  0
LTYPE
  2
CENTER
 70
     0
  3
____ _ ____ _ ____ _ ____ _ ____ _ ____ _ ____ 
 72
    65
 73
     4
 40
2.0
 49
1.25
 49
-0.25
 49
0.25
 49
-0.25
  0
ENDTAB
  0
TABLE
  2
LAYER
 70
     6
  0
LAYER
  2
0
 70
     0
 62
    -7
  6
CONTINUOUS
  0
LAYER
  2
3
 70
     0
 62
     2
  6
CONTINUOUS
  0
LAYER
  2
2
 70
     0
 62
     3
  6
CENTER
  0
LAYER
  2
1
 70
     0
 62
     4
  6
CONTINUOUS
  0
LAYER
  2
4
 70
     0
 62
     7
  6
CONTINUOUS
  0
LAYER
  2
DEFPOINTS
 70
     0
 62
     7
  6
CONTINUOUS
  0
ENDTAB
  0
TABLE
  2
STYLE
 70
     1
  0
STYLE
  2
STANDARD
 70
     0
 40
0.0
 41
1.0
 50
0.0
 71
     0
 42
180.0
  3
simplex.shx
  4
extfont.shx
  0
ENDTAB
  0
TABLE
  2
VIEW
 70
     0
  0
ENDTAB
  0
TABLE
  2
UCS
 70
     0
  0
ENDTAB
  0
TABLE
  2
APPID
 70
     1
  0
APPID
  2
ACAD
 70
     0
  0
ENDTAB
  0
TABLE
  2
DIMSTYLE
 70
     1
  0
DIMSTYLE
  2
IGA
 70
     0
  3

  4

  5

  6
OPEN
  7
OPEN
 40
2.0
 41
2.0
 42
0.5
 43
10.0
 44
1.0
 45
0.0
 46
0.0
 47
1.0
 48
1.0
140
3.0
141
0.0
142
0.0
143
0.03937
144
1.0
145
0.0
146
10.0
147
1.0
 71
     0
 72
     0
 73
     0
 74
     0
 75
     0
 76
     0
 77
     1
 78
     8
170
     0
171
     2
172
     0
173
     1
174
     0
175
     0
176
     0
177
     0
178
     0
  0
ENDTAB
  0
ENDSEC
  0
SECTION
  2
BLOCKS
  0
BLOCK
  8
0
  2
$MODEL_SPACE
 70
     0
 10
0.0
 20
0.0
 30
0.0
  3
$MODEL_SPACE
  1

  0
ENDBLK
  5
1B
  8
0
  0
BLOCK
 67
     1
  8
0
  2
$PAPER_SPACE
 70
     0
 10
0.0
 20
0.0
 30
0.0
  3
$PAPER_SPACE
  1

  0
ENDBLK
  5
18
 67
     1
  8
0
  0
BLOCK
  8
0
  2
_OPEN
 70
     0
 10
0.0
 20
0.0
 30
0.0
  3
_OPEN
  1

  0
LINE
  5
7B15
  8
0
  6
BYBLOCK
 62
     0
 10
-1.0
 20
0.166667
 30
0.0
 11
0.0
 21
0.0
 31
0.0
  0
LINE
  5
7B16
  8
0
  6
BYBLOCK
 62
     0
 10
0.0
 20
0.0
 30
0.0
 11
-1.0
 21
-0.166667
 31
0.0
  0
LINE
  5
7B17
  8
0
  6
BYBLOCK
 62
     0
 10
0.0
 20
0.0
 30
0.0
 11
-1.0
 21
0.0
 31
0.0
  0
ENDBLK
  5
7B18
  8
0
  0
BLOCK
  8
0
  2
*D1
 70
     1
 10
0.0
 20
0.0
 30
0.0
  3
*D1
  1

  0
LINE
  5
7E9E
  8
3
  6
CONTINUOUS
 62
     0
 10
1925.127086
 20
2314.1618669999998
 30
0.0
 11
2127.1490520000002
 21
2314.1618669999998
 31
0.0
  0
LINE
  5
7E9F
  8
3
  6
CONTINUOUS
 62
     0
 10
1925.127086
 20
1914.161867
 30
0.0
 11
2127.1490520000002
 21
1914.161867
 31
0.0
  0
LINE
  5
7EA0
  8
3
  6
CONTINUOUS
 62
     0
 10
2107.1490520000002
 20
2274.1618669999998
 30
0.0
 11
2107.1490520000002
 21
1954.161867
 31
0.0
  0
INSERT
  5
7EA1
  8
3
  6
CONTINUOUS
 62
     0
  2
_OPEN
 10
2107.1490520000002
 20
2314.1618669999998
 30
0.0
 41
40.0
 42
40.0
 43
40.0
 50
90.0
  0
INSERT
  5
7EA2
  8
3
  6
CONTINUOUS
 62
     0
  2
_OPEN
 10
2107.1490520000002
 20
1914.161867
 30
0.0
 41
40.0
 42
40.0
 43
40.0
 50
270.0
  0
TEXT
  8
3
  40
60
  5
7F2E
  62
0
  72
0
  71
0
 10
1937.15
 20
1994.94
 30
0.000000
  1
400
  0
POINT
  5
7EA4
  8
DEFPOINTS
  6
CONTINUOUS
 62
     0
 10
1915.127086
 20
2314.1618669999998
 30
0.0
  0
POINT
  5
7EA5
  8
DEFPOINTS
  6
CONTINUOUS
 62
     0
 10
1915.127086
 20
1914.161867
 30
0.0
  0
POINT
  5
7EA6
  8
DEFPOINTS
  6
CONTINUOUS
 62
     0
 10
2107.1490520000002
 20
1914.161867
 30
0.0
  0
ENDBLK
  5
7B25
  8
0
  0
BLOCK
  8
0
  2
*D2
 70
     1
 10
0.0
 20
0.0
 30
0.0
  3
*D2
  1

  0
LINE
  5
7EA7
  8
3
  6
CONTINUOUS
 62
     0
 10
2095.7787509999998
 20
2302.1618669999998
 30
0.0
 11
2235.0957829829431
 21
2302.1618669999998
 31
0.0
  0
LINE
  5
7EA8
  8
3
  6
CONTINUOUS
 62
     0
 10
1945.127086
 20
1914.161867
 30
0.0
 11
2235.0957829829431
 21
1914.161867
 31
0.0
  0
LINE
  5
7EA9
  8
3
  6
CONTINUOUS
 62
     0
 10
2215.0957829829431
 20
2262.1618669999998
 30
0.0
 11
2215.0957829829431
 21
1954.161867
 31
0.0
  0
INSERT
  5
7EAA
  8
3
  6
CONTINUOUS
 62
     0
  2
_OPEN
 10
2215.0957829829431
 20
2302.1618669999998
 30
0.0
 41
40.0
 42
40.0
 43
40.0
 50
90.0
  0
INSERT
  5
7EAB
  8
3
  6
CONTINUOUS
 62
     0
  2
_OPEN
 10
2215.0957829829431
 20
1914.161867
 30
0.0
 41
40.0
 42
40.0
 43
40.0
 50
270.0
  0
TEXT
  8
3
  40
60
  5
7F2F
  62
0
  72
0
  71
0
 10
2045.10
 20
1999.11
 30
0.000000
  1
388
  0
POINT
  5
7EAD
  8
DEFPOINTS
  6
CONTINUOUS
 62
     0
 10
2085.7787509999998
 20
2302.1618669999998
 30
0.0
  0
POINT
  5
7EAE
  8
DEFPOINTS
  6
CONTINUOUS
 62
     0
 10
1935.1270859999991
 20
1914.161867
 30
0.0
  0
POINT
  5
7EAF
  8
DEFPOINTS
  6
CONTINUOUS
 62
     0
 10
2215.0957829829431
 20
1914.161867
 30
0.0
  0
ENDBLK
  5
7D1A
  8
0
  0
BLOCK
  8
0
  2
*D3
 70
     1
 10
0.0
 20
0.0
 30
0.0
  3
*D3
  1

  0
LINE
  5
7EB0
  8
3
  6
CONTINUOUS
 62
     0
 10
2095.7787509999998
 20
2302.1618669999998
 30
0.0
 11
2355.7152329892629
 21
2302.1618669999998
 31
0.0
  0
LINE
  5
7EB1
  8
3
  6
CONTINUOUS
 62
     0
 10
1885.1270859999991
 20
1787.161867
 30
0.0
 11
2355.7152329892629
 21
1787.161867
 31
0.0
  0
LINE
  5
7EB2
  8
3
  6
CONTINUOUS
 62
     0
 10
2335.7152329892629
 20
2262.1618669999998
 30
0.0
 11
2335.7152329892629
 21
1827.161867
 31
0.0
  0
INSERT
  5
7EB3
  8
3
  6
CONTINUOUS
 62
     0
  2
_OPEN
 10
2335.7152329892629
 20
2302.1618669999998
 30
0.0
 41
40.0
 42
40.0
 43
40.0
 50
90.0
  0
INSERT
  5
7EB4
  8
3
  6
CONTINUOUS
 62
     0
  2
_OPEN
 10
2335.7152329892629
 20
1787.161867
 30
0.0
 41
40.0
 42
40.0
 43
40.0
 50
270.0
  0
TEXT
  8
3
  40
60
  5
7F30
  62
0
  72
0
  71
0
 10
2165.72
 20
1886.56
 30
0.000000
  1
515
  0
POINT
  5
7EB6
  8
DEFPOINTS
  6
CONTINUOUS
 62
     0
 10
2085.7787509999998
 20
2302.1618669999998
 30
0.0
  0
POINT
  5
7EB7
  8
DEFPOINTS
  6
CONTINUOUS
 62
     0
 10
1875.127086
 20
1787.161867
 30
0.0
  0
POINT
  5
7EB8
  8
DEFPOINTS
  6
CONTINUOUS
 62
     0
 10
2335.7152329892629
 20
1787.161867
 30
0.0
  0
ENDBLK
  5
7D0F
  8
0
  0
BLOCK
  8
0
  2
*D4
 70
     1
 10
0.0
 20
0.0
 30
0.0
  3
*D4
  1

  0
LINE
  5
7EB9
  8
3
  6
CONTINUOUS
 62
     0
 10
1885.1270859999991
 20
1787.161867
 30
0.0
 11
2356.7308429892628
 21
1787.161867
 31
0.0
  0
LINE
  5
7EBA
  8
3
  6
CONTINUOUS
 62
     0
 10
1985.127086
 20
1725.161867
 30
0.0
 11
2356.7308429892628
 21
1725.161867
 31
0.0
  0
LINE
  5
7EBB
  8
3
  6
CONTINUOUS
 62
     0
 10
2336.7308429892628
 20
1827.161867
 30
0.0
 11
2336.7308429892628
 21
1867.161867
 31
0.0
  0
LINE
  5
7EBC
  8
3
  6
CONTINUOUS
 62
     0
 10
2336.7308429892628
 20
1685.161867
 30
0.0
 11
2336.7308429892628
 21
1508.0190098571429
 31
0.0
  0
LINE
  5
7EBD
  8
3
  6
CONTINUOUS
 62
     0
 10
2336.7308429892628
 20
1787.161867
 30
0.0
 11
2336.7308429892628
 21
1725.161867
 31
0.0
  0
INSERT
  5
7EBE
  8
3
  6
CONTINUOUS
 62
     0
  2
_OPEN
 10
2336.7308429892628
 20
1787.161867
 30
0.0
 41
40.0
 42
40.0
 43
40.0
 50
270.0
  0
INSERT
  5
7EBF
  8
3
  6
CONTINUOUS
 62
     0
  2
_OPEN
 10
2336.7308429892628
 20
1725.161867
 30
0.0
 41
40.0
 42
40.0
 43
40.0
 50
90.0
  0
TEXT
  8
3
  40
60
  5
7F31
  62
0
  72
0
  71
0
 10
2166.73
 20
1470.39
 30
0.000000
  1
62
  0
POINT
  5
7EC1
  8
DEFPOINTS
  6
CONTINUOUS
 62
     0
 10
1875.127086
 20
1787.161867
 30
0.0
  0
POINT
  5
7EC2
  8
DEFPOINTS
  6
CONTINUOUS
 62
     0
 10
1975.127086
 20
1725.161867
 30
0.0
  0
POINT
  5
7EC3
  8
DEFPOINTS
  6
CONTINUOUS
 62
     0
 10
2336.7308429892628
 20
1725.161867
 30
0.0
  0
ENDBLK
  5
7D27
  8
0
  0
BLOCK
  8
0
  2
*D5
 70
     1
 10
0.0
 20
0.0
 30
0.0
  3
*D5
  1

  0
LINE
  5
7EC4
  8
3
  6
CONTINUOUS
 62
     0
 10
1915.127086
 20
2351.1618669999998
 30
0.0
 11
1915.127086
 21
2916.6917376154902
 31
0.0
  0
LINE
  5
7EC5
  8
3
  6
CONTINUOUS
 62
     0
 10
1615.127086
 20
2865.4487170000002
 30
0.0
 11
1615.127086
 21
2916.6917376154902
 31
0.0
  0
LINE
  5
7EC6
  8
3
  6
CONTINUOUS
 62
     0
 10
1875.127086
 20
2896.6917376154888
 30
0.0
 11
1655.127086
 21
2896.6917376154888
 31
0.0
  0
INSERT
  5
7EC7
  8
3
  6
CONTINUOUS
 62
     0
  2
_OPEN
 10
1915.127086
 20
2896.6917376154888
 30
0.0
 41
40.0
 42
40.0
 43
40.0
  0
INSERT
  5
7EC8
  8
3
  6
CONTINUOUS
 62
     0
  2
_OPEN
 10
1615.127086
 20
2896.6917376154888
 30
0.0
 41
40.0
 42
40.0
 43
40.0
 50
180.0
  0
TEXT
  8
3
  40
60
  5
7F32
  62
0
  72
0
  71
0
 10
1632.27
 20
2840.49
 30
0.000000
  1
300
  0
POINT
  5
7ECA
  8
DEFPOINTS
  6
CONTINUOUS
 62
     0
 10
1915.127086
 20
2341.1618669999998
 30
0.0
  0
POINT
  5
7ECB
  8
DEFPOINTS
  6
CONTINUOUS
 62
     0
 10
1615.127086
 20
2855.4487170000002
 30
0.0
  0
POINT
  5
7ECC
  8
DEFPOINTS
  6
CONTINUOUS
 62
     0
 10
1615.127086
 20
2896.6917376154888
 30
0.0
  0
ENDBLK
  5
7CBF
  8
0
  0
BLOCK
  8
0
  2
*D6
 70
     1
 10
0.0
 20
0.0
 30
0.0
  3
*D6
  1

  0
LINE
  5
7ECD
  8
3
  6
CONTINUOUS
 62
     0
 10
775.12708599999996
 20
1715.161867
 30
0.0
 11
775.12708599999996
 21
1546.368177120745
 31
0.0
  0
LINE
  5
7ECE
  8
3
  6
CONTINUOUS
 62
     0
 10
1615.127086
 20
1622.585472
 30
0.0
 11
1615.127086
 21
1546.368177120745
 31
0.0
  0
LINE
  5
7ECF
  8
3
  6
CONTINUOUS
 62
     0
 10
815.12708599999996
 20
1566.368177120745
 30
0.0
 11
1575.127086
 21
1566.368177120745
 31
0.0
  0
INSERT
  5
7ED0
  8
3
  6
CONTINUOUS
 62
     0
  2
_OPEN
 10
775.12708599999996
 20
1566.368177120745
 30
0.0
 41
40.0
 42
40.0
 43
40.0
 50
180.0
  0
INSERT
  5
7ED1
  8
3
  6
CONTINUOUS
 62
     0
  2
_OPEN
 10
1615.127086
 20
1566.368177120745
 30
0.0
 41
40.0
 42
40.0
 43
40.0
  0
TEXT
  8
3
  40
60
  5
7F33
  62
0
  72
0
  71
0
 10
1090.03
 20
1510.17
 30
0.000000
  1
840
  0
POINT
  5
7ED3
  8
DEFPOINTS
  6
CONTINUOUS
 62
     0
 10
775.12708599999996
 20
1725.161867
 30
0.0
  0
POINT
  5
7ED4
  8
DEFPOINTS
  6
CONTINUOUS
 62
     0
 10
1615.127086
 20
1632.5854719999991
 30
0.0
  0
POINT
  5
7ED5
  8
DEFPOINTS
  6
CONTINUOUS
 62
     0
 10
1615.127086
 20
1566.368177120745
 30
0.0
  0
ENDBLK
  5
7D46
  8
0
  0
BLOCK
  8
0
  2
*D7
 70
     1
 10
0.0
 20
0.0
 30
0.0
  3
*D7
  1

  0
LINE
  5
7ED6
  8
3
  6
CONTINUOUS
 62
     0
 10
1975.127086
 20
1715.161867
 30
0.0
 11
1975.127086
 21
1546.368177120745
 31
0.0
  0
LINE
  5
7ED7
  8
3
  6
CONTINUOUS
 62
     0
 10
1655.127086
 20
1566.368177120745
 30
0.0
 11
1935.1270859999991
 21
1566.368177120745
 31
0.0
  0
INSERT
  5
7ED8
  8
3
  6
CONTINUOUS
 62
     0
  2
_OPEN
 10
1615.127086
 20
1566.368177120745
 30
0.0
 41
40.0
 42
40.0
 43
40.0
 50
180.0
  0
INSERT
  5
7ED9
  8
3
  6
CONTINUOUS
 62
     0
  2
_OPEN
 10
1975.127086
 20
1566.368177120745
 30
0.0
 41
40.0
 42
40.0
 43
40.0
  0
TEXT
  8
3
  40
60
  5
7F34
  62
0
  72
0
  71
0
 10
1675.13
 20
1510.17
 30
0.000000
  1
360
  0
POINT
  5
7EDB
  8
DEFPOINTS
  6
CONTINUOUS
 62
     0
 10
1615.127086
 20
1632.5854719999991
 30
0.0
  0
POINT
  5
7EDC
  8
DEFPOINTS
  6
CONTINUOUS
 62
     0
 10
1975.127086
 20
1725.161867
 30
0.0
  0
POINT
  5
7EDD
  8
DEFPOINTS
  6
CONTINUOUS
 62
     0
 10
1975.127086
 20
1566.368177120745
 30
0.0
  0
ENDBLK
  5
7D3B
  8
0
  0
BLOCK
  8
0
  2
*D8
 70
     1
 10
0.0
 20
0.0
 30
0.0
  3
*D8
  1

  0
LINE
  5
7EDE
  8
3
  6
CONTINUOUS
 62
     0
 10
3373.8521799999999
 20
2612.1618669999998
 30
0.0
 11
3373.8521799999999
 21
2863.1385989999999
 31
0.0
  0
LINE
  5
7EDF
  8
3
  6
CONTINUOUS
 62
     0
 10
3073.8521799999999
 20
2612.1618669999998
 30
0.0
 11
3073.8521799999999
 21
2863.1385989999999
 31
0.0
  0
LINE
  5
7EE0
  8
3
  6
CONTINUOUS
 62
     0
 10
3413.8521799999999
 20
2843.138598999999
 30
0.0
 11
3453.8521799999999
 21
2843.138598999999
 31
0.0
  0
LINE
  5
7EE1
  8
3
  6
CONTINUOUS
 62
     0
 10
3033.8521799999999
 20
2843.138598999999
 30
0.0
 11
2993.8521799999999
 21
2843.138598999999
 31
0.0
  0
LINE
  5
7EE2
  8
3
  6
CONTINUOUS
 62
     0
 10
3373.8521799999999
 20
2843.138598999999
 30
0.0
 11
3073.8521799999999
 21
2843.138598999999
 31
0.0
  0
INSERT
  5
7EE3
  8
3
  6
CONTINUOUS
 62
     0
  2
_OPEN
 10
3373.8521799999999
 20
2843.138598999999
 30
0.0
 41
40.0
 42
40.0
 43
40.0
 50
180.0
  0
INSERT
  5
7EE4
  8
3
  6
CONTINUOUS
 62
     0
  2
_OPEN
 10
3073.8521799999999
 20
2843.138598999999
 30
0.0
 41
40.0
 42
40.0
 43
40.0
  0
TEXT
  8
3
  40
60
  5
7F35
  62
0
  72
0
  71
0
 10
3091.00
 20
2786.94
 30
0.000000
  1
300
  0
POINT
  5
7EE6
  8
DEFPOINTS
  6
CONTINUOUS
 62
     0
 10
3373.8521799999999
 20
2602.1618669999998
 30
0.0
  0
POINT
  5
7EE7
  8
DEFPOINTS
  6
CONTINUOUS
 62
     0
 10
3073.8521799999999
 20
2602.1618669999998
 30
0.0
  0
POINT
  5
7EE8
  8
DEFPOINTS
  6
CONTINUOUS
 62
     0
 10
3073.8521799999999
 20
2843.138598999999
 30
0.0
  0
ENDBLK
  5
7B83
  8
0
  0
BLOCK
  8
0
  2
*D9
 70
     1
 10
0.0
 20
0.0
 30
0.0
  3
*D9
  1

  0
LINE
  5
7EE9
  8
3
  6
CONTINUOUS
 62
     0
 10
2883.852179999999
 20
2785.1618669999998
 30
0.0
 11
2753.1038939999999
 21
2785.1618669999998
 31
0.0
  0
LINE
  5
7EEA
  8
3
  6
CONTINUOUS
 62
     0
 10
2883.852179999999
 20
1725.161867
 30
0.0
 11
2753.1038939999999
 21
1725.161867
 31
0.0
  0
LINE
  5
7EEB
  8
3
  6
CONTINUOUS
 62
     0
 10
2773.1038940000012
 20
2745.1618669999998
 30
0.0
 11
2773.1038940000012
 21
1765.161867
 31
0.0
  0
INSERT
  5
7EEC
  8
3
  6
CONTINUOUS
 62
     0
  2
_OPEN
 10
2773.1038940000012
 20
2785.1618669999998
 30
0.0
 41
40.0
 42
40.0
 43
40.0
 50
90.0
  0
INSERT
  5
7EED
  8
3
  6
CONTINUOUS
 62
     0
  2
_OPEN
 10
2773.1038940000012
 20
1725.161867
 30
0.0
 41
40.0
 42
40.0
 43
40.0
 50
270.0
  0
TEXT
  8
3
  40
60
  5
7F36
  62
0
  72
0
  71
0
 10
2603.10
 20
2161.68
 30
0.000000
  1
1060
  0
POINT
  5
7EEF
  8
DEFPOINTS
  6
CONTINUOUS
 62
     0
 10
2893.8521799999999
 20
2785.1618669999998
 30
0.0
  0
POINT
  5
7EF0
  8
DEFPOINTS
  6
CONTINUOUS
 62
     0
 10
2893.8521799999999
 20
1725.161867
 30
0.0
  0
POINT
  5
7EF1
  8
DEFPOINTS
  6
CONTINUOUS
 62
     0
 10
2773.1038940000012
 20
1725.161867
 30
0.0
  0
ENDBLK
  5
7C52
  8
0
  0
BLOCK
  8
0
  2
*D10
 70
     1
 10
0.0
 20
0.0
 30
0.0
  3
*D10
  1

  0
LINE
  5
7EF2
  8
3
  6
CONTINUOUS
 62
     0
 10
2893.8521799999999
 20
1715.161867
 30
0.0
 11
2893.8521799999999
 21
1531.4406220000001
 31
0.0
  0
LINE
  5
7EF3
  8
3
  6
CONTINUOUS
 62
     0
 10
3223.8521799999999
 20
1581.098467565974
 30
0.0
 11
3223.8521799999999
 21
1531.4406220000001
 31
0.0
  0
LINE
  5
7EF4
  8
3
  6
CONTINUOUS
 62
     0
 10
2933.8521799999999
 20
1551.4406220000001
 30
0.0
 11
3183.8521799999999
 21
1551.4406220000001
 31
0.0
  0
INSERT
  5
7EF5
  8
3
  6
CONTINUOUS
 62
     0
  2
_OPEN
 10
2893.8521799999999
 20
1551.4406220000001
 30
0.0
 41
40.0
 42
40.0
 43
40.0
 50
180.0
  0
INSERT
  5
7EF6
  8
3
  6
CONTINUOUS
 62
     0
  2
_OPEN
 10
3223.8521799999999
 20
1551.4406220000001
 30
0.0
 41
40.0
 42
40.0
 43
40.0
  0
TEXT
  8
3
  40
60
  5
7F37
  62
0
  72
0
  71
0
 10
2945.50
 20
1495.24
 30
0.000000
  1
330
  0
POINT
  5
7EF8
  8
DEFPOINTS
  6
CONTINUOUS
 62
     0
 10
2893.8521799999999
 20
1725.161867
 30
0.0
  0
POINT
  5
7EF9
  8
DEFPOINTS
  6
CONTINUOUS
 62
     0
 10
3223.8521799999999
 20
1591.098467565974
 30
0.0
  0
POINT
  5
7EFA
  8
DEFPOINTS
  6
CONTINUOUS
 62
     0
 10
3223.8521799999999
 20
1551.4406220000001
 30
0.0
  0
ENDBLK
  5
7DA8
  8
0
  0
BLOCK
  8
0
  2
*D11
 70
     1
 10
0.0
 20
0.0
 30
0.0
  3
*D11
  1

  0
LINE
  5
7EFB
  8
3
  6
CONTINUOUS
 62
     0
 10
3493.852179999999
 20
1715.161867
 30
0.0
 11
3493.852179999999
 21
1531.4406220000001
 31
0.0
  0
LINE
  5
7EFC
  8
3
  6
CONTINUOUS
 62
     0
 10
3263.8521799999999
 20
1551.4406220000001
 30
0.0
 11
3453.8521799999999
 21
1551.4406220000001
 31
0.0
  0
TEXT
  8
3
  40
60
  5
7F38
  62
0
  72
0
  71
0
 10
3243.00
 20
1495.02
 30
0.000000
  1
270
  0
INSERT
  5
7EFE
  8
3
  6
CONTINUOUS
 62
     0
  2
_OPEN
 10
3223.8521799999999
 20
1551.4406220000001
 30
0.0
 41
40.0
 42
40.0
 43
40.0
 50
180.0
  0
INSERT
  5
7EFF
  8
3
  6
CONTINUOUS
 62
     0
  2
_OPEN
 10
3493.852179999999
 20
1551.4406220000001
 30
0.0
 41
40.0
 42
40.0
 43
40.0
  0
POINT
  5
7F00
  8
DEFPOINTS
  6
CONTINUOUS
 62
     0
 10
3223.8521799999999
 20
1588.6359799501749
 30
0.0
  0
POINT
  5
7F01
  8
DEFPOINTS
  6
CONTINUOUS
 62
     0
 10
3493.852179999999
 20
1725.161867
 30
0.0
  0
POINT
  5
7F02
  8
DEFPOINTS
  6
CONTINUOUS
 62
     0
 10
3493.852179999999
 20
1551.4406220000001
 30
0.0
  0
ENDBLK
  5
7D9D
  8
0
  0
BLOCK
  8
0
  2
*D12
 70
     1
 10
0.0
 20
0.0
 30
0.0
  3
*D12
  1

  0
LINE
  5
7F03
  8
3
  6
CONTINUOUS
 62
     0
 10
3383.8521799999999
 20
2517.1618669999998
 30
0.0
 11
3673.8425030000012
 21
2517.1618669999998
 31
0.0
  0
LINE
  5
7F04
  8
3
  6
CONTINUOUS
 62
     0
 10
3383.8521799999999
 20
2087.1618669999998
 30
0.0
 11
3673.8425030000012
 21
2087.1618669999998
 31
0.0
  0
LINE
  5
7F05
  8
3
  6
CONTINUOUS
 62
     0
 10
3653.8425029999999
 20
2477.1618669999998
 30
0.0
 11
3653.8425029999999
 21
2127.1618669999998
 31
0.0
  0
INSERT
  5
7F06
  8
3
  6
CONTINUOUS
 62
     0
  2
_OPEN
 10
3653.8425029999999
 20
2517.1618669999998
 30
0.0
 41
40.0
 42
40.0
 43
40.0
 50
90.0
  0
INSERT
  5
7F07
  8
3
  6
CONTINUOUS
 62
     0
  2
_OPEN
 10
3653.8425029999999
 20
2087.1618669999998
 30
0.0
 41
40.0
 42
40.0
 43
40.0
 50
270.0
  0
TEXT
  8
3
  40
60
  5
7F39
  62
0
  72
0
  71
0
 10
3483.84
 20
2182.53
 30
0.000000
  1
φ430
  0
POINT
  5
7F09
  8
DEFPOINTS
  6
CONTINUOUS
 62
     0
 10
3373.8521799999999
 20
2517.1618669999998
 30
0.0
  0
POINT
  5
7F0A
  8
DEFPOINTS
  6
CONTINUOUS
 62
     0
 10
3373.8521799999999
 20
2087.1618669999998
 30
0.0
  0
POINT
  5
7F0B
  8
DEFPOINTS
  6
CONTINUOUS
 62
     0
 10
3653.8425029999999
 20
2087.1618669999998
 30
0.0
  0
ENDBLK
  5
7D67
  8
0
  0
BLOCK
  8
0
  2
*D13
 70
     1
 10
0.0
 20
0.0
 30
0.0
  3
*D13
  1

  0
LINE
  5
7F0C
  8
3
  6
CONTINUOUS
 62
     0
 10
1985.127086
 20
4034.0274570000001
 30
0.0
 11
2181.6490650000001
 21
4034.0274570000001
 31
0.0
  0
LINE
  5
7F0D
  8
3
  6
CONTINUOUS
 62
     0
 10
1985.127086
 20
3434.0274570000001
 30
0.0
 11
2181.6490650000001
 21
3434.0274570000001
 31
0.0
  0
LINE
  5
7F0E
  8
3
  6
CONTINUOUS
 62
     0
 10
2161.6490650000001
 20
3994.0274569999988
 30
0.0
 11
2161.6490650000001
 21
3474.0274570000001
 31
0.0
  0
INSERT
  5
7F0F
  8
3
  6
CONTINUOUS
 62
     0
  2
_OPEN
 10
2161.6490650000001
 20
4034.0274570000001
 30
0.0
 41
40.0
 42
40.0
 43
40.0
 50
90.0
  0
INSERT
  5
7F10
  8
3
  6
CONTINUOUS
 62
     0
  2
_OPEN
 10
2161.6490650000001
 20
3434.0274570000001
 30
0.0
 41
40.0
 42
40.0
 43
40.0
 50
270.0
  0
TEXT
  8
3
  40
60
  5
7F3A
  62
0
  72
0
  71
0
 10
1991.65
 20
3643.49
 30
0.000000
  1
600
  0
POINT
  5
7F12
  8
DEFPOINTS
  6
CONTINUOUS
 62
     0
 10
1975.127086
 20
4034.0274570000001
 30
0.0
  0
POINT
  5
7F13
  8
DEFPOINTS
  6
CONTINUOUS
 62
     0
 10
1975.127086
 20
3434.0274570000001
 30
0.0
  0
POINT
  5
7F14
  8
DEFPOINTS
  6
CONTINUOUS
 62
     0
 10
2161.6490650000001
 20
3434.0274570000001
 30
0.0
  0
ENDBLK
  5
7C47
  8
0
  0
BLOCK
  8
0
  2
*D14
 70
     1
 10
0.0
 20
0.0
 30
0.0
  3
*D14
  1

  0
LINE
  5
7F15
  8
3
  6
CONTINUOUS
 62
     0
 10
775.12708599999996
 20
4044.0274570000001
 30
0.0
 11
775.12708599999996
 21
4202.676837
 31
0.0
  0
LINE
  5
7F16
  8
3
  6
CONTINUOUS
 62
     0
 10
1975.127086
 20
4044.0274570000001
 30
0.0
 11
1975.127086
 21
4202.676837
 31
0.0
  0
LINE
  5
7F17
  8
3
  6
CONTINUOUS
 62
     0
 10
815.12708599999996
 20
4182.676837
 30
0.0
 11
1935.1270859999991
 21
4182.676837
 31
0.0
  0
INSERT
  5
7F18
  8
3
  6
CONTINUOUS
 62
     0
  2
_OPEN
 10
775.12708599999996
 20
4182.676837
 30
0.0
 41
40.0
 42
40.0
 43
40.0
 50
180.0
  0
INSERT
  5
7F19
  8
3
  6
CONTINUOUS
 62
     0
  2
_OPEN
 10
1975.127086
 20
4182.676837
 30
0.0
 41
40.0
 42
40.0
 43
40.0
  0
TEXT
  8
3
  40
60
  5
7F3B
  62
0
  72
0
  71
0
 10
1340.81
 20
4126.48
 30
0.000000
  1
1200
  0
POINT
  5
7F1B
  8
DEFPOINTS
  6
CONTINUOUS
 62
     0
 10
775.12708599999996
 20
4034.0274570000001
 30
0.0
  0
POINT
  5
7F1C
  8
DEFPOINTS
  6
CONTINUOUS
 62
     0
 10
1975.127086
 20
4034.0274570000001
 30
0.0
  0
POINT
  5
7F1D
  8
DEFPOINTS
  6
CONTINUOUS
 62
     0
 10
1975.127086
 20
4182.676837
 30
0.0
  0
ENDBLK
  5
7C3C
  8
0
  0
BLOCK
  8
0
  2
*D15
 70
     1
 10
0.0
 20
0.0
 30
0.0
  3
*D15
  1

  0
LINE
  5
7D8A
  8
0
  6
BYBLOCK
 62
     0
 10
3223.8521799999999
 20
2938.7942997794889
 30
0.0
 11
3223.8521799999999
 21
2988.502738429429
 31
0.0
  0
LINE
  5
7D8B
  8
0
  6
BYBLOCK
 62
     0
 10
3374.852179999999
 20
2527.1618669999998
 30
0.0
 11
3374.852179999999
 21
2988.502738429429
 31
0.0
  0
LINE
  5
7D8C
  8
0
  6
BYBLOCK
 62
     0
 10
3263.8521799999999
 20
2968.502738429429
 30
0.0
 11
3334.8521799999999
 21
2968.502738429429
 31
0.0
  0
TEXT
  5
7D8D
  8
1
 62
     0
 10
3230.197511598758
 20
2992.2934272406142
 30
0.0
 40
60.0
  1
151
  0
INSERT
  5
7D8E
  8
0
  6
BYBLOCK
 62
     0
  2
_OPEN
 10
3223.8521799999999
 20
2968.502738429429
 30
0.0
 41
40.0
 42
40.0
 43
40.0
 50
180.0
  0
INSERT
  5
7D8F
  8
0
  6
BYBLOCK
 62
     0
  2
_OPEN
 10
3374.852179999999
 20
2968.502738429429
 30
0.0
 41
40.0
 42
40.0
 43
40.0
  0
POINT
  5
7D90
  8
DEFPOINTS
  6
BYBLOCK
 62
     0
 10
3223.8521799999999
 20
2928.7942997794889
 30
0.0
  0
POINT
  5
7D91
  8
DEFPOINTS
  6
BYBLOCK
 62
     0
 10
3374.852179999999
 20
2517.1618669999998
 30
0.0
  0
POINT
  5
7D92
  8
DEFPOINTS
  6
BYBLOCK
 62
     0
 10
3374.852179999999
 20
2968.502738429429
 30
0.0
  0
ENDBLK
  5
7D93
  8
0
  0
BLOCK
  8
0
  2
*D16
 70
     1
 10
0.0
 20
0.0
 30
0.0
  3
*D16
  1

  0
LINE
  5
7F1E
  8
3
 62
     0
 10
1283.127086
 20
2285.1618669999998
 30
0.0
 11
1283.127086
 21
2916.6917376154902
 31
0.0
  0
LINE
  5
7F1F
  8
3
 62
     0
 10
1575.127086
 20
2896.6917376154888
 30
0.0
 11
1323.127086
 21
2896.6917376154888
 31
0.0
  0
INSERT
  5
7F20
  8
3
 62
     0
  2
_OPEN
 10
1615.127086
 20
2896.6917376154888
 30
0.0
 41
40.0
 42
40.0
 43
40.0
  0
INSERT
  5
7F21
  8
3
 62
     0
  2
_OPEN
 10
1283.127086
 20
2896.6917376154888
 30
0.0
 41
40.0
 42
40.0
 43
40.0
 50
180.0
  0
TEXT
  8
3
  40
60
  5
7F3C
  62
0
  72
0
  71
0
 10
1329.13
 20
2840.49
 30
0.000000
  1
332
  0
POINT
  5
7F23
  8
DEFPOINTS
 62
     0
 10
1615.127086
 20
2855.4487170000002
 30
0.0
  0
POINT
  5
7F24
  8
DEFPOINTS
 62
     0
 10
1283.127086
 20
2275.1618669999998
 30
0.0
  0
POINT
  5
7F25
  8
DEFPOINTS
 62
     0
 10
1283.127086
 20
2896.6917376154888
 30
0.0
  0
ENDBLK
  5
7CC9
  8
0
  0
BLOCK
  8
0
  2
*D17
 70
     1
 10
0.0
 20
0.0
 30
0.0
  3
*D17
  1

  0
LINE
  5
7F26
  8
3
 62
     0
 10
1895.127086
 20
2602.1618669999998
 30
0.0
 11
2355.7152329892619
 21
2602.1618669999998
 31
0.0
  0
LINE
  5
7F27
  8
3
 62
     0
 10
2335.7152329892619
 20
2342.1618669999998
 30
0.0
 11
2335.7152329892619
 21
2562.1618669999998
 31
0.0
  0
INSERT
  5
7F28
  8
3
 62
     0
  2
_OPEN
 10
2335.7152329892619
 20
2302.1618669999998
 30
0.0
 41
40.0
 42
40.0
 43
40.0
 50
270.0
  0
INSERT
  5
7F29
  8
3
 62
     0
  2
_OPEN
 10
2335.7152329892619
 20
2602.1618669999998
 30
0.0
 41
40.0
 42
40.0
 43
40.0
 50
90.0
  0
TEXT
  8
3
  40
60
  5
7F3D
  62
0
  72
0
  71
0
 10
2165.72
 20
2345.96
 30
0.000000
  1
300
  0
POINT
  5
7F2B
  8
DEFPOINTS
 62
     0
 10
2085.7787509999998
 20
2302.1618669999998
 30
0.0
  0
POINT
  5
7F2C
  8
DEFPOINTS
 62
     0
 10
1885.1270859999991
 20
2602.1618669999998
 30
0.0
  0
POINT
  5
7F2D
  8
DEFPOINTS
 62
     0
 10
2335.7152329892619
 20
2602.1618669999998
 30
0.0
  0
ENDBLK
  5
7D31
  8
0
  0
ENDSEC
  0
SECTION
  2
ENTITIES
  0
LINE
  5
7A7A
  8
1
  6
CONTINUOUS
 10
3493.852179999999
 20
1725.161867
 30
0.0
 11
2893.8521799999999
 21
1725.161867
 31
0.0
  0
LINE
  5
7A7B
  8
1
  6
CONTINUOUS
 10
3493.852179999999
 20
2785.1618669999998
 30
0.0
 11
2893.8521799999999
 21
2785.1618669999998
 31
0.0
  0
CIRCLE
  5
7A7C
  8
1
  6
CONTINUOUS
 10
1615.127086
 20
2302.1618669999998
 30
0.0
 40
240.0
  0
LINE
  5
7A7D
  8
1
  6
CONTINUOUS
 10
1659.7670859999989
 20
2212.671867
 30
0.0
 11
1110.047086
 21
1938.471867
 31
0.0
  0
LINE
  5
7A7E
  8
1
  6
CONTINUOUS
 10
1875.127086
 20
1787.161867
 30
0.0
 11
875.12708599999985
 21
1787.161867
 31
0.0
  0
LINE
  5
7A7F
  8
1
  6
CONTINUOUS
 10
1600.627086
 20
2522.1618669999998
 30
0.0
 11
920.62708599999996
 21
2117.1618669999998
 31
0.0
  0
CIRCLE
  5
7A80
  8
1
  6
CONTINUOUS
 10
1615.127086
 20
2302.1618669999998
 30
0.0
 40
100.0
  0
LINE
  5
7A81
  8
1
  6
CONTINUOUS
 10
1885.1270859999991
 20
1867.161867
 30
0.0
 11
875.12708599999985
 21
1867.161867
 31
0.0
  0
LINE
  5
7A82
  8
2
  6
CENTER
 10
3532.8360200000002
 20
2302.1618669999998
 30
0.0
 11
2794.9551609999999
 21
2302.1618669999998
 31
0.0
  0
ARC
  5
7A83
  8
1
  6
CONTINUOUS
 10
1642.127086
 20
2275.1618669999998
 30
0.0
 40
360.00999999999988
 50
174.1699999999999
 51
265.69999999999999
  0
ARC
  5
7A84
  8
1
  6
CONTINUOUS
 10
1593.1270859999991
 20
2280.1618669999998
 30
0.0
 40
310.75999999999999
 50
82.689999999999998
 51
174.1699999999999
  0
LINE
  5
7A85
  8
1
  6
CONTINUOUS
 10
1885.1270859999991
 20
2602.1618669999998
 30
0.0
 11
1345.1270859999991
 21
2602.1618669999998
 31
0.0
  0
LINE
  5
7A86
  8
1
  6
CONTINUOUS
 10
1975.127086
 20
2785.1618669999998
 30
0.0
 11
775.12708599999996
 21
2785.1618669999998
 31
0.0
  0
LINE
  5
7A87
  8
1
  6
CONTINUOUS
 10
1975.127086
 20
1725.161867
 30
0.0
 11
775.12708599999996
 21
1725.161867
 31
0.0
  0
CIRCLE
  5
7A88
  8
1
  6
CONTINUOUS
 10
1615.127086
 20
2302.1618669999998
 30
0.0
 40
215.0
  0
LINE
  5
7A89
  8
1
  6
CONTINUOUS
 10
1935.1270859999991
 20
2745.1618669999998
 30
0.0
 11
815.12708599999996
 21
2745.1618669999998
 31
0.0
  0
LINE
  5
7A8A
  8
1
  6
CONTINUOUS
 10
815.12708599999996
 20
1765.161867
 30
0.0
 11
1935.1270859999991
 21
1765.161867
 31
0.0
  0
LINE
  5
7A8B
  8
1
  6
CONTINUOUS
 10
920.62708599999996
 20
1867.161867
 30
0.0
 11
920.62708599999996
 21
2117.1618669999998
 31
0.0
  0
LINE
  5
7A8C
  8
1
  6
CONTINUOUS
 10
775.12708599999996
 20
2785.1618669999998
 30
0.0
 11
775.12708599999996
 21
1725.161867
 31
0.0
  0
LINE
  5
7A8D
  8
1
  6
CONTINUOUS
 10
815.12708599999996
 20
2745.1618669999998
 30
0.0
 11
815.12708599999996
 21
1765.161867
 31
0.0
  0
LINE
  5
7A8E
  8
1
  6
CONTINUOUS
 10
875.12708599999985
 20
1867.161867
 30
0.0
 11
875.12708599999985
 21
1787.161867
 31
0.0
  0
LINE
  5
7A8F
  8
1
  6
CONTINUOUS
 10
1345.1270859999991
 20
1867.161867
 30
0.0
 11
1345.1270859999991
 21
2602.1618669999998
 31
0.0
  0
LINE
  5
7A90
  8
1
  6
CONTINUOUS
 10
983.25708599999996
 20
1904.161867
 30
0.0
 11
1002.727085999999
 21
1931.211867
 31
0.0
  0
LINE
  5
7A91
  8
1
  6
CONTINUOUS
 10
1183.2570860000001
 20
1904.161867
 30
0.0
 11
1163.797086
 21
1931.211867
 31
0.0
  0
ARC
  5
7A92
  8
1
  6
CONTINUOUS
 10
1083.2570859999989
 20
1992.161867
 30
0.0
 40
101.0
 50
322.88
 51
217.12
  0
LINE
  5
7A93
  8
1
  6
CONTINUOUS
 10
983.25708599999996
 20
1867.161867
 30
0.0
 11
983.25708599999996
 21
1904.161867
 31
0.0
  0
LINE
  5
7A94
  8
1
  6
CONTINUOUS
 10
1183.2570860000001
 20
1867.161867
 30
0.0
 11
1183.2570860000001
 21
1904.161867
 31
0.0
  0
LINE
  5
7A95
  8
1
  6
CONTINUOUS
 10
1049.7470859999989
 20
2041.931867
 30
0.0
 11
1559.2670860000001
 21
2385.1018669999999
 31
0.0
  0
LINE
  5
7A96
  8
2
  6
CENTER
 10
1023.257085999999
 20
1992.161867
 30
0.0
 11
1143.2570859999989
 21
1992.161867
 31
0.0
  0
CIRCLE
  5
7A97
  8
1
  6
CONTINUOUS
 10
1083.2570859999989
 20
1992.161867
 30
0.0
 40
60.0
  0
LINE
  5
7A98
  8
2
  6
CENTER
 10
1083.2570859999989
 20
1932.161867
 30
0.0
 11
1083.2570859999989
 21
2052.1618669999998
 31
0.0
  0
LINE
  5
7A9B
  8
1
  6
CONTINUOUS
 10
1790.6270859999991
 20
1867.161867
 30
0.0
 11
1790.6270859999991
 21
2407.1618669999998
 31
0.0
  0
LINE
  5
7A9C
  8
1
  6
CONTINUOUS
 10
1915.127086
 20
2341.1618669999998
 30
0.0
 11
1915.127086
 21
1887.161867
 31
0.0
  0
LINE
  5
7A9D
  8
1
  6
CONTINUOUS
 10
1885.1270859999991
 20
1867.161867
 30
0.0
 11
1885.1270859999991
 21
2602.1618669999998
 31
0.0
  0
LINE
  5
7A9E
  8
1
  6
CONTINUOUS
 10
1895.127086
 20
2314.1618669999998
 30
0.0
 11
1895.127086
 21
1914.2918669999999
 31
0.0
  0
LINE
  5
7A9F
  8
1
  6
CONTINUOUS
 10
1975.127086
 20
2785.1618669999998
 30
0.0
 11
1975.127086
 21
1725.161867
 31
0.0
  0
LINE
  5
7AA0
  8
1
  6
CONTINUOUS
 10
1935.1270859999991
 20
1765.161867
 30
0.0
 11
1935.1270859999991
 21
2745.1618669999998
 31
0.0
  0
LINE
  5
7AA2
  8
1
  6
CONTINUOUS
 10
1915.127086
 20
1914.161867
 30
0.0
 11
1615.127086
 21
1916.161867
 31
0.0
  0
LINE
  5
7AA3
  8
1
  6
CONTINUOUS
 10
1875.127086
 20
1867.161867
 30
0.0
 11
1875.127086
 21
1787.161867
 31
0.0
  0
LINE
  5
7AA5
  8
1
  6
CONTINUOUS
 10
1869.5270860000001
 20
2314.1618669999998
 30
0.0
 11
1915.127086
 21
2314.1618669999998
 31
0.0
  0
ARC
  5
7AA6
  8
1
  6
CONTINUOUS
 10
1598.127086
 20
2319.1618669999998
 30
0.0
 40
271.43999999999988
 50
358.93999999999988
 51
82.689999999999998
  0
LINE
  5
7AA8
  8
1
  6
CONTINUOUS
 10
1790.6270859999991
 20
2407.1618669999998
 30
0.0
 11
1600.627086
 21
2522.1618669999998
 31
0.0
  0
LINE
  5
7AA9
  8
1
  6
CONTINUOUS
 10
3073.8521799999999
 20
1914.161867
 30
0.0
 11
3373.8521799999999
 21
2314.1618669999998
 31
0.0
  0
LINE
  5
7AAA
  8
1
  6
CONTINUOUS
 10
3373.8521799999999
 20
1914.161867
 30
0.0
 11
3073.8521799999999
 21
2314.1618669999998
 31
0.0
  0
LINE
  5
7AAB
  8
1
  6
CONTINUOUS
 10
3073.8521799999999
 20
2602.1618669999998
 30
0.0
 11
3073.8521799999999
 21
1867.161867
 31
0.0
  0
LINE
  5
7AAC
  8
1
  6
CONTINUOUS
 10
3373.8521799999999
 20
2602.1618669999998
 30
0.0
 11
3373.8521799999999
 21
1867.161867
 31
0.0
  0
LINE
  5
7AAD
  8
1
  6
CONTINUOUS
 10
2993.8521799999999
 20
1867.161867
 30
0.0
 11
2993.8521799999999
 21
2522.1618669999998
 31
0.0
  0
LINE
  5
7AAE
  8
1
  6
CONTINUOUS
 10
2893.8521799999999
 20
2785.1618669999998
 30
0.0
 11
2893.8521799999999
 21
1725.161867
 31
0.0
  0
LINE
  5
7AAF
  8
1
  6
CONTINUOUS
 10
2933.8521799999999
 20
1765.161867
 30
0.0
 11
2933.8521799999999
 21
2745.1618669999998
 31
0.0
  0
LINE
  5
7AB0
  8
1
  6
CONTINUOUS
 10
3453.8521799999999
 20
2745.1618669999998
 30
0.0
 11
3453.8521799999999
 21
1765.161867
 31
0.0
  0
LINE
  5
7AB1
  8
1
  6
CONTINUOUS
 10
3073.8521799999999
 20
1914.161867
 30
0.0
 11
3373.8521799999999
 21
1914.161867
 31
0.0
  0
LINE
  5
7AB2
  8
1
  6
CONTINUOUS
 10
3417.8521799999999
 20
1787.161867
 30
0.0
 11
3029.8521799999999
 21
1787.161867
 31
0.0
  0
LINE
  5
7AB3
  8
1
  6
CONTINUOUS
 10
3417.8521799999999
 20
1867.161867
 30
0.0
 11
2893.8521799999999
 21
1867.161867
 31
0.0
  0
LINE
  5
7AB4
  8
1
  6
CONTINUOUS
 10
3453.8521799999999
 20
1765.161867
 30
0.0
 11
2933.8521799999999
 21
1765.161867
 31
0.0
  0
LINE
  5
7AB5
  8
1
  6
CONTINUOUS
 10
3029.8521799999999
 20
1867.161867
 30
0.0
 11
3029.8521799999999
 21
1787.161867
 31
0.0
  0
LINE
  5
7AB6
  8
1
  6
CONTINUOUS
 10
3417.8521799999999
 20
1867.161867
 30
0.0
 11
3417.8521799999999
 21
1787.161867
 31
0.0
  0
LINE
  5
7AB7
  8
1
  6
CONTINUOUS
 10
3073.8521799999999
 20
2314.1618669999998
 30
0.0
 11
3373.8521799999999
 21
2314.1618669999998
 31
0.0
  0
LINE
  5
7AB8
  8
1
  6
CONTINUOUS
 10
3073.8521799999999
 20
2602.1618669999998
 30
0.0
 11
3373.8521799999999
 21
2602.1618669999998
 31
0.0
  0
LINE
  5
7AB9
  8
1
  6
CONTINUOUS
 10
2933.8521799999999
 20
2745.1618669999998
 30
0.0
 11
3453.8521799999999
 21
2745.1618669999998
 31
0.0
  0
LINE
  5
7ABA
  8
1
  6
CONTINUOUS
 10
2968.8521799999999
 20
2200.3918669999998
 30
0.0
 11
2968.8521799999999
 21
2403.921867
 31
0.0
  0
LINE
  5
7ABB
  8
1
  6
CONTINUOUS
 10
2918.8521799999999
 20
2200.3918669999998
 30
0.0
 11
2918.8521799999999
 21
2403.921867
 31
0.0
  0
LINE
  5
7ABC
  8
1
  6
CONTINUOUS
 10
2968.8521799999999
 20
2006.161867
 30
0.0
 11
3073.8521799999999
 21
2006.161867
 31
0.0
  0
LINE
  5
7ABD
  8
1
  6
CONTINUOUS
 10
2968.8521799999999
 20
1978.161867
 30
0.0
 11
3073.8521799999999
 21
1978.161867
 31
0.0
  0
LINE
  5
7ABE
  8
1
  6
CONTINUOUS
 10
2968.8521799999999
 20
2317.921867
 30
0.0
 11
3073.8521799999999
 21
2317.921867
 31
0.0
  0
LINE
  5
7ABF
  8
1
  6
CONTINUOUS
 10
2968.8521799999999
 20
2289.9218669999991
 30
0.0
 11
3073.8521799999999
 21
2289.9218669999991
 31
0.0
  0
LINE
  5
7AC0
  8
1
  6
CONTINUOUS
 10
2968.8521799999999
 20
1932.161867
 30
0.0
 11
2968.8521799999999
 21
2052.1618669999998
 31
0.0
  0
LINE
  5
7AC1
  8
1
  6
CONTINUOUS
 10
2918.8521799999999
 20
1932.161867
 30
0.0
 11
2918.8521799999999
 21
2052.1618669999998
 31
0.0
  0
LINE
  5
7AC2
  8
1
  6
CONTINUOUS
 10
2918.8521799999999
 20
2052.1618669999998
 30
0.0
 11
2968.8521799999999
 21
2052.1618669999998
 31
0.0
  0
LINE
  5
7AC3
  8
1
  6
CONTINUOUS
 10
2918.8521799999999
 20
1932.161867
 30
0.0
 11
2968.8521799999999
 21
1932.161867
 31
0.0
  0
LINE
  5
7AC4
  8
1
  6
CONTINUOUS
 10
2918.8521799999999
 20
2200.3918669999998
 30
0.0
 11
2968.8521799999999
 21
2200.3918669999998
 31
0.0
  0
LINE
  5
7AC5
  8
1
  6
CONTINUOUS
 10
2893.8521799999999
 20
2522.1618669999998
 30
0.0
 11
2993.8521799999999
 21
2522.1618669999998
 31
0.0
  0
LINE
  5
7AC6
  8
1
  6
CONTINUOUS
 10
2918.8521799999999
 20
2403.921867
 30
0.0
 11
2968.8521799999999
 21
2403.921867
 31
0.0
  0
LINE
  5
7AC7
  8
1
  6
CONTINUOUS
 10
3493.852179999999
 20
2785.1618669999998
 30
0.0
 11
3493.852179999999
 21
1725.161867
 31
0.0
  0
LINE
  5
7AC8
  8
1
  6
CONTINUOUS
 10
1601.1270859999991
 20
3570.0274570000001
 30
0.0
 11
1097.2570859999989
 21
3570.0274570000001
 31
0.0
  0
LINE
  5
7AC9
  8
1
  6
CONTINUOUS
 10
1875.127086
 20
3958.0274570000001
 30
0.0
 11
875.12708599999985
 21
3958.0274570000001
 31
0.0
  0
LINE
  5
7ACA
  8
1
  6
CONTINUOUS
 10
1275.127086
 20
3614.0274570000001
 30
0.0
 11
1915.127086
 21
3614.0274570000001
 31
0.0
  0
LINE
  5
7ACB
  8
1
  6
CONTINUOUS
 10
1275.127086
 20
3914.0274570000001
 30
0.0
 11
1915.127086
 21
3914.0274570000001
 31
0.0
  0
LINE
  5
7ACC
  8
1
  6
CONTINUOUS
 10
920.62708599999996
 20
3534.0274570000001
 30
0.0
 11
1790.6270859999991
 21
3534.0274570000001
 31
0.0
  0
LINE
  5
7ACD
  8
1
  6
CONTINUOUS
 10
1511.607086
 20
3459.0274570000001
 30
0.0
 11
1715.127086
 21
3459.0274570000001
 31
0.0
  0
LINE
  5
7ACE
  8
1
  6
CONTINUOUS
 10
1511.607086
 20
3509.0274570000001
 30
0.0
 11
1715.127086
 21
3509.0274570000001
 31
0.0
  0
LINE
  5
7ACF
  8
1
  6
CONTINUOUS
 10
775.12708599999996
 20
3434.0274570000001
 30
0.0
 11
1975.127086
 21
3434.0274570000001
 31
0.0
  0
LINE
  5
7AD0
  8
1
  6
CONTINUOUS
 10
775.12708599999996
 20
4034.0274570000001
 30
0.0
 11
1975.127086
 21
4034.0274570000001
 31
0.0
  0
LINE
  5
7AD1
  8
1
  6
CONTINUOUS
 10
815.12708599999996
 20
3474.0274570000001
 30
0.0
 11
1935.1270859999991
 21
3474.0274570000001
 31
0.0
  0
LINE
  5
7AD2
  8
1
  6
CONTINUOUS
 10
1935.1270859999991
 20
3994.0274569999988
 30
0.0
 11
815.12708599999996
 21
3994.0274569999988
 31
0.0
  0
LINE
  5
7AD3
  8
1
  6
CONTINUOUS
 10
1069.2570859999989
 20
3570.0274570000001
 30
0.0
 11
875.12708599999985
 21
3570.0274570000001
 31
0.0
  0
LINE
  5
7AD4
  8
1
  6
CONTINUOUS
 10
875.12708599999985
 20
3958.0274570000001
 30
0.0
 11
875.12708599999985
 21
3570.0274570000001
 31
0.0
  0
LINE
  5
7AD5
  8
1
  6
CONTINUOUS
 10
775.12708599999996
 20
4034.0274570000001
 30
0.0
 11
775.12708599999996
 21
3434.0274570000001
 31
0.0
  0
LINE
  5
7AD6
  8
1
  6
CONTINUOUS
 10
815.12708599999996
 20
3994.0274569999988
 30
0.0
 11
815.12708599999996
 21
3474.0274570000001
 31
0.0
  0
LINE
  5
7AD7
  8
1
  6
CONTINUOUS
 10
920.62708599999996
 20
3434.0274570000001
 30
0.0
 11
920.62708599999996
 21
3534.0274570000001
 31
0.0
  0
LINE
  5
7AD8
  8
1
  6
CONTINUOUS
 10
1023.257085999999
 20
3459.0274570000001
 30
0.0
 11
1023.257085999999
 21
3509.0274570000001
 31
0.0
  0
LINE
  5
7AD9
  8
1
  6
CONTINUOUS
 10
1143.2570859999989
 20
3459.0274570000001
 30
0.0
 11
1143.2570859999989
 21
3509.0274570000001
 31
0.0
  0
LINE
  5
7ADA
  8
1
  6
CONTINUOUS
 10
1023.257085999999
 20
3459.0274570000001
 30
0.0
 11
1143.2570859999989
 21
3459.0274570000001
 31
0.0
  0
LINE
  5
7ADB
  8
1
  6
CONTINUOUS
 10
1184.2570859999989
 20
3844.2374570000002
 30
0.0
 11
982.25708599999984
 21
3844.2374570000002
 31
0.0
  0
LINE
  5
7ADC
  8
1
  6
CONTINUOUS
 10
1184.2570859999989
 20
3601.5574569999999
 30
0.0
 11
982.25708599999984
 21
3601.5574569999999
 31
0.0
  0
LINE
  5
7ADD
  8
1
  6
CONTINUOUS
 10
1023.257085999999
 20
3509.0274570000001
 30
0.0
 11
1143.2570859999989
 21
3509.0274570000001
 31
0.0
  0
LINE
  5
7ADE
  8
1
  6
CONTINUOUS
 10
1069.2570859999989
 20
3509.0274570000001
 30
0.0
 11
1069.2570859999989
 21
3601.5574569999999
 31
0.0
  0
LINE
  5
7ADF
  8
1
  6
CONTINUOUS
 10
1097.2570859999989
 20
3509.0274570000001
 30
0.0
 11
1097.2570859999989
 21
3601.5574569999999
 31
0.0
  0
LINE
  5
7AE0
  8
1
  6
CONTINUOUS
 10
982.25708599999984
 20
3601.5574569999999
 30
0.0
 11
982.25708599999984
 21
3844.2374570000002
 31
0.0
  0
LINE
  5
7AE1
  8
1
  6
CONTINUOUS
 10
1184.2570859999989
 20
3601.5574569999999
 30
0.0
 11
1184.2570859999989
 21
3844.2374570000002
 31
0.0
  0
LINE
  5
7AE2
  8
1
  6
CONTINUOUS
 10
1275.127086
 20
3614.0274570000001
 30
0.0
 11
1275.127086
 21
3914.0274570000001
 31
0.0
  0
LINE
  5
7AE3
  8
1
  6
CONTINUOUS
 10
1511.607086
 20
3459.0274570000001
 30
0.0
 11
1511.607086
 21
3509.0274570000001
 31
0.0
  0
LINE
  5
7AE4
  8
1
  6
CONTINUOUS
 10
1875.127086
 20
3958.0274570000001
 30
0.0
 11
1875.127086
 21
3914.0274570000001
 31
0.0
  0
LINE
  5
7AE5
  8
1
  6
CONTINUOUS
 10
1915.127086
 20
3587.0274570000001
 30
0.0
 11
1915.127086
 21
3941.0274570000001
 31
0.0
  0
LINE
  5
7AE6
  8
1
  6
CONTINUOUS
 10
1975.127086
 20
4034.0274570000001
 30
0.0
 11
1975.127086
 21
3434.0274570000001
 31
0.0
  0
LINE
  5
7AE7
  8
1
  6
CONTINUOUS
 10
1935.1270859999991
 20
3474.0274570000001
 30
0.0
 11
1935.1270859999991
 21
3994.0274569999988
 31
0.0
  0
LINE
  5
7AE8
  8
1
  6
CONTINUOUS
 10
1790.6270859999991
 20
3434.0274570000001
 30
0.0
 11
1790.6270859999991
 21
3534.0274570000001
 31
0.0
  0
LINE
  5
7AE9
  8
1
  6
CONTINUOUS
 10
1715.127086
 20
3459.0274570000001
 30
0.0
 11
1715.127086
 21
3509.0274570000001
 31
0.0
  0
LINE
  5
7AEA
  8
1
  6
CONTINUOUS
 10
1875.127086
 20
3570.0274570000001
 30
0.0
 11
1629.127086
 21
3570.0274570000001
 31
0.0
  0
LINE
  5
7AEB
  8
1
  6
CONTINUOUS
 10
1601.1270859999991
 20
3509.0274570000001
 30
0.0
 11
1601.1270859999991
 21
3614.0274570000001
 31
0.0
  0
LINE
  5
7AEC
  8
1
  6
CONTINUOUS
 10
1629.127086
 20
3509.0274570000001
 30
0.0
 11
1629.127086
 21
3614.0274570000001
 31
0.0
  0
LINE
  5
7AED
  8
1
  6
CONTINUOUS
 10
1875.127086
 20
3614.0274570000001
 30
0.0
 11
1875.127086
 21
3570.0274570000001
 31
0.0
  0
LINE
  5
7AEE
  8
1
  6
CONTINUOUS
 10
1895.127086
 20
3614.0274570000001
 30
0.0
 11
1895.127086
 21
3914.0274570000001
 31
0.0
  0
LINE
  5
7AF0
  8
2
  6
CENTER
 10
710.27201400000001
 20
3764.0274570000001
 30
0.0
 11
2024.1135690000001
 21
3764.0274570000001
 31
0.0
  0
LINE
  5
7AF1
  8
2
  6
CENTER
 10
1615.127086
 20
2855.4487170000002
 30
0.0
 11
1615.127086
 21
1632.5854719999991
 31
0.0
  0
LINE
  5
7AF2
  8
2
  6
CENTER
 10
1615.127086
 20
4083.1717619999999
 30
0.0
 11
1615.127086
 21
3337.5015680000001
 31
0.0
  0
LINE
  5
7AF3
  8
2
  6
CENTER
 10
2085.7787509999998
 20
2302.1618669999998
 30
0.0
 11
719.5619414366156
 21
2302.1618669999998
 31
0.0
  0
LINE
  5
7AF4
  8
4
  6
CONTINUOUS
 10
3700.0
 20
1000.0
 30
0.0
 11
3700.0
 21
600.0
 31
0.0
  0
LINE
  5
7AF5
  8
4
  6
CONTINUOUS
 10
2300.0
 20
1000.0
 30
0.0
 11
2300.0
 21
600.0
 31
0.0
  0
LINE
  5
7AF6
  8
4
  6
CONTINUOUS
 10
1300.0
 20
1000.0
 30
0.0
 11
1300.0
 21
600.0
 31
0.0
  0
LINE
  5
7AF9
  8
4
  6
CONTINUOUS
 10
1300.0
 20
600.0
 30
0.0
 11
3700.0
 21
600.0
 31
0.0
  0
LINE
  5
7AFA
  8
4
  6
CONTINUOUS
 10
1300.0
 20
800.0
 30
0.0
 11
3700.0
 21
800.0
 31
0.0
  0
TEXT
  5
7AFB
  8
4
  6
CONTINUOUS
 10
1377.004162
 20
863.086052
 30
0.0
 40
100.0
  1
機器名称
  0
TEXT
  5
7AFC
  8
4
  6
CONTINUOUS
 10
1372.516212
 20
643.29031299999986
 30
0.0
 40
100.0
  1
機器型番
  0
TEXT
  5
7AFD
  8
4
  6
CONTINUOUS
 10
2355.3574910000002
 20
845.14353800000015
 30
0.0
 40
100.0
  1
ミツヤ多翼送風機
  0
TEXT
  5
7AFE
  8
4
  6
CONTINUOUS
 10
2373.3089909999999
 20
634.31916899999999
 30
0.0
 40
100.0
  1
MF#2 1/2-4
  0
TEXT
  5
7B00
  8
4
  6
CONTINUOUS
 10
1481.469026
 20
4766.8576830000002
 30
0.0
 40
108.0
  1
天井吊枠防振ベット
  0
TEXT
  5
7B01
  8
4
  6
CONTINUOUS
 10
632.33518700000002
 20
5067.7619520000007
 30
0.0
 40
144.0
  1
ベルト駆動式片吸込両持多翼ファン
  0
LINE
  5
7B02
  8
4
  6
CONTINUOUS
 10
500.0
 20
4938.8175090000004
 30
0.0
 11
3700.0
 21
4938.8175090000004
 31
0.0
  0
LINE
  5
7B03
  8
4
  6
CONTINUOUS
 10
500.0
 20
5338.8175090000004
 30
0.0
 11
3700.0
 21
5338.8175090000004
 31
0.0
  0
LINE
  5
7B04
  8
4
  6
CONTINUOUS
 10
1300.0
 20
1000.0
 30
0.0
 11
3700.0
 21
1000.0
 31
0.0
  0
LINE
  5
7B05
  8
4
  6
CONTINUOUS
 10
500.0
 20
5338.8175090000004
 30
0.0
 11
500.0
 21
4938.8175090000004
 31
0.0
  0
TEXT
  5
7B06
  8
4
  6
CONTINUOUS
 10
584.51268499999981
 20
4764.6389549999994
 30
0.0
 40
108.0
  1
左回転右横向
  0
TEXT
  5
7B07
  8
4
  6
CONTINUOUS
 10
2937.9391179999998
 20
5412.122163
 30
0.0
 40
112.0
  1
No.
  0
TEXT
  5
7B08
  8
4
  6
CONTINUOUS
 10
2837.1206910000001
 20
4766.8576830000002
 30
0.0
 40
108.0
  1
縮尺：1/20
  0
LINE
  5
7B09
  8
4
  6
CONTINUOUS
 10
3700.0
 20
5338.8175090000004
 30
0.0
 11
3700.0
 21
4938.8175090000004
 31
0.0
  0
LINE
  5
7B0B
  8
4
  6
CONTINUOUS
 10
2881.234845
 20
5362.5271659999999
 30
0.0
 11
2881.234845
 21
5573.3045229999998
 31
0.0
  0
LINE
  5
7B0C
  8
4
  6
CONTINUOUS
 10
2881.234845
 20
5573.3045229999998
 30
0.0
 11
3700.0
 21
5573.3045229999998
 31
0.0
  0
LINE
  5
7B0D
  8
4
  6
CONTINUOUS
 10
3700.0
 20
5573.3045229999998
 30
0.0
 11
3700.0
 21
5362.5271659999999
 31
0.0
  0
LINE
  5
7B0E
  8
4
  6
CONTINUOUS
 10
3700.0
 20
5362.5271659999999
 30
0.0
 11
2881.234845
 21
5362.5271659999999
 31
0.0
  0
DIMENSION
  5
7B26
  8
3
  6
CONTINUOUS
  2
*D1
 10
2107.1490520000002
 20
1914.161867
 30
0.0
 11
2107.1490520000002
 21
2101.1444149999988
 31
0.0
 70
   128
 13
1915.127086
 23
2314.1618669999998
 33
0.0
 14
1915.127086
 24
1914.161867
 34
0.0
 50
90.0
1001
ACAD
1000
DSTYLE
1002
{
1070
   287
1070
     3
1070
   287
1070
     3
1070
    40
1040
20.0
1070
   143
1040
0.039
1070
   172
1070
     1
1070
   271
1070
     0
1070
   279
1070
     0
1070
   288
1070
     1
1002
}
  0
DIMENSION
  5
7B33
  8
3
  6
CONTINUOUS
  2
*D2
 10
2215.0957829829431
 20
1914.161867
 30
0.0
 11
2215.0957829829422
 21
2105.3129239999998
 31
0.0
 70
   128
 13
2085.7787509999998
 23
2302.1618669999998
 33
0.0
 14
1935.1270859999991
 24
1914.161867
 34
0.0
 50
90.0
1001
ACAD
1000
DSTYLE
1002
{
1070
   287
1070
     3
1070
   287
1070
     3
1070
    40
1040
20.0
1070
   143
1040
0.039
1070
   172
1070
     1
1070
   271
1070
     0
1070
   279
1070
     0
1070
   288
1070
     1
1002
}
  0
DIMENSION
  5
7B40
  8
3
  6
CONTINUOUS
  2
*D3
 10
2335.7152329892629
 20
1787.161867
 30
0.0
 11
2335.7152329892619
 21
1992.7632410000001
 31
0.0
 70
   128
 13
2085.7787509999998
 23
2302.1618669999998
 33
0.0
 14
1875.127086
 24
1787.161867
 34
0.0
 50
90.0
1001
ACAD
1000
DSTYLE
1002
{
1070
   287
1070
     3
1070
   287
1070
     3
1070
    40
1040
20.0
1070
   143
1040
0.039
1070
   172
1070
     1
1070
   271
1070
     0
1070
   279
1070
     0
1070
   288
1070
     1
1002
}
  0
DIMENSION
  5
7B50
  8
3
  6
CONTINUOUS
  2
*D4
 10
2336.7308429892628
 20
1725.161867
 30
0.0
 11
2336.7308429892628
 21
1576.590438428572
 31
0.0
 70
   128
 13
1875.127086
 23
1787.161867
 33
0.0
 14
1975.127086
 24
1725.161867
 34
0.0
 50
90.0
1001
ACAD
1000
DSTYLE
1002
{
1070
   287
1070
     3
1070
   287
1070
     3
1070
    40
1040
20.0
1070
   143
1040
0.039
1070
   172
1070
     1
1070
   271
1070
     0
1070
   279
1070
     0
1070
   288
1070
     1
1002
}
  0
DIMENSION
  5
7B5E
  8
3
  6
CONTINUOUS
  2
*D5
 10
1615.127086
 20
2896.6917376154888
 30
0.0
 11
1752.2699431428571
 21
2896.6917376154888
 31
0.0
 70
   128
 13
1915.127086
 23
2341.1618669999998
 33
0.0
 14
1615.127086
 24
2855.4487170000002
 34
0.0
1001
ACAD
1000
DSTYLE
1002
{
1070
   287
1070
     3
1070
   287
1070
     3
1070
    40
1040
20.0
1070
   143
1040
0.039
1070
   172
1070
     1
1070
   271
1070
     0
1070
   279
1070
     0
1070
   288
1070
     1
1002
}
  0
DIMENSION
  5
7B6B
  8
3
  6
CONTINUOUS
  2
*D6
 10
1615.127086
 20
1566.368177120745
 30
0.0
 11
1210.0321710000001
 21
1566.368177120745
 31
0.0
 70
   128
 13
775.12708599999996
 23
1725.161867
 33
0.0
 14
1615.127086
 24
1632.5854719999991
 34
0.0
1001
ACAD
1000
DSTYLE
1002
{
1070
   287
1070
     3
1070
   287
1070
     3
1070
    40
1040
20.0
1070
   143
1040
0.039
1070
   172
1070
     1
1070
   271
1070
     0
1070
   279
1070
     0
1070
   288
1070
     1
1002
}
  0
DIMENSION
  5
7B77
  8
3
  6
CONTINUOUS
  2
*D7
 10
1975.127086
 20
1566.368177120745
 30
0.0
 11
1795.127086
 21
1616.368177120745
 31
0.0
 70
     0
 13
1615.127086
 23
1632.5854719999991
 33
0.0
 14
1975.127086
 24
1725.161867
 34
0.0
1001
ACAD
1000
DSTYLE
1002
{
1070
   287
1070
     4
1070
   287
1070
     4
1070
    40
1040
20.0
1070
    75
1070
     1
1070
   143
1040
0.039
1070
   172
1070
     1
1070
   271
1070
     0
1070
   279
1070
     1
1070
   288
1070
     1
1002
}
  0
DIMENSION
  5
7B84
  8
3
  6
CONTINUOUS
  2
*D8
 10
3073.8521799999999
 20
2843.138598999999
 30
0.0
 11
3210.9950369999988
 21
2843.138598999999
 31
0.0
 70
   128
 13
3373.8521799999999
 23
2602.1618669999998
 33
0.0
 14
3073.8521799999999
 24
2602.1618669999998
 34
0.0
1001
ACAD
1000
DSTYLE
1002
{
1070
   287
1070
     3
1070
   287
1070
     3
1070
    40
1040
20.0
1070
   143
1040
0.039
1070
   172
1070
     1
1070
   271
1070
     0
1070
   279
1070
     0
1070
   288
1070
     1
1002
}
  0
DIMENSION
  5
7B9F
  8
3
  6
CONTINUOUS
  2
*D9
 10
2773.1038940000012
 20
1725.161867
 30
0.0
 11
2773.1038939999999
 21
2267.8846849999991
 31
0.0
 70
   128
 13
2893.8521799999999
 23
2785.1618669999998
 33
0.0
 14
2893.8521799999999
 24
1725.161867
 34
0.0
 50
90.0
1001
ACAD
1000
DSTYLE
1002
{
1070
   287
1070
     3
1070
   287
1070
     3
1070
    40
1040
20.0
1070
   143
1040
0.039
1070
   172
1070
     1
1070
   271
1070
     0
1070
   279
1070
     0
1070
   288
1070
     1
1002
}
  0
DIMENSION
  5
7BAC
  8
3
  6
CONTINUOUS
  2
*D10
 10
3223.8521799999999
 20
1551.4406220000001
 30
0.0
 11
3065.50074
 21
1551.4406220000001
 31
0.0
 70
   128
 13
2893.8521799999999
 23
1725.161867
 33
0.0
 14
3223.8521799999999
 24
1591.098467565974
 34
0.0
1001
ACAD
1000
DSTYLE
1002
{
1070
   287
1070
     3
1070
   287
1070
     3
1070
    40
1040
20.0
1070
   143
1040
0.039
1070
   172
1070
     1
1070
   271
1070
     0
1070
   279
1070
     0
1070
   288
1070
     1
1002
}
  0
DIMENSION
  5
7BBA
  8
3
  6
CONTINUOUS
  2
*D11
 10
3493.852179999999
 20
1551.4406220000001
 30
0.0
 11
3362.9958189999988
 21
1551.2185910000001
 31
0.0
 70
   128
 13
3223.8521799999999
 23
1588.6359799501749
 33
0.0
 14
3493.852179999999
 24
1725.161867
 34
0.0
1001
ACAD
1000
DSTYLE
1002
{
1070
   287
1070
     4
1070
   287
1070
     4
1070
    40
1040
20.0
1070
    75
1070
     1
1070
   143
1040
0.039
1070
   172
1070
     1
1070
   271
1070
     0
1070
   279
1070
     1
1070
   288
1070
     1
1002
}
  0
DIMENSION
  5
7BC9
  8
3
  6
CONTINUOUS
  2
*D12
 10
3653.8425029999999
 20
2087.1618669999998
 30
0.0
 11
3653.8425029999999
 21
2288.7272160000002
 31
0.0
 70
   128
 13
3373.8521799999999
 23
2517.1618669999998
 33
0.0
 14
3373.8521799999999
 24
2087.1618669999998
 34
0.0
 50
90.0
1001
ACAD
1000
DSTYLE
1002
{
1070
   287
1070
     3
1070
   287
1070
     3
1070
     3
1000
φ<>
1070
    40
1040
20.0
1070
   143
1040
0.039
1070
   172
1070
     1
1070
   271
1070
     0
1070
   279
1070
     0
1070
   288
1070
     1
1002
}
  0
DIMENSION
  5
7BF0
  8
3
  6
CONTINUOUS
  2
*D13
 10
2161.6490650000001
 20
3434.0274570000001
 30
0.0
 11
2161.6490650000001
 21
3749.6912349999998
 31
0.0
 70
   128
 13
1975.127086
 23
4034.0274570000001
 33
0.0
 14
1975.127086
 24
3434.0274570000001
 34
0.0
 50
90.0
1001
ACAD
1000
DSTYLE
1002
{
1070
   287
1070
     3
1070
   287
1070
     3
1070
    40
1040
20.0
1070
   143
1040
0.039
1070
   172
1070
     1
1070
   271
1070
     0
1070
   279
1070
     0
1070
   288
1070
     1
1002
}
  0
DIMENSION
  5
7BFD
  8
3
  6
CONTINUOUS
  2
*D14
 10
1975.127086
 20
4182.676837
 30
0.0
 11
1460.807618
 21
4182.676837
 31
0.0
 70
   128
 13
775.12708599999996
 23
4034.0274570000001
 33
0.0
 14
1975.127086
 24
4034.0274570000001
 34
0.0
1001
ACAD
1000
DSTYLE
1002
{
1070
   287
1070
     3
1070
   287
1070
     3
1070
    40
1040
20.0
1070
   143
1040
0.039
1070
   172
1070
     1
1070
   271
1070
     0
1070
   279
1070
     0
1070
   288
1070
     1
1002
}
  0
LINE
  5
7C80
  8
1
  6
CONTINUOUS
 10
3374.852179999999
 20
2517.1618669999998
 30
0.0
 11
3374.852179999999
 21
2087.1618669999998
 31
0.0
  0
DIMENSION
  5
7C90
  8
3
  6
CONTINUOUS
  2
*D15
 10
3374.852179999999
 20
2968.502738429429
 30
0.0
 11
3288.7689401701859
 21
3022.2934272406142
 31
0.0
 70
   128
 13
3223.8521799999999
 23
2928.7942997794889
 33
0.0
 14
3374.852179999999
 24
2517.1618669999998
 34
0.0
1001
ACAD
1000
DSTYLE
1002
{
1070
   288
1070
     1
1070
   172
1070
     1
1070
    40
1040
20.0
1070
   271
1070
     0
1070
   143
1040
0.039
1002
}
  0
LINE
  5
7C91
  8
2
  6
CENTER
 10
3223.8521799999999
 20
2830.4106280000001
 30
0.0
 11
3223.8521799999999
 21
1587.8151587749319
 31
0.0
  0
DIMENSION
  5
7CA9
  8
3
  2
*D16
 10
1283.127086
 20
2896.6917376154888
 30
0.0
 11
1449.127086
 21
2946.6917376154888
 31
0.0
 70
     0
 13
1615.127086
 23
2855.4487170000002
 33
0.0
 14
1283.127086
 24
2275.1618669999998
 34
0.0
1001
ACAD
1000
DSTYLE
1002
{
1070
   287
1070
     4
1070
   287
1070
     4
1070
    40
1040
20.0
1070
    75
1070
     1
1070
   143
1040
0.039
1070
   172
1070
     1
1070
   271
1070
     0
1070
   279
1070
     1
1070
   288
1070
     1
1002
}
  0
DIMENSION
  5
7CE2
  8
3
  2
*D17
 10
2335.7152329892619
 20
2602.1618669999998
 30
0.0
 11
2285.7152329892619
 21
2452.1618669999998
 31
0.0
 70
     0
 13
2085.7787509999998
 23
2302.1618669999998
 33
0.0
 14
1885.1270859999991
 24
2602.1618669999998
 34
0.0
 50
90.0
1001
ACAD
1000
DSTYLE
1002
{
1070
   287
1070
     4
1070
   287
1070
     4
1070
    40
1040
20.0
1070
    75
1070
     1
1070
   143
1040
0.039
1070
   172
1070
     1
1070
   271
1070
     0
1070
   279
1070
     1
1070
   288
1070
     1
1002
}
  0
LINE
  5
7DB8
  8
2
  6
CENTER
 10
875.12708600000008
 20
4028.1101051132759
 30
0.0
 11
875.12708600000008
 21
3995.9448088867239
 31
0.0
  0
LINE
  5
7DB9
  8
2
  6
CENTER
 10
859.04443788672461
 20
4012.0274570000001
 30
0.0
 11
891.20973411327554
 21
4012.0274570000001
 31
0.0
  0
CIRCLE
  5
7DBA
  8
1
 10
875.12708600000008
 20
4012.0274570000001
 30
0.0
 40
6.0
  0
LINE
  5
7DBC
  8
2
  6
CENTER
 10
1359.0444378867239
 20
4012.0274570000001
 30
0.0
 11
1391.2097341132751
 21
4012.0274570000001
 31
0.0
  0
CIRCLE
  5
7DBD
  8
1
 10
1375.1270859999991
 20
4012.0274570000001
 30
0.0
 40
6.0
  0
LINE
  5
7DBE
  8
2
  6
CENTER
 10
1375.1270859999991
 20
4028.1101051132759
 30
0.0
 11
1375.1270859999991
 21
3995.9448088867239
 31
0.0
  0
CIRCLE
  5
7DBF
  8
1
 10
1875.127086
 20
4012.0274570000001
 30
0.0
 40
6.0
  0
LINE
  5
7DC0
  8
2
  6
CENTER
 10
1859.0444378867239
 20
4012.0274570000001
 30
0.0
 11
1891.2097341132751
 21
4012.0274570000001
 31
0.0
  0
LINE
  5
7DC1
  8
2
  6
CENTER
 10
1875.127086
 20
4028.1101051132759
 30
0.0
 11
1875.127086
 21
3995.9448088867239
 31
0.0
  0
LINE
  5
7DC2
  8
2
  6
CENTER
 10
859.04443788672461
 20
3456.0274570000001
 30
0.0
 11
891.20973411327554
 21
3456.0274570000001
 31
0.0
  0
CIRCLE
  5
7DC3
  8
1
 10
875.12708600000008
 20
3456.0274570000001
 30
0.0
 40
6.0
  0
LINE
  5
7DC4
  8
2
  6
CENTER
 10
875.12708600000008
 20
3472.110105113275
 30
0.0
 11
875.12708600000008
 21
3439.9448088867239
 31
0.0
  0
CIRCLE
  5
7DC5
  8
1
 10
1375.1270859999991
 20
3456.0274570000001
 30
0.0
 40
6.0
  0
LINE
  5
7DC6
  8
2
  6
CENTER
 10
1359.0444378867239
 20
3456.0274570000001
 30
0.0
 11
1391.2097341132751
 21
3456.0274570000001
 31
0.0
  0
LINE
  5
7DC7
  8
2
  6
CENTER
 10
1375.1270859999991
 20
3472.110105113275
 30
0.0
 11
1375.1270859999991
 21
3439.9448088867239
 31
0.0
  0
LINE
  5
7DC8
  8
2
  6
CENTER
 10
1859.0444378867239
 20
3456.0274570000001
 30
0.0
 11
1891.2097341132751
 21
3456.0274570000001
 31
0.0
  0
LINE
  5
7DC9
  8
2
  6
CENTER
 10
1875.127086
 20
3472.110105113275
 30
0.0
 11
1875.127086
 21
3439.9448088867239
 31
0.0
  0
CIRCLE
  5
7DCA
  8
1
 10
1875.127086
 20
3456.0274570000001
 30
0.0
 40
6.0
  0
ENDSEC
  0
EOF
