  0
SECTION
  2
HEADER
  9
$ACADVER
  1
AC1009
  9
$INSBASE
 10
0.0
 20
0.0
 30
0.0
  9
$EXTMIN
 10
500.0
 20
600.0
 30
0.0
  9
$EXTMAX
 10
3700.0
 20
5573.3045229999998
 30
0.0
  9
$LIMMIN
 10
0.0
 20
0.0
  9
$LIMMAX
 10
297.0
 20
210.0
  9
$ORTHOMODE
 70
     0
  9
$REGENMODE
 70
     1
  9
$FILLMODE
 70
     0
  9
$QTEXTMODE
 70
     0
  9
$MIRRTEXT
 70
     1
  9
$DRAGMODE
 70
     2
  9
$LTSCALE
 40
100.0
  9
$OSMODE
 70
    37
  9
$ATTMODE
 70
     1
  9
$TEXTSIZE
 40
180.0
  9
$TRACEWID
 40
0.05
  9
$TEXTSTYLE
  7
STANDARD
  9
$CLAYER
  8
1
  9
$CELTYPE
  6
BYLAYER
  9
$CECOLOR
 62
   256
  9
$DIMSCALE
 40
20.0
  9
$DIMASZ
 40
2.0
  9
$DIMEXO
 40
0.5
  9
$DIMDLI
 40
10.0
  9
$DIMRND
 40
0.0
  9
$DIMDLE
 40
0.0
  9
$DIMEXE
 40
1.0
  9
$DIMTP
 40
1.0
  9
$DIMTM
 40
1.0
  9
$DIMTXT
 40
3.0
  9
$DIMCEN
 40
0.0
  9
$DIMTSZ
 40
0.0
  9
$DIMTOL
 70
     0
  9
$DIMLIM
 70
     0
  9
$DIMTIH
 70
     0
  9
$DIMTOH
 70
     0
  9
$DIMSE1
 70
     0
  9
$DIMSE2
 70
     0
  9
$DIMTAD
 70
     1
  9
$DIMZIN
 70
     8
  9
$DIMBLK
  1

  9
$DIMASO
 70
     1
  9
$DIMSHO
 70
     1
  9
$DIMPOST
  1

  9
$DIMAPOST
  1

  9
$DIMALT
 70
     0
  9
$DIMALTD
 70
     2
  9
$DIMALTF
 40
0.039
  9
$DIMLFAC
 40
1.0
  9
$DIMTOFL
 70
     1
  9
$DIMTVP
 40
0.0
  9
$DIMTIX
 70
     0
  9
$DIMSOXD
 70
     0
  9
$DIMSAH
 70
     1
  9
$DIMBLK1
  1
OPEN
  9
$DIMBLK2
  1
OPEN
  9
$DIMSTYLE
  2
IGA
  9
$DIMCLRD
 70
     0
  9
$DIMCLRE
 70
     0
  9
$DIMCLRT
 70
     0
  9
$DIMTFAC
 40
10.0
  9
$DIMGAP
 40
1.0
  9
$LUNITS
 70
     2
  9
$LUPREC
 70
     3
  9
$SKETCHINC
 40
0.1
  9
$FILLETRAD
 40
50.0
  9
$AUNITS
 70
     0
  9
$AUPREC
 70
     0
  9
$MENU
  1
acad
  9
$ELEVATION
 40
0.0
  9
$PELEVATION
 40
0.0
  9
$THICKNESS
 40
0.0
  9
$LIMCHECK
 70
     0
  9
$BLIPMODE
 70
     0
  9
$CHAMFERA
 40
0.5
  9
$CHAMFERB
 40
0.5
  9
$SKPOLY
 70
     0
  9
$TDCREATE
 40
2450728.54676412
  9
$TDUPDATE
 40
2454953.7654929738
  9
$TDINDWG
 40
0.0055551852
  9
$TDUSRTIMER
 40
0.0055551852
  9
$USRTIMER
 70
     1
  9
$ANGBASE
 50
0.0
  9
$ANGDIR
 70
     0
  9
$PDMODE
 70
     0
  9
$PDSIZE
 40
0.0
  9
$PLINEWID
 40
0.0
  9
$COORDS
 70
     1
  9
$SPLFRAME
 70
     0
  9
$SPLINETYPE
 70
     6
  9
$SPLINESEGS
 70
     8
  9
$ATTDIA
 70
     0
  9
$ATTREQ
 70
     1
  9
$HANDLING
 70
 10241
  9
$HANDSEED
  5
7F85
  9
$SURFTAB1
 70
     6
  9
$SURFTAB2
 70
     6
  9
$SURFTYPE
 70
     6
  9
$SURFU
 70
     6
  9
$SURFV
 70
     6
  9
$UCSNAME
  2

  9
$UCSORG
 10
0.0
 20
0.0
 30
0.0
  9
$UCSXDIR
 10
1.0
 20
0.0
 30
0.0
  9
$UCSYDIR
 10
0.0
 20
1.0
 30
0.0
  9
$PUCSNAME
  2

  9
$PUCSORG
 10
0.0
 20
0.0
 30
0.0
  9
$PUCSXDIR
 10
1.0
 20
0.0
 30
0.0
  9
$PUCSYDIR
 10
0.0
 20
1.0
 30
0.0
  9
$USERI1
 70
     0
  9
$USERI2
 70
     0
  9
$USERI3
 70
     0
  9
$USERI4
 70
     0
  9
$USERI5
 70
     0
  9
$USERR1
 40
0.0
  9
$USERR2
 40
0.0
  9
$USERR3
 40
0.0
  9
$USERR4
 40
0.0
  9
$USERR5
 40
0.0
  9
$WORLDVIEW
 70
     1
  9
$SHADEDGE
 70
     3
  9
$SHADEDIF
 70
    70
  9
$TILEMODE
 70
     1
  9
$MAXACTVP
 70
    16
  9
$PLIMCHECK
 70
     0
  9
$PEXTMIN
 10
1.0000000000000000E+020
 20
1.0000000000000000E+020
 30
1.0000000000000000E+020
  9
$PEXTMAX
 10
-1.0000000000000000E+020
 20
-1.0000000000000000E+020
 30
-1.0000000000000000E+020
  9
$PLIMMIN
 10
0.0
 20
0.0
  9
$PLIMMAX
 10
12.0
 20
9.0
  9
$UNITMODE
 70
     0
  9
$VISRETAIN
 70
     0
  9
$PLINEGEN
 70
     0
  9
$PSLTSCALE
 70
     1
  0
ENDSEC
  0
SECTION
  2
TABLES
  0
TABLE
  2
VPORT
 70
     2
  0
VPORT
  2
*ACTIVE
 70
     0
 10
0.0
 20
0.0
 11
1.0
 21
1.0
 12
6292.1124769529506
 22
3086.6374998146398
 13
0.0
 23
0.0
 14
10.0
 24
10.0
 15
10.0
 25
10.0
 16
0.0
 26
0.0
 36
1.0
 17
0.0
 27
0.0
 37
0.0
 40
5011.4968576296578
 41
3.1666666666666661
 42
50.0
 43
0.0
 44
0.0
 50
0.0
 51
0.0
 71
     0
 72
   100
 73
     1
 74
     0
 75
     0
 76
     0
 77
     0
 78
     0
  0
ENDTAB
  0
TABLE
  2
LTYPE
 70
     2
  0
LTYPE
  2
CONTINUOUS
 70
     0
  3
Solid line
 72
    65
 73
     0
 40
0.0
  0
LTYPE
  2
CENTER
 70
     0
  3
____ _ ____ _ ____ _ ____ _ ____ _ ____ _ ____ 
 72
    65
 73
     4
 40
2.0
 49
1.25
 49
-0.25
 49
0.25
 49
-0.25
  0
ENDTAB
  0
TABLE
  2
LAYER
 70
     6
  0
LAYER
  2
0
 70
     0
 62
     7
  6
CONTINUOUS
  0
LAYER
  2
3
 70
     0
 62
     2
  6
CONTINUOUS
  0
LAYER
  2
2
 70
     0
 62
     3
  6
CENTER
  0
LAYER
  2
1
 70
     0
 62
     4
  6
CONTINUOUS
  0
LAYER
  2
4
 70
     0
 62
     7
  6
CONTINUOUS
  0
LAYER
  2
DEFPOINTS
 70
     0
 62
     7
  6
CONTINUOUS
  0
ENDTAB
  0
TABLE
  2
STYLE
 70
     1
  0
STYLE
  2
STANDARD
 70
     0
 40
0.0
 41
1.0
 50
0.0
 71
     0
 42
180.0
  3
simplex.shx
  4
extfont.shx
  0
ENDTAB
  0
TABLE
  2
VIEW
 70
     0
  0
ENDTAB
  0
TABLE
  2
UCS
 70
     0
  0
ENDTAB
  0
TABLE
  2
APPID
 70
     1
  0
APPID
  2
ACAD
 70
     0
  0
ENDTAB
  0
TABLE
  2
DIMSTYLE
 70
     1
  0
DIMSTYLE
  2
IGA
 70
     0
  3

  4

  5

  6
OPEN
  7
OPEN
 40
2.0
 41
2.0
 42
0.5
 43
10.0
 44
1.0
 45
0.0
 46
0.0
 47
1.0
 48
1.0
140
3.0
141
0.0
142
0.0
143
0.03937
144
1.0
145
0.0
146
10.0
147
1.0
 71
     0
 72
     0
 73
     0
 74
     0
 75
     0
 76
     0
 77
     1
 78
     8
170
     0
171
     2
172
     0
173
     1
174
     0
175
     0
176
     0
177
     0
178
     0
  0
ENDTAB
  0
ENDSEC
  0
SECTION
  2
BLOCKS
  0
BLOCK
  8
0
  2
$MODEL_SPACE
 70
     0
 10
0.0
 20
0.0
 30
0.0
  3
$MODEL_SPACE
  1

  0
ENDBLK
  5
1B
  8
0
  0
BLOCK
 67
     1
  8
0
  2
$PAPER_SPACE
 70
     0
 10
0.0
 20
0.0
 30
0.0
  3
$PAPER_SPACE
  1

  0
ENDBLK
  5
18
 67
     1
  8
0
  0
BLOCK
  8
0
  2
_OPEN
 70
     0
 10
0.0
 20
0.0
 30
0.0
  3
_OPEN
  1

  0
LINE
  5
7BB8
  8
0
  6
BYBLOCK
 62
     0
 10
-1.0
 20
0.166667
 30
0.0
 11
0.0
 21
0.0
 31
0.0
  0
LINE
  5
7BB9
  8
0
  6
BYBLOCK
 62
     0
 10
0.0
 20
0.0
 30
0.0
 11
-1.0
 21
-0.166667
 31
0.0
  0
LINE
  5
7BBA
  8
0
  6
BYBLOCK
 62
     0
 10
0.0
 20
0.0
 30
0.0
 11
-1.0
 21
0.0
 31
0.0
  0
ENDBLK
  5
7BBB
  8
0
  0
BLOCK
  8
0
  2
*D1
 70
     1
 10
0.0
 20
0.0
 30
0.0
  3
*D1
  1

  0
LINE
  5
7EED
  8
3
  6
CONTINUOUS
 62
     0
 10
1193.7697310000001
 20
2651.333689
 30
0.0
 11
1193.7697310000001
 21
2770.4883960000002
 31
0.0
  0
LINE
  5
7EEE
  8
3
  6
CONTINUOUS
 62
     0
 10
1593.7697310000001
 20
2651.333689
 30
0.0
 11
1593.7697310000001
 21
2770.4883960000002
 31
0.0
  0
LINE
  5
7EEF
  8
3
  6
CONTINUOUS
 62
     0
 10
1233.7697310000001
 20
2750.4883960000002
 30
0.0
 11
1553.7697310000001
 21
2750.4883960000002
 31
0.0
  0
INSERT
  5
7EF0
  8
3
  6
CONTINUOUS
 62
     0
  2
_OPEN
 10
1193.7697310000001
 20
2750.4883960000002
 30
0.0
 41
40.0
 42
40.0
 43
40.0
 50
180.0
  0
INSERT
  5
7EF1
  8
3
  6
CONTINUOUS
 62
     0
  2
_OPEN
 10
1593.7697310000001
 20
2750.4883960000002
 30
0.0
 41
40.0
 42
40.0
 43
40.0
  0
TEXT
  8
3
  40
60
  5
7F76
  62
0
  72
0
  71
0
 10
1260.21
 20
2694.29
 30
0.000000
  1
400
  0
POINT
  5
7EF3
  8
DEFPOINTS
  6
CONTINUOUS
 62
     0
 10
1193.7697310000001
 20
2641.333689
 30
0.0
  0
POINT
  5
7EF4
  8
DEFPOINTS
  6
CONTINUOUS
 62
     0
 10
1593.7697310000001
 20
2641.333689
 30
0.0
  0
POINT
  5
7EF5
  8
DEFPOINTS
  6
CONTINUOUS
 62
     0
 10
1593.7697310000001
 20
2750.4883960000002
 30
0.0
  0
ENDBLK
  5
7CED
  8
0
  0
BLOCK
  8
0
  2
*D2
 70
     1
 10
0.0
 20
0.0
 30
0.0
  3
*D2
  1

  0
LINE
  5
7EF6
  8
3
  6
CONTINUOUS
 62
     0
 10
1593.7697310000001
 20
2651.333689
 30
0.0
 11
1593.7697310000001
 21
3041.9356830000002
 31
0.0
  0
LINE
  5
7EF7
  8
3
  6
CONTINUOUS
 62
     0
 10
1205.7697310000001
 20
2975.4364070000001
 30
0.0
 11
1205.7697310000001
 21
3041.9356830000002
 31
0.0
  0
LINE
  5
7EF8
  8
3
  6
CONTINUOUS
 62
     0
 10
1553.7697310000001
 20
3021.9356830000002
 30
0.0
 11
1245.7697310000001
 21
3021.9356830000002
 31
0.0
  0
INSERT
  5
7EF9
  8
3
  6
CONTINUOUS
 62
     0
  2
_OPEN
 10
1593.7697310000001
 20
3021.9356830000002
 30
0.0
 41
40.0
 42
40.0
 43
40.0
  0
INSERT
  5
7EFA
  8
3
  6
CONTINUOUS
 62
     0
  2
_OPEN
 10
1205.7697310000001
 20
3021.9356830000002
 30
0.0
 41
40.0
 42
40.0
 43
40.0
 50
180.0
  0
TEXT
  8
3
  40
60
  5
7F77
  62
0
  72
0
  71
0
 10
1279.57
 20
2965.74
 30
0.000000
  1
388
  0
POINT
  5
7EFC
  8
DEFPOINTS
  6
CONTINUOUS
 62
     0
 10
1593.7697310000001
 20
2641.333689
 30
0.0
  0
POINT
  5
7EFD
  8
DEFPOINTS
  6
CONTINUOUS
 62
     0
 10
1205.7697310000001
 20
2965.4364070000001
 30
0.0
  0
POINT
  5
7EFE
  8
DEFPOINTS
  6
CONTINUOUS
 62
     0
 10
1205.7697310000001
 20
3021.9356830000002
 30
0.0
  0
ENDBLK
  5
7C14
  8
0
  0
BLOCK
  8
0
  2
*D3
 70
     1
 10
0.0
 20
0.0
 30
0.0
  3
*D3
  1

  0
LINE
  5
7EFF
  8
3
  6
CONTINUOUS
 62
     0
 10
905.76973100000009
 20
2621.333689
 30
0.0
 11
905.76973100000009
 21
3041.9356830000002
 31
0.0
  0
LINE
  5
7F00
  8
3
  6
CONTINUOUS
 62
     0
 10
1165.7697310000001
 20
3021.9356830000002
 30
0.0
 11
945.76973099999998
 21
3021.9356830000002
 31
0.0
  0
INSERT
  5
7F01
  8
3
  6
CONTINUOUS
 62
     0
  2
_OPEN
 10
1205.7697310000001
 20
3021.9356830000002
 30
0.0
 41
40.0
 42
40.0
 43
40.0
  0
INSERT
  5
7F02
  8
3
  6
CONTINUOUS
 62
     0
  2
_OPEN
 10
905.76973100000009
 20
3021.9356830000002
 30
0.0
 41
40.0
 42
40.0
 43
40.0
 50
180.0
  0
TEXT
  8
3
  40
60
  5
7F78
  62
0
  72
0
  71
0
 10
935.770
 20
2965.74
 30
0.000000
  1
300
  0
POINT
  5
7F04
  8
DEFPOINTS
  6
CONTINUOUS
 62
     0
 10
1205.7697310000001
 20
2965.4364070000001
 30
0.0
  0
POINT
  5
7F05
  8
DEFPOINTS
  6
CONTINUOUS
 62
     0
 10
905.76973100000009
 20
2611.333689
 30
0.0
  0
POINT
  5
7F06
  8
DEFPOINTS
  6
CONTINUOUS
 62
     0
 10
905.76973100000009
 20
3021.9356830000002
 30
0.0
  0
ENDBLK
  5
7C20
  8
0
  0
BLOCK
  8
0
  2
*D4
 70
     1
 10
0.0
 20
0.0
 30
0.0
  3
*D4
  1

  0
LINE
  5
7F07
  8
3
  6
CONTINUOUS
 62
     0
 10
1156.7697310000001
 20
2641.333689
 30
0.0
 11
643.54260400000044
 21
2641.333689
 31
0.0
  0
LINE
  5
7F08
  8
3
  6
CONTINUOUS
 62
     0
 10
702.66420599999992
 20
2341.333689
 30
0.0
 11
643.54260400000044
 21
2341.333689
 31
0.0
  0
LINE
  5
7F09
  8
3
  6
CONTINUOUS
 62
     0
 10
663.54260400000044
 20
2681.333689
 30
0.0
 11
663.54260400000044
 21
2721.333689
 31
0.0
  0
LINE
  5
7F0A
  8
3
  6
CONTINUOUS
 62
     0
 10
663.54260400000032
 20
2301.333689
 30
0.0
 11
663.54260400000032
 21
2261.333689
 31
0.0
  0
LINE
  5
7F0B
  8
3
  6
CONTINUOUS
 62
     0
 10
663.54260400000044
 20
2641.333689
 30
0.0
 11
663.54260400000044
 21
2341.333689
 31
0.0
  0
INSERT
  5
7F0C
  8
3
  6
CONTINUOUS
 62
     0
  2
_OPEN
 10
663.54260400000044
 20
2641.333689
 30
0.0
 41
40.0
 42
40.0
 43
40.0
 50
270.0
  0
INSERT
  5
7F0D
  8
3
  6
CONTINUOUS
 62
     0
  2
_OPEN
 10
663.54260400000044
 20
2341.333689
 30
0.0
 41
40.0
 42
40.0
 43
40.0
 50
90.0
  0
TEXT
  8
3
  40
60
  5
7F79
  62
0
  72
0
  71
0
 10
493.543
 20
2372.28
 30
0.000000
  1
300
  0
POINT
  5
7F0F
  8
DEFPOINTS
  6
CONTINUOUS
 62
     0
 10
1166.7697310000001
 20
2641.333689
 30
0.0
  0
POINT
  5
7F10
  8
DEFPOINTS
  6
CONTINUOUS
 62
     0
 10
712.66420599999992
 20
2341.333689
 30
0.0
  0
POINT
  5
7F11
  8
DEFPOINTS
  6
CONTINUOUS
 62
     0
 10
663.54260400000044
 20
2341.333689
 30
0.0
  0
ENDBLK
  5
7C2D
  8
0
  0
BLOCK
  8
0
  2
*D5
 70
     1
 10
0.0
 20
0.0
 30
0.0
  3
*D5
  1

  0
LINE
  5
7F12
  8
3
  6
CONTINUOUS
 62
     0
 10
935.76973099999998
 20
1921.333689
 30
0.0
 11
643.54260399999998
 21
1921.333689
 31
0.0
  0
LINE
  5
7F13
  8
3
  6
CONTINUOUS
 62
     0
 10
663.54260399999987
 20
2301.333689
 30
0.0
 11
663.54260399999987
 21
1961.3336889999989
 31
0.0
  0
INSERT
  5
7F14
  8
3
  6
CONTINUOUS
 62
     0
  2
_OPEN
 10
663.5426040000001
 20
2341.333689
 30
0.0
 41
40.0
 42
40.0
 43
40.0
 50
90.0
  0
INSERT
  5
7F15
  8
3
  6
CONTINUOUS
 62
     0
  2
_OPEN
 10
663.54260399999987
 20
1921.333689
 30
0.0
 41
40.0
 42
40.0
 43
40.0
 50
270.0
  0
TEXT
  8
3
  40
60
  5
7F7A
  62
0
  72
0
  71
0
 10
493.543
 20
2025.13
 30
0.000000
  1
420
  0
POINT
  5
7F17
  8
DEFPOINTS
  6
CONTINUOUS
 62
     0
 10
712.66420599999992
 20
2341.333689
 30
0.0
  0
POINT
  5
7F18
  8
DEFPOINTS
  6
CONTINUOUS
 62
     0
 10
945.76973099999998
 20
1921.333689
 30
0.0
  0
POINT
  5
7F19
  8
DEFPOINTS
  6
CONTINUOUS
 62
     0
 10
663.54260399999987
 20
1921.333689
 30
0.0
  0
ENDBLK
  5
7C39
  8
0
  0
BLOCK
  8
0
  2
*D6
 70
     1
 10
0.0
 20
0.0
 30
0.0
  3
*D6
  1

  0
LINE
  5
7F1A
  8
3
  6
CONTINUOUS
 62
     0
 10
935.76973099999998
 20
1921.333689
 30
0.0
 11
643.82275800000025
 21
1921.333689
 31
0.0
  0
LINE
  5
7F1B
  8
3
  6
CONTINUOUS
 62
     0
 10
835.76973099999998
 20
1859.3336889999989
 30
0.0
 11
643.82275800000025
 21
1859.3336889999989
 31
0.0
  0
LINE
  5
7F1C
  8
3
  6
CONTINUOUS
 62
     0
 10
663.82275800000036
 20
1961.3336889999989
 30
0.0
 11
663.82275800000036
 21
2001.333689
 31
0.0
  0
LINE
  5
7F1D
  8
3
  6
CONTINUOUS
 62
     0
 10
663.82275800000036
 20
1819.333689
 30
0.0
 11
663.82275800000025
 21
1642.190831857142
 31
0.0
  0
LINE
  5
7F1E
  8
3
  6
CONTINUOUS
 62
     0
 10
663.82275800000036
 20
1921.333689
 30
0.0
 11
663.82275800000036
 21
1859.3336889999989
 31
0.0
  0
INSERT
  5
7F1F
  8
3
  6
CONTINUOUS
 62
     0
  2
_OPEN
 10
663.82275800000036
 20
1921.333689
 30
0.0
 41
40.0
 42
40.0
 43
40.0
 50
270.0
  0
INSERT
  5
7F20
  8
3
  6
CONTINUOUS
 62
     0
  2
_OPEN
 10
663.82275800000036
 20
1859.3336889999989
 30
0.0
 41
40.0
 42
40.0
 43
40.0
 50
90.0
  0
TEXT
  8
3
  40
60
  5
7F7B
  62
0
  72
0
  71
0
 10
493.823
 20
1604.56
 30
0.000000
  1
62
  0
POINT
  5
7F22
  8
DEFPOINTS
  6
CONTINUOUS
 62
     0
 10
945.76973099999998
 20
1921.333689
 30
0.0
  0
POINT
  5
7F23
  8
DEFPOINTS
  6
CONTINUOUS
 62
     0
 10
845.76973099999998
 20
1859.3336889999989
 30
0.0
  0
POINT
  5
7F24
  8
DEFPOINTS
  6
CONTINUOUS
 62
     0
 10
663.82275800000036
 20
1859.3336889999989
 30
0.0
  0
ENDBLK
  5
7D91
  8
0
  0
BLOCK
  8
0
  2
*D7
 70
     1
 10
0.0
 20
0.0
 30
0.0
  3
*D7
  1

  0
LINE
  5
7F25
  8
3
  6
CONTINUOUS
 62
     0
 10
845.76973099999998
 20
1849.333689
 30
0.0
 11
845.76973099999998
 21
1702.2218436177361
 31
0.0
  0
LINE
  5
7F26
  8
3
  6
CONTINUOUS
 62
     0
 10
1205.8124505488299
 20
1819.191058617736
 30
0.0
 11
1205.8124505488299
 21
1702.2218436177361
 31
0.0
  0
LINE
  5
7F27
  8
3
  6
CONTINUOUS
 62
     0
 10
885.76973099999998
 20
1722.2218436177361
 30
0.0
 11
1165.8124505488299
 21
1722.2218436177361
 31
0.0
  0
INSERT
  5
7F28
  8
3
  6
CONTINUOUS
 62
     0
  2
_OPEN
 10
845.76973099999998
 20
1722.2218436177361
 30
0.0
 41
40.0
 42
40.0
 43
40.0
 50
180.0
  0
INSERT
  5
7F29
  8
3
  6
CONTINUOUS
 62
     0
  2
_OPEN
 10
1205.8124505488299
 20
1722.2218436177361
 30
0.0
 41
40.0
 42
40.0
 43
40.0
  0
TEXT
  8
3
  40
60
  5
7F7C
  62
0
  72
0
  71
0
 10
917.357
 20
1666.02
 30
0.000000
  1
360
  0
POINT
  5
7F2B
  8
DEFPOINTS
  6
CONTINUOUS
 62
     0
 10
845.76973099999998
 20
1859.3336889999989
 30
0.0
  0
POINT
  5
7F2C
  8
DEFPOINTS
  6
CONTINUOUS
 62
     0
 10
1205.8124505488299
 20
1829.191058617736
 30
0.0
  0
POINT
  5
7F2D
  8
DEFPOINTS
  6
CONTINUOUS
 62
     0
 10
1205.8124505488299
 20
1722.2218436177361
 30
0.0
  0
ENDBLK
  5
7DFE
  8
0
  0
BLOCK
  8
0
  2
*D8
 70
     1
 10
0.0
 20
0.0
 30
0.0
  3
*D8
  1

  0
LINE
  5
7F2E
  8
3
  6
CONTINUOUS
 62
     0
 10
2045.7697310000001
 20
1849.333689
 30
0.0
 11
2045.7697310000001
 21
1702.2218436177361
 31
0.0
  0
LINE
  5
7F2F
  8
3
  6
CONTINUOUS
 62
     0
 10
1245.8124505488299
 20
1722.2218436177361
 30
0.0
 11
2005.7697310000001
 21
1722.2218436177361
 31
0.0
  0
INSERT
  5
7F30
  8
3
  6
CONTINUOUS
 62
     0
  2
_OPEN
 10
1205.8124505488299
 20
1722.2218436177361
 30
0.0
 41
40.0
 42
40.0
 43
40.0
 50
180.0
  0
INSERT
  5
7F31
  8
3
  6
CONTINUOUS
 62
     0
  2
_OPEN
 10
2045.7697310000001
 20
1722.2218436177361
 30
0.0
 41
40.0
 42
40.0
 43
40.0
  0
TEXT
  8
3
  40
60
  5
7F7D
  62
0
  72
0
  71
0
 10
1505.79
 20
1666.02
 30
0.000000
  1
840
  0
POINT
  5
7F33
  8
DEFPOINTS
  6
CONTINUOUS
 62
     0
 10
1205.8124505488299
 20
1829.191058617736
 30
0.0
  0
POINT
  5
7F34
  8
DEFPOINTS
  6
CONTINUOUS
 62
     0
 10
2045.7697310000001
 20
1859.3336889999989
 30
0.0
  0
POINT
  5
7F35
  8
DEFPOINTS
  6
CONTINUOUS
 62
     0
 10
2045.7697310000001
 20
1722.2218436177361
 30
0.0
  0
ENDBLK
  5
7DF3
  8
0
  0
BLOCK
  8
0
  2
*D9
 70
     1
 10
0.0
 20
0.0
 30
0.0
  3
*D9
  1

  0
LINE
  5
7F36
  8
3
  6
CONTINUOUS
 62
     0
 10
2878.0369930000002
 20
2919.333689
 30
0.0
 11
2772.3356720000002
 21
2919.333689
 31
0.0
  0
LINE
  5
7F37
  8
3
  6
CONTINUOUS
 62
     0
 10
2878.0369930000002
 20
1859.3336889999989
 30
0.0
 11
2772.3356720000002
 21
1859.3336889999989
 31
0.0
  0
LINE
  5
7F38
  8
3
  6
CONTINUOUS
 62
     0
 10
2792.3356720000002
 20
2879.333689
 30
0.0
 11
2792.3356720000002
 21
1899.333689
 31
0.0
  0
INSERT
  5
7F39
  8
3
  6
CONTINUOUS
 62
     0
  2
_OPEN
 10
2792.3356720000002
 20
2919.333689
 30
0.0
 41
40.0
 42
40.0
 43
40.0
 50
90.0
  0
INSERT
  5
7F3A
  8
3
  6
CONTINUOUS
 62
     0
  2
_OPEN
 10
2792.3356720000002
 20
1859.3336889999989
 30
0.0
 41
40.0
 42
40.0
 43
40.0
 50
270.0
  0
TEXT
  8
3
  40
60
  5
7F7E
  62
0
  72
0
  71
0
 10
2622.34
 20
2229.26
 30
0.000000
  1
1060
  0
POINT
  5
7F3C
  8
DEFPOINTS
  6
CONTINUOUS
 62
     0
 10
2888.0369930000002
 20
2919.333689
 30
0.0
  0
POINT
  5
7F3D
  8
DEFPOINTS
  6
CONTINUOUS
 62
     0
 10
2888.0369930000002
 20
1859.3336889999989
 30
0.0
  0
POINT
  5
7F3E
  8
DEFPOINTS
  6
CONTINUOUS
 62
     0
 10
2792.3356720000002
 20
1859.3336889999989
 30
0.0
  0
ENDBLK
  5
7C6F
  8
0
  0
BLOCK
  8
0
  2
*D10
 70
     1
 10
0.0
 20
0.0
 30
0.0
  3
*D10
  1

  0
LINE
  5
7F3F
  8
3
  6
CONTINUOUS
 62
     0
 10
2888.0369930000002
 20
1849.333689
 30
0.0
 11
2888.0369930000002
 21
1694.265214048178
 31
0.0
  0
LINE
  5
7F40
  8
3
  6
CONTINUOUS
 62
     0
 10
3218.0369930000002
 20
1797.5001587125189
 30
0.0
 11
3218.0369930000002
 21
1694.265214048178
 31
0.0
  0
LINE
  5
7F41
  8
3
  6
CONTINUOUS
 62
     0
 10
2928.0369930000002
 20
1714.265214048178
 30
0.0
 11
3178.0369930000002
 21
1714.265214048178
 31
0.0
  0
INSERT
  5
7F42
  8
3
  6
CONTINUOUS
 62
     0
  2
_OPEN
 10
2888.0369930000002
 20
1714.265214048178
 30
0.0
 41
40.0
 42
40.0
 43
40.0
 50
180.0
  0
INSERT
  5
7F43
  8
3
  6
CONTINUOUS
 62
     0
  2
_OPEN
 10
3218.0369930000002
 20
1714.265214048178
 30
0.0
 41
40.0
 42
40.0
 43
40.0
  0
TEXT
  8
3
  40
60
  5
7F7F
  62
0
  72
0
  71
0
 10
2938.49
 20
1658.07
 30
0.000000
  1
330
  0
POINT
  5
7F45
  8
DEFPOINTS
  6
CONTINUOUS
 62
     0
 10
2888.0369930000002
 20
1859.3336889999989
 30
0.0
  0
POINT
  5
7F46
  8
DEFPOINTS
  6
CONTINUOUS
 62
     0
 10
3218.0369930000002
 20
1807.5001587125189
 30
0.0
  0
POINT
  5
7F47
  8
DEFPOINTS
  6
CONTINUOUS
 62
     0
 10
3218.0369930000002
 20
1714.265214048178
 30
0.0
  0
ENDBLK
  5
7DC6
  8
0
  0
BLOCK
  8
0
  2
*D11
 70
     1
 10
0.0
 20
0.0
 30
0.0
  3
*D11
  1

  0
LINE
  5
7F48
  8
3
  6
CONTINUOUS
 62
     0
 10
3488.0369930000002
 20
1849.333689
 30
0.0
 11
3488.0369930000002
 21
1694.265214048178
 31
0.0
  0
LINE
  5
7F49
  8
3
  6
CONTINUOUS
 62
     0
 10
3258.0369930000002
 20
1714.265214048178
 30
0.0
 11
3448.0369930000002
 21
1714.265214048178
 31
0.0
  0
TEXT
  8
3
  40
60
  5
7F80
  62
0
  72
0
  71
0
 10
3237.55
 20
1657.17
 30
0.000000
  1
270
  0
INSERT
  5
7F4B
  8
3
  6
CONTINUOUS
 62
     0
  2
_OPEN
 10
3218.0369930000002
 20
1714.265214048178
 30
0.0
 41
40.0
 42
40.0
 43
40.0
 50
180.0
  0
INSERT
  5
7F4C
  8
3
  6
CONTINUOUS
 62
     0
  2
_OPEN
 10
3488.0369930000002
 20
1714.265214048178
 30
0.0
 41
40.0
 42
40.0
 43
40.0
  0
POINT
  5
7F4D
  8
DEFPOINTS
  6
CONTINUOUS
 62
     0
 10
3218.0369930000002
 20
1807.5001587125189
 30
0.0
  0
POINT
  5
7F4E
  8
DEFPOINTS
  6
CONTINUOUS
 62
     0
 10
3488.0369930000002
 20
1859.3336889999989
 30
0.0
  0
POINT
  5
7F4F
  8
DEFPOINTS
  6
CONTINUOUS
 62
     0
 10
3488.0369930000002
 20
1714.265214048178
 30
0.0
  0
ENDBLK
  5
7DD0
  8
0
  0
BLOCK
  8
0
  2
*D12
 70
     1
 10
0.0
 20
0.0
 30
0.0
  3
*D12
  1

  0
LINE
  5
7F50
  8
3
  6
CONTINUOUS
 62
     0
 10
3368.0369930000002
 20
2651.333689
 30
0.0
 11
3368.0369930000002
 21
3017.7641389999999
 31
0.0
  0
LINE
  5
7F51
  8
3
  6
CONTINUOUS
 62
     0
 10
3068.0369930000002
 20
2651.333689
 30
0.0
 11
3068.0369930000002
 21
3017.7641389999999
 31
0.0
  0
LINE
  5
7F52
  8
3
  6
CONTINUOUS
 62
     0
 10
3408.0369930000002
 20
2997.7641389999999
 30
0.0
 11
3448.0369930000002
 21
2997.7641389999999
 31
0.0
  0
LINE
  5
7F53
  8
3
  6
CONTINUOUS
 62
     0
 10
3028.0369930000002
 20
2997.7641389999999
 30
0.0
 11
2988.0369930000002
 21
2997.7641389999999
 31
0.0
  0
LINE
  5
7F54
  8
3
  6
CONTINUOUS
 62
     0
 10
3368.0369930000002
 20
2997.7641389999999
 30
0.0
 11
3068.0369930000002
 21
2997.7641389999999
 31
0.0
  0
INSERT
  5
7F55
  8
3
  6
CONTINUOUS
 62
     0
  2
_OPEN
 10
3368.0369930000002
 20
2997.7641389999999
 30
0.0
 41
40.0
 42
40.0
 43
40.0
 50
180.0
  0
INSERT
  5
7F56
  8
3
  6
CONTINUOUS
 62
     0
  2
_OPEN
 10
3068.0369930000002
 20
2997.7641389999999
 30
0.0
 41
40.0
 42
40.0
 43
40.0
  0
TEXT
  8
3
  40
60
  5
7F81
  62
0
  72
0
  71
0
 10
3085.18
 20
2941.56
 30
0.000000
  1
300
  0
POINT
  5
7F58
  8
DEFPOINTS
  6
CONTINUOUS
 62
     0
 10
3368.0369930000002
 20
2641.333689
 30
0.0
  0
POINT
  5
7F59
  8
DEFPOINTS
  6
CONTINUOUS
 62
     0
 10
3068.0369930000002
 20
2641.333689
 30
0.0
  0
POINT
  5
7F5A
  8
DEFPOINTS
  6
CONTINUOUS
 62
     0
 10
3068.0369930000002
 20
2997.7641389999999
 30
0.0
  0
ENDBLK
  5
7C97
  8
0
  0
BLOCK
  8
0
  2
*D13
 70
     1
 10
0.0
 20
0.0
 30
0.0
  3
*D13
  1

  0
LINE
  5
7F5B
  8
3
  6
CONTINUOUS
 62
     0
 10
3378.0369930000002
 20
2556.333689
 30
0.0
 11
3654.3389529999999
 21
2556.333689
 31
0.0
  0
LINE
  5
7F5C
  8
3
  6
CONTINUOUS
 62
     0
 10
3378.0369930000002
 20
2126.333689
 30
0.0
 11
3654.3389529999999
 21
2126.333689
 31
0.0
  0
LINE
  5
7F5D
  8
3
  6
CONTINUOUS
 62
     0
 10
3634.3389529999999
 20
2516.333689
 30
0.0
 11
3634.3389529999999
 21
2166.333689
 31
0.0
  0
INSERT
  5
7F5E
  8
3
  6
CONTINUOUS
 62
     0
  2
_OPEN
 10
3634.3389529999999
 20
2556.333689
 30
0.0
 41
40.0
 42
40.0
 43
40.0
 50
90.0
  0
INSERT
  5
7F5F
  8
3
  6
CONTINUOUS
 62
     0
  2
_OPEN
 10
3634.3389529999999
 20
2126.333689
 30
0.0
 41
40.0
 42
40.0
 43
40.0
 50
270.0
  0
TEXT
  8
3
  40
60
  5
7F82
  62
0
  72
0
  71
0
 10
3464.34
 20
2234.10
 30
0.000000
  1
φ430
  0
POINT
  5
7F61
  8
DEFPOINTS
  6
CONTINUOUS
 62
     0
 10
3368.0369930000002
 20
2556.333689
 30
0.0
  0
POINT
  5
7F62
  8
DEFPOINTS
  6
CONTINUOUS
 62
     0
 10
3368.0369930000002
 20
2126.333689
 30
0.0
  0
POINT
  5
7F63
  8
DEFPOINTS
  6
CONTINUOUS
 62
     0
 10
3634.3389529999999
 20
2126.333689
 30
0.0
  0
ENDBLK
  5
7D79
  8
0
  0
BLOCK
  8
0
  2
*D14
 70
     1
 10
0.0
 20
0.0
 30
0.0
  3
*D14
  1

  0
LINE
  5
7F64
  8
3
  6
CONTINUOUS
 62
     0
 10
2055.769730999999
 20
3976.103689
 30
0.0
 11
2256.2499260000009
 21
3976.103689
 31
0.0
  0
LINE
  5
7F65
  8
3
  6
CONTINUOUS
 62
     0
 10
2055.7697309999999
 20
3376.103689
 30
0.0
 11
2256.2499260000009
 21
3376.103689
 31
0.0
  0
LINE
  5
7F66
  8
3
  6
CONTINUOUS
 62
     0
 10
2236.2499260000009
 20
3936.103689
 30
0.0
 11
2236.2499260000009
 21
3416.1036889999991
 31
0.0
  0
INSERT
  5
7F67
  8
3
  6
CONTINUOUS
 62
     0
  2
_OPEN
 10
2236.2499260000009
 20
3976.103689
 30
0.0
 41
40.0
 42
40.0
 43
40.0
 50
90.0
  0
INSERT
  5
7F68
  8
3
  6
CONTINUOUS
 62
     0
  2
_OPEN
 10
2236.2499260000009
 20
3376.103689
 30
0.0
 41
40.0
 42
40.0
 43
40.0
 50
270.0
  0
TEXT
  8
3
  40
60
  5
7F83
  62
0
  72
0
  71
0
 10
2066.25
 20
3579.46
 30
0.000000
  1
600
  0
POINT
  5
7F6A
  8
DEFPOINTS
  6
CONTINUOUS
 62
     0
 10
2045.7697310000001
 20
3976.103689
 30
0.0
  0
POINT
  5
7F6B
  8
DEFPOINTS
  6
CONTINUOUS
 62
     0
 10
2045.7697310000001
 20
3376.103689
 30
0.0
  0
POINT
  5
7F6C
  8
DEFPOINTS
  6
CONTINUOUS
 62
     0
 10
2236.2499260000009
 20
3376.103689
 30
0.0
  0
ENDBLK
  5
7CCF
  8
0
  0
BLOCK
  8
0
  2
*D15
 70
     1
 10
0.0
 20
0.0
 30
0.0
  3
*D15
  1

  0
LINE
  5
7F6D
  8
3
  6
CONTINUOUS
 62
     0
 10
845.76973099999998
 20
3986.103689
 30
0.0
 11
845.76973099999998
 21
4147.2162319999989
 31
0.0
  0
LINE
  5
7F6E
  8
3
  6
CONTINUOUS
 62
     0
 10
2045.7697310000001
 20
3986.103689
 30
0.0
 11
2045.7697310000001
 21
4147.2162319999989
 31
0.0
  0
LINE
  5
7F6F
  8
3
  6
CONTINUOUS
 62
     0
 10
885.76973099999998
 20
4127.2162319999998
 30
0.0
 11
2005.7697310000001
 21
4127.2162319999998
 31
0.0
  0
INSERT
  5
7F70
  8
3
  6
CONTINUOUS
 62
     0
  2
_OPEN
 10
845.76973099999998
 20
4127.2162319999998
 30
0.0
 41
40.0
 42
40.0
 43
40.0
 50
180.0
  0
INSERT
  5
7F71
  8
3
  6
CONTINUOUS
 62
     0
  2
_OPEN
 10
2045.7697310000001
 20
4127.2162319999998
 30
0.0
 41
40.0
 42
40.0
 43
40.0
  0
TEXT
  8
3
  40
60
  5
7F84
  62
0
  72
0
  71
0
 10
1303.28
 20
4071.02
 30
0.000000
  1
1200
  0
POINT
  5
7F73
  8
DEFPOINTS
  6
CONTINUOUS
 62
     0
 10
845.76973099999998
 20
3976.103689
 30
0.0
  0
POINT
  5
7F74
  8
DEFPOINTS
  6
CONTINUOUS
 62
     0
 10
2045.7697310000001
 20
3976.103689
 30
0.0
  0
POINT
  5
7F75
  8
DEFPOINTS
  6
CONTINUOUS
 62
     0
 10
2045.7697310000001
 20
4127.2162319999998
 30
0.0
  0
ENDBLK
  5
7D27
  8
0
  0
BLOCK
  8
0
  2
*D16
 70
     1
 10
0.0
 20
0.0
 30
0.0
  3
*D16
  1

  0
LINE
  5
7D7B
  8
0
  6
BYBLOCK
 62
     0
 10
3218.0369930000002
 20
3117.0292250000002
 30
0.0
 11
3218.0369930000002
 21
3159.5747765998572
 31
0.0
  0
LINE
  5
7D7C
  8
0
  6
BYBLOCK
 62
     0
 10
3369.0369930000002
 20
2566.333689
 30
0.0
 11
3369.0369930000002
 21
3159.5747765998572
 31
0.0
  0
LINE
  5
7D7D
  8
0
  6
BYBLOCK
 62
     0
 10
3258.0369930000002
 20
3139.5747765998572
 30
0.0
 11
3329.0369930000002
 21
3139.5747765998572
 31
0.0
  0
TEXT
  5
7D7E
  8
1
 62
     0
 10
3224.0069651524741
 20
3190.9349581429829
 30
0.0
 40
60.0
  1
151
  0
INSERT
  5
7D7F
  8
0
  6
BYBLOCK
 62
     0
  2
_OPEN
 10
3218.0369930000002
 20
3139.5747765998572
 30
0.0
 41
40.0
 42
40.0
 43
40.0
 50
180.0
  0
INSERT
  5
7D80
  8
0
  6
BYBLOCK
 62
     0
  2
_OPEN
 10
3369.0369930000002
 20
3139.5747765998572
 30
0.0
 41
40.0
 42
40.0
 43
40.0
  0
POINT
  5
7D81
  8
DEFPOINTS
  6
BYBLOCK
 62
     0
 10
3218.0369930000002
 20
3107.0292250000002
 30
0.0
  0
POINT
  5
7D82
  8
DEFPOINTS
  6
BYBLOCK
 62
     0
 10
3369.0369930000002
 20
2556.333689
 30
0.0
  0
POINT
  5
7D83
  8
DEFPOINTS
  6
BYBLOCK
 62
     0
 10
3369.0369930000002
 20
3139.5747765998572
 30
0.0
  0
ENDBLK
  5
7D84
  8
0
  0
ENDSEC
  0
SECTION
  2
ENTITIES
  0
LINE
  5
7ACC
  8
1
  6
CONTINUOUS
 10
2045.7697310000001
 20
3976.103689
 30
0.0
 11
845.76973099999998
 21
3976.103689
 31
0.0
  0
LINE
  5
7ACD
  8
1
  6
CONTINUOUS
 10
2045.7697310000001
 20
3376.103689
 30
0.0
 11
845.76973099999998
 21
3376.103689
 31
0.0
  0
LINE
  5
7ACE
  8
1
  6
CONTINUOUS
 10
845.76973099999998
 20
2919.333689
 30
0.0
 11
2045.7697310000001
 21
2919.333689
 31
0.0
  0
LINE
  5
7ACF
  8
1
  6
CONTINUOUS
 10
845.76973099999998
 20
1859.3336889999989
 30
0.0
 11
2045.7697310000001
 21
1859.3336889999989
 31
0.0
  0
LINE
  5
7AD0
  8
1
  6
CONTINUOUS
 10
1797.639731
 20
3451.1036889999991
 30
0.0
 11
1677.639731
 21
3451.1036889999991
 31
0.0
  0
LINE
  5
7AD1
  8
1
  6
CONTINUOUS
 10
1797.639731
 20
3401.103689
 30
0.0
 11
1677.639731
 21
3401.103689
 31
0.0
  0
LINE
  5
7AD2
  8
1
  6
CONTINUOUS
 10
1900.269730999999
 20
3476.103689
 30
0.0
 11
1030.2697310000001
 21
3476.103689
 31
0.0
  0
LINE
  5
7AD3
  8
1
  6
CONTINUOUS
 10
945.76973099999998
 20
3900.103689
 30
0.0
 11
1945.7697310000001
 21
3900.103689
 31
0.0
  0
LINE
  5
7AD4
  8
1
  6
CONTINUOUS
 10
1636.6397309999991
 20
3542.8236889999998
 30
0.0
 11
1838.6397309999991
 21
3542.8236889999998
 31
0.0
  0
LINE
  5
7AD5
  8
1
  6
CONTINUOUS
 10
1636.6397309999991
 20
3785.5036890000001
 30
0.0
 11
1838.6397309999991
 21
3785.5036890000001
 31
0.0
  0
LINE
  5
7AD6
  8
1
  6
CONTINUOUS
 10
1219.7697310000001
 20
3512.1036889999991
 30
0.0
 11
1723.6397309999991
 21
3512.1036889999991
 31
0.0
  0
LINE
  5
7AD7
  8
1
  6
CONTINUOUS
 10
1945.7697310000001
 20
2001.333689
 30
0.0
 11
905.76973100000009
 21
2001.333689
 31
0.0
  0
LINE
  5
7AD8
  8
1
  6
CONTINUOUS
 10
1220.2697310000001
 20
2656.333689
 30
0.0
 11
1900.269730999999
 21
2251.333689
 31
0.0
  0
CIRCLE
  5
7AD9
  8
1
  6
CONTINUOUS
 10
1737.6397309999991
 20
2126.333689
 30
0.0
 40
60.0
  0
ARC
  5
7ADA
  8
1
  6
CONTINUOUS
 10
1737.6397309999991
 20
2126.333689
 30
0.0
 40
101.0
 50
322.88
 51
217.12
  0
LINE
  5
7ADB
  8
2
  6
CENTER
 10
1797.639731
 20
2126.333689
 30
0.0
 11
1677.639731
 21
2126.333689
 31
0.0
  0
LINE
  5
7ADC
  8
1
  6
CONTINUOUS
 10
945.76973099999998
 20
1921.333689
 30
0.0
 11
1945.7697310000001
 21
1921.333689
 31
0.0
  0
LINE
  5
7ADD
  8
1
  6
CONTINUOUS
 10
1763.9497309999999
 20
2180.2536890000001
 30
0.0
 11
1249.619731
 21
2431.2036889999999
 31
0.0
  0
LINE
  5
7ADE
  8
1
  6
CONTINUOUS
 10
1174.849731
 20
2246.2336890000001
 30
0.0
 11
1719.0797309999989
 21
2069.2736890000001
 31
0.0
  0
LINE
  5
7ADF
  8
1
  6
CONTINUOUS
 10
885.76973099999998
 20
3936.103689
 30
0.0
 11
2005.7697310000001
 21
3936.103689
 31
0.0
  0
LINE
  5
7AE0
  8
1
  6
CONTINUOUS
 10
2005.7697310000001
 20
3416.1036889999991
 30
0.0
 11
885.76973099999998
 21
3416.1036889999991
 31
0.0
  0
LINE
  5
7AE1
  8
1
  6
CONTINUOUS
 10
885.76973099999998
 20
2879.333689
 30
0.0
 11
2005.7697310000001
 21
2879.333689
 31
0.0
  0
LINE
  5
7AE2
  8
1
  6
CONTINUOUS
 10
2005.7697310000001
 20
1899.333689
 30
0.0
 11
885.76973099999998
 21
1899.333689
 31
0.0
  0
CIRCLE
  5
7AE3
  8
1
  6
CONTINUOUS
 10
1205.7697310000001
 20
2341.333689
 30
0.0
 40
240.0
  0
ARC
  5
7AE4
  8
1
  6
CONTINUOUS
 10
1227.7697310000001
 20
2319.333689
 30
0.0
 40
310.75999999999999
 50
172.69
 51
264.17000000000002
  0
ARC
  5
7AE5
  8
1
  6
CONTINUOUS
 10
1188.7697310000001
 20
2324.333689
 30
0.0
 40
271.43999999999988
 50
88.939999999999998
 51
172.69
  0
LINE
  5
7AE6
  8
1
  6
CONTINUOUS
 10
1505.7697310000001
 20
2611.333689
 30
0.0
 11
905.76973100000009
 21
2611.333689
 31
0.0
  0
LINE
  5
7AE7
  8
1
  6
CONTINUOUS
 10
1030.2697310000001
 20
2541.333689
 30
0.0
 11
1220.2697310000001
 21
2656.333689
 31
0.0
  0
CIRCLE
  5
7AE8
  8
1
  6
CONTINUOUS
 10
1205.7697310000001
 20
2341.333689
 30
0.0
 40
215.0
  0
LINE
  5
7AE9
  8
1
  6
CONTINUOUS
 10
845.76973099999998
 20
2919.333689
 30
0.0
 11
845.76973099999998
 21
1859.3336889999989
 31
0.0
  0
LINE
  5
7AEA
  8
1
  6
CONTINUOUS
 10
905.76973100000009
 20
2611.333689
 30
0.0
 11
905.76973100000009
 21
2001.333689
 31
0.0
  0
LINE
  5
7AEB
  8
1
  6
CONTINUOUS
 10
1030.2697310000001
 20
2001.333689
 30
0.0
 11
1030.2697310000001
 21
2541.333689
 31
0.0
  0
LINE
  5
7AEC
  8
1
  6
CONTINUOUS
 10
885.76973099999998
 20
1899.333689
 30
0.0
 11
885.76973099999998
 21
2879.333689
 31
0.0
  0
LINE
  5
7AED
  8
1
  6
CONTINUOUS
 10
945.76973099999998
 20
2001.333689
 30
0.0
 11
945.76973099999998
 21
1921.333689
 31
0.0
  0
ARC
  5
7AEE
  8
1
  6
CONTINUOUS
 10
1232.7697310000001
 20
2368.3336889999991
 30
0.0
 40
360.00999999999988
 50
264.17000000000002
 51
355.69999999999987
  0
LINE
  5
7AEF
  8
1
  6
CONTINUOUS
 10
1505.7697310000001
 20
2611.333689
 30
0.0
 11
1505.7697310000001
 21
2001.333689
 31
0.0
  0
LINE
  5
7AF0
  8
1
  6
CONTINUOUS
 10
1637.639731
 20
2038.333689
 30
0.0
 11
1657.0997309999991
 21
2065.373689
 31
0.0
  0
LINE
  5
7AF1
  8
1
  6
CONTINUOUS
 10
1637.639731
 20
2001.333689
 30
0.0
 11
1637.639731
 21
2038.333689
 31
0.0
  0
LINE
  5
7AF2
  8
1
  6
CONTINUOUS
 10
1166.7697310000001
 20
2641.333689
 30
0.0
 11
1620.7697310000001
 21
2641.333689
 31
0.0
  0
LINE
  5
7AF3
  8
1
  6
CONTINUOUS
 10
1193.7697310000001
 20
2621.333689
 30
0.0
 11
1593.639731
 21
2621.333689
 31
0.0
  0
LINE
  5
7AF4
  8
2
  6
CENTER
 10
3527.8787739999998
 20
2341.333689
 30
0.0
 11
2826.209378999999
 21
2341.333689
 31
0.0
  0
CIRCLE
  5
7AF5
  8
1
  6
CONTINUOUS
 10
1205.7697310000001
 20
2341.333689
 30
0.0
 40
100.0
  0
LINE
  5
7AF6
  8
2
  6
CENTER
 10
1205.7697310000001
 20
4020.1297851787158
 30
0.0
 11
1205.7697310000001
 21
3277.2994549999999
 31
0.0
  0
LINE
  5
7AF7
  8
1
  6
CONTINUOUS
 10
1193.7697310000001
 20
2595.7236889999999
 30
0.0
 11
1193.7697310000001
 21
2641.333689
 31
0.0
  0
LINE
  5
7AF8
  8
1
  6
CONTINUOUS
 10
1593.7697310000001
 20
2641.333689
 30
0.0
 11
1591.7697310000001
 21
2341.333689
 31
0.0
  0
LINE
  5
7AF9
  8
1
  6
CONTINUOUS
 10
945.76973099999998
 20
3512.1036889999991
 30
0.0
 11
1191.7697310000001
 21
3512.1036889999991
 31
0.0
  0
LINE
  5
7AFA
  8
1
  6
CONTINUOUS
 10
1594.839731
 20
3856.103689
 30
0.0
 11
905.76973100000009
 21
3856.103689
 31
0.0
  0
LINE
  5
7AFB
  8
1
  6
CONTINUOUS
 10
1594.839731
 20
3556.103689
 30
0.0
 11
905.76973100000009
 21
3556.103689
 31
0.0
  0
LINE
  5
7AFC
  8
1
  6
CONTINUOUS
 10
845.76973099999998
 20
3976.103689
 30
0.0
 11
845.76973099999998
 21
3376.103689
 31
0.0
  0
LINE
  5
7AFD
  8
1
  6
CONTINUOUS
 10
945.76973099999998
 20
3900.103689
 30
0.0
 11
945.76973099999998
 21
3856.103689
 31
0.0
  0
LINE
  5
7AFE
  8
1
  6
CONTINUOUS
 10
885.76973099999998
 20
3416.1036889999991
 30
0.0
 11
885.76973099999998
 21
3936.103689
 31
0.0
  0
LINE
  5
7AFF
  8
1
  6
CONTINUOUS
 10
1030.2697310000001
 20
3376.103689
 30
0.0
 11
1030.2697310000001
 21
3476.103689
 31
0.0
  0
LINE
  5
7B00
  8
1
  6
CONTINUOUS
 10
905.76973100000009
 20
3556.103689
 30
0.0
 11
905.76973100000009
 21
3856.103689
 31
0.0
  0
LINE
  5
7B01
  8
1
  6
CONTINUOUS
 10
945.76973099999998
 20
3556.103689
 30
0.0
 11
945.76973099999998
 21
3512.1036889999991
 31
0.0
  0
LINE
  5
7B02
  8
1
  6
CONTINUOUS
 10
1594.839731
 20
3556.103689
 30
0.0
 11
1194.839731
 21
3856.103689
 31
0.0
  0
LINE
  5
7B03
  8
1
  6
CONTINUOUS
 10
1194.839731
 20
3556.103689
 30
0.0
 11
1594.839731
 21
3856.103689
 31
0.0
  0
LINE
  5
7B04
  8
1
  6
CONTINUOUS
 10
1104.0097310000001
 20
3401.103689
 30
0.0
 11
1104.0097310000001
 21
3451.1036889999991
 31
0.0
  0
LINE
  5
7B05
  8
1
  6
CONTINUOUS
 10
1307.5297310000001
 20
3401.103689
 30
0.0
 11
1307.5297310000001
 21
3451.1036889999991
 31
0.0
  0
LINE
  5
7B06
  8
1
  6
CONTINUOUS
 10
1307.5297310000001
 20
3401.103689
 30
0.0
 11
1104.0097310000001
 21
3401.103689
 31
0.0
  0
LINE
  5
7B07
  8
1
  6
CONTINUOUS
 10
1307.5297310000001
 20
3451.1036889999991
 30
0.0
 11
1104.0097310000001
 21
3451.1036889999991
 31
0.0
  0
LINE
  5
7B08
  8
1
  6
CONTINUOUS
 10
1194.839731
 20
3556.103689
 30
0.0
 11
1194.839731
 21
3856.103689
 31
0.0
  0
LINE
  5
7B09
  8
1
  6
CONTINUOUS
 10
1189.9997310000001
 20
3451.1036889999991
 30
0.0
 11
1189.9997310000001
 21
3556.103689
 31
0.0
  0
LINE
  5
7B0A
  8
1
  6
CONTINUOUS
 10
1217.9997310000001
 20
3451.1036889999991
 30
0.0
 11
1217.9997310000001
 21
3556.103689
 31
0.0
  0
LINE
  5
7B0B
  8
1
  6
CONTINUOUS
 10
1677.639731
 20
3401.103689
 30
0.0
 11
1677.639731
 21
3451.1036889999991
 31
0.0
  0
LINE
  5
7B0C
  8
1
  6
CONTINUOUS
 10
1636.6397309999991
 20
3542.8236889999998
 30
0.0
 11
1636.6397309999991
 21
3785.5036890000001
 31
0.0
  0
LINE
  5
7B0D
  8
1
  6
CONTINUOUS
 10
1594.839731
 20
3556.103689
 30
0.0
 11
1594.839731
 21
3856.103689
 31
0.0
  0
LINE
  5
7B0E
  8
1
  6
CONTINUOUS
 10
3412.0369930000002
 20
1921.333689
 30
0.0
 11
3024.0369930000002
 21
1921.333689
 31
0.0
  0
LINE
  5
7B0F
  8
1
  6
CONTINUOUS
 10
3412.0369930000002
 20
2001.333689
 30
0.0
 11
2888.0369930000002
 21
2001.333689
 31
0.0
  0
LINE
  5
7B10
  8
1
  6
CONTINUOUS
 10
3395.0369930000002
 20
2641.333689
 30
0.0
 11
3041.0369930000002
 21
2641.333689
 31
0.0
  0
LINE
  5
7B11
  8
1
  6
CONTINUOUS
 10
3368.0369930000002
 20
2001.333689
 30
0.0
 11
3068.0369930000002
 21
2001.333689
 31
0.0
  0
LINE
  5
7B12
  8
1
  6
CONTINUOUS
 10
3368.0369930000002
 20
2621.333689
 30
0.0
 11
3068.0369930000002
 21
2621.333689
 31
0.0
  0
LINE
  5
7B13
  8
1
  6
CONTINUOUS
 10
3488.0369930000002
 20
1859.3336889999989
 30
0.0
 11
2888.0369930000002
 21
1859.3336889999989
 31
0.0
  0
LINE
  5
7B14
  8
1
  6
CONTINUOUS
 10
3488.0369930000002
 20
2919.333689
 30
0.0
 11
2888.0369930000002
 21
2919.333689
 31
0.0
  0
LINE
  5
7B15
  8
1
  6
CONTINUOUS
 10
3448.0369930000002
 20
1899.333689
 30
0.0
 11
2928.0369930000002
 21
1899.333689
 31
0.0
  0
LINE
  5
7B16
  8
1
  6
CONTINUOUS
 10
2928.0369930000002
 20
2879.333689
 30
0.0
 11
3448.0369930000002
 21
2879.333689
 31
0.0
  0
LINE
  5
7B23
  8
1
  6
CONTINUOUS
 10
2045.7697310000001
 20
2919.333689
 30
0.0
 11
2045.7697310000001
 21
1859.3336889999989
 31
0.0
  0
LINE
  5
7B24
  8
1
  6
CONTINUOUS
 10
1900.269730999999
 20
2001.333689
 30
0.0
 11
1900.269730999999
 21
2251.333689
 31
0.0
  0
LINE
  5
7B25
  8
1
  6
CONTINUOUS
 10
1837.6397309999991
 20
2038.333689
 30
0.0
 11
1818.169731
 21
2065.373689
 31
0.0
  0
LINE
  5
7B26
  8
1
  6
CONTINUOUS
 10
2005.7697310000001
 20
2879.333689
 30
0.0
 11
2005.7697310000001
 21
1899.333689
 31
0.0
  0
LINE
  5
7B27
  8
1
  6
CONTINUOUS
 10
1837.6397309999991
 20
2001.333689
 30
0.0
 11
1837.6397309999991
 21
2038.333689
 31
0.0
  0
LINE
  5
7B28
  8
1
  6
CONTINUOUS
 10
1945.7697310000001
 20
2001.333689
 30
0.0
 11
1945.7697310000001
 21
1921.333689
 31
0.0
  0
LINE
  5
7B29
  8
2
  6
CENTER
 10
1737.6397309999991
 20
2066.3336889999991
 30
0.0
 11
1737.6397309999991
 21
2186.333689
 31
0.0
  0
LINE
  5
7B44
  8
1
  6
CONTINUOUS
 10
2988.0369930000002
 20
2001.333689
 30
0.0
 11
2988.0369930000002
 21
2656.333689
 31
0.0
  0
LINE
  5
7B45
  8
1
  6
CONTINUOUS
 10
3068.0369930000002
 20
2001.333689
 30
0.0
 11
3068.0369930000002
 21
2641.333689
 31
0.0
  0
LINE
  5
7B47
  8
1
  6
CONTINUOUS
 10
2888.0369930000002
 20
2919.333689
 30
0.0
 11
2888.0369930000002
 21
1859.3336889999989
 31
0.0
  0
LINE
  5
7B49
  8
1
  6
CONTINUOUS
 10
2928.0369930000002
 20
1899.333689
 30
0.0
 11
2928.0369930000002
 21
2879.333689
 31
0.0
  0
LINE
  5
7B4F
  8
1
  6
CONTINUOUS
 10
3024.0369930000002
 20
2001.333689
 30
0.0
 11
3024.0369930000002
 21
1921.333689
 31
0.0
  0
LINE
  5
7B50
  8
1
  6
CONTINUOUS
 10
2963.0369930000002
 20
2140.333689
 30
0.0
 11
3068.0369930000002
 21
2140.333689
 31
0.0
  0
LINE
  5
7B51
  8
1
  6
CONTINUOUS
 10
2963.0369930000002
 20
2112.333689
 30
0.0
 11
3068.0369930000002
 21
2112.333689
 31
0.0
  0
LINE
  5
7B52
  8
1
  6
CONTINUOUS
 10
2963.0369930000002
 20
2357.0936889999998
 30
0.0
 11
3068.0369930000002
 21
2357.0936889999998
 31
0.0
  0
LINE
  5
7B53
  8
1
  6
CONTINUOUS
 10
2963.0369930000002
 20
2329.0936889999998
 30
0.0
 11
3068.0369930000002
 21
2329.0936889999998
 31
0.0
  0
LINE
  5
7B54
  8
1
  6
CONTINUOUS
 10
2963.0369930000002
 20
2066.3336889999991
 30
0.0
 11
2963.0369930000002
 21
2186.333689
 31
0.0
  0
LINE
  5
7B55
  8
1
  6
CONTINUOUS
 10
2913.0369930000002
 20
2066.3336889999991
 30
0.0
 11
2913.0369930000002
 21
2186.333689
 31
0.0
  0
LINE
  5
7B56
  8
1
  6
CONTINUOUS
 10
2913.0369930000002
 20
2186.333689
 30
0.0
 11
2963.0369930000002
 21
2186.333689
 31
0.0
  0
LINE
  5
7B57
  8
1
  6
CONTINUOUS
 10
2913.0369930000002
 20
2066.3336889999991
 30
0.0
 11
2963.0369930000002
 21
2066.3336889999991
 31
0.0
  0
LINE
  5
7B58
  8
1
  6
CONTINUOUS
 10
2963.0369930000002
 20
2239.5636890000001
 30
0.0
 11
2963.0369930000002
 21
2443.0936889999998
 31
0.0
  0
LINE
  5
7B59
  8
1
  6
CONTINUOUS
 10
2913.0369930000002
 20
2239.5636890000001
 30
0.0
 11
2913.0369930000002
 21
2443.0936889999998
 31
0.0
  0
LINE
  5
7B5A
  8
1
  6
CONTINUOUS
 10
2913.0369930000002
 20
2443.0936889999998
 30
0.0
 11
2963.0369930000002
 21
2443.0936889999998
 31
0.0
  0
LINE
  5
7B5B
  8
1
  6
CONTINUOUS
 10
2913.0369930000002
 20
2239.5636890000001
 30
0.0
 11
2963.0369930000002
 21
2239.5636890000001
 31
0.0
  0
LINE
  5
7B5C
  8
1
  6
CONTINUOUS
 10
2888.0369930000002
 20
2656.333689
 30
0.0
 11
2988.0369930000002
 21
2656.333689
 31
0.0
  0
LINE
  5
7B5D
  8
1
  6
CONTINUOUS
 10
3368.0369930000002
 20
2001.333689
 30
0.0
 11
3368.0369930000002
 21
2641.333689
 31
0.0
  0
LINE
  5
7B5E
  8
1
  6
CONTINUOUS
 10
3488.0369930000002
 20
2919.333689
 30
0.0
 11
3488.0369930000002
 21
1859.3336889999989
 31
0.0
  0
LINE
  5
7B5F
  8
1
  6
CONTINUOUS
 10
3448.0369930000002
 20
2879.333689
 30
0.0
 11
3448.0369930000002
 21
1899.333689
 31
0.0
  0
LINE
  5
7B60
  8
1
  6
CONTINUOUS
 10
3412.0369930000002
 20
2001.333689
 30
0.0
 11
3412.0369930000002
 21
1921.333689
 31
0.0
  0
LINE
  5
7B6C
  8
1
  6
CONTINUOUS
 10
2045.7697310000001
 20
3976.103689
 30
0.0
 11
2045.7697310000001
 21
3376.103689
 31
0.0
  0
LINE
  5
7B6D
  8
1
  6
CONTINUOUS
 10
1945.7697310000001
 20
3900.103689
 30
0.0
 11
1945.7697310000001
 21
3512.1036889999991
 31
0.0
  0
LINE
  5
7B6E
  8
1
  6
CONTINUOUS
 10
2005.7697310000001
 20
3936.103689
 30
0.0
 11
2005.7697310000001
 21
3416.1036889999991
 31
0.0
  0
LINE
  5
7B6F
  8
1
  6
CONTINUOUS
 10
1797.639731
 20
3401.103689
 30
0.0
 11
1797.639731
 21
3451.1036889999991
 31
0.0
  0
LINE
  5
7B70
  8
1
  6
CONTINUOUS
 10
1900.269730999999
 20
3376.103689
 30
0.0
 11
1900.269730999999
 21
3476.103689
 31
0.0
  0
LINE
  5
7B71
  8
1
  6
CONTINUOUS
 10
1751.639731
 20
3512.1036889999991
 30
0.0
 11
1945.7697310000001
 21
3512.1036889999991
 31
0.0
  0
LINE
  5
7B72
  8
1
  6
CONTINUOUS
 10
1838.6397309999991
 20
3542.8236889999998
 30
0.0
 11
1838.6397309999991
 21
3785.5036890000001
 31
0.0
  0
LINE
  5
7B73
  8
1
  6
CONTINUOUS
 10
1723.6397309999991
 20
3451.1036889999991
 30
0.0
 11
1723.6397309999991
 21
3542.8236889999998
 31
0.0
  0
LINE
  5
7B74
  8
1
  6
CONTINUOUS
 10
1751.639731
 20
3451.1036889999991
 30
0.0
 11
1751.639731
 21
3542.8236889999998
 31
0.0
  0
LINE
  5
7B93
  8
2
  6
CENTER
 10
3218.0369930000002
 20
2974.8471450000002
 30
0.0
 11
3218.0369930000002
 21
1807.5001587125189
 31
0.0
  0
LINE
  5
7B94
  8
2
  6
CENTER
 10
2105.594247
 20
3706.103689
 30
0.0
 11
805.06631950327926
 21
3706.103689
 31
0.0
  0
LINE
  5
7B95
  8
2
  6
CENTER
 10
1205.7697310000001
 20
2965.4364070000001
 30
0.0
 11
1205.8124505488299
 21
1829.191058617736
 31
0.0
  0
LINE
  5
7B96
  8
2
  6
CENTER
 10
2092.16405087466
 20
2341.333689
 30
0.0
 11
712.66420599999992
 21
2341.333689
 31
0.0
  0
LINE
  5
7B97
  8
4
  6
CONTINUOUS
 10
3700.0
 20
1000.0
 30
0.0
 11
3700.0
 21
600.0
 31
0.0
  0
LINE
  5
7B98
  8
4
  6
CONTINUOUS
 10
2300.0
 20
1000.0
 30
0.0
 11
2300.0
 21
600.0
 31
0.0
  0
LINE
  5
7B99
  8
4
  6
CONTINUOUS
 10
1300.0
 20
1000.0
 30
0.0
 11
1300.0
 21
600.0
 31
0.0
  0
LINE
  5
7B9C
  8
4
  6
CONTINUOUS
 10
1300.0
 20
600.0
 30
0.0
 11
3700.0
 21
600.0
 31
0.0
  0
LINE
  5
7B9D
  8
4
  6
CONTINUOUS
 10
1300.0
 20
800.0
 30
0.0
 11
3700.0
 21
800.0
 31
0.0
  0
TEXT
  5
7B9E
  8
4
  6
CONTINUOUS
 10
1377.004162
 20
863.086052
 30
0.0
 40
100.0
  1
機器名称
  0
TEXT
  5
7B9F
  8
4
  6
CONTINUOUS
 10
1372.516212
 20
643.29031299999986
 30
0.0
 40
100.0
  1
機器型番
  0
TEXT
  5
7BA0
  8
4
  6
CONTINUOUS
 10
2355.3574910000002
 20
845.14353800000015
 30
0.0
 40
100.0
  1
ミツヤ多翼送風機
  0
TEXT
  5
7BA1
  8
4
  6
CONTINUOUS
 10
2373.3089909999999
 20
634.31916899999999
 30
0.0
 40
100.0
  1
MF#2 1/2-4
  0
TEXT
  5
7BA3
  8
4
  6
CONTINUOUS
 10
1355.275723
 20
4766.8576830000002
 30
0.0
 40
108.0
  1
天井吊枠防振ベット
  0
TEXT
  5
7BA4
  8
4
  6
CONTINUOUS
 10
632.33518700000002
 20
5067.7619520000007
 30
0.0
 40
144.0
  1
ベルト駆動式片吸込両持多翼ファン
  0
LINE
  5
7BA5
  8
4
  6
CONTINUOUS
 10
500.0
 20
4938.8175090000004
 30
0.0
 11
3700.0
 21
4938.8175090000004
 31
0.0
  0
LINE
  5
7BA6
  8
4
  6
CONTINUOUS
 10
500.0
 20
5338.8175090000004
 30
0.0
 11
3700.0
 21
5338.8175090000004
 31
0.0
  0
LINE
  5
7BA7
  8
4
  6
CONTINUOUS
 10
1300.0
 20
1000.0
 30
0.0
 11
3700.0
 21
1000.0
 31
0.0
  0
LINE
  5
7BA8
  8
4
  6
CONTINUOUS
 10
500.0
 20
5338.8175090000004
 30
0.0
 11
500.0
 21
4938.8175090000004
 31
0.0
  0
TEXT
  5
7BA9
  8
4
  6
CONTINUOUS
 10
534.03535899999986
 20
4764.6389549999994
 30
0.0
 40
108.0
  1
左回転上向
  0
TEXT
  5
7BAA
  8
4
  6
CONTINUOUS
 10
2937.9391179999998
 20
5412.122163
 30
0.0
 40
112.0
  1
No.
  0
TEXT
  5
7BAB
  8
4
  6
CONTINUOUS
 10
2622.5921250000001
 20
4766.8576830000002
 30
0.0
 40
108.0
  1
縮尺：1/20
  0
LINE
  5
7BAC
  8
4
  6
CONTINUOUS
 10
3700.0
 20
5338.8175090000004
 30
0.0
 11
3700.0
 21
4938.8175090000004
 31
0.0
  0
LINE
  5
7BAE
  8
4
  6
CONTINUOUS
 10
2881.234845
 20
5362.5271659999999
 30
0.0
 11
2881.234845
 21
5573.3045229999998
 31
0.0
  0
LINE
  5
7BAF
  8
4
  6
CONTINUOUS
 10
2881.234845
 20
5573.3045229999998
 30
0.0
 11
3700.0
 21
5573.3045229999998
 31
0.0
  0
LINE
  5
7BB0
  8
4
  6
CONTINUOUS
 10
3700.0
 20
5573.3045229999998
 30
0.0
 11
3700.0
 21
5362.5271659999999
 31
0.0
  0
LINE
  5
7BB1
  8
4
  6
CONTINUOUS
 10
3700.0
 20
5362.5271659999999
 30
0.0
 11
2881.234845
 21
5362.5271659999999
 31
0.0
  0
DIMENSION
  5
7BE3
  8
3
  6
CONTINUOUS
  2
*D1
 10
1593.7697310000001
 20
2750.4883960000002
 30
0.0
 11
1380.213205
 21
2750.4883960000002
 31
0.0
 70
   128
 13
1193.7697310000001
 23
2641.333689
 33
0.0
 14
1593.7697310000001
 24
2641.333689
 34
0.0
1001
ACAD
1000
DSTYLE
1002
{
1070
   287
1070
     3
1070
   287
1070
     3
1070
    40
1040
20.0
1070
   143
1040
0.039
1070
   172
1070
     1
1070
   271
1070
     0
1070
   279
1070
     0
1070
   288
1070
     1
1002
}
  0
DIMENSION
  5
7C15
  8
3
  6
CONTINUOUS
  2
*D2
 10
1205.7697310000001
 20
3021.9356830000002
 30
0.0
 11
1399.5696170000001
 21
3021.9356830000002
 31
0.0
 70
   128
 13
1593.7697310000001
 23
2641.333689
 33
0.0
 14
1205.7697310000001
 24
2965.4364070000001
 34
0.0
1001
ACAD
1000
DSTYLE
1002
{
1070
   287
1070
     3
1070
   287
1070
     3
1070
    40
1040
20.0
1070
   143
1040
0.039
1070
   172
1070
     1
1070
   271
1070
     0
1070
   279
1070
     0
1070
   288
1070
     1
1002
}
  0
DIMENSION
  5
7C21
  8
3
  6
CONTINUOUS
  2
*D3
 10
905.76973100000009
 20
3021.9356830000002
 30
0.0
 11
1055.7697310000001
 21
3071.9356829999988
 31
0.0
 70
     0
 13
1205.7697310000001
 23
2965.4364070000001
 33
0.0
 14
905.76973100000009
 24
2611.333689
 34
0.0
1001
ACAD
1000
DSTYLE
1002
{
1070
   287
1070
     4
1070
   287
1070
     4
1070
    40
1040
20.0
1070
    75
1070
     1
1070
   143
1040
0.039
1070
   172
1070
     1
1070
   271
1070
     0
1070
   279
1070
     1
1070
   288
1070
     1
1002
}
  0
DIMENSION
  5
7C2E
  8
3
  6
CONTINUOUS
  2
*D4
 10
663.54260400000044
 20
2341.333689
 30
0.0
 11
663.54260399999987
 21
2478.4765459999999
 31
0.0
 70
   128
 13
1166.7697310000001
 23
2641.333689
 33
0.0
 14
712.66420599999992
 24
2341.333689
 34
0.0
 50
90.0
1001
ACAD
1000
DSTYLE
1002
{
1070
   287
1070
     3
1070
   287
1070
     3
1070
    40
1040
20.0
1070
   143
1040
0.039
1070
   172
1070
     1
1070
   271
1070
     0
1070
   279
1070
     0
1070
   288
1070
     1
1002
}
  0
DIMENSION
  5
7C3A
  8
3
  6
CONTINUOUS
  2
*D5
 10
663.54260399999987
 20
1921.333689
 30
0.0
 11
613.54260399999964
 21
2131.333689
 31
0.0
 70
     0
 13
712.66420599999992
 23
2341.333689
 33
0.0
 14
945.76973099999998
 24
1921.333689
 34
0.0
 50
90.0
1001
ACAD
1000
DSTYLE
1002
{
1070
   287
1070
     4
1070
   287
1070
     4
1070
    40
1040
20.0
1070
    75
1070
     1
1070
   143
1040
0.039
1070
   172
1070
     1
1070
   271
1070
     0
1070
   279
1070
     1
1070
   288
1070
     1
1002
}
  0
DIMENSION
  5
7C4A
  8
3
  6
CONTINUOUS
  2
*D6
 10
663.82275800000036
 20
1859.3336889999989
 30
0.0
 11
663.82275800000002
 21
1710.7622604285709
 31
0.0
 70
   128
 13
945.76973099999998
 23
1921.333689
 33
0.0
 14
845.76973099999998
 24
1859.3336889999989
 34
0.0
 50
90.0
1001
ACAD
1000
DSTYLE
1002
{
1070
   287
1070
     3
1070
   287
1070
     3
1070
    40
1040
20.0
1070
   143
1040
0.039
1070
   172
1070
     1
1070
   271
1070
     0
1070
   279
1070
     0
1070
   288
1070
     1
1002
}
  0
DIMENSION
  5
7C57
  8
3
  6
CONTINUOUS
  2
*D7
 10
1205.8124505488299
 20
1722.2218436177361
 30
0.0
 11
1037.3568885488301
 21
1722.2218436177361
 31
0.0
 70
   128
 13
845.76973099999998
 23
1859.3336889999989
 33
0.0
 14
1205.8124505488299
 24
1829.191058617736
 34
0.0
1001
ACAD
1000
DSTYLE
1002
{
1070
   287
1070
     3
1070
   287
1070
     3
1070
    40
1040
20.0
1070
   143
1040
0.039
1070
   172
1070
     1
1070
   271
1070
     0
1070
   279
1070
     0
1070
   288
1070
     1
1002
}
  0
DIMENSION
  5
7C63
  8
3
  6
CONTINUOUS
  2
*D8
 10
2045.7697310000001
 20
1722.2218436177361
 30
0.0
 11
1625.7910907744149
 21
1772.2218436177361
 31
0.0
 70
     0
 13
1205.8124505488299
 23
1829.191058617736
 33
0.0
 14
2045.7697310000001
 24
1859.3336889999989
 34
0.0
1001
ACAD
1000
DSTYLE
1002
{
1070
   287
1070
     4
1070
   287
1070
     4
1070
    40
1040
20.0
1070
    75
1070
     1
1070
   143
1040
0.039
1070
   172
1070
     1
1070
   271
1070
     0
1070
   279
1070
     1
1070
   288
1070
     1
1002
}
  0
DIMENSION
  5
7C70
  8
3
  6
CONTINUOUS
  2
*D9
 10
2792.3356720000002
 20
1859.3336889999989
 30
0.0
 11
2792.3356720000002
 21
2335.4636969999988
 31
0.0
 70
   128
 13
2888.0369930000002
 23
2919.333689
 33
0.0
 14
2888.0369930000002
 24
1859.3336889999989
 34
0.0
 50
90.0
1001
ACAD
1000
DSTYLE
1002
{
1070
   287
1070
     3
1070
   287
1070
     3
1070
    40
1040
20.0
1070
   143
1040
0.039
1070
   172
1070
     1
1070
   271
1070
     0
1070
   279
1070
     0
1070
   288
1070
     1
1002
}
  0
DIMENSION
  5
7C7D
  8
3
  6
CONTINUOUS
  2
*D10
 10
3218.0369930000002
 20
1714.265214048178
 30
0.0
 11
3058.4861469999992
 21
1714.265214048178
 31
0.0
 70
   128
 13
2888.0369930000002
 23
1859.3336889999989
 33
0.0
 14
3218.0369930000002
 24
1807.5001587125189
 34
0.0
1001
ACAD
1000
DSTYLE
1002
{
1070
   287
1070
     3
1070
   287
1070
     3
1070
    40
1040
20.0
1070
   143
1040
0.039
1070
   172
1070
     1
1070
   271
1070
     0
1070
   279
1070
     0
1070
   288
1070
     1
1002
}
  0
DIMENSION
  5
7C8B
  8
3
  6
CONTINUOUS
  2
*D11
 10
3488.0369930000002
 20
1714.265214048178
 30
0.0
 11
3357.545807
 21
1713.370834048178
 31
0.0
 70
   128
 13
3218.0369930000002
 23
1807.5001587125189
 33
0.0
 14
3488.0369930000002
 24
1859.3336889999989
 34
0.0
1001
ACAD
1000
DSTYLE
1002
{
1070
   287
1070
     4
1070
   287
1070
     4
1070
    40
1040
20.0
1070
    75
1070
     1
1070
   143
1040
0.039
1070
   172
1070
     1
1070
   271
1070
     0
1070
   279
1070
     1
1070
   288
1070
     1
1002
}
  0
DIMENSION
  5
7C98
  8
3
  6
CONTINUOUS
  2
*D12
 10
3068.0369930000002
 20
2997.7641389999999
 30
0.0
 11
3205.17985
 21
2997.7641389999999
 31
0.0
 70
   128
 13
3368.0369930000002
 23
2641.333689
 33
0.0
 14
3068.0369930000002
 24
2641.333689
 34
0.0
1001
ACAD
1000
DSTYLE
1002
{
1070
   287
1070
     3
1070
   287
1070
     3
1070
    40
1040
20.0
1070
   143
1040
0.039
1070
   172
1070
     1
1070
   271
1070
     0
1070
   279
1070
     0
1070
   288
1070
     1
1002
}
  0
DIMENSION
  5
7CB5
  8
3
  6
CONTINUOUS
  2
*D13
 10
3634.3389529999999
 20
2126.333689
 30
0.0
 11
3634.3389529999999
 21
2340.2980050000001
 31
0.0
 70
   128
 13
3368.0369930000002
 23
2556.333689
 33
0.0
 14
3368.0369930000002
 24
2126.333689
 34
0.0
 50
90.0
1001
ACAD
1000
DSTYLE
1002
{
1070
   287
1070
     3
1070
   287
1070
     3
1070
     3
1000
φ<>
1070
    40
1040
20.0
1070
   143
1040
0.039
1070
   172
1070
     1
1070
   271
1070
     0
1070
   279
1070
     0
1070
   288
1070
     1
1002
}
  0
DIMENSION
  5
7CD0
  8
3
  6
CONTINUOUS
  2
*D14
 10
2236.2499260000009
 20
3376.103689
 30
0.0
 11
2236.249926
 21
3685.6646539999988
 31
0.0
 70
   128
 13
2045.7697310000001
 23
3976.103689
 33
0.0
 14
2045.7697310000001
 24
3376.103689
 34
0.0
 50
90.0
1001
ACAD
1000
DSTYLE
1002
{
1070
   287
1070
     3
1070
   287
1070
     3
1070
    40
1040
20.0
1070
   143
1040
0.039
1070
   172
1070
     1
1070
   271
1070
     0
1070
   279
1070
     0
1070
   288
1070
     1
1002
}
  0
DIMENSION
  5
7CDD
  8
3
  6
CONTINUOUS
  2
*D15
 10
2045.7697310000001
 20
4127.2162319999998
 30
0.0
 11
1423.2812349999999
 21
4127.2162319999998
 31
0.0
 70
   128
 13
845.76973099999998
 23
3976.103689
 33
0.0
 14
2045.7697310000001
 24
3976.103689
 34
0.0
1001
ACAD
1000
DSTYLE
1002
{
1070
   287
1070
     3
1070
   287
1070
     3
1070
    40
1040
20.0
1070
   143
1040
0.039
1070
   172
1070
     1
1070
   271
1070
     0
1070
   279
1070
     0
1070
   288
1070
     1
1002
}
  0
LINE
  5
7D3E
  8
1
  6
CONTINUOUS
 10
3369.0369930000002
 20
2126.333689
 30
0.0
 11
3369.0369930000002
 21
2556.333689
 31
0.0
  0
DIMENSION
  5
7D4E
  8
3
  6
CONTINUOUS
  2
*D16
 10
3369.0369930000002
 20
3139.5747765998572
 30
0.0
 11
3282.578393723903
 21
3220.9349581429829
 31
0.0
 70
   128
 13
3218.0369930000002
 23
3107.0292250000002
 33
0.0
 14
3369.0369930000002
 24
2556.333689
 34
0.0
1001
ACAD
1000
DSTYLE
1002
{
1070
   288
1070
     1
1070
   172
1070
     1
1070
    40
1040
20.0
1070
   271
1070
     0
1070
   143
1040
0.039
1002
}
  0
LINE
  5
7E0E
  8
2
  6
CENTER
 10
945.76973099999998
 20
3969.1558928371801
 30
0.0
 11
945.76973099999998
 21
3939.0514851628191
 31
0.0
  0
LINE
  5
7E0F
  8
2
  6
CENTER
 10
960.82193483718072
 20
3954.103689
 30
0.0
 11
930.71752716281935
 21
3954.103689
 31
0.0
  0
CIRCLE
  5
7E10
  8
1
 10
945.76973099999998
 20
3954.103689
 30
0.0
 40
6.0
  0
LINE
  5
7E12
  8
2
  6
CENTER
 10
1460.8219348371799
 20
3954.103689
 30
0.0
 11
1430.7175271628189
 21
3954.103689
 31
0.0
  0
CIRCLE
  5
7E13
  8
1
 10
1445.7697310000001
 20
3954.103689
 30
0.0
 40
6.0
  0
LINE
  5
7E14
  8
2
  6
CENTER
 10
1445.7697310000001
 20
3969.1558928371801
 30
0.0
 11
1445.7697310000001
 21
3939.0514851628191
 31
0.0
  0
LINE
  5
7E15
  8
2
  6
CENTER
 10
1960.8219348371799
 20
3954.103689
 30
0.0
 11
1930.7175271628189
 21
3954.103689
 31
0.0
  0
LINE
  5
7E16
  8
2
  6
CENTER
 10
1945.7697310000001
 20
3969.1558928371801
 30
0.0
 11
1945.7697310000001
 21
3939.0514851628191
 31
0.0
  0
CIRCLE
  5
7E17
  8
1
 10
1945.7697310000001
 20
3954.103689
 30
0.0
 40
6.0
  0
LINE
  5
7E18
  8
2
  6
CENTER
 10
960.82193483718072
 20
3398.103689
 30
0.0
 11
930.71752716281935
 21
3398.103689
 31
0.0
  0
CIRCLE
  5
7E19
  8
1
 10
945.76973099999998
 20
3398.103689
 30
0.0
 40
6.0
  0
LINE
  5
7E1A
  8
2
  6
CENTER
 10
945.76973099999998
 20
3413.1558928371801
 30
0.0
 11
945.76973099999998
 21
3383.0514851628191
 31
0.0
  0
LINE
  5
7E1B
  8
2
  6
CENTER
 10
1460.8219348371799
 20
3398.103689
 30
0.0
 11
1430.7175271628189
 21
3398.103689
 31
0.0
  0
LINE
  5
7E1C
  8
2
  6
CENTER
 10
1445.7697310000001
 20
3413.1558928371801
 30
0.0
 11
1445.7697310000001
 21
3383.0514851628191
 31
0.0
  0
CIRCLE
  5
7E1D
  8
1
 10
1445.7697310000001
 20
3398.103689
 30
0.0
 40
6.0
  0
LINE
  5
7E1E
  8
2
  6
CENTER
 10
1960.8219348371799
 20
3398.103689
 30
0.0
 11
1930.7175271628189
 21
3398.103689
 31
0.0
  0
CIRCLE
  5
7E1F
  8
1
 10
1945.7697310000001
 20
3398.103689
 30
0.0
 40
6.0
  0
LINE
  5
7E20
  8
2
  6
CENTER
 10
1945.7697310000001
 20
3413.1558928371801
 30
0.0
 11
1945.7697310000001
 21
3383.0514851628191
 31
0.0
  0
ENDSEC
  0
EOF
