  0
SECTION
  2
HEADER
  9
$ACADVER
  1
AC1009
  9
$INSBASE
 10
0.0
 20
0.0
 30
0.0
  9
$EXTMIN
 10
500.0
 20
600.0
 30
0.0
  9
$EXTMAX
 10
3700.0
 20
5573.3045229999998
 30
0.0
  9
$LIMMIN
 10
0.0
 20
0.0
  9
$LIMMAX
 10
297.0
 20
210.0
  9
$ORTHOMODE
 70
     0
  9
$REGENMODE
 70
     1
  9
$FILLMODE
 70
     0
  9
$QTEXTMODE
 70
     0
  9
$MIRRTEXT
 70
     1
  9
$DRAGMODE
 70
     2
  9
$LTSCALE
 40
100.0
  9
$OSMODE
 70
    37
  9
$ATTMODE
 70
     1
  9
$TEXTSIZE
 40
180.0
  9
$TRACEWID
 40
0.05
  9
$TEXTSTYLE
  7
STANDARD
  9
$CLAYER
  8
1
  9
$CELTYPE
  6
BYLAYER
  9
$CECOLOR
 62
   256
  9
$DIMSCALE
 40
20.0
  9
$DIMASZ
 40
2.0
  9
$DIMEXO
 40
0.5
  9
$DIMDLI
 40
10.0
  9
$DIMRND
 40
0.0
  9
$DIMDLE
 40
0.0
  9
$DIMEXE
 40
1.0
  9
$DIMTP
 40
1.0
  9
$DIMTM
 40
1.0
  9
$DIMTXT
 40
3.0
  9
$DIMCEN
 40
0.0
  9
$DIMTSZ
 40
0.0
  9
$DIMTOL
 70
     0
  9
$DIMLIM
 70
     0
  9
$DIMTIH
 70
     0
  9
$DIMTOH
 70
     0
  9
$DIMSE1
 70
     0
  9
$DIMSE2
 70
     0
  9
$DIMTAD
 70
     1
  9
$DIMZIN
 70
     8
  9
$DIMBLK
  1

  9
$DIMASO
 70
     1
  9
$DIMSHO
 70
     1
  9
$DIMPOST
  1

  9
$DIMAPOST
  1

  9
$DIMALT
 70
     0
  9
$DIMALTD
 70
     2
  9
$DIMALTF
 40
0.039
  9
$DIMLFAC
 40
1.0
  9
$DIMTOFL
 70
     1
  9
$DIMTVP
 40
0.0
  9
$DIMTIX
 70
     0
  9
$DIMSOXD
 70
     0
  9
$DIMSAH
 70
     1
  9
$DIMBLK1
  1
OPEN
  9
$DIMBLK2
  1
OPEN
  9
$DIMSTYLE
  2
IGA
  9
$DIMCLRD
 70
     0
  9
$DIMCLRE
 70
     0
  9
$DIMCLRT
 70
     0
  9
$DIMTFAC
 40
10.0
  9
$DIMGAP
 40
1.0
  9
$LUNITS
 70
     2
  9
$LUPREC
 70
     3
  9
$SKETCHINC
 40
0.1
  9
$FILLETRAD
 40
50.0
  9
$AUNITS
 70
     0
  9
$AUPREC
 70
     0
  9
$MENU
  1
acad
  9
$ELEVATION
 40
0.0
  9
$PELEVATION
 40
0.0
  9
$THICKNESS
 40
0.0
  9
$LIMCHECK
 70
     0
  9
$BLIPMODE
 70
     0
  9
$CHAMFERA
 40
0.5
  9
$CHAMFERB
 40
0.5
  9
$SKPOLY
 70
     0
  9
$TDCREATE
 40
2450728.4697234952
  9
$TDUPDATE
 40
2454953.7654432398
  9
$TDINDWG
 40
0.0142281134
  9
$TDUSRTIMER
 40
0.0142281134
  9
$USRTIMER
 70
     1
  9
$ANGBASE
 50
0.0
  9
$ANGDIR
 70
     0
  9
$PDMODE
 70
     0
  9
$PDSIZE
 40
0.0
  9
$PLINEWID
 40
0.0
  9
$COORDS
 70
     1
  9
$SPLFRAME
 70
     0
  9
$SPLINETYPE
 70
     6
  9
$SPLINESEGS
 70
     8
  9
$ATTDIA
 70
     0
  9
$ATTREQ
 70
     1
  9
$HANDLING
 70
 10241
  9
$HANDSEED
  5
809F
  9
$SURFTAB1
 70
     6
  9
$SURFTAB2
 70
     6
  9
$SURFTYPE
 70
     6
  9
$SURFU
 70
     6
  9
$SURFV
 70
     6
  9
$UCSNAME
  2

  9
$UCSORG
 10
0.0
 20
0.0
 30
0.0
  9
$UCSXDIR
 10
1.0
 20
0.0
 30
0.0
  9
$UCSYDIR
 10
0.0
 20
1.0
 30
0.0
  9
$PUCSNAME
  2

  9
$PUCSORG
 10
0.0
 20
0.0
 30
0.0
  9
$PUCSXDIR
 10
1.0
 20
0.0
 30
0.0
  9
$PUCSYDIR
 10
0.0
 20
1.0
 30
0.0
  9
$USERI1
 70
     0
  9
$USERI2
 70
     0
  9
$USERI3
 70
     0
  9
$USERI4
 70
     0
  9
$USERI5
 70
     0
  9
$USERR1
 40
0.0
  9
$USERR2
 40
0.0
  9
$USERR3
 40
0.0
  9
$USERR4
 40
0.0
  9
$USERR5
 40
0.0
  9
$WORLDVIEW
 70
     1
  9
$SHADEDGE
 70
     3
  9
$SHADEDIF
 70
    70
  9
$TILEMODE
 70
     1
  9
$MAXACTVP
 70
    16
  9
$PLIMCHECK
 70
     0
  9
$PEXTMIN
 10
1.0000000000000000E+020
 20
1.0000000000000000E+020
 30
1.0000000000000000E+020
  9
$PEXTMAX
 10
-1.0000000000000000E+020
 20
-1.0000000000000000E+020
 30
-1.0000000000000000E+020
  9
$PLIMMIN
 10
0.0
 20
0.0
  9
$PLIMMAX
 10
12.0
 20
9.0
  9
$UNITMODE
 70
     0
  9
$VISRETAIN
 70
     0
  9
$PLINEGEN
 70
     0
  9
$PSLTSCALE
 70
     1
  0
ENDSEC
  0
SECTION
  2
TABLES
  0
TABLE
  2
VPORT
 70
     2
  0
VPORT
  2
*ACTIVE
 70
     0
 10
0.0
 20
0.0
 11
1.0
 21
1.0
 12
6292.1124769529506
 22
3086.6374998146398
 13
0.0
 23
0.0
 14
10.0
 24
10.0
 15
10.0
 25
10.0
 16
0.0
 26
0.0
 36
1.0
 17
0.0
 27
0.0
 37
0.0
 40
5011.4968576296578
 41
3.1666666666666661
 42
50.0
 43
0.0
 44
0.0
 50
0.0
 51
0.0
 71
     0
 72
   100
 73
     1
 74
     0
 75
     0
 76
     0
 77
     0
 78
     0
  0
ENDTAB
  0
TABLE
  2
LTYPE
 70
     2
  0
LTYPE
  2
CONTINUOUS
 70
     0
  3
Solid line
 72
    65
 73
     0
 40
0.0
  0
LTYPE
  2
CENTER
 70
     0
  3
____ _ ____ _ ____ _ ____ _ ____ _ ____ _ ____ 
 72
    65
 73
     4
 40
2.0
 49
1.25
 49
-0.25
 49
0.25
 49
-0.25
  0
ENDTAB
  0
TABLE
  2
LAYER
 70
     6
  0
LAYER
  2
0
 70
     0
 62
    -7
  6
CONTINUOUS
  0
LAYER
  2
3
 70
     0
 62
     2
  6
CONTINUOUS
  0
LAYER
  2
2
 70
     0
 62
     3
  6
CENTER
  0
LAYER
  2
1
 70
     0
 62
     4
  6
CONTINUOUS
  0
LAYER
  2
4
 70
     0
 62
     7
  6
CONTINUOUS
  0
LAYER
  2
DEFPOINTS
 70
     0
 62
     7
  6
CONTINUOUS
  0
ENDTAB
  0
TABLE
  2
STYLE
 70
     1
  0
STYLE
  2
STANDARD
 70
     0
 40
0.0
 41
1.0
 50
0.0
 71
     0
 42
180.0
  3
simplex.shx
  4
extfont.shx
  0
ENDTAB
  0
TABLE
  2
VIEW
 70
     0
  0
ENDTAB
  0
TABLE
  2
UCS
 70
     0
  0
ENDTAB
  0
TABLE
  2
APPID
 70
     1
  0
APPID
  2
ACAD
 70
     0
  0
ENDTAB
  0
TABLE
  2
DIMSTYLE
 70
     1
  0
DIMSTYLE
  2
IGA
 70
     0
  3

  4

  5

  6
OPEN
  7
OPEN
 40
2.0
 41
2.0
 42
0.5
 43
10.0
 44
1.0
 45
0.0
 46
0.0
 47
1.0
 48
1.0
140
3.0
141
0.0
142
0.0
143
0.03937
144
1.0
145
0.0
146
10.0
147
1.0
 71
     0
 72
     0
 73
     0
 74
     0
 75
     0
 76
     0
 77
     1
 78
     8
170
     0
171
     2
172
     0
173
     1
174
     0
175
     0
176
     0
177
     0
178
     0
  0
ENDTAB
  0
ENDSEC
  0
SECTION
  2
BLOCKS
  0
BLOCK
  8
0
  2
$MODEL_SPACE
 70
     0
 10
0.0
 20
0.0
 30
0.0
  3
$MODEL_SPACE
  1

  0
ENDBLK
  5
1B
  8
0
  0
BLOCK
 67
     1
  8
0
  2
$PAPER_SPACE
 70
     0
 10
0.0
 20
0.0
 30
0.0
  3
$PAPER_SPACE
  1

  0
ENDBLK
  5
18
 67
     1
  8
0
  0
BLOCK
  8
0
  2
_OPEN
 70
     0
 10
0.0
 20
0.0
 30
0.0
  3
_OPEN
  1

  0
LINE
  5
7BF2
  8
0
  6
BYBLOCK
 62
     0
 10
-1.0
 20
0.166667
 30
0.0
 11
0.0
 21
0.0
 31
0.0
  0
LINE
  5
7BF3
  8
0
  6
BYBLOCK
 62
     0
 10
0.0
 20
0.0
 30
0.0
 11
-1.0
 21
-0.166667
 31
0.0
  0
LINE
  5
7BF4
  8
0
  6
BYBLOCK
 62
     0
 10
0.0
 20
0.0
 30
0.0
 11
-1.0
 21
0.0
 31
0.0
  0
ENDBLK
  5
7BF5
  8
0
  0
BLOCK
  8
0
  2
*D1
 70
     1
 10
0.0
 20
0.0
 30
0.0
  3
*D1
  1

  0
LINE
  5
8009
  8
3
  6
CONTINUOUS
 62
     0
 10
954.89324772018165
 20
2531.5164019999988
 30
0.0
 11
778.47200172018222
 21
2531.5164019999988
 31
0.0
  0
LINE
  5
800A
  8
3
  6
CONTINUOUS
 62
     0
 10
954.89324772018165
 20
2131.5164019999988
 30
0.0
 11
778.47200172018211
 21
2131.5164019999988
 31
0.0
  0
LINE
  5
800B
  8
3
  6
CONTINUOUS
 62
     0
 10
798.47200172018222
 20
2491.5164020000002
 30
0.0
 11
798.47200172018211
 21
2171.5164019999988
 31
0.0
  0
INSERT
  5
800C
  8
3
  6
CONTINUOUS
 62
     0
  2
_OPEN
 10
798.47200172018222
 20
2531.5164019999988
 30
0.0
 41
40.0
 42
40.0
 43
40.0
 50
90.0
  0
INSERT
  5
800D
  8
3
  6
CONTINUOUS
 62
     0
  2
_OPEN
 10
798.47200172018211
 20
2131.5164019999988
 30
0.0
 41
40.0
 42
40.0
 43
40.0
 50
270.0
  0
TEXT
  8
3
  40
60
  5
8090
  62
0
  72
0
  71
0
 10
628.472
 20
2215.77
 30
0.000000
  1
400
  0
POINT
  5
800F
  8
DEFPOINTS
  6
CONTINUOUS
 62
     0
 10
964.89324772018165
 20
2531.5164019999988
 30
0.0
  0
POINT
  5
8010
  8
DEFPOINTS
  6
CONTINUOUS
 62
     0
 10
964.89324772018165
 20
2131.5164019999988
 30
0.0
  0
POINT
  5
8011
  8
DEFPOINTS
  6
CONTINUOUS
 62
     0
 10
798.47200172018211
 20
2131.5164019999988
 30
0.0
  0
ENDBLK
  5
7CFF
  8
0
  0
BLOCK
  8
0
  2
*D2
 70
     1
 10
0.0
 20
0.0
 30
0.0
  3
*D2
  1

  0
LINE
  5
8012
  8
3
  6
CONTINUOUS
 62
     0
 10
894.89324772018176
 20
2531.5164019999988
 30
0.0
 11
659.09362972018221
 21
2531.5164019999988
 31
0.0
  0
LINE
  5
8013
  8
3
  6
CONTINUOUS
 62
     0
 10
726.18794638956706
 20
2143.5164019999988
 30
0.0
 11
659.09362972018209
 21
2143.5164019999988
 31
0.0
  0
LINE
  5
8014
  8
3
  6
CONTINUOUS
 62
     0
 10
679.09362972018221
 20
2491.5164020000002
 30
0.0
 11
679.09362972018198
 21
2183.5164019999988
 31
0.0
  0
INSERT
  5
8015
  8
3
  6
CONTINUOUS
 62
     0
  2
_OPEN
 10
679.09362972018221
 20
2531.5164019999988
 30
0.0
 41
40.0
 42
40.0
 43
40.0
 50
90.0
  0
INSERT
  5
8016
  8
3
  6
CONTINUOUS
 62
     0
  2
_OPEN
 10
679.09362972018198
 20
2143.5164019999988
 30
0.0
 41
40.0
 42
40.0
 43
40.0
 50
270.0
  0
TEXT
  8
3
  40
60
  5
8091
  62
0
  72
0
  71
0
 10
509.094
 20
2220.03
 30
0.000000
  1
388
  0
POINT
  5
8018
  8
DEFPOINTS
  6
CONTINUOUS
 62
     0
 10
904.89324772018176
 20
2531.5164019999988
 30
0.0
  0
POINT
  5
8019
  8
DEFPOINTS
  6
CONTINUOUS
 62
     0
 10
736.18794638956717
 20
2143.5164019999988
 30
0.0
  0
POINT
  5
801A
  8
DEFPOINTS
  6
CONTINUOUS
 62
     0
 10
679.09362972018198
 20
2143.5164019999988
 30
0.0
  0
ENDBLK
  5
7E5C
  8
0
  0
BLOCK
  8
0
  2
*D3
 70
     1
 10
0.0
 20
0.0
 30
0.0
  3
*D3
  1

  0
LINE
  5
801B
  8
3
  6
CONTINUOUS
 62
     0
 10
994.89324772018165
 20
1763.516402
 30
0.0
 11
659.09362972018175
 21
1763.516402
 31
0.0
  0
LINE
  5
801C
  8
3
  6
CONTINUOUS
 62
     0
 10
679.09362972018187
 20
2103.5164019999988
 30
0.0
 11
679.09362972018187
 21
1803.5164019999991
 31
0.0
  0
INSERT
  5
801D
  8
3
  6
CONTINUOUS
 62
     0
  2
_OPEN
 10
679.09362972018187
 20
2143.5164019999988
 30
0.0
 41
40.0
 42
40.0
 43
40.0
 50
90.0
  0
INSERT
  5
801E
  8
3
  6
CONTINUOUS
 62
     0
  2
_OPEN
 10
679.09362972018175
 20
1763.516402
 30
0.0
 41
40.0
 42
40.0
 43
40.0
 50
270.0
  0
TEXT
  8
3
  40
60
  5
8092
  62
0
  72
0
  71
0
 10
509.094
 20
1847.32
 30
0.000000
  1
380
  0
POINT
  5
8020
  8
DEFPOINTS
  6
CONTINUOUS
 62
     0
 10
736.18794638956717
 20
2143.5164019999988
 30
0.0
  0
POINT
  5
8021
  8
DEFPOINTS
  6
CONTINUOUS
 62
     0
 10
1004.893247720181
 20
1763.516402
 30
0.0
  0
POINT
  5
8022
  8
DEFPOINTS
  6
CONTINUOUS
 62
     0
 10
679.09362972018175
 20
1763.516402
 30
0.0
  0
ENDBLK
  5
7E51
  8
0
  0
BLOCK
  8
0
  2
*D4
 70
     1
 10
0.0
 20
0.0
 30
0.0
  3
*D4
  1

  0
LINE
  5
8023
  8
3
  6
CONTINUOUS
 62
     0
 10
994.89324772018165
 20
1763.516402
 30
0.0
 11
659.59544972018193
 21
1763.516402
 31
0.0
  0
LINE
  5
8024
  8
3
  6
CONTINUOUS
 62
     0
 10
894.89324772018176
 20
1701.516402
 30
0.0
 11
659.59544972018193
 21
1701.516402
 31
0.0
  0
LINE
  5
8025
  8
3
  6
CONTINUOUS
 62
     0
 10
679.59544972018205
 20
1803.5164019999991
 30
0.0
 11
679.59544972018205
 21
1843.5164019999991
 31
0.0
  0
LINE
  5
8026
  8
3
  6
CONTINUOUS
 62
     0
 10
679.59544972018193
 20
1661.516402
 30
0.0
 11
679.59544972018193
 21
1484.3735448571431
 31
0.0
  0
LINE
  5
8027
  8
3
  6
CONTINUOUS
 62
     0
 10
679.59544972018193
 20
1763.516402
 30
0.0
 11
679.59544972018193
 21
1701.516402
 31
0.0
  0
INSERT
  5
8028
  8
3
  6
CONTINUOUS
 62
     0
  2
_OPEN
 10
679.59544972018193
 20
1763.516402
 30
0.0
 41
40.0
 42
40.0
 43
40.0
 50
270.0
  0
INSERT
  5
8029
  8
3
  6
CONTINUOUS
 62
     0
  2
_OPEN
 10
679.59544972018193
 20
1701.516402
 30
0.0
 41
40.0
 42
40.0
 43
40.0
 50
90.0
  0
TEXT
  8
3
  40
60
  5
8093
  62
0
  72
0
  71
0
 10
509.595
 20
1446.74
 30
0.000000
  1
62
  0
POINT
  5
802B
  8
DEFPOINTS
  6
CONTINUOUS
 62
     0
 10
1004.893247720181
 20
1763.516402
 30
0.0
  0
POINT
  5
802C
  8
DEFPOINTS
  6
CONTINUOUS
 62
     0
 10
904.89324772018176
 20
1701.516402
 30
0.0
  0
POINT
  5
802D
  8
DEFPOINTS
  6
CONTINUOUS
 62
     0
 10
679.59544972018193
 20
1701.516402
 30
0.0
  0
ENDBLK
  5
7DD2
  8
0
  0
BLOCK
  8
0
  2
*D5
 70
     1
 10
0.0
 20
0.0
 30
0.0
  3
*D5
  1

  0
LINE
  5
802E
  8
3
  6
CONTINUOUS
 62
     0
 10
904.89324772018176
 20
1691.5164019999991
 30
0.0
 11
904.89324772018176
 21
1509.6137171553321
 31
0.0
  0
LINE
  5
802F
  8
3
  6
CONTINUOUS
 62
     0
 10
1264.8932477201811
 20
1576.5986144349081
 30
0.0
 11
1264.8932477201811
 21
1509.6137171553321
 31
0.0
  0
LINE
  5
8030
  8
3
  6
CONTINUOUS
 62
     0
 10
944.89324772018176
 20
1529.613717155331
 30
0.0
 11
1224.8932477201811
 21
1529.613717155331
 31
0.0
  0
INSERT
  5
8031
  8
3
  6
CONTINUOUS
 62
     0
  2
_OPEN
 10
904.89324772018176
 20
1529.613717155331
 30
0.0
 41
40.0
 42
40.0
 43
40.0
 50
180.0
  0
INSERT
  5
8032
  8
3
  6
CONTINUOUS
 62
     0
  2
_OPEN
 10
1264.8932477201811
 20
1529.613717155331
 30
0.0
 41
40.0
 42
40.0
 43
40.0
  0
TEXT
  8
3
  40
60
  5
8094
  62
0
  72
0
  71
0
 10
958.316
 20
1473.41
 30
0.000000
  1
360
  0
POINT
  5
8034
  8
DEFPOINTS
  6
CONTINUOUS
 62
     0
 10
904.89324772018176
 20
1701.516402
 30
0.0
  0
POINT
  5
8035
  8
DEFPOINTS
  6
CONTINUOUS
 62
     0
 10
1264.8932477201811
 20
1586.5986144349081
 30
0.0
  0
POINT
  5
8036
  8
DEFPOINTS
  6
CONTINUOUS
 62
     0
 10
1264.8932477201811
 20
1529.613717155331
 30
0.0
  0
ENDBLK
  5
7E26
  8
0
  0
BLOCK
  8
0
  2
*D6
 70
     1
 10
0.0
 20
0.0
 30
0.0
  3
*D6
  1

  0
LINE
  5
8037
  8
3
  6
CONTINUOUS
 62
     0
 10
2104.8932477201811
 20
1691.5164019999991
 30
0.0
 11
2104.8932477201811
 21
1509.6137171553321
 31
0.0
  0
LINE
  5
8038
  8
3
  6
CONTINUOUS
 62
     0
 10
1304.893247720182
 20
1529.613717155331
 30
0.0
 11
2064.8932477201811
 21
1529.613717155331
 31
0.0
  0
INSERT
  5
8039
  8
3
  6
CONTINUOUS
 62
     0
  2
_OPEN
 10
1264.8932477201811
 20
1529.613717155331
 30
0.0
 41
40.0
 42
40.0
 43
40.0
 50
180.0
  0
INSERT
  5
803A
  8
3
  6
CONTINUOUS
 62
     0
  2
_OPEN
 10
2104.8932477201811
 20
1529.613717155331
 30
0.0
 41
40.0
 42
40.0
 43
40.0
  0
TEXT
  8
3
  40
60
  5
8095
  62
0
  72
0
  71
0
 10
1564.89
 20
1473.41
 30
0.000000
  1
840
  0
POINT
  5
803C
  8
DEFPOINTS
  6
CONTINUOUS
 62
     0
 10
1264.8932477201811
 20
1586.5986144349081
 30
0.0
  0
POINT
  5
803D
  8
DEFPOINTS
  6
CONTINUOUS
 62
     0
 10
2104.8932477201811
 20
1701.516402
 30
0.0
  0
POINT
  5
803E
  8
DEFPOINTS
  6
CONTINUOUS
 62
     0
 10
2104.8932477201811
 20
1529.613717155331
 30
0.0
  0
ENDBLK
  5
7E1B
  8
0
  0
BLOCK
  8
0
  2
*D7
 70
     1
 10
0.0
 20
0.0
 30
0.0
  3
*D7
  1

  0
LINE
  5
803F
  8
3
  6
CONTINUOUS
 62
     0
 10
964.89324772018165
 20
2568.5164020000002
 30
0.0
 11
964.89324772018165
 21
2853.2195390000002
 31
0.0
  0
LINE
  5
8040
  8
3
  6
CONTINUOUS
 62
     0
 10
1264.8932477201811
 20
2814.221671772772
 30
0.0
 11
1264.8932477201811
 21
2853.2195390000002
 31
0.0
  0
LINE
  5
8041
  8
3
  6
CONTINUOUS
 62
     0
 10
1004.893247720181
 20
2833.2195390000002
 30
0.0
 11
1224.8932477201811
 21
2833.2195390000002
 31
0.0
  0
INSERT
  5
8042
  8
3
  6
CONTINUOUS
 62
     0
  2
_OPEN
 10
964.89324772018165
 20
2833.2195390000002
 30
0.0
 41
40.0
 42
40.0
 43
40.0
 50
180.0
  0
INSERT
  5
8043
  8
3
  6
CONTINUOUS
 62
     0
  2
_OPEN
 10
1264.8932477201811
 20
2833.2195390000002
 30
0.0
 41
40.0
 42
40.0
 43
40.0
  0
TEXT
  8
3
  40
60
  5
8096
  62
0
  72
0
  71
0
 10
982.036
 20
2777.02
 30
0.000000
  1
300
  0
POINT
  5
8045
  8
DEFPOINTS
  6
CONTINUOUS
 62
     0
 10
964.89324772018165
 20
2558.5164019999988
 30
0.0
  0
POINT
  5
8046
  8
DEFPOINTS
  6
CONTINUOUS
 62
     0
 10
1264.8932477201811
 20
2804.2216717727711
 30
0.0
  0
POINT
  5
8047
  8
DEFPOINTS
  6
CONTINUOUS
 62
     0
 10
1264.8932477201811
 20
2833.2195390000002
 30
0.0
  0
ENDBLK
  5
7DC5
  8
0
  0
BLOCK
  8
0
  2
*D8
 70
     1
 10
0.0
 20
0.0
 30
0.0
  3
*D8
  1

  0
LINE
  5
8048
  8
3
  6
CONTINUOUS
 62
     0
 10
2922.49615613991
 20
1691.5164019999991
 30
0.0
 11
2922.49615613991
 21
1515.877801544191
 31
0.0
  0
LINE
  5
8049
  8
3
  6
CONTINUOUS
 62
     0
 10
3252.4961561399109
 20
1579.4362282001159
 30
0.0
 11
3252.4961561399109
 21
1515.877801544191
 31
0.0
  0
LINE
  5
804A
  8
3
  6
CONTINUOUS
 62
     0
 10
2962.4961561399109
 20
1535.877801544191
 30
0.0
 11
3212.4961561399109
 21
1535.877801544191
 31
0.0
  0
INSERT
  5
804B
  8
3
  6
CONTINUOUS
 62
     0
  2
_OPEN
 10
2922.49615613991
 20
1535.877801544191
 30
0.0
 41
40.0
 42
40.0
 43
40.0
 50
180.0
  0
INSERT
  5
804C
  8
3
  6
CONTINUOUS
 62
     0
  2
_OPEN
 10
3252.4961561399109
 20
1535.877801544191
 30
0.0
 41
40.0
 42
40.0
 43
40.0
  0
TEXT
  8
3
  40
60
  5
8097
  62
0
  72
0
  71
0
 10
2972.73
 20
1479.68
 30
0.000000
  1
330
  0
POINT
  5
804E
  8
DEFPOINTS
  6
CONTINUOUS
 62
     0
 10
2922.49615613991
 20
1701.516402
 30
0.0
  0
POINT
  5
804F
  8
DEFPOINTS
  6
CONTINUOUS
 62
     0
 10
3252.4961561399109
 20
1589.4362282001159
 30
0.0
  0
POINT
  5
8050
  8
DEFPOINTS
  6
CONTINUOUS
 62
     0
 10
3252.4961561399109
 20
1535.877801544191
 30
0.0
  0
ENDBLK
  5
7E07
  8
0
  0
BLOCK
  8
0
  2
*D9
 70
     1
 10
0.0
 20
0.0
 30
0.0
  3
*D9
  1

  0
LINE
  5
8051
  8
3
  6
CONTINUOUS
 62
     0
 10
3522.49615613991
 20
1691.5164019999991
 30
0.0
 11
3522.49615613991
 21
1515.877801544191
 31
0.0
  0
LINE
  5
8052
  8
3
  6
CONTINUOUS
 62
     0
 10
3292.4961561399109
 20
1535.877801544191
 30
0.0
 11
3482.4961561399109
 21
1535.877801544191
 31
0.0
  0
TEXT
  8
3
  40
60
  5
8098
  62
0
  72
0
  71
0
 10
3274.19
 20
1480.85
 30
0.000000
  1
270
  0
INSERT
  5
8054
  8
3
  6
CONTINUOUS
 62
     0
  2
_OPEN
 10
3252.4961561399109
 20
1535.877801544191
 30
0.0
 41
40.0
 42
40.0
 43
40.0
 50
180.0
  0
INSERT
  5
8055
  8
3
  6
CONTINUOUS
 62
     0
  2
_OPEN
 10
3522.49615613991
 20
1535.877801544191
 30
0.0
 41
40.0
 42
40.0
 43
40.0
  0
POINT
  5
8056
  8
DEFPOINTS
  6
CONTINUOUS
 62
     0
 10
3252.4961561399109
 20
1589.4362282001159
 30
0.0
  0
POINT
  5
8057
  8
DEFPOINTS
  6
CONTINUOUS
 62
     0
 10
3522.49615613991
 20
1701.516402
 30
0.0
  0
POINT
  5
8058
  8
DEFPOINTS
  6
CONTINUOUS
 62
     0
 10
3522.49615613991
 20
1535.877801544191
 30
0.0
  0
ENDBLK
  5
7E11
  8
0
  0
BLOCK
  8
0
  2
*D10
 70
     1
 10
0.0
 20
0.0
 30
0.0
  3
*D10
  1

  0
LINE
  5
8059
  8
3
  6
CONTINUOUS
 62
     0
 10
3402.49615613991
 20
2541.5164020000002
 30
0.0
 11
3402.49615613991
 21
2810.6155819999999
 31
0.0
  0
LINE
  5
805A
  8
3
  6
CONTINUOUS
 62
     0
 10
3102.4961561399109
 20
2541.5164020000002
 30
0.0
 11
3102.4961561399109
 21
2810.6155819999999
 31
0.0
  0
LINE
  5
805B
  8
3
  6
CONTINUOUS
 62
     0
 10
3442.4961561399109
 20
2790.6155819999999
 30
0.0
 11
3482.4961561399109
 21
2790.6155819999999
 31
0.0
  0
LINE
  5
805C
  8
3
  6
CONTINUOUS
 62
     0
 10
3062.4961561399109
 20
2790.6155819999999
 30
0.0
 11
3022.4961561399109
 21
2790.6155819999999
 31
0.0
  0
LINE
  5
805D
  8
3
  6
CONTINUOUS
 62
     0
 10
3402.49615613991
 20
2790.6155819999999
 30
0.0
 11
3102.4961561399109
 21
2790.6155819999999
 31
0.0
  0
INSERT
  5
805E
  8
3
  6
CONTINUOUS
 62
     0
  2
_OPEN
 10
3402.49615613991
 20
2790.6155819999999
 30
0.0
 41
40.0
 42
40.0
 43
40.0
 50
180.0
  0
INSERT
  5
805F
  8
3
  6
CONTINUOUS
 62
     0
  2
_OPEN
 10
3102.4961561399109
 20
2790.6155819999999
 30
0.0
 41
40.0
 42
40.0
 43
40.0
  0
TEXT
  8
3
  40
60
  5
8099
  62
0
  72
0
  71
0
 10
3119.64
 20
2734.42
 30
0.000000
  1
300
  0
POINT
  5
8061
  8
DEFPOINTS
  6
CONTINUOUS
 62
     0
 10
3402.49615613991
 20
2531.5164019999988
 30
0.0
  0
POINT
  5
8062
  8
DEFPOINTS
  6
CONTINUOUS
 62
     0
 10
3102.4961561399109
 20
2531.5164019999988
 30
0.0
  0
POINT
  5
8063
  8
DEFPOINTS
  6
CONTINUOUS
 62
     0
 10
3102.4961561399109
 20
2790.6155819999999
 30
0.0
  0
ENDBLK
  5
7C86
  8
0
  0
BLOCK
  8
0
  2
*D11
 70
     1
 10
0.0
 20
0.0
 30
0.0
  3
*D11
  1

  0
LINE
  5
8064
  8
3
  6
CONTINUOUS
 62
     0
 10
2912.4961561399109
 20
2761.5164019999988
 30
0.0
 11
2760.7120001399112
 21
2761.5164019999988
 31
0.0
  0
LINE
  5
8065
  8
3
  6
CONTINUOUS
 62
     0
 10
2912.4961561399109
 20
1701.516402
 30
0.0
 11
2760.7120001399112
 21
1701.516402
 31
0.0
  0
LINE
  5
8066
  8
3
  6
CONTINUOUS
 62
     0
 10
2780.7120001399112
 20
2721.5164020000002
 30
0.0
 11
2780.7120001399112
 21
1741.516402
 31
0.0
  0
INSERT
  5
8067
  8
3
  6
CONTINUOUS
 62
     0
  2
_OPEN
 10
2780.7120001399112
 20
2761.5164019999988
 30
0.0
 41
40.0
 42
40.0
 43
40.0
 50
90.0
  0
INSERT
  5
8068
  8
3
  6
CONTINUOUS
 62
     0
  2
_OPEN
 10
2780.7120001399112
 20
1701.516402
 30
0.0
 41
40.0
 42
40.0
 43
40.0
 50
270.0
  0
TEXT
  8
3
  40
60
  5
809A
  62
0
  72
0
  71
0
 10
2610.71
 20
2049.62
 30
0.000000
  1
1060
  0
POINT
  5
806A
  8
DEFPOINTS
  6
CONTINUOUS
 62
     0
 10
2922.49615613991
 20
2761.5164019999988
 30
0.0
  0
POINT
  5
806B
  8
DEFPOINTS
  6
CONTINUOUS
 62
     0
 10
2922.49615613991
 20
1701.516402
 30
0.0
  0
POINT
  5
806C
  8
DEFPOINTS
  6
CONTINUOUS
 62
     0
 10
2780.7120001399112
 20
1701.516402
 30
0.0
  0
ENDBLK
  5
7D4F
  8
0
  0
BLOCK
  8
0
  2
*D12
 70
     1
 10
0.0
 20
0.0
 30
0.0
  3
*D12
  1

  0
LINE
  5
806D
  8
3
  6
CONTINUOUS
 62
     0
 10
3412.49615613991
 20
2358.5164019999988
 30
0.0
 11
3697.6790041399108
 21
2358.5164019999988
 31
0.0
  0
LINE
  5
806E
  8
3
  6
CONTINUOUS
 62
     0
 10
3412.49615613991
 20
1928.5164019999991
 30
0.0
 11
3697.6790041399108
 21
1928.5164019999991
 31
0.0
  0
LINE
  5
806F
  8
3
  6
CONTINUOUS
 62
     0
 10
3677.6790041399108
 20
2318.5164019999988
 30
0.0
 11
3677.6790041399108
 21
1968.5164019999991
 31
0.0
  0
INSERT
  5
8070
  8
3
  6
CONTINUOUS
 62
     0
  2
_OPEN
 10
3677.6790041399108
 20
2358.5164019999988
 30
0.0
 41
40.0
 42
40.0
 43
40.0
 50
90.0
  0
INSERT
  5
8071
  8
3
  6
CONTINUOUS
 62
     0
  2
_OPEN
 10
3677.6790041399108
 20
1928.5164019999991
 30
0.0
 41
40.0
 42
40.0
 43
40.0
 50
270.0
  0
TEXT
  8
3
  40
60
  5
809B
  62
0
  72
0
  71
0
 10
3507.68
 20
2025.68
 30
0.000000
  1
φ430
  0
POINT
  5
8073
  8
DEFPOINTS
  6
CONTINUOUS
 62
     0
 10
3402.49615613991
 20
2358.5164019999988
 30
0.0
  0
POINT
  5
8074
  8
DEFPOINTS
  6
CONTINUOUS
 62
     0
 10
3402.49615613991
 20
1928.5164019999991
 30
0.0
  0
POINT
  5
8075
  8
DEFPOINTS
  6
CONTINUOUS
 62
     0
 10
3677.6790041399108
 20
1928.5164019999991
 30
0.0
  0
ENDBLK
  5
7E67
  8
0
  0
BLOCK
  8
0
  2
*D13
 70
     1
 10
0.0
 20
0.0
 30
0.0
  3
*D13
  1

  0
LINE
  5
8076
  8
3
  6
CONTINUOUS
 62
     0
 10
904.89324772018176
 20
3828.2864020000002
 30
0.0
 11
904.89324772018176
 21
4027.2742450000001
 31
0.0
  0
LINE
  5
8077
  8
3
  6
CONTINUOUS
 62
     0
 10
2104.8932477201811
 20
3828.2864020000002
 30
0.0
 11
2104.8932477201811
 21
4027.2742450000001
 31
0.0
  0
LINE
  5
8078
  8
3
  6
CONTINUOUS
 62
     0
 10
944.89324772018176
 20
4007.2742450000001
 30
0.0
 11
2064.8932477201811
 21
4007.2742450000001
 31
0.0
  0
INSERT
  5
8079
  8
3
  6
CONTINUOUS
 62
     0
  2
_OPEN
 10
904.89324772018176
 20
4007.2742450000001
 30
0.0
 41
40.0
 42
40.0
 43
40.0
 50
180.0
  0
INSERT
  5
807A
  8
3
  6
CONTINUOUS
 62
     0
  2
_OPEN
 10
2104.8932477201811
 20
4007.2742450000001
 30
0.0
 41
40.0
 42
40.0
 43
40.0
  0
TEXT
  8
3
  40
60
  5
809C
  62
0
  72
0
  71
0
 10
1381.25
 20
3951.07
 30
0.000000
  1
1200
  0
POINT
  5
807C
  8
DEFPOINTS
  6
CONTINUOUS
 62
     0
 10
904.89324772018176
 20
3818.2864020000002
 30
0.0
  0
POINT
  5
807D
  8
DEFPOINTS
  6
CONTINUOUS
 62
     0
 10
2104.8932477201811
 20
3818.2864020000002
 30
0.0
  0
POINT
  5
807E
  8
DEFPOINTS
  6
CONTINUOUS
 62
     0
 10
2104.8932477201811
 20
4007.2742450000001
 30
0.0
  0
ENDBLK
  5
7D39
  8
0
  0
BLOCK
  8
0
  2
*D14
 70
     1
 10
0.0
 20
0.0
 30
0.0
  3
*D14
  1

  0
LINE
  5
807F
  8
3
  6
CONTINUOUS
 62
     0
 10
2114.8932477201811
 20
3818.2864020000002
 30
0.0
 11
2331.7123327201821
 21
3818.2864020000002
 31
0.0
  0
LINE
  5
8080
  8
3
  6
CONTINUOUS
 62
     0
 10
2114.8932477201811
 20
3218.2864020000002
 30
0.0
 11
2331.7123327201821
 21
3218.2864020000002
 31
0.0
  0
LINE
  5
8081
  8
3
  6
CONTINUOUS
 62
     0
 10
2311.7123327201821
 20
3778.2864020000002
 30
0.0
 11
2311.7123327201821
 21
3258.2864020000002
 31
0.0
  0
INSERT
  5
8082
  8
3
  6
CONTINUOUS
 62
     0
  2
_OPEN
 10
2311.7123327201821
 20
3818.2864020000002
 30
0.0
 41
40.0
 42
40.0
 43
40.0
 50
90.0
  0
INSERT
  5
8083
  8
3
  6
CONTINUOUS
 62
     0
  2
_OPEN
 10
2311.7123327201821
 20
3218.2864020000002
 30
0.0
 41
40.0
 42
40.0
 43
40.0
 50
270.0
  0
TEXT
  8
3
  40
60
  5
809D
  62
0
  72
0
  71
0
 10
2141.71
 20
3409.96
 30
0.000000
  1
600
  0
POINT
  5
8085
  8
DEFPOINTS
  6
CONTINUOUS
 62
     0
 10
2104.8932477201811
 20
3818.2864020000002
 30
0.0
  0
POINT
  5
8086
  8
DEFPOINTS
  6
CONTINUOUS
 62
     0
 10
2104.8932477201811
 20
3218.2864020000002
 30
0.0
  0
POINT
  5
8087
  8
DEFPOINTS
  6
CONTINUOUS
 62
     0
 10
2311.7123327201821
 20
3218.2864020000002
 30
0.0
  0
ENDBLK
  5
7D44
  8
0
  0
BLOCK
  8
0
  2
*D15
 70
     1
 10
0.0
 20
0.0
 30
0.0
  3
*D15
  1

  0
LINE
  5
7E33
  8
0
  6
BYBLOCK
 62
     0
 10
3252.4961561399109
 20
2893.7303769999999
 30
0.0
 11
3252.4961561399109
 21
2921.4248130000001
 31
0.0
  0
LINE
  5
7E34
  8
0
  6
BYBLOCK
 62
     0
 10
3403.49615613991
 20
2368.5164020000002
 30
0.0
 11
3403.49615613991
 21
2921.4248130000001
 31
0.0
  0
LINE
  5
7E35
  8
0
  6
BYBLOCK
 62
     0
 10
3292.4961561399109
 20
2901.4248130000001
 30
0.0
 11
3363.49615613991
 21
2901.4248130000001
 31
0.0
  0
TEXT
  5
7E36
  8
1
 62
     0
 10
3263.3752270964928
 20
2932.2900334231181
 30
0.0
 40
60.0
  1
151
  0
INSERT
  5
7E37
  8
0
  6
BYBLOCK
 62
     0
  2
_OPEN
 10
3252.4961561399109
 20
2901.4248130000001
 30
0.0
 41
40.0
 42
40.0
 43
40.0
 50
180.0
  0
INSERT
  5
7E38
  8
0
  6
BYBLOCK
 62
     0
  2
_OPEN
 10
3403.49615613991
 20
2901.4248130000001
 30
0.0
 41
40.0
 42
40.0
 43
40.0
  0
POINT
  5
7E39
  8
DEFPOINTS
  6
BYBLOCK
 62
     0
 10
3252.4961561399109
 20
2883.7303769999999
 30
0.0
  0
POINT
  5
7E3A
  8
DEFPOINTS
  6
BYBLOCK
 62
     0
 10
3403.49615613991
 20
2358.5164019999988
 30
0.0
  0
POINT
  5
7E3B
  8
DEFPOINTS
  6
BYBLOCK
 62
     0
 10
3403.49615613991
 20
2901.4248130000001
 30
0.0
  0
ENDBLK
  5
7E3C
  8
0
  0
BLOCK
  8
0
  2
*D16
 70
     1
 10
0.0
 20
0.0
 30
0.0
  3
*D16
  1

  0
LINE
  5
8088
  8
3
 62
     0
 10
1604.8932477201811
 20
2453.5164019999988
 30
0.0
 11
1604.8932477201811
 21
2853.2195390000002
 31
0.0
  0
LINE
  5
8089
  8
3
 62
     0
 10
1304.893247720182
 20
2833.2195390000002
 30
0.0
 11
1564.8932477201811
 21
2833.2195390000002
 31
0.0
  0
INSERT
  5
808A
  8
3
 62
     0
  2
_OPEN
 10
1264.8932477201811
 20
2833.2195390000002
 30
0.0
 41
40.0
 42
40.0
 43
40.0
 50
180.0
  0
INSERT
  5
808B
  8
3
 62
     0
  2
_OPEN
 10
1604.8932477201811
 20
2833.2195390000002
 30
0.0
 41
40.0
 42
40.0
 43
40.0
  0
TEXT
  8
3
  40
60
  5
809E
  62
0
  72
0
  71
0
 10
1314.89
 20
2777.02
 30
0.000000
  1
340
  0
POINT
  5
808D
  8
DEFPOINTS
 62
     0
 10
1264.8932477201811
 20
2810.4037515093551
 30
0.0
  0
POINT
  5
808E
  8
DEFPOINTS
 62
     0
 10
1604.8932477201811
 20
2443.5164020000002
 30
0.0
  0
POINT
  5
808F
  8
DEFPOINTS
 62
     0
 10
1604.8932477201811
 20
2833.2195390000002
 30
0.0
  0
ENDBLK
  5
7DBA
  8
0
  0
ENDSEC
  0
SECTION
  2
ENTITIES
  0
CIRCLE
  5
7ADD
  8
1
  6
CONTINUOUS
 10
1264.8932477201811
 20
2143.5164019999988
 30
0.0
 40
240.0
  0
LINE
  5
7ADE
  8
1
  6
CONTINUOUS
 10
994.89324772018165
 20
2443.5164020000002
 30
0.0
 11
1604.8932477201811
 21
2443.5164020000002
 31
0.0
  0
LINE
  5
7ADF
  8
1
  6
CONTINUOUS
 10
994.89324772018165
 20
1843.5164019999991
 30
0.0
 11
2004.8932477201811
 21
1843.5164019999991
 31
0.0
  0
ARC
  5
7AE0
  8
1
  6
CONTINUOUS
 10
1286.8932477201811
 20
2165.5164019999988
 30
0.0
 40
310.75999999999999
 50
262.69
 51
354.17000000000002
  0
ARC
  5
7AE1
  8
1
  6
CONTINUOUS
 10
1237.8932477201811
 20
2170.5164020000002
 30
0.0
 40
360.00999999999988
 50
354.17000000000002
 51
85.700000000000003
  0
LINE
  5
7AE2
  8
1
  6
CONTINUOUS
 10
1004.893247720181
 20
1763.516402
 30
0.0
 11
2004.8932477201811
 21
1763.516402
 31
0.0
  0
LINE
  5
7AE3
  8
1
  6
CONTINUOUS
 10
1004.893247720181
 20
3742.2864020000002
 30
0.0
 11
2004.8932477201811
 21
3742.2864020000002
 31
0.0
  0
LINE
  5
7AE4
  8
1
  6
CONTINUOUS
 10
1604.8932477201811
 20
3398.2864020000002
 30
0.0
 11
964.89324772018165
 21
3398.2864020000002
 31
0.0
  0
LINE
  5
7AE5
  8
1
  6
CONTINUOUS
 10
1604.8932477201811
 20
3698.2864020000002
 30
0.0
 11
964.89324772018165
 21
3698.2864020000002
 31
0.0
  0
LINE
  5
7AE6
  8
1
  6
CONTINUOUS
 10
1279.3932477201811
 20
2498.5164019999988
 30
0.0
 11
1959.3932477201811
 21
2093.5164020000002
 31
0.0
  0
LINE
  5
7AE7
  8
1
  6
CONTINUOUS
 10
1959.3932477201811
 20
3318.2864020000002
 30
0.0
 11
1089.3932477201811
 21
3318.2864020000002
 31
0.0
  0
LINE
  5
7AE8
  8
1
  6
CONTINUOUS
 10
1278.8932477201811
 20
3354.2864020000002
 30
0.0
 11
1782.7632477201821
 21
3354.2864020000002
 31
0.0
  0
LINE
  5
7AE9
  8
1
  6
CONTINUOUS
 10
1819.533247720181
 20
2024.026402
 30
0.0
 11
1302.8532477201809
 21
2236.0264019999991
 31
0.0
  0
LINE
  5
7AEA
  8
1
  6
CONTINUOUS
 10
1240.503247720181
 20
2046.536402
 30
0.0
 11
1782.1232477201811
 21
1910.3264019999999
 31
0.0
  0
CIRCLE
  5
7AEB
  8
1
  6
CONTINUOUS
 10
1264.8932477201811
 20
2143.5164019999988
 30
0.0
 40
215.0
  0
LINE
  5
7B04
  8
1
  6
CONTINUOUS
 10
994.89324772018165
 20
2443.5164020000002
 30
0.0
 11
994.89324772018165
 21
1843.5164019999991
 31
0.0
  0
ARC
  5
7B05
  8
1
  6
CONTINUOUS
 10
1281.8932477201811
 20
2126.5164019999988
 30
0.0
 40
271.43999999999988
 50
178.94
 51
262.69
  0
LINE
  5
7B06
  8
1
  6
CONTINUOUS
 10
1089.3932477201811
 20
1843.5164019999991
 30
0.0
 11
1089.3932477201811
 21
2383.5164019999988
 31
0.0
  0
LINE
  5
7B07
  8
1
  6
CONTINUOUS
 10
1004.893247720181
 20
1843.5164019999991
 30
0.0
 11
1004.893247720181
 21
1763.516402
 31
0.0
  0
LINE
  5
7B08
  8
1
  6
CONTINUOUS
 10
964.89324772018165
 20
2531.5164019999988
 30
0.0
 11
1264.8932477201811
 21
2529.5164020000002
 31
0.0
  0
LINE
  5
7B09
  8
1
  6
CONTINUOUS
 10
1089.3932477201811
 20
2383.5164019999988
 30
0.0
 11
1279.3932477201811
 21
2498.5164019999988
 31
0.0
  0
LINE
  5
7B0A
  8
1
  6
CONTINUOUS
 10
984.89324772018165
 20
2131.5164019999988
 30
0.0
 11
984.89324772018165
 21
2531.3764019999999
 31
0.0
  0
LINE
  5
7B0B
  8
1
  6
CONTINUOUS
 10
964.89324772018165
 20
2104.5164019999988
 30
0.0
 11
964.89324772018165
 21
2558.5164019999988
 31
0.0
  0
LINE
  5
7B0C
  8
1
  6
CONTINUOUS
 10
1010.493247720181
 20
2131.5164019999988
 30
0.0
 11
964.89324772018165
 21
2131.5164019999988
 31
0.0
  0
LINE
  5
7B0D
  8
2
  6
CENTER
 10
736.18794638956717
 20
2143.5164019999988
 30
0.0
 11
2156.2470109215642
 21
2143.5164019999988
 31
0.0
  0
CIRCLE
  5
7B0E
  8
1
  6
CONTINUOUS
 10
1264.8932477201811
 20
2143.5164019999988
 30
0.0
 40
100.0
  0
LINE
  5
7B0F
  8
2
  6
CENTER
 10
1264.8932477201811
 20
3852.7272090000001
 30
0.0
 11
1264.8932477201811
 21
3157.4293369646111
 31
0.0
  0
LINE
  5
7B10
  8
1
  6
CONTINUOUS
 10
1004.893247720181
 20
3742.2864020000002
 30
0.0
 11
1004.893247720181
 21
3698.2864020000002
 31
0.0
  0
LINE
  5
7B11
  8
1
  6
CONTINUOUS
 10
964.89324772018165
 20
3371.2864020000002
 30
0.0
 11
964.89324772018165
 21
3725.2864020000002
 31
0.0
  0
LINE
  5
7B12
  8
1
  6
CONTINUOUS
 10
1004.893247720181
 20
3354.2864020000002
 30
0.0
 11
1250.8932477201811
 21
3354.2864020000002
 31
0.0
  0
LINE
  5
7B13
  8
1
  6
CONTINUOUS
 10
1089.3932477201811
 20
3218.2864020000002
 30
0.0
 11
1089.3932477201811
 21
3318.2864020000002
 31
0.0
  0
LINE
  5
7B14
  8
1
  6
CONTINUOUS
 10
984.89324772018165
 20
3398.2864020000002
 30
0.0
 11
984.89324772018165
 21
3698.2864020000002
 31
0.0
  0
LINE
  5
7B15
  8
1
  6
CONTINUOUS
 10
1004.893247720181
 20
3398.2864020000002
 30
0.0
 11
1004.893247720181
 21
3354.2864020000002
 31
0.0
  0
LINE
  5
7B16
  8
1
  6
CONTINUOUS
 10
1368.4232477201811
 20
3243.2864020000002
 30
0.0
 11
1368.4232477201811
 21
3293.2864020000002
 31
0.0
  0
LINE
  5
7B17
  8
1
  6
CONTINUOUS
 10
1164.8932477201811
 20
3243.2864020000002
 30
0.0
 11
1164.8932477201811
 21
3293.2864020000002
 31
0.0
  0
LINE
  5
7B18
  8
1
  6
CONTINUOUS
 10
1368.4232477201811
 20
3243.2864020000002
 30
0.0
 11
1164.8932477201811
 21
3243.2864020000002
 31
0.0
  0
LINE
  5
7B19
  8
1
  6
CONTINUOUS
 10
1368.4232477201811
 20
3293.2864020000002
 30
0.0
 11
1164.8932477201811
 21
3293.2864020000002
 31
0.0
  0
LINE
  5
7B1A
  8
1
  6
CONTINUOUS
 10
1250.8932477201811
 20
3293.2864020000002
 30
0.0
 11
1250.8932477201811
 21
3398.2864020000002
 31
0.0
  0
LINE
  5
7B1B
  8
1
  6
CONTINUOUS
 10
1278.8932477201811
 20
3293.2864020000002
 30
0.0
 11
1278.8932477201811
 21
3398.2864020000002
 31
0.0
  0
LINE
  5
7B2C
  8
1
  6
CONTINUOUS
 10
1604.8932477201811
 20
2443.5164020000002
 30
0.0
 11
1604.8932477201811
 21
1843.5164019999991
 31
0.0
  0
LINE
  5
7B2D
  8
1
  6
CONTINUOUS
 10
1896.763247720181
 20
1880.5164019999991
 30
0.0
 11
1877.2932477201821
 21
1907.556401999999
 31
0.0
  0
LINE
  5
7B2E
  8
1
  6
CONTINUOUS
 10
1696.763247720181
 20
1880.5164019999991
 30
0.0
 11
1716.223247720181
 21
1907.556401999999
 31
0.0
  0
ARC
  5
7B2F
  8
1
  6
CONTINUOUS
 10
1796.763247720181
 20
1968.5164019999991
 30
0.0
 40
101.0
 50
322.88
 51
217.12
  0
LINE
  5
7B30
  8
1
  6
CONTINUOUS
 10
1959.3932477201811
 20
1843.5164019999991
 30
0.0
 11
1959.3932477201811
 21
2093.5164020000002
 31
0.0
  0
LINE
  5
7B31
  8
1
  6
CONTINUOUS
 10
1696.763247720181
 20
1843.5164019999991
 30
0.0
 11
1696.763247720181
 21
1880.5164019999991
 31
0.0
  0
LINE
  5
7B32
  8
1
  6
CONTINUOUS
 10
2004.8932477201811
 20
1843.5164019999991
 30
0.0
 11
2004.8932477201811
 21
1763.516402
 31
0.0
  0
LINE
  5
7B33
  8
1
  6
CONTINUOUS
 10
1896.763247720181
 20
1843.5164019999991
 30
0.0
 11
1896.763247720181
 21
1880.5164019999991
 31
0.0
  0
LINE
  5
7B34
  8
2
  6
CENTER
 10
1796.763247720181
 20
1908.516402
 30
0.0
 11
1796.763247720181
 21
2028.516402
 31
0.0
  0
LINE
  5
7B35
  8
2
  6
CENTER
 10
1856.7632477201821
 20
1968.5164019999991
 30
0.0
 11
1736.763247720181
 21
1968.5164019999991
 31
0.0
  0
CIRCLE
  5
7B36
  8
1
  6
CONTINUOUS
 10
1796.763247720181
 20
1968.5164019999991
 30
0.0
 40
60.0
  0
LINE
  5
7B57
  8
1
  6
CONTINUOUS
 10
3446.4961561399109
 20
1843.5164019999991
 30
0.0
 11
2922.49615613991
 21
1843.5164019999991
 31
0.0
  0
LINE
  5
7B58
  8
1
  6
CONTINUOUS
 10
3446.4961561399109
 20
1763.516402
 30
0.0
 11
3058.4961561399109
 21
1763.516402
 31
0.0
  0
LINE
  5
7B65
  8
1
  6
CONTINUOUS
 10
3022.4961561399109
 20
1843.5164019999991
 30
0.0
 11
3022.4961561399109
 21
2498.5164019999988
 31
0.0
  0
LINE
  5
7B66
  8
1
  6
CONTINUOUS
 10
3402.49615613991
 20
2531.5164019999988
 30
0.0
 11
3402.49615613991
 21
1843.5164019999991
 31
0.0
  0
LINE
  5
7B67
  8
1
  6
CONTINUOUS
 10
3102.4961561399109
 20
2531.5164019999988
 30
0.0
 11
3102.4961561399109
 21
1843.5164019999991
 31
0.0
  0
LINE
  5
7B69
  8
1
  6
CONTINUOUS
 10
3058.4961561399109
 20
1843.5164019999991
 30
0.0
 11
3058.4961561399109
 21
1763.516402
 31
0.0
  0
LINE
  5
7B6A
  8
1
  6
CONTINUOUS
 10
3102.4961561399109
 20
2131.5164019999988
 30
0.0
 11
3402.49615613991
 21
2531.5164019999988
 31
0.0
  0
LINE
  5
7B6B
  8
1
  6
CONTINUOUS
 10
3402.49615613991
 20
2131.5164019999988
 30
0.0
 11
3102.4961561399109
 21
2531.5164019999988
 31
0.0
  0
LINE
  5
7B6C
  8
1
  6
CONTINUOUS
 10
3102.4961561399109
 20
2131.5164019999988
 30
0.0
 11
3402.49615613991
 21
2131.5164019999988
 31
0.0
  0
LINE
  5
7B6D
  8
1
  6
CONTINUOUS
 10
3102.4961561399109
 20
2531.5164019999988
 30
0.0
 11
3402.49615613991
 21
2531.5164019999988
 31
0.0
  0
LINE
  5
7B6E
  8
1
  6
CONTINUOUS
 10
2947.49615613991
 20
2041.746402
 30
0.0
 11
2997.4961561399109
 21
2041.746402
 31
0.0
  0
LINE
  5
7B6F
  8
1
  6
CONTINUOUS
 10
2947.49615613991
 20
2245.276402
 30
0.0
 11
2997.4961561399109
 21
2245.276402
 31
0.0
  0
LINE
  5
7B70
  8
1
  6
CONTINUOUS
 10
2947.49615613991
 20
1908.516402
 30
0.0
 11
2997.4961561399109
 21
1908.516402
 31
0.0
  0
LINE
  5
7B71
  8
1
  6
CONTINUOUS
 10
2947.49615613991
 20
2028.516402
 30
0.0
 11
2997.4961561399109
 21
2028.516402
 31
0.0
  0
LINE
  5
7B72
  8
1
  6
CONTINUOUS
 10
2947.49615613991
 20
2041.746402
 30
0.0
 11
2947.49615613991
 21
2245.276402
 31
0.0
  0
LINE
  5
7B73
  8
1
  6
CONTINUOUS
 10
2947.49615613991
 20
1908.516402
 30
0.0
 11
2947.49615613991
 21
2028.516402
 31
0.0
  0
LINE
  5
7B74
  8
1
  6
CONTINUOUS
 10
2997.4961561399109
 20
2041.746402
 30
0.0
 11
2997.4961561399109
 21
2245.276402
 31
0.0
  0
LINE
  5
7B75
  8
1
  6
CONTINUOUS
 10
2997.4961561399109
 20
2131.276402
 30
0.0
 11
3103.2961561399111
 21
2131.276402
 31
0.0
  0
LINE
  5
7B76
  8
1
  6
CONTINUOUS
 10
2997.4961561399109
 20
2159.276402
 30
0.0
 11
3103.2961561399111
 21
2159.276402
 31
0.0
  0
LINE
  5
7B77
  8
1
  6
CONTINUOUS
 10
2997.4961561399109
 20
1954.516402
 30
0.0
 11
3102.4961561399109
 21
1954.516402
 31
0.0
  0
LINE
  5
7B78
  8
1
  6
CONTINUOUS
 10
2997.4961561399109
 20
1982.5164019999991
 30
0.0
 11
3102.4961561399109
 21
1982.5164019999991
 31
0.0
  0
LINE
  5
7B79
  8
1
  6
CONTINUOUS
 10
2997.4961561399109
 20
1908.516402
 30
0.0
 11
2997.4961561399109
 21
2028.516402
 31
0.0
  0
LINE
  5
7B7A
  8
1
  6
CONTINUOUS
 10
2922.49615613991
 20
2498.5164019999988
 30
0.0
 11
3022.4961561399109
 21
2498.5164019999988
 31
0.0
  0
LINE
  5
7B7B
  8
1
  6
CONTINUOUS
 10
3446.4961561399109
 20
1843.5164019999991
 30
0.0
 11
3446.4961561399109
 21
1763.516402
 31
0.0
  0
LINE
  5
7B8A
  8
1
  6
CONTINUOUS
 10
2004.8932477201811
 20
3742.2864020000002
 30
0.0
 11
2004.8932477201811
 21
3354.2864020000002
 31
0.0
  0
LINE
  5
7B8B
  8
1
  6
CONTINUOUS
 10
1695.763247720181
 20
3628.486402
 30
0.0
 11
1897.763247720181
 21
3628.486402
 31
0.0
  0
LINE
  5
7B8C
  8
1
  6
CONTINUOUS
 10
1695.763247720181
 20
3385.8064020000002
 30
0.0
 11
1897.763247720181
 21
3385.8064020000002
 31
0.0
  0
LINE
  5
7B8D
  8
1
  6
CONTINUOUS
 10
1695.763247720181
 20
3385.8064020000002
 30
0.0
 11
1695.763247720181
 21
3628.486402
 31
0.0
  0
LINE
  5
7B8E
  8
1
  6
CONTINUOUS
 10
1604.8932477201811
 20
3398.2864020000002
 30
0.0
 11
1604.8932477201811
 21
3698.2864020000002
 31
0.0
  0
LINE
  5
7B8F
  8
1
  6
CONTINUOUS
 10
1959.3932477201811
 20
3218.2864020000002
 30
0.0
 11
1959.3932477201811
 21
3318.2864020000002
 31
0.0
  0
LINE
  5
7B90
  8
1
  6
CONTINUOUS
 10
1856.7632477201821
 20
3243.2864020000002
 30
0.0
 11
1856.7632477201821
 21
3293.2864020000002
 31
0.0
  0
LINE
  5
7B91
  8
1
  6
CONTINUOUS
 10
1736.763247720181
 20
3243.2864020000002
 30
0.0
 11
1736.763247720181
 21
3293.2864020000002
 31
0.0
  0
LINE
  5
7B92
  8
1
  6
CONTINUOUS
 10
1856.7632477201821
 20
3243.2864020000002
 30
0.0
 11
1736.763247720181
 21
3243.2864020000002
 31
0.0
  0
LINE
  5
7B93
  8
1
  6
CONTINUOUS
 10
1810.763247720181
 20
3354.2864020000002
 30
0.0
 11
2004.8932477201811
 21
3354.2864020000002
 31
0.0
  0
LINE
  5
7B94
  8
1
  6
CONTINUOUS
 10
1810.763247720181
 20
3293.2864020000002
 30
0.0
 11
1810.763247720181
 21
3385.8064020000002
 31
0.0
  0
LINE
  5
7B95
  8
1
  6
CONTINUOUS
 10
1782.7632477201821
 20
3293.2864020000002
 30
0.0
 11
1782.7632477201821
 21
3385.8064020000002
 31
0.0
  0
LINE
  5
7B96
  8
1
  6
CONTINUOUS
 10
1856.7632477201821
 20
3293.2864020000002
 30
0.0
 11
1736.763247720181
 21
3293.2864020000002
 31
0.0
  0
LINE
  5
7B97
  8
1
  6
CONTINUOUS
 10
1897.763247720181
 20
3385.8064020000002
 30
0.0
 11
1897.763247720181
 21
3628.486402
 31
0.0
  0
LINE
  5
7BB6
  8
2
  6
CENTER
 10
2166.3630067201821
 20
3548.2864020000002
 30
0.0
 11
844.07201413239818
 21
3548.2864020000002
 31
0.0
  0
LINE
  5
7BB7
  8
2
  6
CENTER
 10
1264.8932477201811
 20
2810.4037515093551
 30
0.0
 11
1264.8932477201811
 21
1586.5986144349081
 31
0.0
  0
LINE
  5
7BB8
  8
2
  6
CENTER
 10
2883.814752139911
 20
2143.5164019999988
 30
0.0
 11
3566.8276661399109
 21
2143.5164019999988
 31
0.0
  0
LINE
  5
7BB9
  8
4
  6
CONTINUOUS
 10
3700.0
 20
1000.0
 30
0.0
 11
3700.0
 21
600.0
 31
0.0
  0
LINE
  5
7BBA
  8
4
  6
CONTINUOUS
 10
2300.0
 20
1000.0
 30
0.0
 11
2300.0
 21
600.0
 31
0.0
  0
LINE
  5
7BBB
  8
4
  6
CONTINUOUS
 10
1300.0
 20
1000.0
 30
0.0
 11
1300.0
 21
600.0
 31
0.0
  0
LINE
  5
7BBE
  8
4
  6
CONTINUOUS
 10
1300.0
 20
600.0
 30
0.0
 11
3700.0
 21
600.0
 31
0.0
  0
LINE
  5
7BBF
  8
4
  6
CONTINUOUS
 10
1300.0
 20
800.0
 30
0.0
 11
3700.0
 21
800.0
 31
0.0
  0
TEXT
  5
7BC0
  8
4
  6
CONTINUOUS
 10
1377.004162
 20
863.086052
 30
0.0
 40
100.0
  1
機器名称
  0
TEXT
  5
7BC1
  8
4
  6
CONTINUOUS
 10
1372.516212
 20
643.29031299999986
 30
0.0
 40
100.0
  1
機器型番
  0
TEXT
  5
7BC2
  8
4
  6
CONTINUOUS
 10
2355.3574910000002
 20
845.14353800000015
 30
0.0
 40
100.0
  1
ミツヤ多翼送風機
  0
TEXT
  5
7BC3
  8
4
  6
CONTINUOUS
 10
2373.3089909999999
 20
634.31916899999999
 30
0.0
 40
100.0
  1
MF#2 1/2-4
  0
TEXT
  5
7BC5
  8
4
  6
CONTINUOUS
 10
1427.490902999999
 20
4766.8576830000002
 30
0.0
 40
108.0
  1
天井吊枠防振ベット
  0
TEXT
  5
7BC6
  8
4
  6
CONTINUOUS
 10
632.33518700000002
 20
5067.7619520000007
 30
0.0
 40
144.0
  1
ベルト駆動式片吸込両持多翼ファン
  0
LINE
  5
7BC7
  8
4
  6
CONTINUOUS
 10
500.0
 20
4938.8175090000004
 30
0.0
 11
3700.0
 21
4938.8175090000004
 31
0.0
  0
LINE
  5
7BC8
  8
4
  6
CONTINUOUS
 10
500.0
 20
5338.8175090000004
 30
0.0
 11
3700.0
 21
5338.8175090000004
 31
0.0
  0
LINE
  5
7BC9
  8
4
  6
CONTINUOUS
 10
1300.0
 20
1000.0
 30
0.0
 11
3700.0
 21
1000.0
 31
0.0
  0
LINE
  5
7BCA
  8
4
  6
CONTINUOUS
 10
500.0
 20
5338.8175090000004
 30
0.0
 11
500.0
 21
4938.8175090000004
 31
0.0
  0
TEXT
  5
7BCB
  8
4
  6
CONTINUOUS
 10
514.46722299999999
 20
4764.6389549999994
 30
0.0
 40
108.0
  1
左回転左横向
  0
TEXT
  5
7BCC
  8
4
  6
CONTINUOUS
 10
2937.9391179999998
 20
5412.122163
 30
0.0
 40
112.0
  1
No.
  0
TEXT
  5
7BCD
  8
4
  6
CONTINUOUS
 10
2715.5306479999999
 20
4766.8576830000002
 30
0.0
 40
108.0
  1
縮尺：1/20
  0
LINE
  5
7BCE
  8
4
  6
CONTINUOUS
 10
3700.0
 20
5338.8175090000004
 30
0.0
 11
3700.0
 21
4938.8175090000004
 31
0.0
  0
LINE
  5
7BD0
  8
4
  6
CONTINUOUS
 10
2881.234845
 20
5362.5271659999999
 30
0.0
 11
2881.234845
 21
5573.3045229999998
 31
0.0
  0
LINE
  5
7BD1
  8
4
  6
CONTINUOUS
 10
2881.234845
 20
5573.3045229999998
 30
0.0
 11
3700.0
 21
5573.3045229999998
 31
0.0
  0
LINE
  5
7BD2
  8
4
  6
CONTINUOUS
 10
3700.0
 20
5573.3045229999998
 30
0.0
 11
3700.0
 21
5362.5271659999999
 31
0.0
  0
LINE
  5
7BD3
  8
4
  6
CONTINUOUS
 10
3700.0
 20
5362.5271659999999
 30
0.0
 11
2881.234845
 21
5362.5271659999999
 31
0.0
  0
LINE
  5
7BD8
  8
1
  6
CONTINUOUS
 10
944.89324772018165
 20
1741.516402
 30
0.0
 11
944.89324772018165
 21
2721.5164020000002
 31
0.0
  0
LINE
  5
7BD9
  8
1
  6
CONTINUOUS
 10
944.89324772018165
 20
2721.5164020000002
 30
0.0
 11
2064.8932477201811
 21
2721.5164020000002
 31
0.0
  0
LINE
  5
7BDA
  8
1
  6
CONTINUOUS
 10
2064.8932477201811
 20
2721.5164020000002
 30
0.0
 11
2064.8932477201811
 21
1741.516402
 31
0.0
  0
LINE
  5
7BDB
  8
1
  6
CONTINUOUS
 10
2064.8932477201811
 20
1741.516402
 30
0.0
 11
944.89324772018165
 21
1741.516402
 31
0.0
  0
LINE
  5
7BDC
  8
1
  6
CONTINUOUS
 10
904.89324772018176
 20
1701.516402
 30
0.0
 11
904.89324772018176
 21
2761.5164019999988
 31
0.0
  0
LINE
  5
7BDD
  8
1
  6
CONTINUOUS
 10
904.89324772018176
 20
2761.5164019999988
 30
0.0
 11
2104.8932477201811
 21
2761.5164019999988
 31
0.0
  0
LINE
  5
7BDE
  8
1
  6
CONTINUOUS
 10
2104.8932477201811
 20
2761.5164019999988
 30
0.0
 11
2104.8932477201811
 21
1701.516402
 31
0.0
  0
LINE
  5
7BDF
  8
1
  6
CONTINUOUS
 10
2104.8932477201811
 20
1701.516402
 30
0.0
 11
904.89324772018176
 21
1701.516402
 31
0.0
  0
LINE
  5
7BE0
  8
1
  6
CONTINUOUS
 10
944.89324772018165
 20
3778.2864020000002
 30
0.0
 11
2064.8932477201811
 21
3778.2864020000002
 31
0.0
  0
LINE
  5
7BE1
  8
1
  6
CONTINUOUS
 10
2064.8932477201811
 20
3778.2864020000002
 30
0.0
 11
2064.8932477201811
 21
3258.2864020000002
 31
0.0
  0
LINE
  5
7BE2
  8
1
  6
CONTINUOUS
 10
2064.8932477201811
 20
3258.2864020000002
 30
0.0
 11
944.89324772018165
 21
3258.2864020000002
 31
0.0
  0
LINE
  5
7BE3
  8
1
  6
CONTINUOUS
 10
944.89324772018165
 20
3258.2864020000002
 30
0.0
 11
944.89324772018165
 21
3778.2864020000002
 31
0.0
  0
LINE
  5
7BE4
  8
1
  6
CONTINUOUS
 10
904.89324772018176
 20
3818.2864020000002
 30
0.0
 11
2104.8932477201811
 21
3818.2864020000002
 31
0.0
  0
LINE
  5
7BE5
  8
1
  6
CONTINUOUS
 10
2104.8932477201811
 20
3818.2864020000002
 30
0.0
 11
2104.8932477201811
 21
3218.2864020000002
 31
0.0
  0
LINE
  5
7BE6
  8
1
  6
CONTINUOUS
 10
2104.8932477201811
 20
3218.2864020000002
 30
0.0
 11
904.89324772018176
 21
3218.2864020000002
 31
0.0
  0
LINE
  5
7BE7
  8
1
  6
CONTINUOUS
 10
904.89324772018176
 20
3218.2864020000002
 30
0.0
 11
904.89324772018176
 21
3818.2864020000002
 31
0.0
  0
LINE
  5
7BE8
  8
1
  6
CONTINUOUS
 10
3522.49615613991
 20
1701.516402
 30
0.0
 11
2922.49615613991
 21
1701.516402
 31
0.0
  0
LINE
  5
7BE9
  8
1
  6
CONTINUOUS
 10
2922.49615613991
 20
1701.516402
 30
0.0
 11
2922.49615613991
 21
2761.5164019999988
 31
0.0
  0
LINE
  5
7BEA
  8
1
  6
CONTINUOUS
 10
2922.49615613991
 20
2761.5164019999988
 30
0.0
 11
3522.49615613991
 21
2761.5164019999988
 31
0.0
  0
LINE
  5
7BEB
  8
1
  6
CONTINUOUS
 10
3522.49615613991
 20
2761.5164019999988
 30
0.0
 11
3522.49615613991
 21
1701.516402
 31
0.0
  0
LINE
  5
7BEC
  8
1
  6
CONTINUOUS
 10
3482.4961561399109
 20
1741.516402
 30
0.0
 11
2962.4961561399109
 21
1741.516402
 31
0.0
  0
LINE
  5
7BED
  8
1
  6
CONTINUOUS
 10
2962.4961561399109
 20
1741.516402
 30
0.0
 11
2962.4961561399109
 21
2721.5164020000002
 31
0.0
  0
LINE
  5
7BEE
  8
1
  6
CONTINUOUS
 10
2962.4961561399109
 20
2721.5164020000002
 30
0.0
 11
3482.4961561399109
 21
2721.5164020000002
 31
0.0
  0
LINE
  5
7BEF
  8
1
  6
CONTINUOUS
 10
3482.4961561399109
 20
2721.5164020000002
 30
0.0
 11
3482.4961561399109
 21
1741.516402
 31
0.0
  0
DIMENSION
  5
7C03
  8
3
  6
CONTINUOUS
  2
*D1
 10
798.47200172018211
 20
2131.5164019999988
 30
0.0
 11
798.47200172018177
 21
2321.9721679999989
 31
0.0
 70
   128
 13
964.89324772018165
 23
2531.5164019999988
 33
0.0
 14
964.89324772018165
 24
2131.5164019999988
 34
0.0
 50
90.0
1001
ACAD
1000
DSTYLE
1002
{
1070
   287
1070
     3
1070
   287
1070
     3
1070
    40
1040
20.0
1070
   143
1040
0.039
1070
   172
1070
     1
1070
   271
1070
     0
1070
   279
1070
     0
1070
   288
1070
     1
1002
}
  0
DIMENSION
  5
7C10
  8
3
  6
CONTINUOUS
  2
*D2
 10
679.09362972018198
 20
2143.5164019999988
 30
0.0
 11
679.09362972018175
 21
2326.2325660000001
 31
0.0
 70
   128
 13
904.89324772018176
 23
2531.5164019999988
 33
0.0
 14
736.18794638956717
 24
2143.5164019999988
 34
0.0
 50
90.0
1001
ACAD
1000
DSTYLE
1002
{
1070
   287
1070
     3
1070
   287
1070
     3
1070
    40
1040
20.0
1070
   143
1040
0.039
1070
   172
1070
     1
1070
   271
1070
     0
1070
   279
1070
     0
1070
   288
1070
     1
1002
}
  0
DIMENSION
  5
7C1C
  8
3
  6
CONTINUOUS
  2
*D3
 10
679.09362972018175
 20
1763.516402
 30
0.0
 11
629.09362972018153
 21
1953.5164019999991
 31
0.0
 70
     0
 13
736.18794638956717
 23
2143.5164019999988
 33
0.0
 14
1004.893247720181
 24
1763.516402
 34
0.0
 50
90.0
1001
ACAD
1000
DSTYLE
1002
{
1070
   287
1070
     4
1070
   287
1070
     4
1070
    40
1040
20.0
1070
    75
1070
     1
1070
   143
1040
0.039
1070
   172
1070
     1
1070
   271
1070
     0
1070
   279
1070
     1
1070
   288
1070
     1
1002
}
  0
DIMENSION
  5
7C2C
  8
3
  6
CONTINUOUS
  2
*D4
 10
679.59544972018193
 20
1701.516402
 30
0.0
 11
679.5954497201817
 21
1552.9449734285711
 31
0.0
 70
   128
 13
1004.893247720181
 23
1763.516402
 33
0.0
 14
904.89324772018176
 24
1701.516402
 34
0.0
 50
90.0
1001
ACAD
1000
DSTYLE
1002
{
1070
   287
1070
     3
1070
   287
1070
     3
1070
    40
1040
20.0
1070
   143
1040
0.039
1070
   172
1070
     1
1070
   271
1070
     0
1070
   279
1070
     0
1070
   288
1070
     1
1002
}
  0
DIMENSION
  5
7C39
  8
3
  6
CONTINUOUS
  2
*D5
 10
1264.8932477201811
 20
1529.613717155331
 30
0.0
 11
1078.3163007201811
 21
1529.613717155331
 31
0.0
 70
   128
 13
904.89324772018176
 23
1701.516402
 33
0.0
 14
1264.8932477201811
 24
1586.5986144349081
 34
0.0
1001
ACAD
1000
DSTYLE
1002
{
1070
   287
1070
     3
1070
   287
1070
     3
1070
    40
1040
20.0
1070
   143
1040
0.039
1070
   172
1070
     1
1070
   271
1070
     0
1070
   279
1070
     0
1070
   288
1070
     1
1002
}
  0
DIMENSION
  5
7C45
  8
3
  6
CONTINUOUS
  2
*D6
 10
2104.8932477201811
 20
1529.613717155331
 30
0.0
 11
1684.8932477201811
 21
1579.613717155331
 31
0.0
 70
     0
 13
1264.8932477201811
 23
1586.5986144349081
 33
0.0
 14
2104.8932477201811
 24
1701.516402
 34
0.0
1001
ACAD
1000
DSTYLE
1002
{
1070
   287
1070
     4
1070
   287
1070
     4
1070
    40
1040
20.0
1070
    75
1070
     1
1070
   143
1040
0.039
1070
   172
1070
     1
1070
   271
1070
     0
1070
   279
1070
     1
1070
   288
1070
     1
1002
}
  0
DIMENSION
  5
7C52
  8
3
  6
CONTINUOUS
  2
*D7
 10
1264.8932477201811
 20
2833.2195390000002
 30
0.0
 11
1102.036104863038
 21
2833.2195390000002
 31
0.0
 70
   128
 13
964.89324772018165
 23
2558.5164019999988
 33
0.0
 14
1264.8932477201811
 24
2804.2216717727711
 34
0.0
1001
ACAD
1000
DSTYLE
1002
{
1070
   287
1070
     3
1070
   287
1070
     3
1070
    40
1040
20.0
1070
   143
1040
0.039
1070
   172
1070
     1
1070
   271
1070
     0
1070
   279
1070
     0
1070
   288
1070
     1
1002
}
  0
DIMENSION
  5
7C6C
  8
3
  6
CONTINUOUS
  2
*D8
 10
3252.4961561399109
 20
1535.877801544191
 30
0.0
 11
3092.726918139911
 21
1535.877801544191
 31
0.0
 70
   128
 13
2922.49615613991
 23
1701.516402
 33
0.0
 14
3252.4961561399109
 24
1589.4362282001159
 34
0.0
1001
ACAD
1000
DSTYLE
1002
{
1070
   287
1070
     3
1070
   287
1070
     3
1070
    40
1040
20.0
1070
   143
1040
0.039
1070
   172
1070
     1
1070
   271
1070
     0
1070
   279
1070
     0
1070
   288
1070
     1
1002
}
  0
DIMENSION
  5
7C7A
  8
3
  6
CONTINUOUS
  2
*D9
 10
3522.49615613991
 20
1535.877801544191
 30
0.0
 11
3394.1856811399098
 21
1537.0523195441911
 31
0.0
 70
   128
 13
3252.4961561399109
 23
1589.4362282001159
 33
0.0
 14
3522.49615613991
 24
1701.516402
 34
0.0
1001
ACAD
1000
DSTYLE
1002
{
1070
   287
1070
     4
1070
   287
1070
     4
1070
    40
1040
20.0
1070
    75
1070
     1
1070
   143
1040
0.039
1070
   172
1070
     1
1070
   271
1070
     0
1070
   279
1070
     1
1070
   288
1070
     1
1002
}
  0
DIMENSION
  5
7C87
  8
3
  6
CONTINUOUS
  2
*D10
 10
3102.4961561399109
 20
2790.6155819999999
 30
0.0
 11
3239.6390131399112
 21
2790.6155819999999
 31
0.0
 70
   128
 13
3402.49615613991
 23
2531.5164019999988
 33
0.0
 14
3102.4961561399109
 24
2531.5164019999988
 34
0.0
1001
ACAD
1000
DSTYLE
1002
{
1070
   287
1070
     3
1070
   287
1070
     3
1070
    40
1040
20.0
1070
   143
1040
0.039
1070
   172
1070
     1
1070
   271
1070
     0
1070
   279
1070
     0
1070
   288
1070
     1
1002
}
  0
DIMENSION
  5
7CA2
  8
3
  6
CONTINUOUS
  2
*D11
 10
2780.7120001399112
 20
1701.516402
 30
0.0
 11
2780.7120001399112
 21
2155.816769999999
 31
0.0
 70
   128
 13
2922.49615613991
 23
2761.5164019999988
 33
0.0
 14
2922.49615613991
 24
1701.516402
 34
0.0
 50
90.0
1001
ACAD
1000
DSTYLE
1002
{
1070
   287
1070
     3
1070
   287
1070
     3
1070
    40
1040
20.0
1070
   143
1040
0.039
1070
   172
1070
     1
1070
   271
1070
     0
1070
   279
1070
     0
1070
   288
1070
     1
1002
}
  0
DIMENSION
  5
7CB2
  8
3
  6
CONTINUOUS
  2
*D12
 10
3677.6790041399108
 20
1928.5164019999991
 30
0.0
 11
3677.6790041399108
 21
2131.8835733433662
 31
0.0
 70
   128
 13
3402.49615613991
 23
2358.5164019999988
 33
0.0
 14
3402.49615613991
 24
1928.5164019999991
 34
0.0
 50
90.0
1001
ACAD
1000
DSTYLE
1002
{
1070
   287
1070
     3
1070
   287
1070
     3
1070
     3
1000
φ<>
1070
    40
1040
20.0
1070
   143
1040
0.039
1070
   172
1070
     1
1070
   271
1070
     0
1070
   279
1070
     0
1070
   288
1070
     1
1002
}
  0
DIMENSION
  5
7CBF
  8
3
  6
CONTINUOUS
  2
*D13
 10
2104.8932477201811
 20
4007.2742450000001
 30
0.0
 11
1501.2548707201811
 21
4007.2742450000001
 31
0.0
 70
   128
 13
904.89324772018176
 23
3818.2864020000002
 33
0.0
 14
2104.8932477201811
 24
3818.2864020000002
 34
0.0
1001
ACAD
1000
DSTYLE
1002
{
1070
   287
1070
     3
1070
   287
1070
     3
1070
    40
1040
20.0
1070
   143
1040
0.039
1070
   172
1070
     1
1070
   271
1070
     0
1070
   279
1070
     0
1070
   288
1070
     1
1002
}
  0
DIMENSION
  5
7CCC
  8
3
  6
CONTINUOUS
  2
*D14
 10
2311.7123327201821
 20
3218.2864020000002
 30
0.0
 11
2311.7123327201812
 21
3516.156031
 31
0.0
 70
   128
 13
2104.8932477201811
 23
3818.2864020000002
 33
0.0
 14
2104.8932477201811
 24
3218.2864020000002
 34
0.0
 50
90.0
1001
ACAD
1000
DSTYLE
1002
{
1070
   287
1070
     3
1070
   287
1070
     3
1070
    40
1040
20.0
1070
   143
1040
0.039
1070
   172
1070
     1
1070
   271
1070
     0
1070
   279
1070
     0
1070
   288
1070
     1
1002
}
  0
LINE
  5
7D7D
  8
1
  6
CONTINUOUS
 10
3403.49615613991
 20
2358.5164019999988
 30
0.0
 11
3403.49615613991
 21
1928.5164019999991
 31
0.0
  0
DIMENSION
  5
7D8D
  8
3
  6
CONTINUOUS
  2
*D15
 10
3403.49615613991
 20
2901.4248130000001
 30
0.0
 11
3321.9466556679208
 21
2962.2900334231181
 31
0.0
 70
   128
 13
3252.4961561399109
 23
2883.7303769999999
 33
0.0
 14
3403.49615613991
 24
2358.5164019999988
 34
0.0
1001
ACAD
1000
DSTYLE
1002
{
1070
   288
1070
     1
1070
   172
1070
     1
1070
    40
1040
20.0
1070
   271
1070
     0
1070
   143
1040
0.039
1002
}
  0
LINE
  5
7D9A
  8
2
  6
CENTER
 10
3252.4961561399109
 20
2776.7559719999999
 30
0.0
 11
3252.4961561399109
 21
1597.3826651366739
 31
0.0
  0
DIMENSION
  5
7DB0
  8
3
  2
*D16
 10
1604.8932477201811
 20
2833.2195390000002
 30
0.0
 11
1434.8932477201811
 21
2883.2195390000002
 31
0.0
 70
     0
 13
1264.8932477201811
 23
2810.4037515093551
 33
0.0
 14
1604.8932477201811
 24
2443.5164020000002
 34
0.0
1001
ACAD
1000
DSTYLE
1002
{
1070
   287
1070
     4
1070
   287
1070
     4
1070
    40
1040
20.0
1070
    75
1070
     1
1070
   143
1040
0.039
1070
   172
1070
     1
1070
   271
1070
     0
1070
   279
1070
     1
1070
   288
1070
     1
1002
}
  0
LINE
  5
7E77
  8
2
  6
CENTER
 10
1004.893247720181
 20
3781.7762006506978
 30
0.0
 11
1004.893247720181
 21
3810.7966033493021
 31
0.0
  0
LINE
  5
7E78
  8
2
  6
CENTER
 10
990.38304637088027
 20
3796.2864020000002
 30
0.0
 11
1019.403449069483
 21
3796.2864020000002
 31
0.0
  0
CIRCLE
  5
7E79
  8
1
 10
1004.893247720181
 20
3796.2864020000002
 30
0.0
 40
6.0
  0
LINE
  5
7E7B
  8
2
  6
CENTER
 10
1490.38304637088
 20
3796.2864020000002
 30
0.0
 11
1519.403449069483
 21
3796.2864020000002
 31
0.0
  0
LINE
  5
7E7C
  8
2
  6
CENTER
 10
1504.893247720182
 20
3781.7762006506978
 30
0.0
 11
1504.893247720182
 21
3810.7966033493021
 31
0.0
  0
CIRCLE
  5
7E7D
  8
1
 10
1504.893247720182
 20
3796.2864020000002
 30
0.0
 40
6.0
  0
CIRCLE
  5
7E7E
  8
1
 10
2004.8932477201811
 20
3796.2864020000002
 30
0.0
 40
6.0
  0
LINE
  5
7E7F
  8
2
  6
CENTER
 10
2004.8932477201811
 20
3781.7762006506978
 30
0.0
 11
2004.8932477201811
 21
3810.7966033493021
 31
0.0
  0
LINE
  5
7E80
  8
2
  6
CENTER
 10
1990.38304637088
 20
3796.2864020000002
 30
0.0
 11
2019.4034490694819
 21
3796.2864020000002
 31
0.0
  0
LINE
  5
7E81
  8
2
  6
CENTER
 10
990.38304637088049
 20
3240.2864020000002
 30
0.0
 11
1019.403449069483
 21
3240.2864020000002
 31
0.0
  0
LINE
  5
7E82
  8
2
  6
CENTER
 10
1004.893247720181
 20
3225.7762006506978
 30
0.0
 11
1004.893247720181
 21
3254.7966033493012
 31
0.0
  0
CIRCLE
  5
7E83
  8
1
 10
1004.893247720181
 20
3240.2864020000002
 30
0.0
 40
6.0
  0
CIRCLE
  5
7E84
  8
1
 10
1504.893247720182
 20
3240.2864020000002
 30
0.0
 40
6.0
  0
LINE
  5
7E85
  8
2
  6
CENTER
 10
1504.893247720182
 20
3225.7762006506978
 30
0.0
 11
1504.893247720182
 21
3254.7966033493012
 31
0.0
  0
LINE
  5
7E86
  8
2
  6
CENTER
 10
1490.38304637088
 20
3240.2864020000002
 30
0.0
 11
1519.403449069483
 21
3240.2864020000002
 31
0.0
  0
LINE
  5
7E87
  8
2
  6
CENTER
 10
1990.38304637088
 20
3240.2864020000002
 30
0.0
 11
2019.4034490694819
 21
3240.2864020000002
 31
0.0
  0
LINE
  5
7E88
  8
2
  6
CENTER
 10
2004.8932477201811
 20
3225.7762006506978
 30
0.0
 11
2004.8932477201811
 21
3254.7966033493012
 31
0.0
  0
CIRCLE
  5
7E89
  8
1
 10
2004.8932477201811
 20
3240.2864020000002
 30
0.0
 40
6.0
  0
ENDSEC
  0
EOF
