  0
SECTION
  2
HEADER
  9
$ACADVER
  1
AC1009
  9
$INSBASE
 10
0.0
 20
0.0
 30
0.0
  9
$EXTMIN
 10
500.0
 20
600.0
 30
0.0
  9
$EXTMAX
 10
3700.0
 20
5573.3045229999998
 30
0.0
  9
$LIMMIN
 10
0.0
 20
0.0
  9
$LIMMAX
 10
297.0
 20
210.0
  9
$ORTHOMODE
 70
     0
  9
$REGENMODE
 70
     1
  9
$FILLMODE
 70
     0
  9
$QTEXTMODE
 70
     0
  9
$MIRRTEXT
 70
     1
  9
$DRAGMODE
 70
     2
  9
$LTSCALE
 40
100.0
  9
$OSMODE
 70
    37
  9
$ATTMODE
 70
     1
  9
$TEXTSIZE
 40
180.0
  9
$TRACEWID
 40
0.05
  9
$TEXTSTYLE
  7
STANDARD
  9
$CLAYER
  8
3
  9
$CELTYPE
  6
BYLAYER
  9
$CECOLOR
 62
   256
  9
$DIMSCALE
 40
20.0
  9
$DIMASZ
 40
2.0
  9
$DIMEXO
 40
0.5
  9
$DIMDLI
 40
10.0
  9
$DIMRND
 40
0.0
  9
$DIMDLE
 40
0.0
  9
$DIMEXE
 40
1.0
  9
$DIMTP
 40
1.0
  9
$DIMTM
 40
1.0
  9
$DIMTXT
 40
3.0
  9
$DIMCEN
 40
0.0
  9
$DIMTSZ
 40
0.0
  9
$DIMTOL
 70
     0
  9
$DIMLIM
 70
     0
  9
$DIMTIH
 70
     0
  9
$DIMTOH
 70
     0
  9
$DIMSE1
 70
     0
  9
$DIMSE2
 70
     0
  9
$DIMTAD
 70
     1
  9
$DIMZIN
 70
     8
  9
$DIMBLK
  1

  9
$DIMASO
 70
     1
  9
$DIMSHO
 70
     1
  9
$DIMPOST
  1

  9
$DIMAPOST
  1

  9
$DIMALT
 70
     0
  9
$DIMALTD
 70
     2
  9
$DIMALTF
 40
0.039
  9
$DIMLFAC
 40
1.0
  9
$DIMTOFL
 70
     1
  9
$DIMTVP
 40
0.0
  9
$DIMTIX
 70
     0
  9
$DIMSOXD
 70
     0
  9
$DIMSAH
 70
     1
  9
$DIMBLK1
  1
OPEN
  9
$DIMBLK2
  1
OPEN
  9
$DIMSTYLE
  2
IGA
  9
$DIMCLRD
 70
     0
  9
$DIMCLRE
 70
     0
  9
$DIMCLRT
 70
     0
  9
$DIMTFAC
 40
10.0
  9
$DIMGAP
 40
1.0
  9
$LUNITS
 70
     2
  9
$LUPREC
 70
     3
  9
$SKETCHINC
 40
0.1
  9
$FILLETRAD
 40
50.0
  9
$AUNITS
 70
     0
  9
$AUPREC
 70
     0
  9
$MENU
  1
acad
  9
$ELEVATION
 40
0.0
  9
$PELEVATION
 40
0.0
  9
$THICKNESS
 40
0.0
  9
$LIMCHECK
 70
     0
  9
$BLIPMODE
 70
     0
  9
$CHAMFERA
 40
0.5
  9
$CHAMFERB
 40
0.5
  9
$SKPOLY
 70
     0
  9
$TDCREATE
 40
2450728.4318745369
  9
$TDUPDATE
 40
2454953.7653891779
  9
$TDINDWG
 40
0.0066939931
  9
$TDUSRTIMER
 40
0.0066939931
  9
$USRTIMER
 70
     1
  9
$ANGBASE
 50
0.0
  9
$ANGDIR
 70
     0
  9
$PDMODE
 70
     0
  9
$PDSIZE
 40
0.0
  9
$PLINEWID
 40
0.0
  9
$COORDS
 70
     1
  9
$SPLFRAME
 70
     0
  9
$SPLINETYPE
 70
     6
  9
$SPLINESEGS
 70
     8
  9
$ATTDIA
 70
     0
  9
$ATTREQ
 70
     1
  9
$HANDLING
 70
 10241
  9
$HANDSEED
  5
7FC0
  9
$SURFTAB1
 70
     6
  9
$SURFTAB2
 70
     6
  9
$SURFTYPE
 70
     6
  9
$SURFU
 70
     6
  9
$SURFV
 70
     6
  9
$UCSNAME
  2

  9
$UCSORG
 10
0.0
 20
0.0
 30
0.0
  9
$UCSXDIR
 10
1.0
 20
0.0
 30
0.0
  9
$UCSYDIR
 10
0.0
 20
1.0
 30
0.0
  9
$PUCSNAME
  2

  9
$PUCSORG
 10
0.0
 20
0.0
 30
0.0
  9
$PUCSXDIR
 10
1.0
 20
0.0
 30
0.0
  9
$PUCSYDIR
 10
0.0
 20
1.0
 30
0.0
  9
$USERI1
 70
     0
  9
$USERI2
 70
     0
  9
$USERI3
 70
     0
  9
$USERI4
 70
     0
  9
$USERI5
 70
     0
  9
$USERR1
 40
0.0
  9
$USERR2
 40
0.0
  9
$USERR3
 40
0.0
  9
$USERR4
 40
0.0
  9
$USERR5
 40
0.0
  9
$WORLDVIEW
 70
     1
  9
$SHADEDGE
 70
     3
  9
$SHADEDIF
 70
    70
  9
$TILEMODE
 70
     1
  9
$MAXACTVP
 70
    16
  9
$PLIMCHECK
 70
     0
  9
$PEXTMIN
 10
1.0000000000000000E+020
 20
1.0000000000000000E+020
 30
1.0000000000000000E+020
  9
$PEXTMAX
 10
-1.0000000000000000E+020
 20
-1.0000000000000000E+020
 30
-1.0000000000000000E+020
  9
$PLIMMIN
 10
0.0
 20
0.0
  9
$PLIMMAX
 10
12.0
 20
9.0
  9
$UNITMODE
 70
     0
  9
$VISRETAIN
 70
     0
  9
$PLINEGEN
 70
     0
  9
$PSLTSCALE
 70
     1
  0
ENDSEC
  0
SECTION
  2
TABLES
  0
TABLE
  2
VPORT
 70
     2
  0
VPORT
  2
*ACTIVE
 70
     0
 10
0.0
 20
0.0
 11
1.0
 21
1.0
 12
6292.1124769529506
 22
3086.6374998146398
 13
0.0
 23
0.0
 14
10.0
 24
10.0
 15
10.0
 25
10.0
 16
0.0
 26
0.0
 36
1.0
 17
0.0
 27
0.0
 37
0.0
 40
5011.4968576296578
 41
3.1666666666666661
 42
50.0
 43
0.0
 44
0.0
 50
0.0
 51
0.0
 71
     0
 72
   100
 73
     1
 74
     0
 75
     0
 76
     0
 77
     0
 78
     0
  0
ENDTAB
  0
TABLE
  2
LTYPE
 70
     2
  0
LTYPE
  2
CONTINUOUS
 70
     0
  3
Solid line
 72
    65
 73
     0
 40
0.0
  0
LTYPE
  2
CENTER
 70
     0
  3
____ _ ____ _ ____ _ ____ _ ____ _ ____ _ ____ 
 72
    65
 73
     4
 40
2.0
 49
1.25
 49
-0.25
 49
0.25
 49
-0.25
  0
ENDTAB
  0
TABLE
  2
LAYER
 70
     6
  0
LAYER
  2
0
 70
     0
 62
     7
  6
CONTINUOUS
  0
LAYER
  2
3
 70
     0
 62
     2
  6
CONTINUOUS
  0
LAYER
  2
2
 70
     0
 62
     3
  6
CENTER
  0
LAYER
  2
1
 70
     0
 62
     4
  6
CONTINUOUS
  0
LAYER
  2
4
 70
     0
 62
     7
  6
CONTINUOUS
  0
LAYER
  2
DEFPOINTS
 70
     0
 62
     7
  6
CONTINUOUS
  0
ENDTAB
  0
TABLE
  2
STYLE
 70
     1
  0
STYLE
  2
STANDARD
 70
     0
 40
0.0
 41
1.0
 50
0.0
 71
     0
 42
180.0
  3
simplex.shx
  4
extfont.shx
  0
ENDTAB
  0
TABLE
  2
VIEW
 70
     0
  0
ENDTAB
  0
TABLE
  2
UCS
 70
     0
  0
ENDTAB
  0
TABLE
  2
APPID
 70
     1
  0
APPID
  2
ACAD
 70
     0
  0
ENDTAB
  0
TABLE
  2
DIMSTYLE
 70
     1
  0
DIMSTYLE
  2
IGA
 70
     0
  3

  4

  5

  6
OPEN
  7
OPEN
 40
2.0
 41
2.0
 42
0.5
 43
10.0
 44
1.0
 45
0.0
 46
0.0
 47
1.0
 48
1.0
140
3.0
141
0.0
142
0.0
143
0.03937
144
1.0
145
0.0
146
10.0
147
1.0
 71
     0
 72
     0
 73
     0
 74
     0
 75
     0
 76
     0
 77
     1
 78
     8
170
     0
171
     2
172
     0
173
     1
174
     0
175
     0
176
     0
177
     0
178
     0
  0
ENDTAB
  0
ENDSEC
  0
SECTION
  2
BLOCKS
  0
BLOCK
  8
0
  2
$MODEL_SPACE
 70
     0
 10
0.0
 20
0.0
 30
0.0
  3
$MODEL_SPACE
  1

  0
ENDBLK
  5
1B
  8
0
  0
BLOCK
 67
     1
  8
0
  2
$PAPER_SPACE
 70
     0
 10
0.0
 20
0.0
 30
0.0
  3
$PAPER_SPACE
  1

  0
ENDBLK
  5
18
 67
     1
  8
0
  0
BLOCK
  8
0
  2
_OPEN
 70
     0
 10
0.0
 20
0.0
 30
0.0
  3
_OPEN
  1

  0
LINE
  5
7BB8
  8
0
  6
BYBLOCK
 62
     0
 10
-1.0
 20
0.166667
 30
0.0
 11
0.0
 21
0.0
 31
0.0
  0
LINE
  5
7BB9
  8
0
  6
BYBLOCK
 62
     0
 10
0.0
 20
0.0
 30
0.0
 11
-1.0
 21
-0.166667
 31
0.0
  0
LINE
  5
7BBA
  8
0
  6
BYBLOCK
 62
     0
 10
0.0
 20
0.0
 30
0.0
 11
-1.0
 21
0.0
 31
0.0
  0
ENDBLK
  5
7BBB
  8
0
  0
BLOCK
  8
0
  2
*D1
 70
     1
 10
0.0
 20
0.0
 30
0.0
  3
*D1
  1

  0
LINE
  5
7F06
  8
3
  6
CONTINUOUS
 62
     0
 10
1197.8825269999991
 20
2598.3355860000001
 30
0.0
 11
1151.3950319999999
 21
2598.3355860000001
 31
0.0
  0
LINE
  5
7F07
  8
3
  6
CONTINUOUS
 62
     0
 10
1197.8825269999991
 20
2198.3355860000001
 30
0.0
 11
1151.3950319999999
 21
2198.3355860000001
 31
0.0
  0
LINE
  5
7F08
  8
3
  6
CONTINUOUS
 62
     0
 10
1171.3950319999999
 20
2558.3355860000001
 30
0.0
 11
1171.3950319999999
 21
2238.3355860000001
 31
0.0
  0
INSERT
  5
7F09
  8
3
  6
CONTINUOUS
 62
     0
  2
_OPEN
 10
1171.3950319999999
 20
2598.3355860000001
 30
0.0
 41
40.0
 42
40.0
 43
40.0
 50
90.0
  0
INSERT
  5
7F0A
  8
3
  6
CONTINUOUS
 62
     0
  2
_OPEN
 10
1171.3950319999999
 20
2198.3355860000001
 30
0.0
 41
40.0
 42
40.0
 43
40.0
 50
270.0
  0
TEXT
  8
3
  40
60
  5
7FAD
  62
0
  72
0
  71
0
 10
1001.40
 20
2287.59
 30
0.000000
  1
400
  0
POINT
  5
7F0C
  8
DEFPOINTS
  6
CONTINUOUS
 62
     0
 10
1207.8825269999991
 20
2598.3355860000001
 30
0.0
  0
POINT
  5
7F0D
  8
DEFPOINTS
  6
CONTINUOUS
 62
     0
 10
1207.8825269999991
 20
2198.3355860000001
 30
0.0
  0
POINT
  5
7F0E
  8
DEFPOINTS
  6
CONTINUOUS
 62
     0
 10
1171.3950319999999
 20
2198.3355860000001
 30
0.0
  0
ENDBLK
  5
7BC8
  8
0
  0
BLOCK
  8
0
  2
*D2
 70
     1
 10
0.0
 20
0.0
 30
0.0
  3
*D2
  1

  0
LINE
  5
7F0F
  8
3
  6
CONTINUOUS
 62
     0
 10
1161.3950319999999
 20
2198.3355860000001
 30
0.0
 11
1044.502653
 21
2198.3355860000001
 31
0.0
  0
LINE
  5
7F10
  8
3
  6
CONTINUOUS
 62
     0
 10
1059.369040999999
 20
2586.3355860000001
 30
0.0
 11
1084.502653
 21
2586.3355860000001
 31
0.0
  0
LINE
  5
7F11
  8
3
  6
CONTINUOUS
 62
     0
 10
1064.502653
 20
2238.3355860000001
 30
0.0
 11
1064.502653
 21
2546.3355860000001
 31
0.0
  0
INSERT
  5
7F12
  8
3
  6
CONTINUOUS
 62
     0
  2
_OPEN
 10
1064.502653
 20
2198.3355860000001
 30
0.0
 41
40.0
 42
40.0
 43
40.0
 50
270.0
  0
INSERT
  5
7F13
  8
3
  6
CONTINUOUS
 62
     0
  2
_OPEN
 10
1064.502653
 20
2586.3355860000001
 30
0.0
 41
40.0
 42
40.0
 43
40.0
 50
90.0
  0
TEXT
  8
3
  40
60
  5
7FAE
  62
0
  72
0
  71
0
 10
894.503
 20
2295.50
 30
0.000000
  1
388
  0
POINT
  5
7F15
  8
DEFPOINTS
  6
CONTINUOUS
 62
     0
 10
1171.3950319999999
 20
2198.3355860000001
 30
0.0
  0
POINT
  5
7F16
  8
DEFPOINTS
  6
CONTINUOUS
 62
     0
 10
1049.3690409999999
 20
2586.3355860000001
 30
0.0
  0
POINT
  5
7F17
  8
DEFPOINTS
  6
CONTINUOUS
 62
     0
 10
1064.502653
 20
2586.3355860000001
 30
0.0
  0
ENDBLK
  5
7BD5
  8
0
  0
BLOCK
  8
0
  2
*D3
 70
     1
 10
0.0
 20
0.0
 30
0.0
  3
*D3
  1

  0
LINE
  5
7F18
  8
3
  6
CONTINUOUS
 62
     0
 10
1227.882527
 20
2886.3355860000001
 30
0.0
 11
917.42044000000055
 21
2886.3355860000001
 31
0.0
  0
LINE
  5
7F19
  8
3
  6
CONTINUOUS
 62
     0
 10
1074.502653
 20
2586.3355860000001
 30
0.0
 11
917.42044000000044
 21
2586.3355860000001
 31
0.0
  0
LINE
  5
7F1A
  8
3
  6
CONTINUOUS
 62
     0
 10
937.42044000000055
 20
2926.3355860000001
 30
0.0
 11
937.42044000000055
 21
2966.3355860000011
 31
0.0
  0
LINE
  5
7F1B
  8
3
  6
CONTINUOUS
 62
     0
 10
937.42044000000055
 20
2546.3355860000001
 30
0.0
 11
937.42044000000055
 21
2506.3355860000001
 31
0.0
  0
LINE
  5
7F1C
  8
3
  6
CONTINUOUS
 62
     0
 10
937.42044000000055
 20
2886.3355860000001
 30
0.0
 11
937.42044000000055
 21
2586.3355860000001
 31
0.0
  0
INSERT
  5
7F1D
  8
3
  6
CONTINUOUS
 62
     0
  2
_OPEN
 10
937.42044000000055
 20
2886.3355860000001
 30
0.0
 41
40.0
 42
40.0
 43
40.0
 50
270.0
  0
INSERT
  5
7F1E
  8
3
  6
CONTINUOUS
 62
     0
  2
_OPEN
 10
937.42044000000055
 20
2586.3355860000001
 30
0.0
 41
40.0
 42
40.0
 43
40.0
 50
90.0
  0
TEXT
  8
3
  40
60
  5
7FAF
  62
0
  72
0
  71
0
 10
767.420
 20
2617.28
 30
0.000000
  1
300
  0
POINT
  5
7F20
  8
DEFPOINTS
  6
CONTINUOUS
 62
     0
 10
1237.882527
 20
2886.3355860000001
 30
0.0
  0
POINT
  5
7F21
  8
DEFPOINTS
  6
CONTINUOUS
 62
     0
 10
1084.502653
 20
2586.3355860000001
 30
0.0
  0
POINT
  5
7F22
  8
DEFPOINTS
  6
CONTINUOUS
 62
     0
 10
937.42044000000055
 20
2586.3355860000001
 30
0.0
  0
ENDBLK
  5
7BEE
  8
0
  0
BLOCK
  8
0
  2
*D4
 70
     1
 10
0.0
 20
0.0
 30
0.0
  3
*D4
  1

  0
LINE
  5
7F23
  8
3
  6
CONTINUOUS
 62
     0
 10
1237.882527
 20
2071.3355860000001
 30
0.0
 11
917.42043999999999
 21
2071.3355860000001
 31
0.0
  0
LINE
  5
7F24
  8
3
  6
CONTINUOUS
 62
     0
 10
937.4204400000001
 20
2546.3355860000001
 30
0.0
 11
937.42043999999987
 21
2111.3355860000001
 31
0.0
  0
INSERT
  5
7F25
  8
3
  6
CONTINUOUS
 62
     0
  2
_OPEN
 10
937.4204400000001
 20
2586.3355860000001
 30
0.0
 41
40.0
 42
40.0
 43
40.0
 50
90.0
  0
INSERT
  5
7F26
  8
3
  6
CONTINUOUS
 62
     0
  2
_OPEN
 10
937.42043999999987
 20
2071.3355860000001
 30
0.0
 41
40.0
 42
40.0
 43
40.0
 50
270.0
  0
TEXT
  8
3
  40
60
  5
7FB0
  62
0
  72
0
  71
0
 10
767.420
 20
2222.64
 30
0.000000
  1
515
  0
POINT
  5
7F28
  8
DEFPOINTS
  6
CONTINUOUS
 62
     0
 10
1084.502653
 20
2586.3355860000001
 30
0.0
  0
POINT
  5
7F29
  8
DEFPOINTS
  6
CONTINUOUS
 62
     0
 10
1247.882527
 20
2071.3355860000001
 30
0.0
  0
POINT
  5
7F2A
  8
DEFPOINTS
  6
CONTINUOUS
 62
     0
 10
937.42043999999987
 20
2071.3355860000001
 30
0.0
  0
ENDBLK
  5
7BFA
  8
0
  0
BLOCK
  8
0
  2
*D5
 70
     1
 10
0.0
 20
0.0
 30
0.0
  3
*D5
  1

  0
LINE
  5
7F2B
  8
3
  6
CONTINUOUS
 62
     0
 10
1237.882527
 20
1984.3355859999999
 30
0.0
 11
917.42043999999999
 21
1984.3355859999999
 31
0.0
  0
LINE
  5
7F2C
  8
3
  6
CONTINUOUS
 62
     0
 10
937.42043999999987
 20
2111.3355860000001
 30
0.0
 11
937.42043999999987
 21
2151.3355860000001
 31
0.0
  0
LINE
  5
7F2D
  8
3
  6
CONTINUOUS
 62
     0
 10
937.42043999999987
 20
1944.3355859999999
 30
0.0
 11
937.42043999999987
 21
1904.3355859999999
 31
0.0
  0
TEXT
  8
3
  40
60
  5
7FB1
  62
0
  72
0
  71
0
 10
767.113
 20
1932.25
 30
0.000000
  1
87
  0
LINE
  5
7F2F
  8
3
  6
CONTINUOUS
 62
     0
 10
937.42043999999987
 20
2071.3355860000001
 30
0.0
 11
937.42043999999987
 21
1984.3355859999999
 31
0.0
  0
INSERT
  5
7F30
  8
3
  6
CONTINUOUS
 62
     0
  2
_OPEN
 10
937.42043999999987
 20
2071.3355860000001
 30
0.0
 41
40.0
 42
40.0
 43
40.0
 50
270.0
  0
INSERT
  5
7F31
  8
3
  6
CONTINUOUS
 62
     0
  2
_DOT
 10
937.42043999999987
 20
1984.3355859999999
 30
0.0
 41
40.0
 42
40.0
 43
40.0
 50
90.0
  0
POINT
  5
7F32
  8
DEFPOINTS
  6
CONTINUOUS
 62
     0
 10
1247.882527
 20
2071.3355860000001
 30
0.0
  0
POINT
  5
7F33
  8
DEFPOINTS
  6
CONTINUOUS
 62
     0
 10
1247.882527
 20
1984.3355859999999
 30
0.0
  0
POINT
  5
7F34
  8
DEFPOINTS
  6
CONTINUOUS
 62
     0
 10
937.42043999999987
 20
1984.3355859999999
 30
0.0
  0
ENDBLK
  5
7E20
  8
0
  0
BLOCK
  8
0
  2
*D6
 70
     1
 10
0.0
 20
0.0
 30
0.0
  3
*D6
  1

  0
LINE
  5
7F35
  8
3
  6
CONTINUOUS
 62
     0
 10
1227.882527
 20
2886.3355860000001
 30
0.0
 11
797.15606600000046
 21
2886.3355860000001
 31
0.0
  0
LINE
  5
7F36
  8
3
  6
CONTINUOUS
 62
     0
 10
1237.882527
 20
1944.3255859999999
 30
0.0
 11
797.15606600000035
 21
1944.3255859999999
 31
0.0
  0
LINE
  5
7F37
  8
3
  6
CONTINUOUS
 62
     0
 10
817.15606600000058
 20
2846.3355860000001
 30
0.0
 11
817.15606600000035
 21
1984.325585999999
 31
0.0
  0
INSERT
  5
7F38
  8
3
  6
CONTINUOUS
 62
     0
  2
_OPEN
 10
817.15606600000058
 20
2886.3355860000001
 30
0.0
 41
40.0
 42
40.0
 43
40.0
 50
90.0
  0
INSERT
  5
7F39
  8
3
  6
CONTINUOUS
 62
     0
  2
_OPEN
 10
817.15606600000035
 20
1944.3255859999999
 30
0.0
 41
40.0
 42
40.0
 43
40.0
 50
270.0
  0
TEXT
  8
3
  40
60
  5
7FB2
  62
0
  72
0
  71
0
 10
647.156
 20
2319.24
 30
0.000000
  1
942
  0
POINT
  5
7F3B
  8
DEFPOINTS
  6
CONTINUOUS
 62
     0
 10
1237.882527
 20
2886.3355860000001
 30
0.0
  0
POINT
  5
7F3C
  8
DEFPOINTS
  6
CONTINUOUS
 62
     0
 10
1247.882527
 20
1944.3255859999999
 30
0.0
  0
POINT
  5
7F3D
  8
DEFPOINTS
  6
CONTINUOUS
 62
     0
 10
817.15606600000035
 20
1944.3255859999999
 30
0.0
  0
ENDBLK
  5
7DCF
  8
0
  0
BLOCK
  8
0
  2
*D7
 70
     1
 10
0.0
 20
0.0
 30
0.0
  3
*D7
  1

  0
LINE
  5
7F3E
  8
3
  6
CONTINUOUS
 62
     0
 10
1839.882527
 20
2569.3355860000001
 30
0.0
 11
1839.882527
 21
3021.6161999999999
 31
0.0
  0
LINE
  5
7F3F
  8
3
  6
CONTINUOUS
 62
     0
 10
1507.882527
 20
2991.2843360099969
 30
0.0
 11
1507.882527
 21
3021.6161999999999
 31
0.0
  0
LINE
  5
7F40
  8
3
  6
CONTINUOUS
 62
     0
 10
1799.882527
 20
3001.6161999999999
 30
0.0
 11
1547.882527
 21
3001.6161999999999
 31
0.0
  0
INSERT
  5
7F41
  8
3
  6
CONTINUOUS
 62
     0
  2
_OPEN
 10
1839.882527
 20
3001.6161999999999
 30
0.0
 41
40.0
 42
40.0
 43
40.0
  0
INSERT
  5
7F42
  8
3
  6
CONTINUOUS
 62
     0
  2
_OPEN
 10
1507.882527
 20
3001.6161999999999
 30
0.0
 41
40.0
 42
40.0
 43
40.0
 50
180.0
  0
TEXT
  8
3
  40
60
  5
7FB3
  62
0
  72
0
  71
0
 10
1557.75
 20
2945.42
 30
0.000000
  1
332
  0
POINT
  5
7F44
  8
DEFPOINTS
  6
CONTINUOUS
 62
     0
 10
1839.882527
 20
2559.3355860000001
 30
0.0
  0
POINT
  5
7F45
  8
DEFPOINTS
  6
CONTINUOUS
 62
     0
 10
1507.882527
 20
2981.2843360099978
 30
0.0
  0
POINT
  5
7F46
  8
DEFPOINTS
  6
CONTINUOUS
 62
     0
 10
1507.882527
 20
3001.6161999999999
 30
0.0
  0
ENDBLK
  5
7EE3
  8
0
  0
BLOCK
  8
0
  2
*D8
 70
     1
 10
0.0
 20
0.0
 30
0.0
  3
*D8
  1

  0
LINE
  5
7F47
  8
3
  6
CONTINUOUS
 62
     0
 10
1207.8825269999991
 20
2635.3355860000001
 30
0.0
 11
1207.8825269999991
 21
3021.6161999999999
 31
0.0
  0
LINE
  5
7F48
  8
3
  6
CONTINUOUS
 62
     0
 10
1467.882527
 20
3001.6161999999999
 30
0.0
 11
1247.882527
 21
3001.6161999999999
 31
0.0
  0
INSERT
  5
7F49
  8
3
  6
CONTINUOUS
 62
     0
  2
_OPEN
 10
1507.882527
 20
3001.6161999999999
 30
0.0
 41
40.0
 42
40.0
 43
40.0
  0
INSERT
  5
7F4A
  8
3
  6
CONTINUOUS
 62
     0
  2
_OPEN
 10
1207.8825269999991
 20
3001.6161999999999
 30
0.0
 41
40.0
 42
40.0
 43
40.0
 50
180.0
  0
TEXT
  8
3
  40
60
  5
7FB4
  62
0
  72
0
  71
0
 10
1237.88
 20
2945.42
 30
0.000000
  1
300
  0
POINT
  5
7F4C
  8
DEFPOINTS
  6
CONTINUOUS
 62
     0
 10
1507.882527
 20
2979.1594467257141
 30
0.0
  0
POINT
  5
7F4D
  8
DEFPOINTS
  6
CONTINUOUS
 62
     0
 10
1207.8825269999991
 20
2625.3355860000001
 30
0.0
  0
POINT
  5
7F4E
  8
DEFPOINTS
  6
CONTINUOUS
 62
     0
 10
1207.8825269999991
 20
3001.6161999999999
 30
0.0
  0
ENDBLK
  5
7E70
  8
0
  0
BLOCK
  8
0
  2
*D9
 70
     1
 10
0.0
 20
0.0
 30
0.0
  3
*D9
  1

  0
LINE
  5
7ECD
  8
0
  6
BYBLOCK
 62
     0
 10
1247.882527
 20
1934.325585999999
 30
0.0
 11
1247.882527
 21
1827.851095
 31
0.0
  0
LINE
  5
7ECE
  8
0
  6
BYBLOCK
 62
     0
 10
1507.882527
 20
1910.697436192223
 30
0.0
 11
1507.882527
 21
1827.851095
 31
0.0
  0
LINE
  5
7ECF
  8
0
  6
BYBLOCK
 62
     0
 10
1287.882527
 20
1847.851095
 30
0.0
 11
1467.882527
 21
1847.851095
 31
0.0
  0
TEXT
  5
7ED0
  8
3
 62
     0
 10
1300.739669857142
 20
1866.9836347387891
 30
0.0
 40
60.0
  1
260
  0
INSERT
  5
7ED1
  8
0
  6
BYBLOCK
 62
     0
  2
_OPEN
 10
1247.882527
 20
1847.851095
 30
0.0
 41
40.0
 42
40.0
 43
40.0
 50
180.0
  0
INSERT
  5
7ED2
  8
0
  6
BYBLOCK
 62
     0
  2
_OPEN
 10
1507.882527
 20
1847.851095
 30
0.0
 41
40.0
 42
40.0
 43
40.0
  0
POINT
  5
7ED3
  8
DEFPOINTS
  6
BYBLOCK
 62
     0
 10
1247.882527
 20
1944.3255859999999
 30
0.0
  0
POINT
  5
7ED4
  8
DEFPOINTS
  6
BYBLOCK
 62
     0
 10
1507.882527
 20
1920.697436192223
 30
0.0
  0
POINT
  5
7ED5
  8
DEFPOINTS
  6
BYBLOCK
 62
     0
 10
1507.882527
 20
1847.851095
 30
0.0
  0
ENDBLK
  5
7ED6
  8
0
  0
BLOCK
  8
0
  2
*D10
 70
     1
 10
0.0
 20
0.0
 30
0.0
  3
*D10
  1

  0
LINE
  5
7F4F
  8
3
  6
CONTINUOUS
 62
     0
 10
2247.8825269999988
 20
1934.325585999999
 30
0.0
 11
2247.8825269999988
 21
1827.851095
 31
0.0
  0
LINE
  5
7F50
  8
3
  6
CONTINUOUS
 62
     0
 10
1547.882527
 20
1847.851095
 30
0.0
 11
2207.8825270000002
 21
1847.851095
 31
0.0
  0
INSERT
  5
7F51
  8
3
  6
CONTINUOUS
 62
     0
  2
_OPEN
 10
1507.882527
 20
1847.851095
 30
0.0
 41
40.0
 42
40.0
 43
40.0
 50
180.0
  0
INSERT
  5
7F52
  8
3
  6
CONTINUOUS
 62
     0
  2
_OPEN
 10
2247.8825269999988
 20
1847.851095
 30
0.0
 41
40.0
 42
40.0
 43
40.0
  0
TEXT
  8
3
  40
60
  5
7FB5
  62
0
  72
0
  71
0
 10
1757.88
 20
1791.65
 30
0.000000
  1
740
  0
POINT
  5
7F54
  8
DEFPOINTS
  6
CONTINUOUS
 62
     0
 10
1507.882527
 20
1920.697436192223
 30
0.0
  0
POINT
  5
7F55
  8
DEFPOINTS
  6
CONTINUOUS
 62
     0
 10
2247.8825269999988
 20
1944.3255859999999
 30
0.0
  0
POINT
  5
7F56
  8
DEFPOINTS
  6
CONTINUOUS
 62
     0
 10
2247.8825269999988
 20
1847.851095
 30
0.0
  0
ENDBLK
  5
7ECB
  8
0
  0
BLOCK
  8
0
  2
*D11
 70
     1
 10
0.0
 20
0.0
 30
0.0
  3
*D11
  1

  0
LINE
  5
7F57
  8
3
  6
CONTINUOUS
 62
     0
 10
2961.5348289999988
 20
1934.325585999999
 30
0.0
 11
2961.5348289999988
 21
1784.3342070000001
 31
0.0
  0
LINE
  5
7F58
  8
3
  6
CONTINUOUS
 62
     0
 10
3297.5348289999988
 20
1867.8854196070999
 30
0.0
 11
3297.5348289999988
 21
1784.3342070000001
 31
0.0
  0
LINE
  5
7F59
  8
3
  6
CONTINUOUS
 62
     0
 10
3001.5348290000002
 20
1804.3342070000001
 30
0.0
 11
3257.5348290000002
 21
1804.3342070000001
 31
0.0
  0
INSERT
  5
7F5A
  8
3
  6
CONTINUOUS
 62
     0
  2
_OPEN
 10
2961.5348289999988
 20
1804.3342070000001
 30
0.0
 41
40.0
 42
40.0
 43
40.0
 50
180.0
  0
INSERT
  5
7F5B
  8
3
  6
CONTINUOUS
 62
     0
  2
_OPEN
 10
3297.5348289999988
 20
1804.3342070000001
 30
0.0
 41
40.0
 42
40.0
 43
40.0
  0
TEXT
  8
3
  40
60
  5
7FB6
  62
0
  72
0
  71
0
 10
3019.05
 20
1748.13
 30
0.000000
  1
336
  0
POINT
  5
7F5D
  8
DEFPOINTS
  6
CONTINUOUS
 62
     0
 10
2961.5348289999988
 20
1944.3255859999999
 30
0.0
  0
POINT
  5
7F5E
  8
DEFPOINTS
  6
CONTINUOUS
 62
     0
 10
3297.5348289999988
 20
1877.8854196070999
 30
0.0
  0
POINT
  5
7F5F
  8
DEFPOINTS
  6
CONTINUOUS
 62
     0
 10
3297.5348289999988
 20
1804.3342070000001
 30
0.0
  0
ENDBLK
  5
7EC1
  8
0
  0
BLOCK
  8
0
  2
*D12
 70
     1
 10
0.0
 20
0.0
 30
0.0
  3
*D12
  1

  0
LINE
  5
7F60
  8
3
  6
CONTINUOUS
 62
     0
 10
3571.5348290000002
 20
1934.325585999999
 30
0.0
 11
3571.5348290000002
 21
1784.3342070000001
 31
0.0
  0
LINE
  5
7F61
  8
3
  6
CONTINUOUS
 62
     0
 10
3337.5348289999988
 20
1804.3342070000001
 30
0.0
 11
3531.5348289999988
 21
1804.3342070000001
 31
0.0
  0
TEXT
  8
3
  40
60
  5
7FB7
  62
0
  72
0
  71
0
 10
3318.26
 20
1745.15
 30
0.000000
  1
274
  0
INSERT
  5
7F63
  8
3
  6
CONTINUOUS
 62
     0
  2
_OPEN
 10
3297.5348289999988
 20
1804.3342070000001
 30
0.0
 41
40.0
 42
40.0
 43
40.0
 50
180.0
  0
INSERT
  5
7F64
  8
3
  6
CONTINUOUS
 62
     0
  2
_OPEN
 10
3571.5348290000002
 20
1804.3342070000001
 30
0.0
 41
40.0
 42
40.0
 43
40.0
  0
POINT
  5
7F65
  8
DEFPOINTS
  6
CONTINUOUS
 62
     0
 10
3297.5348289999988
 20
1870.325375451933
 30
0.0
  0
POINT
  5
7F66
  8
DEFPOINTS
  6
CONTINUOUS
 62
     0
 10
3571.5348290000002
 20
1944.3255859999999
 30
0.0
  0
POINT
  5
7F67
  8
DEFPOINTS
  6
CONTINUOUS
 62
     0
 10
3571.5348290000002
 20
1804.3342070000001
 30
0.0
  0
ENDBLK
  5
7EB6
  8
0
  0
BLOCK
  8
0
  2
*D13
 70
     1
 10
0.0
 20
0.0
 30
0.0
  3
*D13
  1

  0
LINE
  5
7F68
  8
3
  6
CONTINUOUS
 62
     0
 10
3447.5348290000002
 20
2896.3355860000001
 30
0.0
 11
3447.5348290000002
 21
2971.5632249999999
 31
0.0
  0
LINE
  5
7F69
  8
3
  6
CONTINUOUS
 62
     0
 10
3147.5348290000002
 20
2896.3355860000001
 30
0.0
 11
3147.5348290000002
 21
2971.5632249999999
 31
0.0
  0
LINE
  5
7F6A
  8
3
  6
CONTINUOUS
 62
     0
 10
3487.5348289999988
 20
2951.5632249999999
 30
0.0
 11
3527.5348289999988
 21
2951.5632249999999
 31
0.0
  0
LINE
  5
7F6B
  8
3
  6
CONTINUOUS
 62
     0
 10
3107.5348289999988
 20
2951.5632249999999
 30
0.0
 11
3067.5348289999988
 21
2951.5632249999999
 31
0.0
  0
LINE
  5
7F6C
  8
3
  6
CONTINUOUS
 62
     0
 10
3447.5348290000002
 20
2951.5632249999999
 30
0.0
 11
3147.5348290000002
 21
2951.5632249999999
 31
0.0
  0
INSERT
  5
7F6D
  8
3
  6
CONTINUOUS
 62
     0
  2
_OPEN
 10
3447.5348290000002
 20
2951.5632249999999
 30
0.0
 41
40.0
 42
40.0
 43
40.0
 50
180.0
  0
INSERT
  5
7F6E
  8
3
  6
CONTINUOUS
 62
     0
  2
_OPEN
 10
3147.5348290000002
 20
2951.5632249999999
 30
0.0
 41
40.0
 42
40.0
 43
40.0
  0
TEXT
  8
3
  40
60
  5
7FB8
  62
0
  72
0
  71
0
 10
3164.68
 20
2895.36
 30
0.000000
  1
300
  0
POINT
  5
7F70
  8
DEFPOINTS
  6
CONTINUOUS
 62
     0
 10
3447.5348290000002
 20
2886.3355860000001
 30
0.0
  0
POINT
  5
7F71
  8
DEFPOINTS
  6
CONTINUOUS
 62
     0
 10
3147.5348290000002
 20
2886.3355860000001
 30
0.0
  0
POINT
  5
7F72
  8
DEFPOINTS
  6
CONTINUOUS
 62
     0
 10
3147.5348290000002
 20
2951.5632249999999
 30
0.0
  0
ENDBLK
  5
7D9D
  8
0
  0
BLOCK
  8
0
  2
*D14
 70
     1
 10
0.0
 20
0.0
 30
0.0
  3
*D14
  1

  0
LINE
  5
7F73
  8
3
  6
CONTINUOUS
 62
     0
 10
2967.5348289999988
 20
2816.3355860000001
 30
0.0
 11
2967.5348289999988
 21
3094.2361609999989
 31
0.0
  0
LINE
  5
7F74
  8
3
  6
CONTINUOUS
 62
     0
 10
3257.5348290000002
 20
3074.2361609999989
 30
0.0
 11
3007.5348289999988
 21
3074.2361609999989
 31
0.0
  0
INSERT
  5
7F75
  8
3
  6
CONTINUOUS
 62
     0
  2
_OPEN
 10
3297.5348289999988
 20
3074.2361609999989
 30
0.0
 41
40.0
 42
40.0
 43
40.0
  0
INSERT
  5
7F76
  8
3
  6
CONTINUOUS
 62
     0
  2
_OPEN
 10
2967.5348289999988
 20
3074.2361609999989
 30
0.0
 41
40.0
 42
40.0
 43
40.0
 50
180.0
  0
TEXT
  8
3
  40
60
  5
7FB9
  62
0
  72
0
  71
0
 10
3012.53
 20
3068.04
 30
0.000000
  1
MAX
  0
TEXT
  8
3
  40
60
  5
7FBA
  62
0
  72
0
  71
0
 10
3012.53
 20
2990.04
 30
0.000000
  1
380
  0
POINT
  5
7F78
  8
DEFPOINTS
  6
CONTINUOUS
 62
     0
 10
3297.5348289999988
 20
3041.2550309999988
 30
0.0
  0
POINT
  5
7F79
  8
DEFPOINTS
  6
CONTINUOUS
 62
     0
 10
2967.5348289999988
 20
2806.3355860000001
 30
0.0
  0
POINT
  5
7F7A
  8
DEFPOINTS
  6
CONTINUOUS
 62
     0
 10
2967.5348289999988
 20
3074.2361609999989
 30
0.0
  0
ENDBLK
  5
7EAC
  8
0
  0
BLOCK
  8
0
  2
*D15
 70
     1
 10
0.0
 20
0.0
 30
0.0
  3
*D15
  1

  0
LINE
  5
7F7B
  8
3
  6
CONTINUOUS
 62
     0
 10
3457.5348290000002
 20
2801.3355860000001
 30
0.0
 11
3643.6649929999999
 21
2801.3355860000001
 31
0.0
  0
LINE
  5
7F7C
  8
3
  6
CONTINUOUS
 62
     0
 10
3457.5348290000002
 20
2371.3355860000001
 30
0.0
 11
3643.6649929999999
 21
2371.3355860000001
 31
0.0
  0
LINE
  5
7F7D
  8
3
  6
CONTINUOUS
 62
     0
 10
3623.6649929999999
 20
2761.3355860000001
 30
0.0
 11
3623.6649929999999
 21
2411.3355860000001
 31
0.0
  0
INSERT
  5
7F7E
  8
3
  6
CONTINUOUS
 62
     0
  2
_OPEN
 10
3623.6649929999999
 20
2801.3355860000001
 30
0.0
 41
40.0
 42
40.0
 43
40.0
 50
90.0
  0
INSERT
  5
7F7F
  8
3
  6
CONTINUOUS
 62
     0
  2
_OPEN
 10
3623.6649929999999
 20
2371.3355860000001
 30
0.0
 41
40.0
 42
40.0
 43
40.0
 50
270.0
  0
TEXT
  8
3
  40
60
  5
7FBB
  62
0
  72
0
  71
0
 10
3453.66
 20
2461.66
 30
0.000000
  1
φ430
  0
POINT
  5
7F81
  8
DEFPOINTS
  6
CONTINUOUS
 62
     0
 10
3447.5348290000002
 20
2801.3355860000001
 30
0.0
  0
POINT
  5
7F82
  8
DEFPOINTS
  6
CONTINUOUS
 62
     0
 10
3447.5348290000002
 20
2371.3355860000001
 30
0.0
  0
POINT
  5
7F83
  8
DEFPOINTS
  6
CONTINUOUS
 62
     0
 10
3623.6649929999999
 20
2371.3355860000001
 30
0.0
  0
ENDBLK
  5
7EA2
  8
0
  0
BLOCK
  8
0
  2
*D16
 70
     1
 10
0.0
 20
0.0
 30
0.0
  3
*D16
  1

  0
LINE
  5
7F84
  8
3
  6
CONTINUOUS
 62
     0
 10
1247.882527
 20
4140.0955860000004
 30
0.0
 11
1247.882527
 21
4239.3591839999999
 31
0.0
  0
LINE
  5
7F85
  8
3
  6
CONTINUOUS
 62
     0
 10
2247.8825269999988
 20
4140.0955860000004
 30
0.0
 11
2247.8825269999988
 21
4239.3591839999999
 31
0.0
  0
LINE
  5
7F86
  8
3
  6
CONTINUOUS
 62
     0
 10
1287.882527
 20
4219.3591839999999
 30
0.0
 11
2207.8825270000002
 21
4219.3591839999999
 31
0.0
  0
INSERT
  5
7F87
  8
3
  6
CONTINUOUS
 62
     0
  2
_OPEN
 10
1247.882527
 20
4219.3591839999999
 30
0.0
 41
40.0
 42
40.0
 43
40.0
 50
180.0
  0
INSERT
  5
7F88
  8
3
  6
CONTINUOUS
 62
     0
  2
_OPEN
 10
2247.8825269999988
 20
4219.3591839999999
 30
0.0
 41
40.0
 42
40.0
 43
40.0
  0
TEXT
  8
3
  40
60
  5
7FBC
  62
0
  72
0
  71
0
 10
1581.90
 20
4163.16
 30
0.000000
  1
1000
  0
POINT
  5
7F8A
  8
DEFPOINTS
  6
CONTINUOUS
 62
     0
 10
1247.882527
 20
4130.0955860000004
 30
0.0
  0
POINT
  5
7F8B
  8
DEFPOINTS
  6
CONTINUOUS
 62
     0
 10
2247.8825269999988
 20
4130.0955860000004
 30
0.0
  0
POINT
  5
7F8C
  8
DEFPOINTS
  6
CONTINUOUS
 62
     0
 10
2247.8825269999988
 20
4219.3591839999999
 30
0.0
  0
ENDBLK
  5
7D66
  8
0
  0
BLOCK
  8
0
  2
*D17
 70
     1
 10
0.0
 20
0.0
 30
0.0
  3
*D17
  1

  0
LINE
  5
7F8D
  8
3
  6
CONTINUOUS
 62
     0
 10
2257.8825270000002
 20
4130.0955860000004
 30
0.0
 11
2466.0626999999999
 21
4130.0955860000004
 31
0.0
  0
LINE
  5
7F8E
  8
3
  6
CONTINUOUS
 62
     0
 10
2257.8825270000002
 20
3520.0955859999999
 30
0.0
 11
2466.0626999999999
 21
3520.0955859999999
 31
0.0
  0
LINE
  5
7F8F
  8
3
  6
CONTINUOUS
 62
     0
 10
2446.0626999999999
 20
4090.0955860000008
 30
0.0
 11
2446.0626999999999
 21
3560.0955859999999
 31
0.0
  0
INSERT
  5
7F90
  8
3
  6
CONTINUOUS
 62
     0
  2
_OPEN
 10
2446.0626999999999
 20
4130.0955860000004
 30
0.0
 41
40.0
 42
40.0
 43
40.0
 50
90.0
  0
INSERT
  5
7F91
  8
3
  6
CONTINUOUS
 62
     0
  2
_OPEN
 10
2446.0626999999999
 20
3520.0955859999999
 30
0.0
 41
40.0
 42
40.0
 43
40.0
 50
270.0
  0
TEXT
  8
3
  40
60
  5
7FBD
  62
0
  72
0
  71
0
 10
2276.06
 20
3717.71
 30
0.000000
  1
610
  0
POINT
  5
7F93
  8
DEFPOINTS
  6
CONTINUOUS
 62
     0
 10
2247.8825269999988
 20
4130.0955860000004
 30
0.0
  0
POINT
  5
7F94
  8
DEFPOINTS
  6
CONTINUOUS
 62
     0
 10
2247.8825269999988
 20
3520.0955859999999
 30
0.0
  0
POINT
  5
7F95
  8
DEFPOINTS
  6
CONTINUOUS
 62
     0
 10
2446.0626999999999
 20
3520.0955859999999
 30
0.0
  0
ENDBLK
  5
7D71
  8
0
  0
BLOCK
  8
0
  2
*D18
 70
     1
 10
0.0
 20
0.0
 30
0.0
  3
*D18
  1

  0
LINE
  5
7F96
  8
3
  6
CONTINUOUS
 62
     0
 10
1237.882527
 20
1984.3355859999999
 30
0.0
 11
917.42044000000044
 21
1984.3355859999999
 31
0.0
  0
LINE
  5
7F97
  8
3
  6
CONTINUOUS
 62
     0
 10
1237.882527
 20
1944.3255859999999
 30
0.0
 11
917.42044000000044
 21
1944.3255859999999
 31
0.0
  0
LINE
  5
7F98
  8
3
  6
CONTINUOUS
 62
     0
 10
937.42044000000055
 20
2024.3355859999999
 30
0.0
 11
937.42044000000055
 21
2064.3355860000001
 31
0.0
  0
LINE
  5
7F99
  8
3
  6
CONTINUOUS
 62
     0
 10
937.42044000000055
 20
1904.325585999999
 30
0.0
 11
937.42044000000033
 21
1727.182728857143
 31
0.0
  0
LINE
  5
7F9A
  8
3
  6
CONTINUOUS
 62
     0
 10
937.42044000000055
 20
1984.3355859999999
 30
0.0
 11
937.42044000000055
 21
1944.3255859999999
 31
0.0
  0
INSERT
  5
7F9B
  8
3
  6
CONTINUOUS
 62
     0
  2
_DOT
 10
937.42044000000055
 20
1984.3355859999999
 30
0.0
 41
40.0
 42
40.0
 43
40.0
 50
270.0
  0
INSERT
  5
7F9C
  8
3
  6
CONTINUOUS
 62
     0
  2
_OPEN
 10
937.42044000000055
 20
1944.3255859999999
 30
0.0
 41
40.0
 42
40.0
 43
40.0
 50
90.0
  0
TEXT
  8
3
  40
60
  5
7FBE
  62
0
  72
0
  71
0
 10
767.420
 20
1689.55
 30
0.000000
  1
40
  0
POINT
  5
7F9E
  8
DEFPOINTS
  6
CONTINUOUS
 62
     0
 10
1247.882527
 20
1984.3355859999999
 30
0.0
  0
POINT
  5
7F9F
  8
DEFPOINTS
  6
CONTINUOUS
 62
     0
 10
1247.882527
 20
1944.3255859999999
 30
0.0
  0
POINT
  5
7FA0
  8
DEFPOINTS
  6
CONTINUOUS
 62
     0
 10
937.42044000000055
 20
1944.3255859999999
 30
0.0
  0
ENDBLK
  5
7E2D
  8
0
  0
BLOCK
  8
0
  2
*D19
 70
     1
 10
0.0
 20
0.0
 30
0.0
  3
*D19
  1

  0
LINE
  5
7E8E
  8
0
  6
BYBLOCK
 62
     0
 10
3297.5348289999988
 20
3051.2550310000001
 30
0.0
 11
3297.5348289999988
 21
3094.2361609999989
 31
0.0
  0
LINE
  5
7E8F
  8
0
  6
BYBLOCK
 62
     0
 10
3448.5348289999988
 20
2811.3355860000001
 30
0.0
 11
3448.5348289999988
 21
3094.2361609999989
 31
0.0
  0
LINE
  5
7E90
  8
0
  6
BYBLOCK
 62
     0
 10
3337.5348289999988
 20
3074.2361609999989
 30
0.0
 11
3408.5348290000002
 21
3074.2361609999989
 31
0.0
  0
TEXT
  5
7E91
  8
3
 62
     0
 10
3307.860121174554
 20
3098.7417416817489
 30
0.0
 40
60.0
  1
151
  0
INSERT
  5
7E92
  8
0
  6
BYBLOCK
 62
     0
  2
_OPEN
 10
3297.5348289999988
 20
3074.2361609999989
 30
0.0
 41
40.0
 42
40.0
 43
40.0
 50
180.0
  0
INSERT
  5
7E93
  8
0
  6
BYBLOCK
 62
     0
  2
_OPEN
 10
3448.5348289999988
 20
3074.2361609999989
 30
0.0
 41
40.0
 42
40.0
 43
40.0
  0
POINT
  5
7E94
  8
DEFPOINTS
  6
BYBLOCK
 62
     0
 10
3297.5348289999988
 20
3041.2550309999988
 30
0.0
  0
POINT
  5
7E95
  8
DEFPOINTS
  6
BYBLOCK
 62
     0
 10
3448.5348289999988
 20
2801.3355860000001
 30
0.0
  0
POINT
  5
7E96
  8
DEFPOINTS
  6
BYBLOCK
 62
     0
 10
3448.5348289999988
 20
3074.2361609999989
 30
0.0
  0
ENDBLK
  5
7E97
  8
0
  0
BLOCK
  8
0
  2
_DOT
 70
     0
 10
0.0
 20
0.0
 30
0.0
  3
_DOT
  1

  0
LINE
  5
7E71
  8
0
  6
BYBLOCK
 62
     0
 10
0.0
 20
0.0
 30
0.0
 11
-1.0
 21
-0.0000000000000284
 31
0.0
  0
POLYLINE
  5
7E72
  8
0
  6
BYBLOCK
 62
     0
 66
     1
 10
0.0
 20
0.0
 30
0.0
 70
     1
 40
0.1666666666666666
 41
0.1666666666666666
  0
VERTEX
  5
7FAA
  8
0
  6
BYBLOCK
 62
     0
 10
-0.0833333333333286
 20
-0.0000000000000284
 30
0.0
 42
1.0
  0
VERTEX
  5
7FAB
  8
0
  6
BYBLOCK
 62
     0
 10
0.0833333333333286
 20
-0.0000000000000284
 30
0.0
 42
1.0
  0
SEQEND
  5
7FAC
  8
0
  6
BYBLOCK
 62
     0
  0
ENDBLK
  5
7E14
  8
0
  0
BLOCK
  8
0
  2
*D21
 70
     1
 10
0.0
 20
0.0
 30
0.0
  3
*D21
  1

  0
LINE
  5
7FA1
  8
3
 62
     0
 10
1207.8825269999991
 20
2645.3355860000001
 30
0.0
 11
1207.8825269999991
 21
3141.7926459557002
 31
0.0
  0
LINE
  5
7FA2
  8
3
 62
     0
 10
2247.8825269999988
 20
2161.3355860000001
 30
0.0
 11
2247.8825269999988
 21
3141.7926459557002
 31
0.0
  0
LINE
  5
7FA3
  8
3
 62
     0
 10
1247.882527
 20
3121.7926459557002
 30
0.0
 11
2207.8825270000002
 21
3121.7926459557002
 31
0.0
  0
INSERT
  5
7FA4
  8
3
 62
     0
  2
_OPEN
 10
1207.8825269999991
 20
3121.7926459557002
 30
0.0
 41
40.0
 42
40.0
 43
40.0
 50
180.0
  0
INSERT
  5
7FA5
  8
3
 62
     0
  2
_OPEN
 10
2247.8825269999988
 20
3121.7926459557002
 30
0.0
 41
40.0
 42
40.0
 43
40.0
  0
TEXT
  8
3
  40
60
  5
7FBF
  62
0
  72
0
  71
0
 10
1582.77
 20
3065.59
 30
0.000000
  1
1040
  0
POINT
  5
7FA7
  8
DEFPOINTS
 62
     0
 10
1207.8825269999991
 20
2635.3355860000001
 30
0.0
  0
POINT
  5
7FA8
  8
DEFPOINTS
 62
     0
 10
2247.8825269999988
 20
2151.3355860000001
 30
0.0
  0
POINT
  5
7FA9
  8
DEFPOINTS
 62
     0
 10
2247.8825269999988
 20
3121.7926459557002
 30
0.0
  0
ENDBLK
  5
7E5B
  8
0
  0
ENDSEC
  0
SECTION
  2
ENTITIES
  0
CIRCLE
  5
7ACC
  8
1
  6
CONTINUOUS
 10
1507.882527
 20
2586.3355860000001
 30
0.0
 40
240.0
  0
LINE
  5
7ACD
  8
1
  6
CONTINUOUS
 10
1247.882527
 20
1984.3355859999999
 30
0.0
 11
2247.8825269999988
 21
1984.3355859999999
 31
0.0
  0
LINE
  5
7ACE
  8
1
  6
CONTINUOUS
 10
1247.882527
 20
2049.3355860000001
 30
0.0
 11
2247.8825269999988
 21
2049.3355860000001
 31
0.0
  0
LINE
  5
7ACF
  8
1
  6
CONTINUOUS
 10
1463.2425270000001
 20
2496.8455859999999
 30
0.0
 11
2012.9725269999999
 21
2222.6455860000001
 31
0.0
  0
LINE
  5
7AD0
  8
1
  6
CONTINUOUS
 10
2073.2625269999999
 20
2326.1055860000001
 30
0.0
 11
1563.7425270000001
 21
2669.2755859999988
 31
0.0
  0
LINE
  5
7AD1
  8
1
  6
CONTINUOUS
 10
1247.882527
 20
2071.3355860000001
 30
0.0
 11
2247.8825269999988
 21
2071.3355860000001
 31
0.0
  0
LINE
  5
7AD2
  8
1
  6
CONTINUOUS
 10
1522.382527
 20
2806.3355860000001
 30
0.0
 11
2202.3825270000002
 21
2401.3355860000001
 31
0.0
  0
LINE
  5
7AD3
  8
1
  6
CONTINUOUS
 10
1237.882527
 20
2151.3355860000001
 30
0.0
 11
2247.8825269999988
 21
2151.3355860000001
 31
0.0
  0
ARC
  5
7AD4
  8
1
  6
CONTINUOUS
 10
1480.882527
 20
2559.3355860000001
 30
0.0
 40
360.00999999999988
 50
274.30000000000001
 51
5.8300000000000001
  0
ARC
  5
7AD5
  8
1
  6
CONTINUOUS
 10
1529.882527
 20
2564.3355860000001
 30
0.0
 40
310.75999999999999
 50
5.8300000000000001
 51
97.310000000000016
  0
LINE
  5
7AD6
  8
1
  6
CONTINUOUS
 10
1237.882527
 20
2886.3355860000001
 30
0.0
 11
1777.882527
 21
2886.3355860000001
 31
0.0
  0
LINE
  5
7AD7
  8
1
  6
CONTINUOUS
 10
1332.382527
 20
2151.3355860000001
 30
0.0
 11
1332.382527
 21
2691.3355860000001
 31
0.0
  0
LINE
  5
7AD8
  8
1
  6
CONTINUOUS
 10
1207.8825269999991
 20
2625.3355860000001
 30
0.0
 11
1207.8825269999991
 21
2171.3355860000001
 31
0.0
  0
LINE
  5
7AD9
  8
1
  6
CONTINUOUS
 10
1237.882527
 20
2151.3355860000001
 30
0.0
 11
1237.882527
 21
2886.3355860000001
 31
0.0
  0
LINE
  5
7ADA
  8
1
  6
CONTINUOUS
 10
1227.882527
 20
2598.3355860000001
 30
0.0
 11
1227.882527
 21
2198.4655859999998
 31
0.0
  0
LINE
  5
7ADB
  8
1
  6
CONTINUOUS
 10
1207.8825269999991
 20
2198.3355860000001
 30
0.0
 11
1507.882527
 21
2200.3355860000001
 31
0.0
  0
LINE
  5
7ADC
  8
1
  6
CONTINUOUS
 10
1247.882527
 20
1944.3255859999999
 30
0.0
 11
1287.882527
 21
1944.3255859999999
 31
0.0
  0
LINE
  5
7ADD
  8
1
  6
CONTINUOUS
 10
1247.882527
 20
2049.3355860000001
 30
0.0
 11
1247.882527
 21
1944.3255859999999
 31
0.0
  0
LINE
  5
7ADE
  8
1
  6
CONTINUOUS
 10
1247.882527
 20
2151.3355860000001
 30
0.0
 11
1247.882527
 21
2071.3355860000001
 31
0.0
  0
LINE
  5
7ADF
  8
1
  6
CONTINUOUS
 10
1287.882527
 20
1984.325585999999
 30
0.0
 11
1287.882527
 21
1944.3255859999999
 31
0.0
  0
LINE
  5
7AE0
  8
1
  6
CONTINUOUS
 10
1332.382527
 20
2691.3355860000001
 30
0.0
 11
1522.382527
 21
2806.3355860000001
 31
0.0
  0
CIRCLE
  5
7AE1
  8
1
  6
CONTINUOUS
 10
1507.882527
 20
2586.3355860000001
 30
0.0
 40
100.0
  0
LINE
  5
7AE2
  8
2
  6
CENTER
 10
1049.3690409999999
 20
2586.3355860000001
 30
0.0
 11
1997.9957077547001
 21
2586.3355860000001
 31
0.0
  0
ARC
  5
7AE3
  8
1
  6
CONTINUOUS
 10
1524.8825269999991
 20
2603.3355860000001
 30
0.0
 40
271.43999999999988
 50
97.310000000000016
 51
181.06
  0
CIRCLE
  5
7AE4
  8
1
  6
CONTINUOUS
 10
1507.882527
 20
2586.3355860000001
 30
0.0
 40
215.0
  0
LINE
  5
7AE5
  8
1
  6
CONTINUOUS
 10
1253.4825269999999
 20
2598.3355860000001
 30
0.0
 11
1207.8825269999991
 21
2598.3355860000001
 31
0.0
  0
LINE
  5
7AE6
  8
2
  6
CENTER
 10
1507.882527
 20
1920.697436192223
 30
0.0
 11
1507.882527
 21
2979.1594467257141
 31
0.0
  0
LINE
  5
7AE7
  8
1
  6
CONTINUOUS
 10
1777.882527
 20
2151.3355860000001
 30
0.0
 11
1777.882527
 21
2886.3355860000001
 31
0.0
  0
LINE
  5
7AE8
  8
2
  6
CENTER
 10
2039.7525270000001
 20
2216.3355860000001
 30
0.0
 11
2039.7525270000001
 21
2336.3355860000001
 31
0.0
  0
ARC
  5
7AE9
  8
1
  6
CONTINUOUS
 10
2039.7525270000001
 20
2276.3355860000001
 30
0.0
 40
101.0
 50
322.88
 51
217.12
  0
CIRCLE
  5
7AEA
  8
1
  6
CONTINUOUS
 10
2039.7525270000001
 20
2276.3355860000001
 30
0.0
 40
60.0
  0
LINE
  5
7AEB
  8
1
  6
CONTINUOUS
 10
2202.3825270000002
 20
2151.3355860000001
 30
0.0
 11
2202.3825270000002
 21
2401.3355860000001
 31
0.0
  0
LINE
  5
7AEC
  8
2
  6
CENTER
 10
2099.7525270000001
 20
2276.3355860000001
 30
0.0
 11
1979.752526999999
 21
2276.3355860000001
 31
0.0
  0
LINE
  5
7AED
  8
1
  6
CONTINUOUS
 10
1939.752526999999
 20
2151.3355860000001
 30
0.0
 11
1939.752526999999
 21
2188.3355860000001
 31
0.0
  0
LINE
  5
7AEE
  8
1
  6
CONTINUOUS
 10
1939.752526999999
 20
2188.3355860000001
 30
0.0
 11
1959.2125269999999
 21
2215.3855859999999
 31
0.0
  0
LINE
  5
7AEF
  8
1
  6
CONTINUOUS
 10
2139.7525270000001
 20
2188.3355860000001
 30
0.0
 11
2120.2825269999998
 21
2215.3855859999999
 31
0.0
  0
LINE
  5
7AF0
  8
1
  6
CONTINUOUS
 10
2139.7525270000001
 20
2151.3355860000001
 30
0.0
 11
2139.7525270000001
 21
2188.3355860000001
 31
0.0
  0
LINE
  5
7AF1
  8
1
  6
CONTINUOUS
 10
2247.8825269999988
 20
2049.3355860000001
 30
0.0
 11
2247.8825269999988
 21
1944.3255859999999
 31
0.0
  0
LINE
  5
7AF2
  8
1
  6
CONTINUOUS
 10
2247.8825269999988
 20
2151.3355860000001
 30
0.0
 11
2247.8825269999988
 21
2071.3355860000001
 31
0.0
  0
LINE
  5
7AF3
  8
1
  6
CONTINUOUS
 10
2207.8825270000002
 20
1984.325585999999
 30
0.0
 11
2207.8825270000002
 21
1944.3255859999999
 31
0.0
  0
LINE
  5
7AF4
  8
1
  6
CONTINUOUS
 10
2247.8825269999988
 20
1944.3255859999999
 30
0.0
 11
2207.8825270000002
 21
1944.3255859999999
 31
0.0
  0
LINE
  5
7AF5
  8
1
  6
CONTINUOUS
 10
1521.8825269999991
 20
3662.1055860000001
 30
0.0
 11
2025.752526999999
 21
3662.1055860000001
 31
0.0
  0
LINE
  5
7AF6
  8
1
  6
CONTINUOUS
 10
1247.882527
 20
4050.1055859999992
 30
0.0
 11
2247.8825269999988
 21
4050.1055859999992
 31
0.0
  0
LINE
  5
7AF7
  8
1
  6
CONTINUOUS
 10
1847.882527
 20
3706.1055860000001
 30
0.0
 11
1207.8825269999991
 21
3706.1055860000001
 31
0.0
  0
LINE
  5
7AF8
  8
1
  6
CONTINUOUS
 10
1847.882527
 20
4006.1055860000001
 30
0.0
 11
1207.8825269999991
 21
4006.1055860000001
 31
0.0
  0
LINE
  5
7AF9
  8
1
  6
CONTINUOUS
 10
2202.3825270000002
 20
3526.1055859999992
 30
0.0
 11
1332.382527
 21
3526.1055859999992
 31
0.0
  0
LINE
  5
7AFA
  8
1
  6
CONTINUOUS
 10
2202.3825270000002
 20
3626.1055859999992
 30
0.0
 11
1332.382527
 21
3626.1055859999992
 31
0.0
  0
LINE
  5
7AFB
  8
1
  6
CONTINUOUS
 10
1247.882527
 20
4130.0955860000004
 30
0.0
 11
1247.882527
 21
4006.1055860000001
 31
0.0
  0
LINE
  5
7AFC
  8
1
  6
CONTINUOUS
 10
1287.882527
 20
4130.0955860000004
 30
0.0
 11
1287.882527
 21
4050.0955859999999
 31
0.0
  0
LINE
  5
7AFD
  8
1
  6
CONTINUOUS
 10
1247.882527
 20
3662.1055860000001
 30
0.0
 11
1493.882527
 21
3662.1055860000001
 31
0.0
  0
LINE
  5
7AFE
  8
1
  6
CONTINUOUS
 10
1611.412526999999
 20
3551.1055860000001
 30
0.0
 11
1407.8825269999991
 21
3551.1055860000001
 31
0.0
  0
LINE
  5
7AFF
  8
1
  6
CONTINUOUS
 10
1611.412526999999
 20
3601.1055860000001
 30
0.0
 11
1407.8825269999991
 21
3601.1055860000001
 31
0.0
  0
LINE
  5
7B00
  8
1
  6
CONTINUOUS
 10
1247.882527
 20
3706.1055860000001
 30
0.0
 11
1247.882527
 21
3520.0955859999999
 31
0.0
  0
LINE
  5
7B01
  8
1
  6
CONTINUOUS
 10
1287.882527
 20
3662.0955859999999
 30
0.0
 11
1287.882527
 21
3520.0955859999999
 31
0.0
  0
LINE
  5
7B02
  8
1
  6
CONTINUOUS
 10
1287.882527
 20
3520.0955859999999
 30
0.0
 11
1247.882527
 21
3520.0955859999999
 31
0.0
  0
LINE
  5
7B03
  8
1
  6
CONTINUOUS
 10
1332.382527
 20
3526.1055859999992
 30
0.0
 11
1332.382527
 21
3626.1055859999992
 31
0.0
  0
LINE
  5
7B04
  8
1
  6
CONTINUOUS
 10
1407.8825269999991
 20
3551.1055860000001
 30
0.0
 11
1407.8825269999991
 21
3601.1055860000001
 31
0.0
  0
LINE
  5
7B05
  8
1
  6
CONTINUOUS
 10
1207.8825269999991
 20
3679.1055860000001
 30
0.0
 11
1207.8825269999991
 21
4033.1055860000001
 31
0.0
  0
LINE
  5
7B06
  8
1
  6
CONTINUOUS
 10
1227.882527
 20
3706.1055860000001
 30
0.0
 11
1227.882527
 21
4006.1055860000001
 31
0.0
  0
LINE
  5
7B07
  8
1
  6
CONTINUOUS
 10
1521.8825269999991
 20
3601.1055860000001
 30
0.0
 11
1521.8825269999991
 21
3706.1055860000001
 31
0.0
  0
LINE
  5
7B08
  8
1
  6
CONTINUOUS
 10
1493.882527
 20
3601.1055860000001
 30
0.0
 11
1493.882527
 21
3706.1055860000001
 31
0.0
  0
LINE
  5
7B09
  8
1
  6
CONTINUOUS
 10
1611.412526999999
 20
3551.1055860000001
 30
0.0
 11
1611.412526999999
 21
3601.1055860000001
 31
0.0
  0
LINE
  5
7B0A
  8
1
  6
CONTINUOUS
 10
1287.882527
 20
4130.0955860000004
 30
0.0
 11
1247.882527
 21
4130.0955860000004
 31
0.0
  0
LINE
  5
7B0B
  8
1
  6
CONTINUOUS
 10
2247.8825269999988
 20
4130.0955860000004
 30
0.0
 11
2247.8825269999988
 21
3520.0955859999999
 31
0.0
  0
LINE
  5
7B0C
  8
1
  6
CONTINUOUS
 10
2207.8825270000002
 20
4130.0955860000004
 30
0.0
 11
2207.8825270000002
 21
4050.0955859999999
 31
0.0
  0
LINE
  5
7B0D
  8
1
  6
CONTINUOUS
 10
1938.752526999999
 20
3936.3155860000002
 30
0.0
 11
2140.7525270000001
 21
3936.3155860000002
 31
0.0
  0
LINE
  5
7B0E
  8
1
  6
CONTINUOUS
 10
1938.752526999999
 20
3693.6355859999999
 30
0.0
 11
2140.7525270000001
 21
3693.6355859999999
 31
0.0
  0
LINE
  5
7B0F
  8
1
  6
CONTINUOUS
 10
2099.7525270000001
 20
3551.1055860000001
 30
0.0
 11
1979.752526999999
 21
3551.1055860000001
 31
0.0
  0
LINE
  5
7B10
  8
1
  6
CONTINUOUS
 10
2099.7525270000001
 20
3601.1055860000001
 30
0.0
 11
1979.752526999999
 21
3601.1055860000001
 31
0.0
  0
LINE
  5
7B11
  8
1
  6
CONTINUOUS
 10
2025.752526999999
 20
3601.1055860000001
 30
0.0
 11
2025.752526999999
 21
3693.6355859999999
 31
0.0
  0
LINE
  5
7B12
  8
1
  6
CONTINUOUS
 10
1979.752526999999
 20
3551.1055860000001
 30
0.0
 11
1979.752526999999
 21
3601.1055860000001
 31
0.0
  0
LINE
  5
7B13
  8
1
  6
CONTINUOUS
 10
1847.882527
 20
3706.1055860000001
 30
0.0
 11
1847.882527
 21
4006.1055860000001
 31
0.0
  0
LINE
  5
7B14
  8
1
  6
CONTINUOUS
 10
1938.752526999999
 20
3693.6355859999999
 30
0.0
 11
1938.752526999999
 21
3936.3155860000002
 31
0.0
  0
LINE
  5
7B15
  8
1
  6
CONTINUOUS
 10
2053.7525269999992
 20
3601.1055860000001
 30
0.0
 11
2053.7525269999992
 21
3693.6355859999999
 31
0.0
  0
LINE
  5
7B16
  8
1
  6
CONTINUOUS
 10
2207.8825270000002
 20
3662.0955859999999
 30
0.0
 11
2207.8825270000002
 21
3520.0955859999999
 31
0.0
  0
LINE
  5
7B17
  8
1
  6
CONTINUOUS
 10
2099.7525270000001
 20
3551.1055860000001
 30
0.0
 11
2099.7525270000001
 21
3601.1055860000001
 31
0.0
  0
LINE
  5
7B18
  8
1
  6
CONTINUOUS
 10
2202.3825270000002
 20
3526.1055859999992
 30
0.0
 11
2202.3825270000002
 21
3626.1055859999992
 31
0.0
  0
LINE
  5
7B19
  8
1
  6
CONTINUOUS
 10
2207.8825270000002
 20
3520.0955859999999
 30
0.0
 11
2247.8825269999988
 21
3520.0955859999999
 31
0.0
  0
LINE
  5
7B1A
  8
1
  6
CONTINUOUS
 10
2053.7525269999992
 20
3662.1055860000001
 30
0.0
 11
2247.8825269999988
 21
3662.1055860000001
 31
0.0
  0
LINE
  5
7B1B
  8
1
  6
CONTINUOUS
 10
2140.7525270000001
 20
3693.6355859999999
 30
0.0
 11
2140.7525270000001
 21
3936.3155860000002
 31
0.0
  0
LINE
  5
7B1C
  8
1
  6
CONTINUOUS
 10
2207.8825270000002
 20
4130.0955860000004
 30
0.0
 11
2247.8825269999988
 21
4130.0955860000004
 31
0.0
  0
LINE
  5
7B1D
  8
1
  6
CONTINUOUS
 10
2961.5348289999988
 20
1984.3355859999999
 30
0.0
 11
3571.5348290000002
 21
1984.3355859999999
 31
0.0
  0
LINE
  5
7B1E
  8
1
  6
CONTINUOUS
 10
3571.5348290000002
 20
1944.3255859999999
 30
0.0
 11
2961.5348289999988
 21
1944.3255859999999
 31
0.0
  0
LINE
  5
7B4C
  8
1
  6
CONTINUOUS
 10
2992.5348290000002
 20
2216.3355860000001
 30
0.0
 11
2992.5348290000002
 21
2336.3355860000001
 31
0.0
  0
LINE
  5
7B4D
  8
1
  6
CONTINUOUS
 10
3042.5348290000002
 20
2216.3355860000001
 30
0.0
 11
3042.5348290000002
 21
2336.3355860000001
 31
0.0
  0
LINE
  5
7B4E
  8
1
  6
CONTINUOUS
 10
3067.5348289999988
 20
2151.3355860000001
 30
0.0
 11
3067.5348289999988
 21
2806.3355860000001
 31
0.0
  0
LINE
  5
7B4F
  8
1
  6
CONTINUOUS
 10
2967.5348289999988
 20
2151.3355860000001
 30
0.0
 11
2967.5348289999988
 21
2806.3355860000001
 31
0.0
  0
LINE
  5
7B50
  8
1
  6
CONTINUOUS
 10
3447.5348290000002
 20
2886.3355860000001
 30
0.0
 11
3447.5348290000002
 21
2151.3355860000001
 31
0.0
  0
LINE
  5
7B51
  8
1
  6
CONTINUOUS
 10
3147.5348290000002
 20
2886.3355860000001
 30
0.0
 11
3147.5348290000002
 21
2151.3355860000001
 31
0.0
  0
LINE
  5
7B52
  8
1
  6
CONTINUOUS
 10
3447.5348290000002
 20
2198.3355860000001
 30
0.0
 11
3147.5348290000002
 21
2598.3355860000001
 31
0.0
  0
LINE
  5
7B53
  8
1
  6
CONTINUOUS
 10
3147.5348290000002
 20
2198.3355860000001
 30
0.0
 11
3447.5348290000002
 21
2598.3355860000001
 31
0.0
  0
LINE
  5
7B54
  8
1
  6
CONTINUOUS
 10
3103.5348289999988
 20
2049.3355860000001
 30
0.0
 11
3491.5348289999988
 21
2049.3355860000001
 31
0.0
  0
LINE
  5
7B55
  8
1
  6
CONTINUOUS
 10
3491.5348289999988
 20
2151.3355860000001
 30
0.0
 11
2967.5348289999988
 21
2151.3355860000001
 31
0.0
  0
LINE
  5
7B56
  8
1
  6
CONTINUOUS
 10
3491.5348289999988
 20
2071.3355860000001
 30
0.0
 11
3103.5348289999988
 21
2071.3355860000001
 31
0.0
  0
LINE
  5
7B57
  8
1
  6
CONTINUOUS
 10
3147.5348290000002
 20
2198.3355860000001
 30
0.0
 11
3447.5348290000002
 21
2198.3355860000001
 31
0.0
  0
LINE
  5
7B58
  8
1
  6
CONTINUOUS
 10
3042.5348290000002
 20
2262.3355860000001
 30
0.0
 11
3147.5348290000002
 21
2262.3355860000001
 31
0.0
  0
LINE
  5
7B59
  8
1
  6
CONTINUOUS
 10
3042.5348290000002
 20
2290.3355860000001
 30
0.0
 11
3147.5348290000002
 21
2290.3355860000001
 31
0.0
  0
LINE
  5
7B5A
  8
1
  6
CONTINUOUS
 10
3103.5348289999988
 20
2049.3355860000001
 30
0.0
 11
3103.5348289999988
 21
1984.3355859999999
 31
0.0
  0
LINE
  5
7B5B
  8
1
  6
CONTINUOUS
 10
2992.5348290000002
 20
2216.3355860000001
 30
0.0
 11
3042.5348290000002
 21
2216.3355860000001
 31
0.0
  0
LINE
  5
7B5C
  8
1
  6
CONTINUOUS
 10
3103.5348289999988
 20
2151.3355860000001
 30
0.0
 11
3103.5348289999988
 21
2071.3355860000001
 31
0.0
  0
LINE
  5
7B5D
  8
1
  6
CONTINUOUS
 10
2961.5348289999988
 20
1984.3355859999999
 30
0.0
 11
2961.5348289999988
 21
1944.3255859999999
 31
0.0
  0
LINE
  5
7B5E
  8
1
  6
CONTINUOUS
 10
3491.5348289999988
 20
2049.3355860000001
 30
0.0
 11
3491.5348289999988
 21
1984.3355859999999
 31
0.0
  0
LINE
  5
7B5F
  8
1
  6
CONTINUOUS
 10
3491.5348289999988
 20
2151.3355860000001
 30
0.0
 11
3491.5348289999988
 21
2071.3355860000001
 31
0.0
  0
LINE
  5
7B60
  8
1
  6
CONTINUOUS
 10
3147.5348290000002
 20
2886.3355860000001
 30
0.0
 11
3447.5348290000002
 21
2886.3355860000001
 31
0.0
  0
LINE
  5
7B61
  8
1
  6
CONTINUOUS
 10
3147.5348290000002
 20
2598.3355860000001
 30
0.0
 11
3447.5348290000002
 21
2598.3355860000001
 31
0.0
  0
LINE
  5
7B62
  8
1
  6
CONTINUOUS
 10
3042.5348290000002
 20
2574.0955859999999
 30
0.0
 11
3147.5348290000002
 21
2574.0955859999999
 31
0.0
  0
LINE
  5
7B63
  8
1
  6
CONTINUOUS
 10
3042.5348290000002
 20
2602.0955859999999
 30
0.0
 11
3147.5348290000002
 21
2602.0955859999999
 31
0.0
  0
LINE
  5
7B64
  8
1
  6
CONTINUOUS
 10
2992.5348290000002
 20
2484.5655860000002
 30
0.0
 11
3042.5348290000002
 21
2484.5655860000002
 31
0.0
  0
LINE
  5
7B65
  8
1
  6
CONTINUOUS
 10
2992.5348290000002
 20
2688.0955859999999
 30
0.0
 11
3042.5348290000002
 21
2688.0955859999999
 31
0.0
  0
LINE
  5
7B66
  8
1
  6
CONTINUOUS
 10
2992.5348290000002
 20
2484.5655860000002
 30
0.0
 11
2992.5348290000002
 21
2688.0955859999999
 31
0.0
  0
LINE
  5
7B67
  8
1
  6
CONTINUOUS
 10
3042.5348290000002
 20
2484.5655860000002
 30
0.0
 11
3042.5348290000002
 21
2688.0955859999999
 31
0.0
  0
LINE
  5
7B68
  8
1
  6
CONTINUOUS
 10
2992.5348290000002
 20
2336.3355860000001
 30
0.0
 11
3042.5348290000002
 21
2336.3355860000001
 31
0.0
  0
LINE
  5
7B69
  8
1
  6
CONTINUOUS
 10
2967.5348289999988
 20
2806.3355860000001
 30
0.0
 11
3067.5348289999988
 21
2806.3355860000001
 31
0.0
  0
LINE
  5
7B92
  8
1
  6
CONTINUOUS
 10
3571.5348290000002
 20
1984.3355859999999
 30
0.0
 11
3571.5348290000002
 21
1944.3255859999999
 31
0.0
  0
LINE
  5
7B93
  8
2
  6
CENTER
 10
3297.5348289999988
 20
2921.1775957644882
 30
0.0
 11
3297.5348289999988
 21
1870.325375451933
 31
0.0
  0
LINE
  5
7B94
  8
2
  6
CENTER
 10
2307.6471648997758
 20
3856.1055860000001
 30
0.0
 11
1154.6976418335651
 21
3856.1055860000001
 31
0.0
  0
LINE
  5
7B95
  8
2
  6
CENTER
 10
1507.882527
 20
3488.4476447736411
 30
0.0
 11
1507.882527
 21
4122.0465876070812
 31
0.0
  0
LINE
  5
7B96
  8
2
  6
CENTER
 10
2921.283880267245
 20
2586.3355860000001
 30
0.0
 11
3488.4349852380069
 21
2586.3355860000001
 31
0.0
  0
LINE
  5
7B97
  8
4
  6
CONTINUOUS
 10
3700.0
 20
1000.0
 30
0.0
 11
3700.0
 21
600.0
 31
0.0
  0
LINE
  5
7B98
  8
4
  6
CONTINUOUS
 10
2300.0
 20
1000.0
 30
0.0
 11
2300.0
 21
600.0
 31
0.0
  0
LINE
  5
7B99
  8
4
  6
CONTINUOUS
 10
1300.0
 20
1000.0
 30
0.0
 11
1300.0
 21
600.0
 31
0.0
  0
LINE
  5
7B9C
  8
4
  6
CONTINUOUS
 10
1300.0
 20
600.0
 30
0.0
 11
3700.0
 21
600.0
 31
0.0
  0
LINE
  5
7B9D
  8
4
  6
CONTINUOUS
 10
1300.0
 20
800.0
 30
0.0
 11
3700.0
 21
800.0
 31
0.0
  0
TEXT
  5
7B9E
  8
4
  6
CONTINUOUS
 10
1377.004162
 20
863.086052
 30
0.0
 40
100.0
  1
機器名称
  0
TEXT
  5
7B9F
  8
4
  6
CONTINUOUS
 10
1372.516212
 20
643.29031299999986
 30
0.0
 40
100.0
  1
機器型番
  0
TEXT
  5
7BA0
  8
4
  6
CONTINUOUS
 10
2355.3574910000002
 20
845.14353800000015
 30
0.0
 40
100.0
  1
ミツヤ多翼送風機
  0
TEXT
  5
7BA1
  8
4
  6
CONTINUOUS
 10
2373.3089909999999
 20
634.31916899999999
 30
0.0
 40
100.0
  1
MF#2 1/2-4
  0
TEXT
  5
7BA3
  8
4
  6
CONTINUOUS
 10
1466.16832
 20
4766.8576830000002
 30
0.0
 40
108.0
  1
天井吊防振ベット
  0
TEXT
  5
7BA4
  8
4
  6
CONTINUOUS
 10
632.33518700000002
 20
5067.7619520000007
 30
0.0
 40
144.0
  1
ベルト駆動式片吸込両持多翼ファン
  0
LINE
  5
7BA5
  8
4
  6
CONTINUOUS
 10
500.0
 20
4938.8175090000004
 30
0.0
 11
3700.0
 21
4938.8175090000004
 31
0.0
  0
LINE
  5
7BA6
  8
4
  6
CONTINUOUS
 10
500.0
 20
5338.8175090000004
 30
0.0
 11
3700.0
 21
5338.8175090000004
 31
0.0
  0
LINE
  5
7BA7
  8
4
  6
CONTINUOUS
 10
1300.0
 20
1000.0
 30
0.0
 11
3700.0
 21
1000.0
 31
0.0
  0
LINE
  5
7BA8
  8
4
  6
CONTINUOUS
 10
500.0
 20
5338.8175090000004
 30
0.0
 11
500.0
 21
4938.8175090000004
 31
0.0
  0
TEXT
  5
7BA9
  8
4
  6
CONTINUOUS
 10
572.29565300000002
 20
4764.6389549999994
 30
0.0
 40
108.0
  1
右回転左横向
  0
TEXT
  5
7BAA
  8
4
  6
CONTINUOUS
 10
2937.9391179999998
 20
5412.122163
 30
0.0
 40
112.0
  1
No.
  0
TEXT
  5
7BAB
  8
4
  6
CONTINUOUS
 10
2622.5921250000001
 20
4766.8576830000002
 30
0.0
 40
108.0
  1
縮尺：1/20
  0
LINE
  5
7BAC
  8
4
  6
CONTINUOUS
 10
3700.0
 20
5338.8175090000004
 30
0.0
 11
3700.0
 21
4938.8175090000004
 31
0.0
  0
LINE
  5
7BAE
  8
4
  6
CONTINUOUS
 10
2881.234845
 20
5362.5271659999999
 30
0.0
 11
2881.234845
 21
5573.3045229999998
 31
0.0
  0
LINE
  5
7BAF
  8
4
  6
CONTINUOUS
 10
2881.234845
 20
5573.3045229999998
 30
0.0
 11
3700.0
 21
5573.3045229999998
 31
0.0
  0
LINE
  5
7BB0
  8
4
  6
CONTINUOUS
 10
3700.0
 20
5573.3045229999998
 30
0.0
 11
3700.0
 21
5362.5271659999999
 31
0.0
  0
LINE
  5
7BB1
  8
4
  6
CONTINUOUS
 10
3700.0
 20
5362.5271659999999
 30
0.0
 11
2881.234845
 21
5362.5271659999999
 31
0.0
  0
DIMENSION
  5
7BC9
  8
3
  6
CONTINUOUS
  2
*D1
 10
1171.3950319999999
 20
2198.3355860000001
 30
0.0
 11
1171.3950319999999
 21
2393.7902509999999
 31
0.0
 70
   128
 13
1207.8825269999991
 23
2598.3355860000001
 33
0.0
 14
1207.8825269999991
 24
2198.3355860000001
 34
0.0
 50
90.0
1001
ACAD
1000
DSTYLE
1002
{
1070
   287
1070
     3
1070
    40
1040
20.0
1070
   143
1040
0.039
1070
   172
1070
     1
1070
   271
1070
     0
1070
   279
1070
     0
1070
   288
1070
     1
1002
}
  0
DIMENSION
  5
7BD6
  8
3
  6
CONTINUOUS
  2
*D2
 10
1064.502653
 20
2586.3355860000001
 30
0.0
 11
1064.502653
 21
2401.7024160000001
 31
0.0
 70
   128
 13
1171.3950319999999
 23
2198.3355860000001
 33
0.0
 14
1049.3690409999999
 24
2586.3355860000001
 34
0.0
 50
90.0
1001
ACAD
1000
DSTYLE
1002
{
1070
   287
1070
     3
1070
    40
1040
20.0
1070
   143
1040
0.039
1070
   172
1070
     1
1070
   271
1070
     0
1070
   279
1070
     0
1070
   288
1070
     1
1002
}
  0
DIMENSION
  5
7BEF
  8
3
  6
CONTINUOUS
  2
*D3
 10
937.42044000000055
 20
2586.3355860000001
 30
0.0
 11
937.42043999999987
 21
2723.478443
 31
0.0
 70
   128
 13
1237.882527
 23
2886.3355860000001
 33
0.0
 14
1084.502653
 24
2586.3355860000001
 34
0.0
 50
90.0
1001
ACAD
1000
DSTYLE
1002
{
1070
   287
1070
     3
1070
    40
1040
20.0
1070
   143
1040
0.039
1070
   172
1070
     1
1070
   271
1070
     0
1070
   279
1070
     0
1070
   288
1070
     1
1002
}
  0
DIMENSION
  5
7BFB
  8
3
  6
CONTINUOUS
  2
*D4
 10
937.42043999999987
 20
2071.3355860000001
 30
0.0
 11
887.42043999999964
 21
2328.8355860000001
 31
0.0
 70
     0
 13
1084.502653
 23
2586.3355860000001
 33
0.0
 14
1247.882527
 24
2071.3355860000001
 34
0.0
 50
90.0
1001
ACAD
1000
DSTYLE
1002
{
1070
   287
1070
     4
1070
    40
1040
20.0
1070
    75
1070
     1
1070
   143
1040
0.039
1070
   172
1070
     1
1070
   271
1070
     0
1070
   279
1070
     1
1070
   288
1070
     1
1002
}
  0
DIMENSION
  5
7C0B
  8
3
  6
CONTINUOUS
  2
*D5
 10
937.42043999999987
 20
1984.3355859999999
 30
0.0
 11
937.11300800000004
 21
2038.4522280000001
 31
0.0
 70
   128
 13
1247.882527
 23
2071.3355860000001
 33
0.0
 14
1247.882527
 24
1984.3355859999999
 34
0.0
 50
90.0
1001
ACAD
1000
DSTYLE
1002
{
1070
   287
1070
     4
1070
    40
1040
20.0
1070
    75
1070
     1
1070
   143
1040
0.039
1070
   172
1070
     1
1070
   271
1070
     0
1070
   279
1070
     1
1070
   288
1070
     1
1070
     7
1000
DOT
1002
}
  0
DIMENSION
  5
7C18
  8
3
  6
CONTINUOUS
  2
*D6
 10
817.15606600000035
 20
1944.3255859999999
 30
0.0
 11
817.15606600000001
 21
2425.438897999999
 31
0.0
 70
   128
 13
1237.882527
 23
2886.3355860000001
 33
0.0
 14
1247.882527
 24
1944.3255859999999
 34
0.0
 50
90.0
1001
ACAD
1000
DSTYLE
1002
{
1070
   287
1070
     3
1070
    40
1040
20.0
1070
   143
1040
0.039
1070
   172
1070
     1
1070
   271
1070
     0
1070
   279
1070
     0
1070
   288
1070
     1
1002
}
  0
DIMENSION
  5
7C32
  8
3
  6
CONTINUOUS
  2
*D7
 10
1507.882527
 20
3001.6161999999999
 30
0.0
 11
1677.7491279999999
 21
3001.6161999999999
 31
0.0
 70
   128
 13
1839.882527
 23
2559.3355860000001
 33
0.0
 14
1507.882527
 24
2981.2843360099978
 34
0.0
1001
ACAD
1000
DSTYLE
1002
{
1070
   287
1070
     3
1070
    40
1040
20.0
1070
   143
1040
0.039
1070
   172
1070
     1
1070
   271
1070
     0
1070
   279
1070
     0
1070
   288
1070
     1
1002
}
  0
DIMENSION
  5
7C3E
  8
3
  6
CONTINUOUS
  2
*D8
 10
1207.8825269999991
 20
3001.6161999999999
 30
0.0
 11
1357.882527
 21
3051.6161999999999
 31
0.0
 70
     0
 13
1507.882527
 23
2979.1594467257141
 33
0.0
 14
1207.8825269999991
 24
2625.3355860000001
 34
0.0
1001
ACAD
1000
DSTYLE
1002
{
1070
   287
1070
     4
1070
    40
1040
20.0
1070
    75
1070
     1
1070
   143
1040
0.039
1070
   172
1070
     1
1070
   271
1070
     0
1070
   279
1070
     1
1070
   288
1070
     1
1002
}
  0
DIMENSION
  5
7C4D
  8
3
  6
CONTINUOUS
  2
*D9
 10
1507.882527
 20
1847.851095
 30
0.0
 11
1377.882527
 21
1896.98363473879
 31
0.0
 70
   128
 13
1247.882527
 23
1944.3255859999999
 33
0.0
 14
1507.882527
 24
1920.697436192223
 34
0.0
1001
ACAD
1000
DSTYLE
1002
{
1070
   288
1070
     1
1070
   172
1070
     1
1070
    40
1040
20.0
1070
   271
1070
     0
1070
   143
1040
0.039
1002
}
  0
DIMENSION
  5
7C59
  8
3
  6
CONTINUOUS
  2
*D10
 10
2247.8825269999988
 20
1847.851095
 30
0.0
 11
1877.8825269999991
 21
1897.851095
 31
0.0
 70
     0
 13
1507.882527
 23
1920.697436192223
 33
0.0
 14
2247.8825269999988
 24
1944.3255859999999
 34
0.0
1001
ACAD
1000
DSTYLE
1002
{
1070
   287
1070
     4
1070
    40
1040
20.0
1070
    75
1070
     1
1070
   143
1040
0.039
1070
   172
1070
     1
1070
   271
1070
     0
1070
   279
1070
     1
1070
   288
1070
     1
1002
}
  0
DIMENSION
  5
7C66
  8
3
  6
CONTINUOUS
  2
*D11
 10
3297.5348289999988
 20
1804.3342070000001
 30
0.0
 11
3139.0546960000001
 21
1804.3342070000001
 31
0.0
 70
   128
 13
2961.5348289999988
 23
1944.3255859999999
 33
0.0
 14
3297.5348289999988
 24
1877.8854196070999
 34
0.0
1001
ACAD
1000
DSTYLE
1002
{
1070
   287
1070
     3
1070
    40
1040
20.0
1070
   143
1040
0.039
1070
   172
1070
     1
1070
   271
1070
     0
1070
   279
1070
     0
1070
   288
1070
     1
1002
}
  0
DIMENSION
  5
7C74
  8
3
  6
CONTINUOUS
  2
*D12
 10
3571.5348290000002
 20
1804.3342070000001
 30
0.0
 11
3438.2555990000001
 21
1801.3517989999989
 31
0.0
 70
   128
 13
3297.5348289999988
 23
1870.325375451933
 33
0.0
 14
3571.5348290000002
 24
1944.3255859999999
 34
0.0
1001
ACAD
1000
DSTYLE
1002
{
1070
   287
1070
     4
1070
    40
1040
20.0
1070
    75
1070
     1
1070
   143
1040
0.039
1070
   172
1070
     1
1070
   271
1070
     0
1070
   279
1070
     1
1070
   288
1070
     1
1002
}
  0
DIMENSION
  5
7C81
  8
3
  6
CONTINUOUS
  2
*D13
 10
3147.5348290000002
 20
2951.5632249999999
 30
0.0
 11
3284.677686
 21
2951.5632249999999
 31
0.0
 70
   128
 13
3447.5348290000002
 23
2886.3355860000001
 33
0.0
 14
3147.5348290000002
 24
2886.3355860000001
 34
0.0
1001
ACAD
1000
DSTYLE
1002
{
1070
   287
1070
     3
1070
    40
1040
20.0
1070
   143
1040
0.039
1070
   172
1070
     1
1070
   271
1070
     0
1070
   279
1070
     0
1070
   288
1070
     1
1002
}
  0
DIMENSION
  5
7C9B
  8
3
  6
CONTINUOUS
  2
*D14
 10
2967.5348289999988
 20
3074.2361609999989
 30
0.0
 11
3132.5348289999988
 21
3174.2361609999998
 31
0.0
 70
     0
  1
MAX\P380
 13
3297.5348289999988
 23
3041.2550309999988
 33
0.0
 14
2967.5348289999988
 24
2806.3355860000001
 34
0.0
1001
ACAD
1000
DSTYLE
1002
{
1070
   287
1070
     4
1070
    40
1040
20.0
1070
    75
1070
     1
1070
   143
1040
0.039
1070
   172
1070
     1
1070
   271
1070
     0
1070
   279
1070
     1
1070
   288
1070
     1
1002
}
  0
DIMENSION
  5
7CAA
  8
3
  6
CONTINUOUS
  2
*D15
 10
3623.6649929999999
 20
2371.3355860000001
 30
0.0
 11
3623.6649929999999
 21
2567.8578189999998
 31
0.0
 70
   128
 13
3447.5348290000002
 23
2801.3355860000001
 33
0.0
 14
3447.5348290000002
 24
2371.3355860000001
 34
0.0
 50
90.0
1001
ACAD
1000
DSTYLE
1002
{
1070
   287
1070
     3
1070
     3
1000
φ<>
1070
    40
1040
20.0
1070
   143
1040
0.039
1070
   172
1070
     1
1070
   271
1070
     0
1070
   279
1070
     0
1070
   288
1070
     1
1002
}
  0
DIMENSION
  5
7CB7
  8
3
  6
CONTINUOUS
  2
*D16
 10
2247.8825269999988
 20
4219.3591839999999
 30
0.0
 11
1701.897982
 21
4219.3591839999999
 31
0.0
 70
   128
 13
1247.882527
 23
4130.0955860000004
 33
0.0
 14
2247.8825269999988
 24
4130.0955860000004
 34
0.0
1001
ACAD
1000
DSTYLE
1002
{
1070
   287
1070
     3
1070
    40
1040
20.0
1070
   143
1040
0.039
1070
   172
1070
     1
1070
   271
1070
     0
1070
   279
1070
     0
1070
   288
1070
     1
1002
}
  0
DIMENSION
  5
7CC4
  8
3
  6
CONTINUOUS
  2
*D17
 10
2446.0626999999999
 20
3520.0955859999999
 30
0.0
 11
2446.0626999999999
 21
3823.9059950000001
 31
0.0
 70
   128
 13
2247.8825269999988
 23
4130.0955860000004
 33
0.0
 14
2247.8825269999988
 24
3520.0955859999999
 34
0.0
 50
90.0
1001
ACAD
1000
DSTYLE
1002
{
1070
   287
1070
     3
1070
    40
1040
20.0
1070
   143
1040
0.039
1070
   172
1070
     1
1070
   271
1070
     0
1070
   279
1070
     0
1070
   288
1070
     1
1002
}
  0
DIMENSION
  5
7D21
  8
3
  6
CONTINUOUS
  2
*D18
 10
937.42044000000055
 20
1944.3255859999999
 30
0.0
 11
937.4204400000001
 21
1795.754157428571
 31
0.0
 70
   128
 13
1247.882527
 23
1984.3355859999999
 33
0.0
 14
1247.882527
 24
1944.3255859999999
 34
0.0
 50
90.0
1001
ACAD
1000
DSTYLE
1002
{
1070
   287
1070
     3
1070
    40
1040
20.0
1070
   143
1040
0.039
1070
   172
1070
     1
1070
   271
1070
     0
1070
   279
1070
     0
1070
   288
1070
     1
1070
     6
1000
DOT
1002
}
  0
LINE
  5
7D9E
  8
1
  6
CONTINUOUS
 10
3448.5348289999988
 20
2801.3355860000001
 30
0.0
 11
3448.5348289999988
 21
2371.3355860000001
 31
0.0
  0
DIMENSION
  5
7DAE
  8
3
  6
CONTINUOUS
  2
*D19
 10
3448.5348289999988
 20
3074.2361609999989
 30
0.0
 11
3366.4315497459829
 21
3128.7417416817502
 31
0.0
 70
   128
 13
3297.5348289999988
 23
3041.2550309999988
 33
0.0
 14
3448.5348289999988
 24
2801.3355860000001
 34
0.0
1001
ACAD
1000
DSTYLE
1002
{
1070
   288
1070
     1
1070
   172
1070
     1
1070
    40
1040
20.0
1070
   271
1070
     0
1070
   143
1040
0.039
1002
}
  0
DIMENSION
  5
7E50
  8
3
  2
*D21
 10
2247.8825269999988
 20
3121.7926459557002
 30
0.0
 11
1702.771911425061
 21
3121.7926459557002
 31
0.0
 70
   128
 13
1207.8825269999991
 23
2635.3355860000001
 33
0.0
 14
2247.8825269999988
 24
2151.3355860000001
 34
0.0
1001
ACAD
1000
DSTYLE
1002
{
1070
   287
1070
     3
1070
    40
1040
20.0
1070
   143
1040
0.039
1070
   172
1070
     1
1070
   271
1070
     0
1070
   279
1070
     0
1070
   288
1070
     1
1002
}
  0
ENDSEC
  0
EOF
