  0
SECTION
  2
HEADER
  9
$ACADVER
  1
AC1009
  9
$INSBASE
 10
0.0
 20
0.0
 30
0.0
  9
$EXTMIN
 10
500.0
 20
600.0
 30
0.0
  9
$EXTMAX
 10
3700.0
 20
5573.3045229999998
 30
0.0
  9
$LIMMIN
 10
0.0
 20
0.0
  9
$LIMMAX
 10
297.0
 20
210.0
  9
$ORTHOMODE
 70
     0
  9
$REGENMODE
 70
     1
  9
$FILLMODE
 70
     0
  9
$QTEXTMODE
 70
     0
  9
$MIRRTEXT
 70
     1
  9
$DRAGMODE
 70
     2
  9
$LTSCALE
 40
100.0
  9
$OSMODE
 70
    37
  9
$ATTMODE
 70
     1
  9
$TEXTSIZE
 40
180.0
  9
$TRACEWID
 40
0.05
  9
$TEXTSTYLE
  7
STANDARD
  9
$CLAYER
  8
3
  9
$CELTYPE
  6
BYLAYER
  9
$CECOLOR
 62
   256
  9
$DIMSCALE
 40
20.0
  9
$DIMASZ
 40
2.0
  9
$DIMEXO
 40
0.5
  9
$DIMDLI
 40
10.0
  9
$DIMRND
 40
0.0
  9
$DIMDLE
 40
0.0
  9
$DIMEXE
 40
1.0
  9
$DIMTP
 40
1.0
  9
$DIMTM
 40
1.0
  9
$DIMTXT
 40
3.0
  9
$DIMCEN
 40
0.0
  9
$DIMTSZ
 40
0.0
  9
$DIMTOL
 70
     0
  9
$DIMLIM
 70
     0
  9
$DIMTIH
 70
     0
  9
$DIMTOH
 70
     0
  9
$DIMSE1
 70
     0
  9
$DIMSE2
 70
     0
  9
$DIMTAD
 70
     1
  9
$DIMZIN
 70
     8
  9
$DIMBLK
  1

  9
$DIMASO
 70
     1
  9
$DIMSHO
 70
     1
  9
$DIMPOST
  1

  9
$DIMAPOST
  1

  9
$DIMALT
 70
     0
  9
$DIMALTD
 70
     2
  9
$DIMALTF
 40
0.039
  9
$DIMLFAC
 40
1.0
  9
$DIMTOFL
 70
     1
  9
$DIMTVP
 40
0.0
  9
$DIMTIX
 70
     0
  9
$DIMSOXD
 70
     0
  9
$DIMSAH
 70
     1
  9
$DIMBLK1
  1
OPEN
  9
$DIMBLK2
  1
OPEN
  9
$DIMSTYLE
  2
IGA
  9
$DIMCLRD
 70
     0
  9
$DIMCLRE
 70
     0
  9
$DIMCLRT
 70
     0
  9
$DIMTFAC
 40
10.0
  9
$DIMGAP
 40
1.0
  9
$LUNITS
 70
     2
  9
$LUPREC
 70
     3
  9
$SKETCHINC
 40
0.1
  9
$FILLETRAD
 40
50.0
  9
$AUNITS
 70
     0
  9
$AUPREC
 70
     0
  9
$MENU
  1
acad
  9
$ELEVATION
 40
0.0
  9
$PELEVATION
 40
0.0
  9
$THICKNESS
 40
0.0
  9
$LIMCHECK
 70
     0
  9
$BLIPMODE
 70
     0
  9
$CHAMFERA
 40
0.5
  9
$CHAMFERB
 40
0.5
  9
$SKPOLY
 70
     0
  9
$TDCREATE
 40
2450728.4094828698
  9
$TDUPDATE
 40
2454953.7653389
  9
$TDINDWG
 40
0.0070449306
  9
$TDUSRTIMER
 40
0.0070449306
  9
$USRTIMER
 70
     1
  9
$ANGBASE
 50
0.0
  9
$ANGDIR
 70
     0
  9
$PDMODE
 70
     0
  9
$PDSIZE
 40
0.0
  9
$PLINEWID
 40
0.0
  9
$COORDS
 70
     1
  9
$SPLFRAME
 70
     0
  9
$SPLINETYPE
 70
     6
  9
$SPLINESEGS
 70
     8
  9
$ATTDIA
 70
     0
  9
$ATTREQ
 70
     1
  9
$HANDLING
 70
 10241
  9
$HANDSEED
  5
7FAE
  9
$SURFTAB1
 70
     6
  9
$SURFTAB2
 70
     6
  9
$SURFTYPE
 70
     6
  9
$SURFU
 70
     6
  9
$SURFV
 70
     6
  9
$UCSNAME
  2

  9
$UCSORG
 10
0.0
 20
0.0
 30
0.0
  9
$UCSXDIR
 10
1.0
 20
0.0
 30
0.0
  9
$UCSYDIR
 10
0.0
 20
1.0
 30
0.0
  9
$PUCSNAME
  2

  9
$PUCSORG
 10
0.0
 20
0.0
 30
0.0
  9
$PUCSXDIR
 10
1.0
 20
0.0
 30
0.0
  9
$PUCSYDIR
 10
0.0
 20
1.0
 30
0.0
  9
$USERI1
 70
     0
  9
$USERI2
 70
     0
  9
$USERI3
 70
     0
  9
$USERI4
 70
     0
  9
$USERI5
 70
     0
  9
$USERR1
 40
0.0
  9
$USERR2
 40
0.0
  9
$USERR3
 40
0.0
  9
$USERR4
 40
0.0
  9
$USERR5
 40
0.0
  9
$WORLDVIEW
 70
     1
  9
$SHADEDGE
 70
     3
  9
$SHADEDIF
 70
    70
  9
$TILEMODE
 70
     1
  9
$MAXACTVP
 70
    16
  9
$PLIMCHECK
 70
     0
  9
$PEXTMIN
 10
1.0000000000000000E+020
 20
1.0000000000000000E+020
 30
1.0000000000000000E+020
  9
$PEXTMAX
 10
-1.0000000000000000E+020
 20
-1.0000000000000000E+020
 30
-1.0000000000000000E+020
  9
$PLIMMIN
 10
0.0
 20
0.0
  9
$PLIMMAX
 10
12.0
 20
9.0
  9
$UNITMODE
 70
     0
  9
$VISRETAIN
 70
     0
  9
$PLINEGEN
 70
     0
  9
$PSLTSCALE
 70
     1
  0
ENDSEC
  0
SECTION
  2
TABLES
  0
TABLE
  2
VPORT
 70
     2
  0
VPORT
  2
*ACTIVE
 70
     0
 10
0.0
 20
0.0
 11
1.0
 21
1.0
 12
6292.1124769529506
 22
3086.6374998146398
 13
0.0
 23
0.0
 14
10.0
 24
10.0
 15
10.0
 25
10.0
 16
0.0
 26
0.0
 36
1.0
 17
0.0
 27
0.0
 37
0.0
 40
5011.4968576296578
 41
3.1666666666666661
 42
50.0
 43
0.0
 44
0.0
 50
0.0
 51
0.0
 71
     0
 72
   100
 73
     1
 74
     0
 75
     0
 76
     0
 77
     0
 78
     0
  0
ENDTAB
  0
TABLE
  2
LTYPE
 70
     2
  0
LTYPE
  2
CONTINUOUS
 70
     0
  3
Solid line
 72
    65
 73
     0
 40
0.0
  0
LTYPE
  2
CENTER
 70
     0
  3
____ _ ____ _ ____ _ ____ _ ____ _ ____ _ ____ 
 72
    65
 73
     4
 40
2.0
 49
1.25
 49
-0.25
 49
0.25
 49
-0.25
  0
ENDTAB
  0
TABLE
  2
LAYER
 70
     6
  0
LAYER
  2
0
 70
     0
 62
    -7
  6
CONTINUOUS
  0
LAYER
  2
3
 70
     0
 62
     2
  6
CONTINUOUS
  0
LAYER
  2
2
 70
     0
 62
     3
  6
CENTER
  0
LAYER
  2
1
 70
     0
 62
     4
  6
CONTINUOUS
  0
LAYER
  2
4
 70
     0
 62
     7
  6
CONTINUOUS
  0
LAYER
  2
DEFPOINTS
 70
     0
 62
    -7
  6
CONTINUOUS
  0
ENDTAB
  0
TABLE
  2
STYLE
 70
     1
  0
STYLE
  2
STANDARD
 70
     0
 40
0.0
 41
1.0
 50
0.0
 71
     0
 42
180.0
  3
simplex.shx
  4
extfont.shx
  0
ENDTAB
  0
TABLE
  2
VIEW
 70
     0
  0
ENDTAB
  0
TABLE
  2
UCS
 70
     0
  0
ENDTAB
  0
TABLE
  2
APPID
 70
     1
  0
APPID
  2
ACAD
 70
     0
  0
ENDTAB
  0
TABLE
  2
DIMSTYLE
 70
     1
  0
DIMSTYLE
  2
IGA
 70
     0
  3

  4

  5

  6
OPEN
  7
OPEN
 40
2.0
 41
2.0
 42
0.5
 43
10.0
 44
1.0
 45
0.0
 46
0.0
 47
1.0
 48
1.0
140
3.0
141
0.0
142
0.0
143
0.03937
144
1.0
145
0.0
146
10.0
147
1.0
 71
     0
 72
     0
 73
     0
 74
     0
 75
     0
 76
     0
 77
     1
 78
     8
170
     0
171
     2
172
     0
173
     1
174
     0
175
     0
176
     0
177
     0
178
     0
  0
ENDTAB
  0
ENDSEC
  0
SECTION
  2
BLOCKS
  0
BLOCK
  8
0
  2
$MODEL_SPACE
 70
     0
 10
0.0
 20
0.0
 30
0.0
  3
$MODEL_SPACE
  1

  0
ENDBLK
  5
1B
  8
0
  0
BLOCK
 67
     1
  8
0
  2
$PAPER_SPACE
 70
     0
 10
0.0
 20
0.0
 30
0.0
  3
$PAPER_SPACE
  1

  0
ENDBLK
  5
18
 67
     1
  8
0
  0
BLOCK
  8
0
  2
_OPEN
 70
     0
 10
0.0
 20
0.0
 30
0.0
  3
_OPEN
  1

  0
LINE
  5
7B36
  8
0
  6
BYBLOCK
 62
     0
 10
-1.0
 20
0.166667
 30
0.0
 11
0.0
 21
0.0
 31
0.0
  0
LINE
  5
7B37
  8
0
  6
BYBLOCK
 62
     0
 10
0.0
 20
0.0
 30
0.0
 11
-1.0
 21
-0.166667
 31
0.0
  0
LINE
  5
7B38
  8
0
  6
BYBLOCK
 62
     0
 10
0.0
 20
0.0
 30
0.0
 11
-1.0
 21
0.0
 31
0.0
  0
ENDBLK
  5
7B39
  8
0
  0
BLOCK
  8
0
  2
*D1
 70
     1
 10
0.0
 20
0.0
 30
0.0
  3
*D1
  1

  0
LINE
  5
7EFF
  8
3
  6
CONTINUOUS
 62
     0
 10
1146.108956999999
 20
2696.432675
 30
0.0
 11
1146.108956999999
 21
2777.8944750000001
 31
0.0
  0
LINE
  5
7F00
  8
3
  6
CONTINUOUS
 62
     0
 10
1546.1089569999999
 20
2696.432675
 30
0.0
 11
1546.1089569999999
 21
2777.8944750000001
 31
0.0
  0
LINE
  5
7F01
  8
3
  6
CONTINUOUS
 62
     0
 10
1186.108956999999
 20
2757.8944750000001
 30
0.0
 11
1506.1089569999999
 21
2757.8944750000001
 31
0.0
  0
INSERT
  5
7F02
  8
3
  6
CONTINUOUS
 62
     0
  2
_OPEN
 10
1146.108956999999
 20
2757.8944750000001
 30
0.0
 41
40.0
 42
40.0
 43
40.0
 50
180.0
  0
INSERT
  5
7F03
  8
3
  6
CONTINUOUS
 62
     0
  2
_OPEN
 10
1546.1089569999999
 20
2757.8944750000001
 30
0.0
 41
40.0
 42
40.0
 43
40.0
  0
TEXT
  8
3
  40
60
  5
7F9C
  62
0
  72
0
  71
0
 10
1236.40
 20
2701.69
 30
0.000000
  1
400
  0
POINT
  5
7F05
  8
DEFPOINTS
  6
CONTINUOUS
 62
     0
 10
1146.108956999999
 20
2686.432675
 30
0.0
  0
POINT
  5
7F06
  8
DEFPOINTS
  6
CONTINUOUS
 62
     0
 10
1546.1089569999999
 20
2686.432675
 30
0.0
  0
POINT
  5
7F07
  8
DEFPOINTS
  6
CONTINUOUS
 62
     0
 10
1546.1089569999999
 20
2757.8944750000001
 30
0.0
  0
ENDBLK
  5
7C86
  8
0
  0
BLOCK
  8
0
  2
*D2
 70
     1
 10
0.0
 20
0.0
 30
0.0
  3
*D2
  1

  0
LINE
  5
7F08
  8
3
  6
CONTINUOUS
 62
     0
 10
1146.108956999999
 20
2767.8944750000001
 30
0.0
 11
1146.108956999999
 21
2890.730849
 31
0.0
  0
LINE
  5
7F09
  8
3
  6
CONTINUOUS
 62
     0
 10
1534.108956999999
 20
2856.543322864381
 30
0.0
 11
1534.108956999999
 21
2890.730849
 31
0.0
  0
LINE
  5
7F0A
  8
3
  6
CONTINUOUS
 62
     0
 10
1186.108956999999
 20
2870.730849
 30
0.0
 11
1494.108956999999
 21
2870.730849
 31
0.0
  0
INSERT
  5
7F0B
  8
3
  6
CONTINUOUS
 62
     0
  2
_OPEN
 10
1146.108956999999
 20
2870.730849
 30
0.0
 41
40.0
 42
40.0
 43
40.0
 50
180.0
  0
INSERT
  5
7F0C
  8
3
  6
CONTINUOUS
 62
     0
  2
_OPEN
 10
1534.108956999999
 20
2870.730849
 30
0.0
 41
40.0
 42
40.0
 43
40.0
  0
TEXT
  8
3
  40
60
  5
7F9D
  62
0
  72
0
  71
0
 10
1236.40
 20
2814.53
 30
0.000000
  1
388
  0
POINT
  5
7F0E
  8
DEFPOINTS
  6
CONTINUOUS
 62
     0
 10
1146.108956999999
 20
2757.8944750000001
 30
0.0
  0
POINT
  5
7F0F
  8
DEFPOINTS
  6
CONTINUOUS
 62
     0
 10
1534.108956999999
 20
2846.543322864381
 30
0.0
  0
POINT
  5
7F10
  8
DEFPOINTS
  6
CONTINUOUS
 62
     0
 10
1534.108956999999
 20
2870.730849
 30
0.0
  0
ENDBLK
  5
7ECF
  8
0
  0
BLOCK
  8
0
  2
*D3
 70
     1
 10
0.0
 20
0.0
 30
0.0
  3
*D3
  1

  0
LINE
  5
7F11
  8
3
  6
CONTINUOUS
 62
     0
 10
1834.1089569999999
 20
2666.432675
 30
0.0
 11
1834.1089569999999
 21
2890.730849
 31
0.0
  0
LINE
  5
7F12
  8
3
  6
CONTINUOUS
 62
     0
 10
1574.108956999999
 20
2870.730849
 30
0.0
 11
1794.108956999999
 21
2870.730849
 31
0.0
  0
INSERT
  5
7F13
  8
3
  6
CONTINUOUS
 62
     0
  2
_OPEN
 10
1534.108956999999
 20
2870.730849
 30
0.0
 41
40.0
 42
40.0
 43
40.0
 50
180.0
  0
INSERT
  5
7F14
  8
3
  6
CONTINUOUS
 62
     0
  2
_OPEN
 10
1834.1089569999999
 20
2870.730849
 30
0.0
 41
40.0
 42
40.0
 43
40.0
  0
TEXT
  8
3
  40
60
  5
7F9E
  62
0
  72
0
  71
0
 10
1564.11
 20
2814.53
 30
0.000000
  1
300
  0
POINT
  5
7F16
  8
DEFPOINTS
  6
CONTINUOUS
 62
     0
 10
1534.108956999999
 20
2851.2316612749109
 30
0.0
  0
POINT
  5
7F17
  8
DEFPOINTS
  6
CONTINUOUS
 62
     0
 10
1834.1089569999999
 20
2656.432675
 30
0.0
  0
POINT
  5
7F18
  8
DEFPOINTS
  6
CONTINUOUS
 62
     0
 10
1834.1089569999999
 20
2870.730849
 30
0.0
  0
ENDBLK
  5
7EC4
  8
0
  0
BLOCK
  8
0
  2
*D4
 70
     1
 10
0.0
 20
0.0
 30
0.0
  3
*D4
  1

  0
LINE
  5
7F19
  8
3
  6
CONTINUOUS
 62
     0
 10
1583.1089569999999
 20
2686.432675
 30
0.0
 11
2067.3838340000002
 21
2686.432675
 31
0.0
  0
LINE
  5
7F1A
  8
3
  6
CONTINUOUS
 62
     0
 10
2049.3966959999998
 20
2386.432675
 30
0.0
 11
2067.3838340000002
 21
2386.432675
 31
0.0
  0
LINE
  5
7F1B
  8
3
  6
CONTINUOUS
 62
     0
 10
2047.383834
 20
2726.432675
 30
0.0
 11
2047.383834
 21
2766.432675
 31
0.0
  0
LINE
  5
7F1C
  8
3
  6
CONTINUOUS
 62
     0
 10
2047.383834
 20
2346.432675
 30
0.0
 11
2047.383834
 21
2306.4326749999991
 31
0.0
  0
LINE
  5
7F1D
  8
3
  6
CONTINUOUS
 62
     0
 10
2047.383834
 20
2686.432675
 30
0.0
 11
2047.383834
 21
2386.432675
 31
0.0
  0
INSERT
  5
7F1E
  8
3
  6
CONTINUOUS
 62
     0
  2
_OPEN
 10
2047.383834
 20
2686.432675
 30
0.0
 41
40.0
 42
40.0
 43
40.0
 50
270.0
  0
INSERT
  5
7F1F
  8
3
  6
CONTINUOUS
 62
     0
  2
_OPEN
 10
2047.383834
 20
2386.432675
 30
0.0
 41
40.0
 42
40.0
 43
40.0
 50
90.0
  0
TEXT
  8
3
  40
60
  5
7F9F
  62
0
  72
0
  71
0
 10
1877.38
 20
2417.38
 30
0.000000
  1
300
  0
POINT
  5
7F21
  8
DEFPOINTS
  6
CONTINUOUS
 62
     0
 10
1573.1089569999999
 20
2686.432675
 30
0.0
  0
POINT
  5
7F22
  8
DEFPOINTS
  6
CONTINUOUS
 62
     0
 10
2039.396696
 20
2386.432675
 30
0.0
  0
POINT
  5
7F23
  8
DEFPOINTS
  6
CONTINUOUS
 62
     0
 10
2047.383834
 20
2386.432675
 30
0.0
  0
ENDBLK
  5
7C5B
  8
0
  0
BLOCK
  8
0
  2
*D5
 70
     1
 10
0.0
 20
0.0
 30
0.0
  3
*D5
  1

  0
LINE
  5
7F24
  8
3
  6
CONTINUOUS
 62
     0
 10
1804.1089569999999
 20
1966.432675
 30
0.0
 11
2067.3838340000002
 21
1966.432675
 31
0.0
  0
LINE
  5
7F25
  8
3
  6
CONTINUOUS
 62
     0
 10
2047.383834
 20
2346.432675
 30
0.0
 11
2047.383834
 21
2006.432675
 31
0.0
  0
INSERT
  5
7F26
  8
3
  6
CONTINUOUS
 62
     0
  2
_OPEN
 10
2047.383834
 20
2386.432675
 30
0.0
 41
40.0
 42
40.0
 43
40.0
 50
90.0
  0
INSERT
  5
7F27
  8
3
  6
CONTINUOUS
 62
     0
  2
_OPEN
 10
2047.383834
 20
1966.432675
 30
0.0
 41
40.0
 42
40.0
 43
40.0
 50
270.0
  0
TEXT
  8
3
  40
60
  5
7FA0
  62
0
  72
0
  71
0
 10
1877.38
 20
2070.23
 30
0.000000
  1
420
  0
POINT
  5
7F29
  8
DEFPOINTS
  6
CONTINUOUS
 62
     0
 10
2039.396696
 20
2386.432675
 30
0.0
  0
POINT
  5
7F2A
  8
DEFPOINTS
  6
CONTINUOUS
 62
     0
 10
1794.108956999999
 20
1966.432675
 30
0.0
  0
POINT
  5
7F2B
  8
DEFPOINTS
  6
CONTINUOUS
 62
     0
 10
2047.383834
 20
1966.432675
 30
0.0
  0
ENDBLK
  5
7C50
  8
0
  0
BLOCK
  8
0
  2
*D6
 70
     1
 10
0.0
 20
0.0
 30
0.0
  3
*D6
  1

  0
LINE
  5
7E93
  8
0
  6
BYBLOCK
 62
     0
 10
1804.1089569999999
 20
1879.432675
 30
0.0
 11
2067.3838340000002
 21
1879.432675
 31
0.0
  0
LINE
  5
7E94
  8
0
  6
BYBLOCK
 62
     0
 10
2047.383834
 20
2006.432675
 30
0.0
 11
2047.383834
 21
2046.432675
 31
0.0
  0
LINE
  5
7E95
  8
0
  6
BYBLOCK
 62
     0
 10
2047.383834
 20
1839.432675
 30
0.0
 11
2047.383834
 21
1799.432675
 31
0.0
  0
TEXT
  5
7E96
  8
3
 62
     0
 10
2155.1638687751501
 20
1878.4742824285711
 30
0.0
 40
60.0
  1
87
 50
90.0
  0
LINE
  5
7E97
  8
0
  6
BYBLOCK
 62
     0
 10
2047.383834
 20
1966.432675
 30
0.0
 11
2047.383834
 21
1879.432675
 31
0.0
  0
INSERT
  5
7E98
  8
0
  6
BYBLOCK
 62
     0
  2
_OPEN
 10
2047.383834
 20
1966.432675
 30
0.0
 41
40.0
 42
40.0
 43
40.0
 50
270.0
  0
INSERT
  5
7E99
  8
0
  6
BYBLOCK
 62
     0
  2
_DOT
 10
2047.383834
 20
1879.432675
 30
0.0
 41
40.0
 42
40.0
 43
40.0
 50
90.0
  0
POINT
  5
7E9A
  8
DEFPOINTS
  6
BYBLOCK
 62
     0
 10
1794.108956999999
 20
1966.432675
 30
0.0
  0
POINT
  5
7E9B
  8
DEFPOINTS
  6
BYBLOCK
 62
     0
 10
1794.108956999999
 20
1879.432675
 30
0.0
  0
POINT
  5
7E9C
  8
DEFPOINTS
  6
BYBLOCK
 62
     0
 10
2047.383834
 20
1879.432675
 30
0.0
  0
ENDBLK
  5
7E9D
  8
0
  0
BLOCK
  8
0
  2
*D7
 70
     1
 10
0.0
 20
0.0
 30
0.0
  3
*D7
  1

  0
LINE
  5
7F2C
  8
3
  6
CONTINUOUS
 62
     0
 10
1593.1089569999999
 20
2686.432675
 30
0.0
 11
2204.5114309999999
 21
2686.432675
 31
0.0
  0
LINE
  5
7F2D
  8
3
  6
CONTINUOUS
 62
     0
 10
1804.1089569999999
 20
1839.432675
 30
0.0
 11
2204.5114309999999
 21
1839.432675
 31
0.0
  0
LINE
  5
7F2E
  8
3
  6
CONTINUOUS
 62
     0
 10
2184.5114309999999
 20
2646.432675
 30
0.0
 11
2184.5114309999999
 21
1879.432675
 31
0.0
  0
INSERT
  5
7F2F
  8
3
  6
CONTINUOUS
 62
     0
  2
_OPEN
 10
2184.5114309999999
 20
2686.432675
 30
0.0
 41
40.0
 42
40.0
 43
40.0
 50
90.0
  0
INSERT
  5
7F30
  8
3
  6
CONTINUOUS
 62
     0
  2
_OPEN
 10
2184.5114309999999
 20
1839.432675
 30
0.0
 41
40.0
 42
40.0
 43
40.0
 50
270.0
  0
TEXT
  8
3
  40
60
  5
7FA1
  62
0
  72
0
  71
0
 10
2014.51
 20
2149.93
 30
0.000000
  1
847
  0
POINT
  5
7F32
  8
DEFPOINTS
  6
CONTINUOUS
 62
     0
 10
1583.1089569999999
 20
2686.432675
 30
0.0
  0
POINT
  5
7F33
  8
DEFPOINTS
  6
CONTINUOUS
 62
     0
 10
1794.108956999999
 20
1839.432675
 30
0.0
  0
POINT
  5
7F34
  8
DEFPOINTS
  6
CONTINUOUS
 62
     0
 10
2184.5114309999999
 20
1839.432675
 30
0.0
  0
ENDBLK
  5
7B95
  8
0
  0
BLOCK
  8
0
  2
*D8
 70
     1
 10
0.0
 20
0.0
 30
0.0
  3
*D8
  1

  0
LINE
  5
7F35
  8
3
  6
CONTINUOUS
 62
     0
 10
794.10895700000003
 20
1829.4326749999991
 30
0.0
 11
794.10895700000003
 21
1683.953643094824
 31
0.0
  0
LINE
  5
7F36
  8
3
  6
CONTINUOUS
 62
     0
 10
1534.108956999999
 20
1724.2342900948231
 30
0.0
 11
1534.108956999999
 21
1683.953643094824
 31
0.0
  0
LINE
  5
7F37
  8
3
  6
CONTINUOUS
 62
     0
 10
834.10895700000015
 20
1703.9536430948231
 30
0.0
 11
1494.108956999999
 21
1703.9536430948231
 31
0.0
  0
INSERT
  5
7F38
  8
3
  6
CONTINUOUS
 62
     0
  2
_OPEN
 10
794.10895700000003
 20
1703.9536430948231
 30
0.0
 41
40.0
 42
40.0
 43
40.0
 50
180.0
  0
INSERT
  5
7F39
  8
3
  6
CONTINUOUS
 62
     0
  2
_OPEN
 10
1534.108956999999
 20
1703.9536430948231
 30
0.0
 41
40.0
 42
40.0
 43
40.0
  0
TEXT
  8
3
  40
60
  5
7FA2
  62
0
  72
0
  71
0
 10
1039.77
 20
1647.75
 30
0.000000
  1
740
  0
POINT
  5
7F3B
  8
DEFPOINTS
  6
CONTINUOUS
 62
     0
 10
794.10895700000003
 20
1839.432675
 30
0.0
  0
POINT
  5
7F3C
  8
DEFPOINTS
  6
CONTINUOUS
 62
     0
 10
1534.108956999999
 20
1734.2342900948231
 30
0.0
  0
POINT
  5
7F3D
  8
DEFPOINTS
  6
CONTINUOUS
 62
     0
 10
1534.108956999999
 20
1703.9536430948231
 30
0.0
  0
ENDBLK
  5
7E39
  8
0
  0
BLOCK
  8
0
  2
*D9
 70
     1
 10
0.0
 20
0.0
 30
0.0
  3
*D9
  1

  0
LINE
  5
7F3E
  8
3
  6
CONTINUOUS
 62
     0
 10
1794.108956999999
 20
1829.4326749999991
 30
0.0
 11
1794.108956999999
 21
1683.953643094824
 31
0.0
  0
LINE
  5
7F3F
  8
3
  6
CONTINUOUS
 62
     0
 10
1574.108956999999
 20
1703.9536430948231
 30
0.0
 11
1754.1089569999999
 21
1703.9536430948231
 31
0.0
  0
TEXT
  8
3
  40
60
  5
7FA3
  62
0
  72
0
  71
0
 10
1552.47
 20
1647.28
 30
0.000000
  1
260
  0
INSERT
  5
7F41
  8
3
  6
CONTINUOUS
 62
     0
  2
_OPEN
 10
1534.108956999999
 20
1703.9536430948231
 30
0.0
 41
40.0
 42
40.0
 43
40.0
 50
180.0
  0
INSERT
  5
7F42
  8
3
  6
CONTINUOUS
 62
     0
  2
_OPEN
 10
1794.108956999999
 20
1703.9536430948231
 30
0.0
 41
40.0
 42
40.0
 43
40.0
  0
POINT
  5
7F43
  8
DEFPOINTS
  6
CONTINUOUS
 62
     0
 10
1534.108956999999
 20
1734.2342900948231
 30
0.0
  0
POINT
  5
7F44
  8
DEFPOINTS
  6
CONTINUOUS
 62
     0
 10
1794.108956999999
 20
1839.432675
 30
0.0
  0
POINT
  5
7F45
  8
DEFPOINTS
  6
CONTINUOUS
 62
     0
 10
1794.108956999999
 20
1703.9536430948231
 30
0.0
  0
ENDBLK
  5
7E43
  8
0
  0
BLOCK
  8
0
  2
*D10
 70
     1
 10
0.0
 20
0.0
 30
0.0
  3
*D10
  1

  0
LINE
  5
7F46
  8
3
  6
CONTINUOUS
 62
     0
 10
2482.5267389999999
 20
1829.4326749999991
 30
0.0
 11
2482.5267389999999
 21
1657.1352890000001
 31
0.0
  0
LINE
  5
7F47
  8
3
  6
CONTINUOUS
 62
     0
 10
2818.5267389999999
 20
1746.313017902934
 30
0.0
 11
2818.5267389999999
 21
1657.1352890000001
 31
0.0
  0
LINE
  5
7F48
  8
3
  6
CONTINUOUS
 62
     0
 10
2522.526738999999
 20
1677.1352889999989
 30
0.0
 11
2778.5267389999999
 21
1677.1352889999989
 31
0.0
  0
INSERT
  5
7F49
  8
3
  6
CONTINUOUS
 62
     0
  2
_OPEN
 10
2482.5267389999999
 20
1677.1352889999989
 30
0.0
 41
40.0
 42
40.0
 43
40.0
 50
180.0
  0
INSERT
  5
7F4A
  8
3
  6
CONTINUOUS
 62
     0
  2
_OPEN
 10
2818.5267389999999
 20
1677.1352889999989
 30
0.0
 41
40.0
 42
40.0
 43
40.0
  0
TEXT
  8
3
  40
60
  5
7FA4
  62
0
  72
0
  71
0
 10
2532.69
 20
1620.94
 30
0.000000
  1
336
  0
POINT
  5
7F4C
  8
DEFPOINTS
  6
CONTINUOUS
 62
     0
 10
2482.5267389999999
 20
1839.432675
 30
0.0
  0
POINT
  5
7F4D
  8
DEFPOINTS
  6
CONTINUOUS
 62
     0
 10
2818.5267389999999
 20
1756.3130179029331
 30
0.0
  0
POINT
  5
7F4E
  8
DEFPOINTS
  6
CONTINUOUS
 62
     0
 10
2818.5267389999999
 20
1677.1352889999989
 30
0.0
  0
ENDBLK
  5
7E2E
  8
0
  0
BLOCK
  8
0
  2
*D11
 70
     1
 10
0.0
 20
0.0
 30
0.0
  3
*D11
  1

  0
LINE
  5
7F4F
  8
3
  6
CONTINUOUS
 62
     0
 10
3092.5267389999999
 20
1829.4326749999991
 30
0.0
 11
3092.5267389999999
 21
1657.1352890000001
 31
0.0
  0
LINE
  5
7F50
  8
3
  6
CONTINUOUS
 62
     0
 10
2858.5267389999999
 20
1677.1352889999989
 30
0.0
 11
3052.5267389999999
 21
1677.1352889999989
 31
0.0
  0
TEXT
  8
3
  40
60
  5
7FA5
  62
0
  72
0
  71
0
 10
2858.76
 20
1620.14
 30
0.000000
  1
274
  0
INSERT
  5
7F52
  8
3
  6
CONTINUOUS
 62
     0
  2
_OPEN
 10
2818.5267389999999
 20
1677.1352889999989
 30
0.0
 41
40.0
 42
40.0
 43
40.0
 50
180.0
  0
INSERT
  5
7F53
  8
3
  6
CONTINUOUS
 62
     0
  2
_OPEN
 10
3092.5267389999999
 20
1677.1352889999989
 30
0.0
 41
40.0
 42
40.0
 43
40.0
  0
POINT
  5
7F54
  8
DEFPOINTS
  6
CONTINUOUS
 62
     0
 10
2818.5267389999999
 20
1756.3130179029331
 30
0.0
  0
POINT
  5
7F55
  8
DEFPOINTS
  6
CONTINUOUS
 62
     0
 10
3092.5267389999999
 20
1839.432675
 30
0.0
  0
POINT
  5
7F56
  8
DEFPOINTS
  6
CONTINUOUS
 62
     0
 10
3092.5267389999999
 20
1677.1352889999989
 30
0.0
  0
ENDBLK
  5
7E18
  8
0
  0
BLOCK
  8
0
  2
*D12
 70
     1
 10
0.0
 20
0.0
 30
0.0
  3
*D12
  1

  0
LINE
  5
7F57
  8
3
  6
CONTINUOUS
 62
     0
 10
2968.526738999999
 20
2696.432675
 30
0.0
 11
2968.526738999999
 21
2773.5953549999999
 31
0.0
  0
LINE
  5
7F58
  8
3
  6
CONTINUOUS
 62
     0
 10
2668.5267389999999
 20
2696.432675
 30
0.0
 11
2668.5267389999999
 21
2773.5953549999999
 31
0.0
  0
LINE
  5
7F59
  8
3
  6
CONTINUOUS
 62
     0
 10
3008.5267389999999
 20
2753.595354999999
 30
0.0
 11
3048.5267389999999
 21
2753.595354999999
 31
0.0
  0
LINE
  5
7F5A
  8
3
  6
CONTINUOUS
 62
     0
 10
2628.5267389999999
 20
2753.595354999999
 30
0.0
 11
2588.5267389999999
 21
2753.595354999999
 31
0.0
  0
LINE
  5
7F5B
  8
3
  6
CONTINUOUS
 62
     0
 10
2968.526738999999
 20
2753.595354999999
 30
0.0
 11
2668.5267389999999
 21
2753.595354999999
 31
0.0
  0
INSERT
  5
7F5C
  8
3
  6
CONTINUOUS
 62
     0
  2
_OPEN
 10
2968.526738999999
 20
2753.595354999999
 30
0.0
 41
40.0
 42
40.0
 43
40.0
 50
180.0
  0
INSERT
  5
7F5D
  8
3
  6
CONTINUOUS
 62
     0
  2
_OPEN
 10
2668.5267389999999
 20
2753.595354999999
 30
0.0
 41
40.0
 42
40.0
 43
40.0
  0
TEXT
  8
3
  40
60
  5
7FA6
  62
0
  72
0
  71
0
 10
2685.67
 20
2697.40
 30
0.000000
  1
300
  0
POINT
  5
7F5F
  8
DEFPOINTS
  6
CONTINUOUS
 62
     0
 10
2968.526738999999
 20
2686.432675
 30
0.0
  0
POINT
  5
7F60
  8
DEFPOINTS
  6
CONTINUOUS
 62
     0
 10
2668.5267389999999
 20
2686.432675
 30
0.0
  0
POINT
  5
7F61
  8
DEFPOINTS
  6
CONTINUOUS
 62
     0
 10
2668.5267389999999
 20
2753.595354999999
 30
0.0
  0
ENDBLK
  5
7CD7
  8
0
  0
BLOCK
  8
0
  2
*D13
 70
     1
 10
0.0
 20
0.0
 30
0.0
  3
*D13
  1

  0
LINE
  5
7F62
  8
3
  6
CONTINUOUS
 62
     0
 10
2488.5267389999999
 20
2711.432675
 30
0.0
 11
2488.5267389999999
 21
2895.8108090000001
 31
0.0
  0
LINE
  5
7F63
  8
3
  6
CONTINUOUS
 62
     0
 10
2778.5267389999999
 20
2875.8108090000001
 30
0.0
 11
2528.5267389999999
 21
2875.8108090000001
 31
0.0
  0
INSERT
  5
7F64
  8
3
  6
CONTINUOUS
 62
     0
  2
_OPEN
 10
2818.5267389999999
 20
2875.8108090000001
 30
0.0
 41
40.0
 42
40.0
 43
40.0
  0
INSERT
  5
7F65
  8
3
  6
CONTINUOUS
 62
     0
  2
_OPEN
 10
2488.5267389999999
 20
2875.8108090000001
 30
0.0
 41
40.0
 42
40.0
 43
40.0
 50
180.0
  0
TEXT
  8
3
  40
60
  5
7FA7
  62
0
  72
0
  71
0
 10
2533.53
 20
2869.61
 30
0.000000
  1
MAX
  0
TEXT
  8
3
  40
60
  5
7FA8
  62
0
  72
0
  71
0
 10
2533.53
 20
2791.61
 30
0.000000
  1
380
  0
POINT
  5
7F67
  8
DEFPOINTS
  6
CONTINUOUS
 62
     0
 10
2818.5267389999999
 20
2841.538561299541
 30
0.0
  0
POINT
  5
7F68
  8
DEFPOINTS
  6
CONTINUOUS
 62
     0
 10
2488.5267389999999
 20
2701.432675
 30
0.0
  0
POINT
  5
7F69
  8
DEFPOINTS
  6
CONTINUOUS
 62
     0
 10
2488.5267389999999
 20
2875.8108090000001
 30
0.0
  0
ENDBLK
  5
7EB9
  8
0
  0
BLOCK
  8
0
  2
*D14
 70
     1
 10
0.0
 20
0.0
 30
0.0
  3
*D14
  1

  0
LINE
  5
7F6A
  8
3
  6
CONTINUOUS
 62
     0
 10
2978.5267389999999
 20
2601.432675
 30
0.0
 11
3171.5323530000001
 21
2601.4326749999991
 31
0.0
  0
LINE
  5
7F6B
  8
3
  6
CONTINUOUS
 62
     0
 10
2978.5267389999999
 20
2171.432675
 30
0.0
 11
3171.5323530000001
 21
2171.4326749999991
 31
0.0
  0
LINE
  5
7F6C
  8
3
  6
CONTINUOUS
 62
     0
 10
3151.5323530000001
 20
2561.4326749999991
 30
0.0
 11
3151.5323530000001
 21
2211.4326749999991
 31
0.0
  0
INSERT
  5
7F6D
  8
3
  6
CONTINUOUS
 62
     0
  2
_OPEN
 10
3151.5323530000001
 20
2601.4326749999991
 30
0.0
 41
40.0
 42
40.0
 43
40.0
 50
90.0
  0
INSERT
  5
7F6E
  8
3
  6
CONTINUOUS
 62
     0
  2
_OPEN
 10
3151.5323530000001
 20
2171.4326749999991
 30
0.0
 41
40.0
 42
40.0
 43
40.0
 50
270.0
  0
TEXT
  8
3
  40
60
  5
7FA9
  62
0
  72
0
  71
0
 10
2981.53
 20
2279.74
 30
0.000000
  1
φ430
  0
POINT
  5
7F70
  8
DEFPOINTS
  6
CONTINUOUS
 62
     0
 10
2968.526738999999
 20
2601.432675
 30
0.0
  0
POINT
  5
7F71
  8
DEFPOINTS
  6
CONTINUOUS
 62
     0
 10
2968.526738999999
 20
2171.432675
 30
0.0
  0
POINT
  5
7F72
  8
DEFPOINTS
  6
CONTINUOUS
 62
     0
 10
3151.5323530000001
 20
2171.4326749999991
 30
0.0
  0
ENDBLK
  5
7DA2
  8
0
  0
BLOCK
  8
0
  2
*D15
 70
     1
 10
0.0
 20
0.0
 30
0.0
  3
*D15
  1

  0
LINE
  5
7F73
  8
3
  6
CONTINUOUS
 62
     0
 10
794.10895700000003
 20
4035.2026749999991
 30
0.0
 11
794.10895700000003
 21
4151.1801150000001
 31
0.0
  0
LINE
  5
7F74
  8
3
  6
CONTINUOUS
 62
     0
 10
1794.108956999999
 20
4035.2026749999991
 30
0.0
 11
1794.108956999999
 21
4151.1801150000001
 31
0.0
  0
LINE
  5
7F75
  8
3
  6
CONTINUOUS
 62
     0
 10
834.10895700000015
 20
4131.1801150000001
 30
0.0
 11
1754.1089569999999
 21
4131.1801150000001
 31
0.0
  0
INSERT
  5
7F76
  8
3
  6
CONTINUOUS
 62
     0
  2
_OPEN
 10
794.10895700000003
 20
4131.1801150000001
 30
0.0
 41
40.0
 42
40.0
 43
40.0
 50
180.0
  0
INSERT
  5
7F77
  8
3
  6
CONTINUOUS
 62
     0
  2
_OPEN
 10
1794.108956999999
 20
4131.1801150000001
 30
0.0
 41
40.0
 42
40.0
 43
40.0
  0
TEXT
  8
3
  40
60
  5
7FAA
  62
0
  72
0
  71
0
 10
1168.34
 20
4074.98
 30
0.000000
  1
1000
  0
POINT
  5
7F79
  8
DEFPOINTS
  6
CONTINUOUS
 62
     0
 10
794.10895700000003
 20
4025.202675
 30
0.0
  0
POINT
  5
7F7A
  8
DEFPOINTS
  6
CONTINUOUS
 62
     0
 10
1794.108956999999
 20
4025.202675
 30
0.0
  0
POINT
  5
7F7B
  8
DEFPOINTS
  6
CONTINUOUS
 62
     0
 10
1794.108956999999
 20
4131.1801150000001
 30
0.0
  0
ENDBLK
  5
7CC1
  8
0
  0
BLOCK
  8
0
  2
*D16
 70
     1
 10
0.0
 20
0.0
 30
0.0
  3
*D16
  1

  0
LINE
  5
7F7C
  8
3
  6
CONTINUOUS
 62
     0
 10
784.10895700000003
 20
4025.202675
 30
0.0
 11
623.03249200000073
 21
4025.202675
 31
0.0
  0
LINE
  5
7F7D
  8
3
  6
CONTINUOUS
 62
     0
 10
784.10895700000003
 20
3415.2026749999991
 30
0.0
 11
623.03249200000062
 21
3415.2026749999991
 31
0.0
  0
LINE
  5
7F7E
  8
3
  6
CONTINUOUS
 62
     0
 10
643.03249200000073
 20
3985.202675
 30
0.0
 11
643.03249200000062
 21
3455.202675
 31
0.0
  0
INSERT
  5
7F7F
  8
3
  6
CONTINUOUS
 62
     0
  2
_OPEN
 10
643.03249200000073
 20
4025.202675
 30
0.0
 41
40.0
 42
40.0
 43
40.0
 50
90.0
  0
INSERT
  5
7F80
  8
3
  6
CONTINUOUS
 62
     0
  2
_OPEN
 10
643.03249200000062
 20
3415.2026749999991
 30
0.0
 41
40.0
 42
40.0
 43
40.0
 50
270.0
  0
TEXT
  8
3
  40
60
  5
7FAB
  62
0
  72
0
  71
0
 10
473.032
 20
3568.77
 30
0.000000
  1
610
  0
POINT
  5
7F82
  8
DEFPOINTS
  6
CONTINUOUS
 62
     0
 10
794.10895700000003
 20
4025.202675
 30
0.0
  0
POINT
  5
7F83
  8
DEFPOINTS
  6
CONTINUOUS
 62
     0
 10
794.10895700000003
 20
3415.2026749999991
 30
0.0
  0
POINT
  5
7F84
  8
DEFPOINTS
  6
CONTINUOUS
 62
     0
 10
643.03249200000062
 20
3415.2026749999991
 30
0.0
  0
ENDBLK
  5
7CCC
  8
0
  0
BLOCK
  8
0
  2
*D17
 70
     1
 10
0.0
 20
0.0
 30
0.0
  3
*D17
  1

  0
LINE
  5
7DBB
  8
0
  6
BYBLOCK
 62
     0
 10
2818.5267389999999
 20
2868.1182699999999
 30
0.0
 11
2818.5267389999999
 21
2895.8108090000001
 31
0.0
  0
LINE
  5
7DBC
  8
0
  6
BYBLOCK
 62
     0
 10
2969.526738999999
 20
2611.432675
 30
0.0
 11
2969.526738999999
 21
2895.8108090000001
 31
0.0
  0
LINE
  5
7DBD
  8
0
  6
BYBLOCK
 62
     0
 10
2858.5267389999999
 20
2875.8108090000001
 30
0.0
 11
2929.526738999999
 21
2875.8108090000001
 31
0.0
  0
TEXT
  5
7DBE
  8
3
 62
     0
 10
2827.6156218084352
 20
2896.7636388292831
 30
0.0
 40
60.0
  1
151
  0
INSERT
  5
7DBF
  8
0
  6
BYBLOCK
 62
     0
  2
_OPEN
 10
2818.5267389999999
 20
2875.8108090000001
 30
0.0
 41
40.0
 42
40.0
 43
40.0
 50
180.0
  0
INSERT
  5
7DC0
  8
0
  6
BYBLOCK
 62
     0
  2
_OPEN
 10
2969.526738999999
 20
2875.8108090000001
 30
0.0
 41
40.0
 42
40.0
 43
40.0
  0
POINT
  5
7DC1
  8
DEFPOINTS
  6
BYBLOCK
 62
     0
 10
2818.5267389999999
 20
2858.1182699999999
 30
0.0
  0
POINT
  5
7DC2
  8
DEFPOINTS
  6
BYBLOCK
 62
     0
 10
2969.526738999999
 20
2601.432675
 30
0.0
  0
POINT
  5
7DC3
  8
DEFPOINTS
  6
BYBLOCK
 62
     0
 10
2969.526738999999
 20
2875.8108090000001
 30
0.0
  0
ENDBLK
  5
7DC4
  8
0
  0
BLOCK
  8
0
  2
*D18
 70
     1
 10
0.0
 20
0.0
 30
0.0
  3
*D18
  1

  0
LINE
  5
7F85
  8
3
  6
CONTINUOUS
 62
     0
 10
1804.1089569999999
 20
1879.432675
 30
0.0
 11
2067.3838340000002
 21
1879.432675
 31
0.0
  0
LINE
  5
7F86
  8
3
  6
CONTINUOUS
 62
     0
 10
1804.1089569999999
 20
1839.432675
 30
0.0
 11
2067.3838340000002
 21
1839.432675
 31
0.0
  0
LINE
  5
7F87
  8
3
  6
CONTINUOUS
 62
     0
 10
2047.383834
 20
1919.432675
 30
0.0
 11
2047.383834
 21
1959.432675
 31
0.0
  0
LINE
  5
7F88
  8
3
  6
CONTINUOUS
 62
     0
 10
2047.383834
 20
1799.432675
 30
0.0
 11
2047.383834
 21
1622.2898178571429
 31
0.0
  0
LINE
  5
7F89
  8
3
  6
CONTINUOUS
 62
     0
 10
2047.383834
 20
1879.432675
 30
0.0
 11
2047.383834
 21
1839.432675
 31
0.0
  0
INSERT
  5
7F8A
  8
3
  6
CONTINUOUS
 62
     0
  2
_DOT
 10
2047.383834
 20
1879.432675
 30
0.0
 41
40.0
 42
40.0
 43
40.0
 50
270.0
  0
INSERT
  5
7F8B
  8
3
  6
CONTINUOUS
 62
     0
  2
_OPEN
 10
2047.383834
 20
1839.432675
 30
0.0
 41
40.0
 42
40.0
 43
40.0
 50
90.0
  0
TEXT
  8
3
  40
60
  5
7FAC
  62
0
  72
0
  71
0
 10
1877.38
 20
1584.66
 30
0.000000
  1
40
  0
POINT
  5
7F8D
  8
DEFPOINTS
  6
CONTINUOUS
 62
     0
 10
1794.108956999999
 20
1879.432675
 30
0.0
  0
POINT
  5
7F8E
  8
DEFPOINTS
  6
CONTINUOUS
 62
     0
 10
1794.108956999999
 20
1839.432675
 30
0.0
  0
POINT
  5
7F8F
  8
DEFPOINTS
  6
CONTINUOUS
 62
     0
 10
2047.383834
 20
1839.432675
 30
0.0
  0
ENDBLK
  5
7EAA
  8
0
  0
BLOCK
  8
0
  2
_DOT
 70
     0
 10
0.0
 20
0.0
 30
0.0
  3
_DOT
  1

  0
LINE
  5
7EAB
  8
0
  6
BYBLOCK
 62
     0
 10
0.0
 20
0.0
 30
0.0
 11
-1.0
 21
-0.0000000000000284
 31
0.0
  0
POLYLINE
  5
7EAC
  8
0
  6
BYBLOCK
 62
     0
 66
     1
 10
0.0
 20
0.0
 30
0.0
 70
     1
 40
0.1666666666666666
 41
0.1666666666666666
  0
VERTEX
  5
7F90
  8
0
  6
BYBLOCK
 62
     0
 10
-0.0833333333333286
 20
-0.0000000000000284
 30
0.0
 42
1.0
  0
VERTEX
  5
7F91
  8
0
  6
BYBLOCK
 62
     0
 10
0.0833333333333286
 20
-0.0000000000000284
 30
0.0
 42
1.0
  0
SEQEND
  5
7F92
  8
0
  6
BYBLOCK
 62
     0
  0
ENDBLK
  5
7E91
  8
0
  0
BLOCK
  8
0
  2
*D20
 70
     1
 10
0.0
 20
0.0
 30
0.0
  3
*D20
  1

  0
LINE
  5
7F93
  8
3
 62
     0
 10
1834.1089569999999
 20
2666.432675
 30
0.0
 11
1834.1089569999999
 21
3000.2589900856051
 31
0.0
  0
LINE
  5
7F94
  8
3
 62
     0
 10
794.10895700000003
 20
2056.4326749999991
 30
0.0
 11
794.10895700000015
 21
3000.2589900856051
 31
0.0
  0
LINE
  5
7F95
  8
3
 62
     0
 10
1794.108956999999
 20
2980.2589900856051
 30
0.0
 11
834.10895700000015
 21
2980.2589900856051
 31
0.0
  0
INSERT
  5
7F96
  8
3
 62
     0
  2
_OPEN
 10
1834.1089569999999
 20
2980.2589900856051
 30
0.0
 41
40.0
 42
40.0
 43
40.0
  0
INSERT
  5
7F97
  8
3
 62
     0
  2
_OPEN
 10
794.10895700000015
 20
2980.2589900856051
 30
0.0
 41
40.0
 42
40.0
 43
40.0
 50
180.0
  0
TEXT
  8
3
  40
60
  5
7FAD
  62
0
  72
0
  71
0
 10
1203.52
 20
2924.06
 30
0.000000
  1
1040
  0
POINT
  5
7F99
  8
DEFPOINTS
 62
     0
 10
1834.1089569999999
 20
2656.432675
 30
0.0
  0
POINT
  5
7F9A
  8
DEFPOINTS
 62
     0
 10
794.10895700000003
 20
2046.432675
 30
0.0
  0
POINT
  5
7F9B
  8
DEFPOINTS
 62
     0
 10
794.10895700000015
 20
2980.2589900856051
 30
0.0
  0
ENDBLK
  5
7EDB
  8
0
  0
ENDSEC
  0
SECTION
  2
ENTITIES
  0
LINE
  5
7A7B
  8
1
  6
CONTINUOUS
 10
2624.5267389999999
 20
1944.432675
 30
0.0
 11
3012.5267389999999
 21
1944.432675
 31
0.0
  0
LINE
  5
7A7C
  8
1
  6
CONTINUOUS
 10
2482.5267389999999
 20
1879.432675
 30
0.0
 11
3092.5267389999999
 21
1879.432675
 31
0.0
  0
LINE
  5
7A7D
  8
1
  6
CONTINUOUS
 10
2968.526738999999
 20
2666.432675
 30
0.0
 11
2668.5267389999999
 21
2666.432675
 31
0.0
  0
LINE
  5
7A7E
  8
1
  6
CONTINUOUS
 10
2968.526738999999
 20
2046.432675
 30
0.0
 11
2668.5267389999999
 21
2046.432675
 31
0.0
  0
LINE
  5
7A7F
  8
1
  6
CONTINUOUS
 10
2995.5267389999999
 20
2686.432675
 30
0.0
 11
2641.5267389999999
 21
2686.432675
 31
0.0
  0
LINE
  5
7A80
  8
1
  6
CONTINUOUS
 10
3012.5267389999999
 20
2046.432675
 30
0.0
 11
2488.5267389999999
 21
2046.432675
 31
0.0
  0
LINE
  5
7A81
  8
1
  6
CONTINUOUS
 10
3012.5267389999999
 20
1966.432675
 30
0.0
 11
2624.5267389999999
 21
1966.432675
 31
0.0
  0
LINE
  5
7A82
  8
1
  6
CONTINUOUS
 10
3092.5267389999999
 20
1839.432675
 30
0.0
 11
2482.5267389999999
 21
1839.432675
 31
0.0
  0
LINE
  5
7A83
  8
1
  6
CONTINUOUS
 10
794.10895700000003
 20
1944.432675
 30
0.0
 11
1794.108956999999
 21
1944.432675
 31
0.0
  0
LINE
  5
7A84
  8
1
  6
CONTINUOUS
 10
794.10895700000003
 20
1879.432675
 30
0.0
 11
1794.108956999999
 21
1879.432675
 31
0.0
  0
LINE
  5
7A85
  8
1
  6
CONTINUOUS
 10
1573.1089569999999
 20
2686.432675
 30
0.0
 11
1119.108956999999
 21
2686.432675
 31
0.0
  0
ARC
  5
7A86
  8
1
  6
CONTINUOUS
 10
1507.108956999999
 20
2413.432675
 30
0.0
 40
360.00999999999988
 50
184.2999999999999
 51
275.82999999999993
  0
LINE
  5
7A87
  8
1
  6
CONTINUOUS
 10
794.10895700000003
 20
2046.432675
 30
0.0
 11
1834.1089569999999
 21
2046.432675
 31
0.0
  0
LINE
  5
7A88
  8
1
  6
CONTINUOUS
 10
1546.1089569999999
 20
2666.432675
 30
0.0
 11
1146.248957
 21
2666.432675
 31
0.0
  0
LINE
  5
7A89
  8
1
  6
CONTINUOUS
 10
1519.608956999999
 20
2701.432675
 30
0.0
 11
839.60895700000003
 21
2296.432675
 31
0.0
  0
LINE
  5
7A8A
  8
1
  6
CONTINUOUS
 10
1794.108956999999
 20
1966.432675
 30
0.0
 11
794.10895700000003
 21
1966.432675
 31
0.0
  0
LINE
  5
7A8B
  8
1
  6
CONTINUOUS
 10
975.92895700000008
 20
2225.3526750000001
 30
0.0
 11
1490.2589569999991
 21
2476.302674999999
 31
0.0
  0
LINE
  5
7A8C
  8
1
  6
CONTINUOUS
 10
1565.0289569999991
 20
2291.3326750000001
 30
0.0
 11
1020.798957
 21
2114.3726750000001
 31
0.0
  0
LINE
  5
7A8D
  8
1
  6
CONTINUOUS
 10
839.60895700000003
 20
2046.432675
 30
0.0
 11
839.60895700000003
 21
2296.432675
 31
0.0
  0
CIRCLE
  5
7A8E
  8
1
  6
CONTINUOUS
 10
1002.238957
 20
2171.432675
 30
0.0
 40
60.0
  0
ARC
  5
7A8F
  8
1
  6
CONTINUOUS
 10
1002.238957
 20
2171.432675
 30
0.0
 40
101.0
 50
322.88
 51
217.12
  0
LINE
  5
7A90
  8
2
  6
CENTER
 10
1002.238957
 20
2111.432675
 30
0.0
 11
1002.238957
 21
2231.432675
 31
0.0
  0
LINE
  5
7A91
  8
1
  6
CONTINUOUS
 10
794.10895700000003
 20
1944.432675
 30
0.0
 11
794.10895700000003
 21
1839.432675
 31
0.0
  0
LINE
  5
7A92
  8
1
  6
CONTINUOUS
 10
794.10895700000003
 20
2046.432675
 30
0.0
 11
794.10895700000003
 21
1966.432675
 31
0.0
  0
LINE
  5
7A93
  8
1
  6
CONTINUOUS
 10
834.10895700000015
 20
1879.432675
 30
0.0
 11
834.10895700000015
 21
1839.432675
 31
0.0
  0
LINE
  5
7A94
  8
1
  6
CONTINUOUS
 10
794.10895700000003
 20
1839.432675
 30
0.0
 11
834.10895700000015
 21
1839.432675
 31
0.0
  0
LINE
  5
7A95
  8
2
  6
CENTER
 10
942.23895699999991
 20
2171.432675
 30
0.0
 11
1062.238957
 21
2171.432675
 31
0.0
  0
LINE
  5
7A96
  8
1
  6
CONTINUOUS
 10
902.23895699999991
 20
2046.432675
 30
0.0
 11
902.23895699999991
 21
2083.432675
 31
0.0
  0
LINE
  5
7A97
  8
1
  6
CONTINUOUS
 10
902.23895699999991
 20
2083.432675
 30
0.0
 11
921.70895700000005
 21
2110.472675
 31
0.0
  0
LINE
  5
7A98
  8
1
  6
CONTINUOUS
 10
1102.2389569999989
 20
2083.432675
 30
0.0
 11
1082.778957
 21
2110.472675
 31
0.0
  0
LINE
  5
7A99
  8
1
  6
CONTINUOUS
 10
1102.2389569999989
 20
2046.432675
 30
0.0
 11
1102.2389569999989
 21
2083.432675
 31
0.0
  0
LINE
  5
7A9A
  8
1
  6
CONTINUOUS
 10
1146.108956999999
 20
2686.432675
 30
0.0
 11
1148.1089569999999
 21
2386.432675
 31
0.0
  0
CIRCLE
  5
7A9B
  8
1
  6
CONTINUOUS
 10
1534.108956999999
 20
2386.432675
 30
0.0
 40
240.0
  0
ARC
  5
7A9C
  8
1
  6
CONTINUOUS
 10
1512.108956999999
 20
2364.432675
 30
0.0
 40
310.75999999999999
 50
275.82999999999993
 51
7.3099999999999996
  0
ARC
  5
7A9D
  8
1
  6
CONTINUOUS
 10
1551.1089569999999
 20
2369.432675
 30
0.0
 40
271.43999999999988
 50
7.3099999999999996
 51
91.060000000000016
  0
LINE
  5
7A9E
  8
1
  6
CONTINUOUS
 10
1234.1089569999999
 20
2656.432675
 30
0.0
 11
1834.1089569999999
 21
2656.432675
 31
0.0
  0
LINE
  5
7A9F
  8
1
  6
CONTINUOUS
 10
1794.108956999999
 20
1839.432675
 30
0.0
 11
1754.1089569999999
 21
1839.432675
 31
0.0
  0
LINE
  5
7AA0
  8
1
  6
CONTINUOUS
 10
1234.1089569999999
 20
2656.432675
 30
0.0
 11
1234.1089569999999
 21
2046.432675
 31
0.0
  0
LINE
  5
7AA1
  8
1
  6
CONTINUOUS
 10
1709.6089569999999
 20
2046.432675
 30
0.0
 11
1709.6089569999999
 21
2586.432675
 31
0.0
  0
CIRCLE
  5
7AA2
  8
1
  6
CONTINUOUS
 10
1534.108956999999
 20
2386.432675
 30
0.0
 40
215.0
  0
LINE
  5
7AA3
  8
1
  6
CONTINUOUS
 10
1754.1089569999999
 20
1879.432675
 30
0.0
 11
1754.1089569999999
 21
1839.432675
 31
0.0
  0
LINE
  5
7AA4
  8
2
  6
CENTER
 10
872.62383293583105
 20
2386.432675
 30
0.0
 11
2039.396696
 21
2386.432675
 31
0.0
  0
CIRCLE
  5
7AA5
  8
1
  6
CONTINUOUS
 10
1534.108956999999
 20
2386.432675
 30
0.0
 40
100.0
  0
LINE
  5
7AA6
  8
1
  6
CONTINUOUS
 10
1546.1089569999999
 20
2640.8226749999999
 30
0.0
 11
1546.1089569999999
 21
2686.432675
 31
0.0
  0
LINE
  5
7AA7
  8
1
  6
CONTINUOUS
 10
1709.6089569999999
 20
2586.432675
 30
0.0
 11
1519.608956999999
 21
2701.432675
 31
0.0
  0
LINE
  5
7AA8
  8
2
  6
CENTER
 10
1534.108956999999
 20
3984.7185170602861
 30
0.0
 11
1534.108956999999
 21
3326.5376900000001
 31
0.0
  0
LINE
  5
7AA9
  8
1
  6
CONTINUOUS
 10
2668.5267389999999
 20
2046.432675
 30
0.0
 11
2668.5267389999999
 21
2686.432675
 31
0.0
  0
LINE
  5
7AAA
  8
1
  6
CONTINUOUS
 10
2513.5267389999999
 20
2111.432675
 30
0.0
 11
2513.5267389999999
 21
2231.432675
 31
0.0
  0
LINE
  5
7AAB
  8
1
  6
CONTINUOUS
 10
2563.5267389999999
 20
2111.432675
 30
0.0
 11
2563.5267389999999
 21
2231.432675
 31
0.0
  0
LINE
  5
7AAC
  8
1
  6
CONTINUOUS
 10
2588.5267389999999
 20
2046.432675
 30
0.0
 11
2588.5267389999999
 21
2701.432675
 31
0.0
  0
LINE
  5
7AAD
  8
1
  6
CONTINUOUS
 10
2488.5267389999999
 20
2046.432675
 30
0.0
 11
2488.5267389999999
 21
2701.432675
 31
0.0
  0
LINE
  5
7AAE
  8
1
  6
CONTINUOUS
 10
1834.1089569999999
 20
2656.432675
 30
0.0
 11
1834.1089569999999
 21
2046.432675
 31
0.0
  0
LINE
  5
7AB3
  8
1
  6
CONTINUOUS
 10
1794.108956999999
 20
1944.432675
 30
0.0
 11
1794.108956999999
 21
1839.432675
 31
0.0
  0
LINE
  5
7AB4
  8
1
  6
CONTINUOUS
 10
1794.108956999999
 20
2046.432675
 30
0.0
 11
1794.108956999999
 21
1966.432675
 31
0.0
  0
LINE
  5
7AB5
  8
1
  6
CONTINUOUS
 10
2563.5267389999999
 20
2157.432675
 30
0.0
 11
2668.5267389999999
 21
2157.432675
 31
0.0
  0
LINE
  5
7AB6
  8
1
  6
CONTINUOUS
 10
2563.5267389999999
 20
2185.432675
 30
0.0
 11
2668.5267389999999
 21
2185.432675
 31
0.0
  0
LINE
  5
7AB7
  8
1
  6
CONTINUOUS
 10
2513.5267389999999
 20
2111.432675
 30
0.0
 11
2563.5267389999999
 21
2111.432675
 31
0.0
  0
LINE
  5
7AB8
  8
1
  6
CONTINUOUS
 10
2482.5267389999999
 20
1879.432675
 30
0.0
 11
2482.5267389999999
 21
1839.432675
 31
0.0
  0
LINE
  5
7AB9
  8
1
  6
CONTINUOUS
 10
2624.5267389999999
 20
1944.432675
 30
0.0
 11
2624.5267389999999
 21
1879.432675
 31
0.0
  0
LINE
  5
7ABA
  8
1
  6
CONTINUOUS
 10
2624.5267389999999
 20
2046.432675
 30
0.0
 11
2624.5267389999999
 21
1966.432675
 31
0.0
  0
LINE
  5
7ABB
  8
1
  6
CONTINUOUS
 10
2563.5267389999999
 20
2374.1926749999989
 30
0.0
 11
2668.5267389999999
 21
2374.1926749999989
 31
0.0
  0
LINE
  5
7ABC
  8
1
  6
CONTINUOUS
 10
2563.5267389999999
 20
2402.1926749999998
 30
0.0
 11
2668.5267389999999
 21
2402.1926749999998
 31
0.0
  0
LINE
  5
7ABD
  8
1
  6
CONTINUOUS
 10
2513.5267389999999
 20
2284.662675
 30
0.0
 11
2563.5267389999999
 21
2284.662675
 31
0.0
  0
LINE
  5
7ABE
  8
1
  6
CONTINUOUS
 10
2513.5267389999999
 20
2488.1926749999998
 30
0.0
 11
2563.5267389999999
 21
2488.1926749999998
 31
0.0
  0
LINE
  5
7ABF
  8
1
  6
CONTINUOUS
 10
2513.5267389999999
 20
2284.662675
 30
0.0
 11
2513.5267389999999
 21
2488.1926749999998
 31
0.0
  0
LINE
  5
7AC0
  8
1
  6
CONTINUOUS
 10
2563.5267389999999
 20
2284.662675
 30
0.0
 11
2563.5267389999999
 21
2488.1926749999998
 31
0.0
  0
LINE
  5
7AC1
  8
1
  6
CONTINUOUS
 10
2513.5267389999999
 20
2231.432675
 30
0.0
 11
2563.5267389999999
 21
2231.432675
 31
0.0
  0
LINE
  5
7AC2
  8
1
  6
CONTINUOUS
 10
2488.5267389999999
 20
2701.432675
 30
0.0
 11
2588.5267389999999
 21
2701.432675
 31
0.0
  0
LINE
  5
7AC3
  8
1
  6
CONTINUOUS
 10
1145.038957
 20
3601.202675
 30
0.0
 11
1545.038957
 21
3901.202675
 31
0.0
  0
LINE
  5
7AC4
  8
1
  6
CONTINUOUS
 10
1545.038957
 20
3601.202675
 30
0.0
 11
1145.038957
 21
3901.202675
 31
0.0
  0
LINE
  5
7AC5
  8
1
  6
CONTINUOUS
 10
839.60895700000003
 20
3521.202675
 30
0.0
 11
1709.6089569999999
 21
3521.202675
 31
0.0
  0
LINE
  5
7AC6
  8
1
  6
CONTINUOUS
 10
839.60895700000003
 20
3421.2026749999991
 30
0.0
 11
1709.6089569999999
 21
3421.2026749999991
 31
0.0
  0
LINE
  5
7AC7
  8
1
  6
CONTINUOUS
 10
1794.108956999999
 20
3945.202675
 30
0.0
 11
794.10895700000003
 21
3945.202675
 31
0.0
  0
LINE
  5
7AC8
  8
1
  6
CONTINUOUS
 10
1145.038957
 20
3901.202675
 30
0.0
 11
1834.1089569999999
 21
3901.202675
 31
0.0
  0
LINE
  5
7AC9
  8
1
  6
CONTINUOUS
 10
1145.038957
 20
3601.202675
 30
0.0
 11
1834.1089569999999
 21
3601.202675
 31
0.0
  0
LINE
  5
7ACA
  8
1
  6
CONTINUOUS
 10
1520.108956999999
 20
3557.202675
 30
0.0
 11
1016.238957
 21
3557.202675
 31
0.0
  0
LINE
  5
7ACB
  8
1
  6
CONTINUOUS
 10
794.10895700000003
 20
4025.202675
 30
0.0
 11
794.10895700000003
 21
3415.2026749999991
 31
0.0
  0
LINE
  5
7ACC
  8
1
  6
CONTINUOUS
 10
834.10895700000015
 20
4025.202675
 30
0.0
 11
834.10895700000015
 21
3945.202675
 31
0.0
  0
LINE
  5
7ACD
  8
1
  6
CONTINUOUS
 10
988.23895700000003
 20
3557.202675
 30
0.0
 11
794.10895700000003
 21
3557.202675
 31
0.0
  0
LINE
  5
7ACE
  8
1
  6
CONTINUOUS
 10
834.10895700000015
 20
3557.202675
 30
0.0
 11
834.10895700000015
 21
3415.2026749999991
 31
0.0
  0
LINE
  5
7ACF
  8
1
  6
CONTINUOUS
 10
839.60895700000003
 20
3421.2026749999991
 30
0.0
 11
839.60895700000003
 21
3521.202675
 31
0.0
  0
LINE
  5
7AD0
  8
1
  6
CONTINUOUS
 10
834.10895700000015
 20
3415.2026749999991
 30
0.0
 11
794.10895700000003
 21
3415.2026749999991
 31
0.0
  0
LINE
  5
7AD1
  8
1
  6
CONTINUOUS
 10
1016.238957
 20
3496.202675
 30
0.0
 11
1016.238957
 21
3587.9226749999998
 31
0.0
  0
LINE
  5
7AD2
  8
1
  6
CONTINUOUS
 10
988.23895700000003
 20
3496.202675
 30
0.0
 11
988.23895700000003
 21
3587.9226749999998
 31
0.0
  0
LINE
  5
7AD3
  8
1
  6
CONTINUOUS
 10
942.23895699999991
 20
3496.202675
 30
0.0
 11
1062.238957
 21
3496.202675
 31
0.0
  0
LINE
  5
7AD4
  8
1
  6
CONTINUOUS
 10
942.23895699999991
 20
3446.202675
 30
0.0
 11
1062.238957
 21
3446.202675
 31
0.0
  0
LINE
  5
7AD5
  8
1
  6
CONTINUOUS
 10
942.23895699999991
 20
3446.202675
 30
0.0
 11
942.23895699999991
 21
3496.202675
 31
0.0
  0
LINE
  5
7AD6
  8
1
  6
CONTINUOUS
 10
1062.238957
 20
3446.202675
 30
0.0
 11
1062.238957
 21
3496.202675
 31
0.0
  0
LINE
  5
7AD7
  8
1
  6
CONTINUOUS
 10
1103.238957
 20
3587.9226749999998
 30
0.0
 11
901.23895699999991
 21
3587.9226749999998
 31
0.0
  0
LINE
  5
7AD8
  8
1
  6
CONTINUOUS
 10
1103.238957
 20
3830.6026750000001
 30
0.0
 11
901.23895699999991
 21
3830.6026750000001
 31
0.0
  0
LINE
  5
7AD9
  8
1
  6
CONTINUOUS
 10
901.23895699999991
 20
3587.9226749999998
 30
0.0
 11
901.23895699999991
 21
3830.6026750000001
 31
0.0
  0
LINE
  5
7ADA
  8
1
  6
CONTINUOUS
 10
1103.238957
 20
3587.9226749999998
 30
0.0
 11
1103.238957
 21
3830.6026750000001
 31
0.0
  0
LINE
  5
7ADB
  8
1
  6
CONTINUOUS
 10
1145.038957
 20
3601.202675
 30
0.0
 11
1145.038957
 21
3901.202675
 31
0.0
  0
LINE
  5
7ADC
  8
1
  6
CONTINUOUS
 10
834.10895700000015
 20
4025.202675
 30
0.0
 11
794.10895700000003
 21
4025.202675
 31
0.0
  0
LINE
  5
7ADD
  8
1
  6
CONTINUOUS
 10
1794.108956999999
 20
3557.202675
 30
0.0
 11
1548.1089569999999
 21
3557.202675
 31
0.0
  0
LINE
  5
7ADE
  8
1
  6
CONTINUOUS
 10
1754.1089569999999
 20
4025.202675
 30
0.0
 11
1794.108956999999
 21
4025.202675
 31
0.0
  0
LINE
  5
7ADF
  8
1
  6
CONTINUOUS
 10
1754.1089569999999
 20
3415.2026749999991
 30
0.0
 11
1794.108956999999
 21
3415.2026749999991
 31
0.0
  0
LINE
  5
7AE0
  8
1
  6
CONTINUOUS
 10
1754.1089569999999
 20
4025.202675
 30
0.0
 11
1754.1089569999999
 21
3945.202675
 31
0.0
  0
LINE
  5
7AE1
  8
1
  6
CONTINUOUS
 10
1432.3489569999999
 20
3496.202675
 30
0.0
 11
1635.8789569999999
 21
3496.202675
 31
0.0
  0
LINE
  5
7AE2
  8
1
  6
CONTINUOUS
 10
1432.3489569999999
 20
3446.202675
 30
0.0
 11
1635.8789569999999
 21
3446.202675
 31
0.0
  0
LINE
  5
7AE3
  8
1
  6
CONTINUOUS
 10
1432.3489569999999
 20
3446.202675
 30
0.0
 11
1432.3489569999999
 21
3496.202675
 31
0.0
  0
LINE
  5
7AE4
  8
1
  6
CONTINUOUS
 10
1549.8789569999999
 20
3496.202675
 30
0.0
 11
1549.8789569999999
 21
3601.202675
 31
0.0
  0
LINE
  5
7AE5
  8
1
  6
CONTINUOUS
 10
1521.8789569999999
 20
3496.202675
 30
0.0
 11
1521.8789569999999
 21
3601.202675
 31
0.0
  0
LINE
  5
7AE6
  8
1
  6
CONTINUOUS
 10
1754.1089569999999
 20
3557.202675
 30
0.0
 11
1754.1089569999999
 21
3415.2026749999991
 31
0.0
  0
LINE
  5
7AE7
  8
1
  6
CONTINUOUS
 10
1635.8789569999999
 20
3446.202675
 30
0.0
 11
1635.8789569999999
 21
3496.202675
 31
0.0
  0
LINE
  5
7AE8
  8
1
  6
CONTINUOUS
 10
1709.6089569999999
 20
3421.2026749999991
 30
0.0
 11
1709.6089569999999
 21
3521.202675
 31
0.0
  0
LINE
  5
7AE9
  8
1
  6
CONTINUOUS
 10
1545.038957
 20
3601.202675
 30
0.0
 11
1545.038957
 21
3901.202675
 31
0.0
  0
LINE
  5
7AEA
  8
1
  6
CONTINUOUS
 10
1794.108956999999
 20
4025.202675
 30
0.0
 11
1794.108956999999
 21
3901.202675
 31
0.0
  0
LINE
  5
7AEB
  8
1
  6
CONTINUOUS
 10
1794.108956999999
 20
3601.202675
 30
0.0
 11
1794.108956999999
 21
3415.2026749999991
 31
0.0
  0
LINE
  5
7AEC
  8
1
  6
CONTINUOUS
 10
1834.1089569999999
 20
3601.202675
 30
0.0
 11
1834.1089569999999
 21
3901.202675
 31
0.0
  0
LINE
  5
7AED
  8
1
  6
CONTINUOUS
 10
2968.526738999999
 20
2046.432675
 30
0.0
 11
2968.526738999999
 21
2686.432675
 31
0.0
  0
LINE
  5
7AEE
  8
1
  6
CONTINUOUS
 10
3012.5267389999999
 20
1944.432675
 30
0.0
 11
3012.5267389999999
 21
1879.432675
 31
0.0
  0
LINE
  5
7AEF
  8
1
  6
CONTINUOUS
 10
3012.5267389999999
 20
2046.432675
 30
0.0
 11
3012.5267389999999
 21
1966.432675
 31
0.0
  0
LINE
  5
7AF0
  8
1
  6
CONTINUOUS
 10
3092.5267389999999
 20
1879.432675
 30
0.0
 11
3092.5267389999999
 21
1839.432675
 31
0.0
  0
LINE
  5
7AF1
  8
2
  6
CENTER
 10
2818.721732758328
 20
2760.5118187410721
 30
0.0
 11
2818.5267389999999
 21
1758.1767121671421
 31
0.0
  0
LINE
  5
7AF2
  8
2
  6
CENTER
 10
1882.0690180923259
 20
3751.202675
 30
0.0
 11
764.95277224702647
 21
3751.202675
 31
0.0
  0
LINE
  5
7AF3
  8
2
  6
CENTER
 10
1534.108956999999
 20
2833.4159897689419
 30
0.0
 11
1534.108956999999
 21
1734.2342900948231
 31
0.0
  0
LINE
  5
7AF4
  8
2
  6
CENTER
 10
2415.1870669999998
 20
2386.432675
 30
0.0
 11
3005.3785763819269
 21
2384.4953622529961
 31
0.0
  0
LINE
  5
7B14
  8
4
  6
CONTINUOUS
 10
3700.0
 20
1000.0
 30
0.0
 11
3700.0
 21
600.0
 31
0.0
  0
LINE
  5
7B15
  8
4
  6
CONTINUOUS
 10
2300.0
 20
1000.0
 30
0.0
 11
2300.0
 21
600.0
 31
0.0
  0
LINE
  5
7B16
  8
4
  6
CONTINUOUS
 10
1300.0
 20
1000.0
 30
0.0
 11
1300.0
 21
600.0
 31
0.0
  0
LINE
  5
7B19
  8
4
  6
CONTINUOUS
 10
1300.0
 20
600.0
 30
0.0
 11
3700.0
 21
600.0
 31
0.0
  0
LINE
  5
7B1A
  8
4
  6
CONTINUOUS
 10
1300.0
 20
800.0
 30
0.0
 11
3700.0
 21
800.0
 31
0.0
  0
TEXT
  5
7B1B
  8
4
  6
CONTINUOUS
 10
1377.004162
 20
863.086052
 30
0.0
 40
100.0
  1
機器名称
  0
TEXT
  5
7B1C
  8
4
  6
CONTINUOUS
 10
1372.516212
 20
643.29031299999986
 30
0.0
 40
100.0
  1
機器型番
  0
TEXT
  5
7B1D
  8
4
  6
CONTINUOUS
 10
2355.3574910000002
 20
845.14353800000015
 30
0.0
 40
100.0
  1
ミツヤ多翼送風機
  0
TEXT
  5
7B1E
  8
4
  6
CONTINUOUS
 10
2373.3089909999999
 20
634.31916899999999
 30
0.0
 40
100.0
  1
MF#2 1/2-4
  0
TEXT
  5
7B20
  8
4
  6
CONTINUOUS
 10
1421.858248
 20
4766.8576830000002
 30
0.0
 40
108.0
  1
天井吊防振ベット
  0
TEXT
  5
7B21
  8
4
  6
CONTINUOUS
 10
632.33518700000002
 20
5067.7619520000007
 30
0.0
 40
144.0
  1
ベルト駆動式片吸込両持多翼ファン
  0
LINE
  5
7B22
  8
4
  6
CONTINUOUS
 10
500.0
 20
4938.8175090000004
 30
0.0
 11
3700.0
 21
4938.8175090000004
 31
0.0
  0
LINE
  5
7B23
  8
4
  6
CONTINUOUS
 10
500.0
 20
5338.8175090000004
 30
0.0
 11
3700.0
 21
5338.8175090000004
 31
0.0
  0
LINE
  5
7B24
  8
4
  6
CONTINUOUS
 10
1300.0
 20
1000.0
 30
0.0
 11
3700.0
 21
1000.0
 31
0.0
  0
LINE
  5
7B25
  8
4
  6
CONTINUOUS
 10
500.0
 20
5338.8175090000004
 30
0.0
 11
500.0
 21
4938.8175090000004
 31
0.0
  0
TEXT
  5
7B26
  8
4
  6
CONTINUOUS
 10
616.60572500000001
 20
4764.6389549999994
 30
0.0
 40
108.0
  1
右回転上向
  0
TEXT
  5
7B27
  8
4
  6
CONTINUOUS
 10
2937.9391179999998
 20
5412.122163
 30
0.0
 40
112.0
  1
No.
  0
TEXT
  5
7B28
  8
4
  6
CONTINUOUS
 10
2622.5921250000001
 20
4766.8576830000002
 30
0.0
 40
108.0
  1
縮尺：1/20
  0
LINE
  5
7B29
  8
4
  6
CONTINUOUS
 10
3700.0
 20
5338.8175090000004
 30
0.0
 11
3700.0
 21
4938.8175090000004
 31
0.0
  0
LINE
  5
7B2B
  8
4
  6
CONTINUOUS
 10
2881.234845
 20
5362.5271659999999
 30
0.0
 11
2881.234845
 21
5573.3045229999998
 31
0.0
  0
LINE
  5
7B2C
  8
4
  6
CONTINUOUS
 10
2881.234845
 20
5573.3045229999998
 30
0.0
 11
3700.0
 21
5573.3045229999998
 31
0.0
  0
LINE
  5
7B2D
  8
4
  6
CONTINUOUS
 10
3700.0
 20
5573.3045229999998
 30
0.0
 11
3700.0
 21
5362.5271659999999
 31
0.0
  0
LINE
  5
7B2E
  8
4
  6
CONTINUOUS
 10
3700.0
 20
5362.5271659999999
 30
0.0
 11
2881.234845
 21
5362.5271659999999
 31
0.0
  0
DIMENSION
  5
7B47
  8
3
  6
CONTINUOUS
  2
*D1
 10
1546.1089569999999
 20
2757.8944750000001
 30
0.0
 11
1356.400036
 21
2757.8944750000001
 31
0.0
 70
   128
 13
1146.108956999999
 23
2686.432675
 33
0.0
 14
1546.1089569999999
 24
2686.432675
 34
0.0
1001
ACAD
1000
DSTYLE
1002
{
1070
   287
1070
     3
1070
    40
1040
20.0
1070
   143
1040
0.039
1070
   172
1070
     1
1070
   271
1070
     0
1070
   279
1070
     0
1070
   288
1070
     1
1002
}
  0
DIMENSION
  5
7B54
  8
3
  6
CONTINUOUS
  2
*D2
 10
1534.108956999999
 20
2870.730849
 30
0.0
 11
1356.400036
 21
2870.730849
 31
0.0
 70
   128
 13
1146.108956999999
 23
2757.8944750000001
 33
0.0
 14
1534.108956999999
 24
2846.543322864381
 34
0.0
1001
ACAD
1000
DSTYLE
1002
{
1070
   287
1070
     3
1070
    40
1040
20.0
1070
   143
1040
0.039
1070
   172
1070
     1
1070
   271
1070
     0
1070
   279
1070
     0
1070
   288
1070
     1
1002
}
  0
DIMENSION
  5
7B60
  8
3
  6
CONTINUOUS
  2
*D3
 10
1834.1089569999999
 20
2870.730849
 30
0.0
 11
1684.1089569999999
 21
2920.730849
 31
0.0
 70
     0
 13
1534.108956999999
 23
2851.2316612749109
 33
0.0
 14
1834.1089569999999
 24
2656.432675
 34
0.0
1001
ACAD
1000
DSTYLE
1002
{
1070
   287
1070
     4
1070
    40
1040
20.0
1070
    75
1070
     1
1070
   143
1040
0.039
1070
   172
1070
     1
1070
   271
1070
     0
1070
   279
1070
     1
1070
   288
1070
     1
1002
}
  0
DIMENSION
  5
7B6D
  8
3
  6
CONTINUOUS
  2
*D4
 10
2047.383834
 20
2386.432675
 30
0.0
 11
2047.383834
 21
2523.5755319999998
 31
0.0
 70
   128
 13
1573.1089569999999
 23
2686.432675
 33
0.0
 14
2039.396696
 24
2386.432675
 34
0.0
 50
90.0
1001
ACAD
1000
DSTYLE
1002
{
1070
   287
1070
     3
1070
    40
1040
20.0
1070
   143
1040
0.039
1070
   172
1070
     1
1070
   271
1070
     0
1070
   279
1070
     0
1070
   288
1070
     1
1002
}
  0
DIMENSION
  5
7B79
  8
3
  6
CONTINUOUS
  2
*D5
 10
2047.383834
 20
1966.432675
 30
0.0
 11
1997.3838339999991
 21
2176.432675
 31
0.0
 70
     0
 13
2039.396696
 23
2386.432675
 33
0.0
 14
1794.108956999999
 24
1966.432675
 34
0.0
 50
90.0
1001
ACAD
1000
DSTYLE
1002
{
1070
   287
1070
     4
1070
    40
1040
20.0
1070
    75
1070
     1
1070
   143
1040
0.039
1070
   172
1070
     1
1070
   271
1070
     0
1070
   279
1070
     1
1070
   288
1070
     1
1002
}
  0
DIMENSION
  5
7B89
  8
3
  6
CONTINUOUS
  2
*D6
 10
2047.383834
 20
1879.432675
 30
0.0
 11
2125.1638687751511
 21
1927.0457109999991
 31
0.0
 70
   128
 13
1794.108956999999
 23
1966.432675
 33
0.0
 14
1794.108956999999
 24
1879.432675
 34
0.0
 50
90.0
1001
ACAD
1000
DSTYLE
1002
{
1070
   288
1070
     1
1070
   172
1070
     1
1070
    75
1070
     1
1070
    40
1040
20.0
1070
   271
1070
     0
1070
     7
1000
_DOT
1070
   143
1040
0.039
1002
}
  0
DIMENSION
  5
7B96
  8
3
  6
CONTINUOUS
  2
*D7
 10
2184.5114309999999
 20
1839.432675
 30
0.0
 11
2184.5114309999999
 21
2256.1262599999991
 31
0.0
 70
   128
 13
1583.1089569999999
 23
2686.432675
 33
0.0
 14
1794.108956999999
 24
1839.432675
 34
0.0
 50
90.0
1001
ACAD
1000
DSTYLE
1002
{
1070
   287
1070
     3
1070
    40
1040
20.0
1070
   143
1040
0.039
1070
   172
1070
     1
1070
   271
1070
     0
1070
   279
1070
     0
1070
   288
1070
     1
1002
}
  0
DIMENSION
  5
7BA3
  8
3
  6
CONTINUOUS
  2
*D8
 10
1534.108956999999
 20
1703.9536430948231
 30
0.0
 11
1159.7708500000001
 21
1703.9536430948231
 31
0.0
 70
   128
 13
794.10895700000003
 23
1839.432675
 33
0.0
 14
1534.108956999999
 24
1734.2342900948231
 34
0.0
1001
ACAD
1000
DSTYLE
1002
{
1070
   287
1070
     3
1070
    40
1040
20.0
1070
   143
1040
0.039
1070
   172
1070
     1
1070
   271
1070
     0
1070
   279
1070
     0
1070
   288
1070
     1
1002
}
  0
DIMENSION
  5
7BB1
  8
3
  6
CONTINUOUS
  2
*D9
 10
1794.108956999999
 20
1703.9536430948231
 30
0.0
 11
1672.4664849999999
 21
1703.483083094824
 31
0.0
 70
   128
 13
1534.108956999999
 23
1734.2342900948231
 33
0.0
 14
1794.108956999999
 24
1839.432675
 34
0.0
1001
ACAD
1000
DSTYLE
1002
{
1070
   287
1070
     4
1070
    40
1040
20.0
1070
    75
1070
     1
1070
   143
1040
0.039
1070
   172
1070
     1
1070
   271
1070
     0
1070
   279
1070
     1
1070
   288
1070
     1
1002
}
  0
DIMENSION
  5
7BBE
  8
3
  6
CONTINUOUS
  2
*D10
 10
2818.5267389999999
 20
1677.1352889999989
 30
0.0
 11
2652.6860369408309
 21
1677.1352889999989
 31
0.0
 70
   128
 13
2482.5267389999999
 23
1839.432675
 33
0.0
 14
2818.5267389999999
 24
1756.3130179029331
 34
0.0
1001
ACAD
1000
DSTYLE
1002
{
1070
   287
1070
     3
1070
    40
1040
20.0
1070
   143
1040
0.039
1070
   172
1070
     1
1070
   271
1070
     0
1070
   279
1070
     0
1070
   288
1070
     1
1002
}
  0
DIMENSION
  5
7BCC
  8
3
  6
CONTINUOUS
  2
*D11
 10
3092.5267389999999
 20
1677.1352889999989
 30
0.0
 11
2978.7560509999998
 21
1676.3411530000001
 31
0.0
 70
   128
 13
2818.5267389999999
 23
1756.3130179029331
 33
0.0
 14
3092.5267389999999
 24
1839.432675
 34
0.0
1001
ACAD
1000
DSTYLE
1002
{
1070
   287
1070
     4
1070
    40
1040
20.0
1070
    75
1070
     1
1070
   143
1040
0.039
1070
   172
1070
     1
1070
   271
1070
     0
1070
   279
1070
     1
1070
   288
1070
     1
1002
}
  0
DIMENSION
  5
7BD9
  8
3
  6
CONTINUOUS
  2
*D12
 10
2668.5267389999999
 20
2753.595354999999
 30
0.0
 11
2805.6695960000002
 21
2753.595354999999
 31
0.0
 70
   128
 13
2968.526738999999
 23
2686.432675
 33
0.0
 14
2668.5267389999999
 24
2686.432675
 34
0.0
1001
ACAD
1000
DSTYLE
1002
{
1070
   287
1070
     3
1070
    40
1040
20.0
1070
   143
1040
0.039
1070
   172
1070
     1
1070
   271
1070
     0
1070
   279
1070
     0
1070
   288
1070
     1
1002
}
  0
DIMENSION
  5
7BF3
  8
3
  6
CONTINUOUS
  2
*D13
 10
2488.5267389999999
 20
2875.8108090000001
 30
0.0
 11
2653.5267389999999
 21
2975.8108090000001
 31
0.0
 70
     0
  1
MAX\P380
 13
2818.5267389999999
 23
2841.538561299541
 33
0.0
 14
2488.5267389999999
 24
2701.432675
 34
0.0
1001
ACAD
1000
DSTYLE
1002
{
1070
   287
1070
     4
1070
    40
1040
20.0
1070
    75
1070
     1
1070
   143
1040
0.039
1070
   172
1070
     1
1070
   271
1070
     0
1070
   279
1070
     1
1070
   288
1070
     1
1002
}
  0
DIMENSION
  5
7C02
  8
3
  6
CONTINUOUS
  2
*D14
 10
3151.5323530000001
 20
2171.4326749999991
 30
0.0
 11
3151.5323530000001
 21
2385.9437189999999
 31
0.0
 70
   128
 13
2968.526738999999
 23
2601.432675
 33
0.0
 14
2968.526738999999
 24
2171.432675
 34
0.0
 50
90.0
1001
ACAD
1000
DSTYLE
1002
{
1070
   287
1070
     3
1070
     3
1000
φ<>
1070
    40
1040
20.0
1070
   143
1040
0.039
1070
   172
1070
     1
1070
   271
1070
     0
1070
   279
1070
     0
1070
   288
1070
     1
1002
}
  0
DIMENSION
  5
7C0F
  8
3
  6
CONTINUOUS
  2
*D15
 10
1794.108956999999
 20
4131.1801150000001
 30
0.0
 11
1288.3361010000001
 21
4131.1801150000001
 31
0.0
 70
   128
 13
794.10895700000003
 23
4025.202675
 33
0.0
 14
1794.108956999999
 24
4025.202675
 34
0.0
1001
ACAD
1000
DSTYLE
1002
{
1070
   287
1070
     3
1070
    40
1040
20.0
1070
   143
1040
0.039
1070
   172
1070
     1
1070
   271
1070
     0
1070
   279
1070
     0
1070
   288
1070
     1
1002
}
  0
DIMENSION
  5
7C1C
  8
3
  6
CONTINUOUS
  2
*D16
 10
643.03249200000062
 20
3415.2026749999991
 30
0.0
 11
643.03249200000005
 21
3674.9700680000001
 31
0.0
 70
   128
 13
794.10895700000003
 23
4025.202675
 33
0.0
 14
794.10895700000003
 24
3415.2026749999991
 34
0.0
 50
90.0
1001
ACAD
1000
DSTYLE
1002
{
1070
   287
1070
     3
1070
    40
1040
20.0
1070
   143
1040
0.039
1070
   172
1070
     1
1070
   271
1070
     0
1070
   279
1070
     0
1070
   288
1070
     1
1002
}
  0
LINE
  5
7D0E
  8
1
  6
CONTINUOUS
 10
2969.526738999999
 20
2171.432675
 30
0.0
 11
2969.526738999999
 21
2601.432675
 31
0.0
  0
DIMENSION
  5
7D1E
  8
3
  6
CONTINUOUS
  2
*D17
 10
2969.526738999999
 20
2875.8108090000001
 30
0.0
 11
2886.1870503798632
 21
2926.7636388292831
 31
0.0
 70
   128
 13
2818.5267389999999
 23
2858.1182699999999
 33
0.0
 14
2969.526738999999
 24
2601.432675
 34
0.0
1001
ACAD
1000
DSTYLE
1002
{
1070
   288
1070
     1
1070
   172
1070
     1
1070
    40
1040
20.0
1070
   271
1070
     0
1070
   143
1040
0.039
1002
}
  0
DIMENSION
  5
7D73
  8
3
  6
CONTINUOUS
  2
*D18
 10
2047.383834
 20
1839.432675
 30
0.0
 11
2047.383834
 21
1690.8612464285709
 31
0.0
 70
   128
 13
1794.108956999999
 23
1879.432675
 33
0.0
 14
1794.108956999999
 24
1839.432675
 34
0.0
 50
90.0
1001
ACAD
1000
DSTYLE
1002
{
1070
   287
1070
     3
1070
    40
1040
20.0
1070
   143
1040
0.039
1070
   172
1070
     1
1070
   271
1070
     0
1070
   279
1070
     0
1070
   288
1070
     1
1070
     6
1000
DOT
1002
}
  0
DIMENSION
  5
7EDC
  8
3
  2
*D20
 10
794.10895700000015
 20
2980.2589900856051
 30
0.0
 11
1323.5176041250561
 21
2980.2589900856051
 31
0.0
 70
   128
 13
1834.1089569999999
 23
2656.432675
 33
0.0
 14
794.10895700000003
 24
2046.432675
 34
0.0
1001
ACAD
1000
DSTYLE
1002
{
1070
   287
1070
     3
1070
    40
1040
20.0
1070
   143
1040
0.039
1070
   172
1070
     1
1070
   271
1070
     0
1070
   279
1070
     0
1070
   288
1070
     1
1002
}
  0
ENDSEC
  0
EOF
