  0
SECTION
  2
HEADER
  9
$ACADVER
  1
AC1009
  9
$INSBASE
 10
0.0
 20
0.0
 30
0.0
  9
$EXTMIN
 10
500.0
 20
600.0
 30
0.0
  9
$EXTMAX
 10
3700.0
 20
5573.3045229999998
 30
0.0
  9
$LIMMIN
 10
0.0
 20
0.0
  9
$LIMMAX
 10
297.0
 20
210.0
  9
$ORTHOMODE
 70
     0
  9
$REGENMODE
 70
     1
  9
$FILLMODE
 70
     0
  9
$QTEXTMODE
 70
     0
  9
$MIRRTEXT
 70
     1
  9
$DRAGMODE
 70
     2
  9
$LTSCALE
 40
100.0
  9
$OSMODE
 70
    37
  9
$ATTMODE
 70
     1
  9
$TEXTSIZE
 40
180.0
  9
$TRACEWID
 40
0.05
  9
$TEXTSTYLE
  7
STANDARD
  9
$CLAYER
  8
3
  9
$CELTYPE
  6
BYLAYER
  9
$CECOLOR
 62
   256
  9
$DIMSCALE
 40
20.0
  9
$DIMASZ
 40
2.0
  9
$DIMEXO
 40
0.5
  9
$DIMDLI
 40
10.0
  9
$DIMRND
 40
0.0
  9
$DIMDLE
 40
0.0
  9
$DIMEXE
 40
1.0
  9
$DIMTP
 40
1.0
  9
$DIMTM
 40
1.0
  9
$DIMTXT
 40
3.0
  9
$DIMCEN
 40
0.0
  9
$DIMTSZ
 40
0.0
  9
$DIMTOL
 70
     0
  9
$DIMLIM
 70
     0
  9
$DIMTIH
 70
     0
  9
$DIMTOH
 70
     0
  9
$DIMSE1
 70
     0
  9
$DIMSE2
 70
     0
  9
$DIMTAD
 70
     1
  9
$DIMZIN
 70
     8
  9
$DIMBLK
  1

  9
$DIMASO
 70
     1
  9
$DIMSHO
 70
     1
  9
$DIMPOST
  1

  9
$DIMAPOST
  1

  9
$DIMALT
 70
     0
  9
$DIMALTD
 70
     2
  9
$DIMALTF
 40
0.039
  9
$DIMLFAC
 40
1.0
  9
$DIMTOFL
 70
     1
  9
$DIMTVP
 40
0.0
  9
$DIMTIX
 70
     0
  9
$DIMSOXD
 70
     0
  9
$DIMSAH
 70
     1
  9
$DIMBLK1
  1
OPEN
  9
$DIMBLK2
  1
OPEN
  9
$DIMSTYLE
  2
IGA
  9
$DIMCLRD
 70
     0
  9
$DIMCLRE
 70
     0
  9
$DIMCLRT
 70
     0
  9
$DIMTFAC
 40
10.0
  9
$DIMGAP
 40
1.0
  9
$LUNITS
 70
     2
  9
$LUPREC
 70
     3
  9
$SKETCHINC
 40
0.1
  9
$FILLETRAD
 40
50.0
  9
$AUNITS
 70
     0
  9
$AUPREC
 70
     0
  9
$MENU
  1
acad
  9
$ELEVATION
 40
0.0
  9
$PELEVATION
 40
0.0
  9
$THICKNESS
 40
0.0
  9
$LIMCHECK
 70
     0
  9
$BLIPMODE
 70
     0
  9
$CHAMFERA
 40
0.5
  9
$CHAMFERB
 40
0.5
  9
$SKPOLY
 70
     0
  9
$TDCREATE
 40
2450725.6528269672
  9
$TDUPDATE
 40
2454953.7652893518
  9
$TDINDWG
 40
0.007317419
  9
$TDUSRTIMER
 40
0.007317419
  9
$USRTIMER
 70
     1
  9
$ANGBASE
 50
0.0
  9
$ANGDIR
 70
     0
  9
$PDMODE
 70
     0
  9
$PDSIZE
 40
0.0
  9
$PLINEWID
 40
0.0
  9
$COORDS
 70
     1
  9
$SPLFRAME
 70
     0
  9
$SPLINETYPE
 70
     6
  9
$SPLINESEGS
 70
     8
  9
$ATTDIA
 70
     0
  9
$ATTREQ
 70
     1
  9
$HANDLING
 70
 10241
  9
$HANDSEED
  5
8000
  9
$SURFTAB1
 70
     6
  9
$SURFTAB2
 70
     6
  9
$SURFTYPE
 70
     6
  9
$SURFU
 70
     6
  9
$SURFV
 70
     6
  9
$UCSNAME
  2

  9
$UCSORG
 10
0.0
 20
0.0
 30
0.0
  9
$UCSXDIR
 10
1.0
 20
0.0
 30
0.0
  9
$UCSYDIR
 10
0.0
 20
1.0
 30
0.0
  9
$PUCSNAME
  2

  9
$PUCSORG
 10
0.0
 20
0.0
 30
0.0
  9
$PUCSXDIR
 10
1.0
 20
0.0
 30
0.0
  9
$PUCSYDIR
 10
0.0
 20
1.0
 30
0.0
  9
$USERI1
 70
     0
  9
$USERI2
 70
     0
  9
$USERI3
 70
     0
  9
$USERI4
 70
     0
  9
$USERI5
 70
     0
  9
$USERR1
 40
0.0
  9
$USERR2
 40
0.0
  9
$USERR3
 40
0.0
  9
$USERR4
 40
0.0
  9
$USERR5
 40
0.0
  9
$WORLDVIEW
 70
     1
  9
$SHADEDGE
 70
     3
  9
$SHADEDIF
 70
    70
  9
$TILEMODE
 70
     1
  9
$MAXACTVP
 70
    16
  9
$PLIMCHECK
 70
     0
  9
$PEXTMIN
 10
1.0000000000000000E+020
 20
1.0000000000000000E+020
 30
1.0000000000000000E+020
  9
$PEXTMAX
 10
-1.0000000000000000E+020
 20
-1.0000000000000000E+020
 30
-1.0000000000000000E+020
  9
$PLIMMIN
 10
0.0
 20
0.0
  9
$PLIMMAX
 10
12.0
 20
9.0
  9
$UNITMODE
 70
     0
  9
$VISRETAIN
 70
     0
  9
$PLINEGEN
 70
     0
  9
$PSLTSCALE
 70
     1
  0
ENDSEC
  0
SECTION
  2
TABLES
  0
TABLE
  2
VPORT
 70
     2
  0
VPORT
  2
*ACTIVE
 70
     0
 10
0.0
 20
0.0
 11
1.0
 21
1.0
 12
6292.1124769529506
 22
3086.6374998146398
 13
0.0
 23
0.0
 14
10.0
 24
10.0
 15
10.0
 25
10.0
 16
0.0
 26
0.0
 36
1.0
 17
0.0
 27
0.0
 37
0.0
 40
5011.4968576296578
 41
3.1666666666666661
 42
50.0
 43
0.0
 44
0.0
 50
0.0
 51
0.0
 71
     0
 72
   100
 73
     1
 74
     0
 75
     0
 76
     0
 77
     0
 78
     0
  0
ENDTAB
  0
TABLE
  2
LTYPE
 70
     2
  0
LTYPE
  2
CONTINUOUS
 70
     0
  3
Solid line
 72
    65
 73
     0
 40
0.0
  0
LTYPE
  2
CENTER
 70
     0
  3
____ _ ____ _ ____ _ ____ _ ____ _ ____ _ ____ 
 72
    65
 73
     4
 40
2.0
 49
1.25
 49
-0.25
 49
0.25
 49
-0.25
  0
ENDTAB
  0
TABLE
  2
LAYER
 70
     6
  0
LAYER
  2
0
 70
     0
 62
     7
  6
CONTINUOUS
  0
LAYER
  2
3
 70
     0
 62
     2
  6
CONTINUOUS
  0
LAYER
  2
2
 70
     0
 62
     3
  6
CENTER
  0
LAYER
  2
1
 70
     0
 62
     4
  6
CONTINUOUS
  0
LAYER
  2
4
 70
     0
 62
     7
  6
CONTINUOUS
  0
LAYER
  2
DEFPOINTS
 70
     0
 62
     7
  6
CONTINUOUS
  0
ENDTAB
  0
TABLE
  2
STYLE
 70
     1
  0
STYLE
  2
STANDARD
 70
     0
 40
0.0
 41
1.0
 50
0.0
 71
     0
 42
180.0
  3
simplex.shx
  4
extfont.shx
  0
ENDTAB
  0
TABLE
  2
VIEW
 70
     0
  0
ENDTAB
  0
TABLE
  2
UCS
 70
     0
  0
ENDTAB
  0
TABLE
  2
APPID
 70
     1
  0
APPID
  2
ACAD
 70
     0
  0
ENDTAB
  0
TABLE
  2
DIMSTYLE
 70
     1
  0
DIMSTYLE
  2
IGA
 70
     0
  3

  4

  5

  6
OPEN
  7
OPEN
 40
2.0
 41
2.0
 42
0.5
 43
10.0
 44
1.0
 45
0.0
 46
0.0
 47
1.0
 48
1.0
140
3.0
141
0.0
142
0.0
143
0.03937
144
1.0
145
0.0
146
10.0
147
1.0
 71
     0
 72
     0
 73
     0
 74
     0
 75
     0
 76
     0
 77
     1
 78
     8
170
     0
171
     2
172
     0
173
     1
174
     0
175
     0
176
     0
177
     0
178
     0
  0
ENDTAB
  0
ENDSEC
  0
SECTION
  2
BLOCKS
  0
BLOCK
  8
0
  2
$MODEL_SPACE
 70
     0
 10
0.0
 20
0.0
 30
0.0
  3
$MODEL_SPACE
  1

  0
ENDBLK
  5
1B
  8
0
  0
BLOCK
 67
     1
  8
0
  2
$PAPER_SPACE
 70
     0
 10
0.0
 20
0.0
 30
0.0
  3
$PAPER_SPACE
  1

  0
ENDBLK
  5
18
 67
     1
  8
0
  0
BLOCK
  8
0
  2
_OPEN
 70
     0
 10
0.0
 20
0.0
 30
0.0
  3
_OPEN
  1

  0
LINE
  5
7AF5
  8
0
  6
BYBLOCK
 62
     0
 10
-1.0
 20
0.166667
 30
0.0
 11
0.0
 21
0.0
 31
0.0
  0
LINE
  5
7AF6
  8
0
  6
BYBLOCK
 62
     0
 10
0.0
 20
0.0
 30
0.0
 11
-1.0
 21
-0.166667
 31
0.0
  0
LINE
  5
7AF7
  8
0
  6
BYBLOCK
 62
     0
 10
0.0
 20
0.0
 30
0.0
 11
-1.0
 21
0.0
 31
0.0
  0
ENDBLK
  5
7AF8
  8
0
  0
BLOCK
  8
0
  2
*D1
 70
     1
 10
0.0
 20
0.0
 30
0.0
  3
*D1
  1

  0
LINE
  5
7F53
  8
3
  6
CONTINUOUS
 62
     0
 10
2075.2611579999989
 20
2740.5873239999992
 30
0.0
 11
2240.8105399999999
 21
2740.5873239999992
 31
0.0
  0
LINE
  5
7F54
  8
3
  6
CONTINUOUS
 62
     0
 10
2075.2611579999989
 20
2340.5873239999992
 30
0.0
 11
2240.8105399999999
 21
2340.5873239999992
 31
0.0
  0
LINE
  5
7F55
  8
3
  6
CONTINUOUS
 62
     0
 10
2220.8105399999999
 20
2700.5873239999992
 30
0.0
 11
2220.8105399999999
 21
2380.5873239999992
 31
0.0
  0
INSERT
  5
7F56
  8
3
  6
CONTINUOUS
 62
     0
  2
_OPEN
 10
2220.8105399999999
 20
2740.5873239999992
 30
0.0
 41
40.0
 42
40.0
 43
40.0
 50
90.0
  0
INSERT
  5
7F57
  8
3
  6
CONTINUOUS
 62
     0
  2
_OPEN
 10
2220.8105399999999
 20
2340.5873239999992
 30
0.0
 41
40.0
 42
40.0
 43
40.0
 50
270.0
  0
TEXT
  8
3
  40
60
  5
7FEE
  62
0
  72
0
  71
0
 10
2050.81
 20
2413.16
 30
0.000000
  1
400
  0
POINT
  5
7F59
  8
DEFPOINTS
  6
CONTINUOUS
 62
     0
 10
2065.2611579999989
 20
2740.5873239999992
 30
0.0
  0
POINT
  5
7F5A
  8
DEFPOINTS
  6
CONTINUOUS
 62
     0
 10
2065.2611579999989
 20
2340.5873239999992
 30
0.0
  0
POINT
  5
7F5B
  8
DEFPOINTS
  6
CONTINUOUS
 62
     0
 10
2220.8105399999999
 20
2340.5873239999992
 30
0.0
  0
ENDBLK
  5
7CB2
  8
0
  0
BLOCK
  8
0
  2
*D2
 70
     1
 10
0.0
 20
0.0
 30
0.0
  3
*D2
  1

  0
LINE
  5
7F5C
  8
3
  6
CONTINUOUS
 62
     0
 10
2075.2611579999989
 20
2767.5873239999992
 30
0.0
 11
2521.9268539999998
 21
2767.5873239999992
 31
0.0
  0
LINE
  5
7F5D
  8
3
  6
CONTINUOUS
 62
     0
 10
2035.2611579999991
 20
1845.577323999999
 30
0.0
 11
2521.9268539999998
 21
1845.577323999999
 31
0.0
  0
LINE
  5
7F5E
  8
3
  6
CONTINUOUS
 62
     0
 10
2501.9268539999998
 20
2727.5873239999992
 30
0.0
 11
2501.9268539999998
 21
1885.577323999999
 31
0.0
  0
INSERT
  5
7F5F
  8
3
  6
CONTINUOUS
 62
     0
  2
_OPEN
 10
2501.9268539999998
 20
2767.5873239999992
 30
0.0
 41
40.0
 42
40.0
 43
40.0
 50
90.0
  0
INSERT
  5
7F60
  8
3
  6
CONTINUOUS
 62
     0
  2
_OPEN
 10
2501.9268539999998
 20
1845.577323999999
 30
0.0
 41
40.0
 42
40.0
 43
40.0
 50
270.0
  0
TEXT
  8
3
  40
60
  5
7FEF
  62
0
  72
0
  71
0
 10
2331.93
 20
2254.98
 30
0.000000
  1
922
  0
POINT
  5
7F62
  8
DEFPOINTS
  6
CONTINUOUS
 62
     0
 10
2065.2611579999989
 20
2767.5873239999992
 30
0.0
  0
POINT
  5
7F63
  8
DEFPOINTS
  6
CONTINUOUS
 62
     0
 10
2025.261158
 20
1845.577323999999
 30
0.0
  0
POINT
  5
7F64
  8
DEFPOINTS
  6
CONTINUOUS
 62
     0
 10
2501.9268539999998
 20
1845.577323999999
 30
0.0
  0
ENDBLK
  5
7CD7
  8
0
  0
BLOCK
  8
0
  2
*D3
 70
     1
 10
0.0
 20
0.0
 30
0.0
  3
*D3
  1

  0
LINE
  5
7F65
  8
3
  6
CONTINUOUS
 62
     0
 10
2065.2611579999989
 20
2777.5873239999992
 30
0.0
 11
2065.2611579999989
 21
2891.889772999999
 31
0.0
  0
LINE
  5
7F66
  8
3
  6
CONTINUOUS
 62
     0
 10
1765.2611579999991
 20
2869.1370125860649
 30
0.0
 11
1765.2611579999991
 21
2891.889772999999
 31
0.0
  0
LINE
  5
7F67
  8
3
  6
CONTINUOUS
 62
     0
 10
2025.261158
 20
2871.889772999999
 30
0.0
 11
1805.2611579999991
 21
2871.889772999999
 31
0.0
  0
INSERT
  5
7F68
  8
3
  6
CONTINUOUS
 62
     0
  2
_OPEN
 10
2065.2611579999989
 20
2871.889772999999
 30
0.0
 41
40.0
 42
40.0
 43
40.0
  0
INSERT
  5
7F69
  8
3
  6
CONTINUOUS
 62
     0
  2
_OPEN
 10
1765.2611579999991
 20
2871.889772999999
 30
0.0
 41
40.0
 42
40.0
 43
40.0
 50
180.0
  0
TEXT
  8
3
  40
60
  5
7FF0
  62
0
  72
0
  71
0
 10
1808.12
 20
2815.69
 30
0.000000
  1
300
  0
POINT
  5
7F6B
  8
DEFPOINTS
  6
CONTINUOUS
 62
     0
 10
2065.2611579999989
 20
2767.5873239999992
 30
0.0
  0
POINT
  5
7F6C
  8
DEFPOINTS
  6
CONTINUOUS
 62
     0
 10
1765.2611579999991
 20
2859.1370125860649
 30
0.0
  0
POINT
  5
7F6D
  8
DEFPOINTS
  6
CONTINUOUS
 62
     0
 10
1765.2611579999991
 20
2871.889772999999
 30
0.0
  0
ENDBLK
  5
7E73
  8
0
  0
BLOCK
  8
0
  2
*D4
 70
     1
 10
0.0
 20
0.0
 30
0.0
  3
*D4
  1

  0
LINE
  5
7F6E
  8
3
  6
CONTINUOUS
 62
     0
 10
1425.261158
 20
2662.5873239999992
 30
0.0
 11
1425.261158
 21
2891.889772999999
 31
0.0
  0
LINE
  5
7F6F
  8
3
  6
CONTINUOUS
 62
     0
 10
1725.261158
 20
2871.889772999999
 30
0.0
 11
1465.261158
 21
2871.889772999999
 31
0.0
  0
INSERT
  5
7F70
  8
3
  6
CONTINUOUS
 62
     0
  2
_OPEN
 10
1765.2611579999991
 20
2871.889772999999
 30
0.0
 41
40.0
 42
40.0
 43
40.0
  0
INSERT
  5
7F71
  8
3
  6
CONTINUOUS
 62
     0
  2
_OPEN
 10
1425.261158
 20
2871.889772999999
 30
0.0
 41
40.0
 42
40.0
 43
40.0
 50
180.0
  0
TEXT
  8
3
  40
60
  5
7FF1
  62
0
  72
0
  71
0
 10
1475.26
 20
2815.69
 30
0.000000
  1
340
  0
POINT
  5
7F73
  8
DEFPOINTS
  6
CONTINUOUS
 62
     0
 10
1765.2611579999991
 20
2859.1370125860649
 30
0.0
  0
POINT
  5
7F74
  8
DEFPOINTS
  6
CONTINUOUS
 62
     0
 10
1425.261158
 20
2652.5873239999992
 30
0.0
  0
POINT
  5
7F75
  8
DEFPOINTS
  6
CONTINUOUS
 62
     0
 10
1425.261158
 20
2871.889772999999
 30
0.0
  0
ENDBLK
  5
7E7D
  8
0
  0
BLOCK
  8
0
  2
*D5
 70
     1
 10
0.0
 20
0.0
 30
0.0
  3
*D5
  1

  0
LINE
  5
7F76
  8
3
  6
CONTINUOUS
 62
     0
 10
2075.2611579999989
 20
2740.5873239999992
 30
0.0
 11
2382.3719569999998
 21
2740.5873239999992
 31
0.0
  0
LINE
  5
7F77
  8
3
  6
CONTINUOUS
 62
     0
 10
2167.4240173265689
 20
2352.5873239999992
 30
0.0
 11
2382.3719569999998
 21
2352.5873239999992
 31
0.0
  0
LINE
  5
7F78
  8
3
  6
CONTINUOUS
 62
     0
 10
2362.3719569999998
 20
2700.5873239999992
 30
0.0
 11
2362.3719569999998
 21
2392.5873239999992
 31
0.0
  0
INSERT
  5
7F79
  8
3
  6
CONTINUOUS
 62
     0
  2
_OPEN
 10
2362.3719569999998
 20
2740.5873239999992
 30
0.0
 41
40.0
 42
40.0
 43
40.0
 50
90.0
  0
INSERT
  5
7F7A
  8
3
  6
CONTINUOUS
 62
     0
  2
_OPEN
 10
2362.3719569999998
 20
2352.5873239999992
 30
0.0
 41
40.0
 42
40.0
 43
40.0
 50
270.0
  0
TEXT
  8
3
  40
60
  5
7FF2
  62
0
  72
0
  71
0
 10
2192.37
 20
2404.43
 30
0.000000
  1
388
  0
POINT
  5
7F7C
  8
DEFPOINTS
  6
CONTINUOUS
 62
     0
 10
2065.2611579999989
 20
2740.5873239999992
 30
0.0
  0
POINT
  5
7F7D
  8
DEFPOINTS
  6
CONTINUOUS
 62
     0
 10
2157.4240173265689
 20
2352.5873239999992
 30
0.0
  0
POINT
  5
7F7E
  8
DEFPOINTS
  6
CONTINUOUS
 62
     0
 10
2362.3719569999998
 20
2352.5873239999992
 30
0.0
  0
ENDBLK
  5
7E92
  8
0
  0
BLOCK
  8
0
  2
*D6
 70
     1
 10
0.0
 20
0.0
 30
0.0
  3
*D6
  1

  0
LINE
  5
7F7F
  8
3
  6
CONTINUOUS
 62
     0
 10
2035.2611579999991
 20
1972.5873240000001
 30
0.0
 11
2382.3719569999989
 21
1972.5873240000001
 31
0.0
  0
LINE
  5
7F80
  8
3
  6
CONTINUOUS
 62
     0
 10
2362.3719569999998
 20
2312.5873239999992
 30
0.0
 11
2362.3719569999998
 21
2012.5873240000001
 31
0.0
  0
INSERT
  5
7F81
  8
3
  6
CONTINUOUS
 62
     0
  2
_OPEN
 10
2362.3719569999998
 20
2352.5873239999992
 30
0.0
 41
40.0
 42
40.0
 43
40.0
 50
90.0
  0
INSERT
  5
7F82
  8
3
  6
CONTINUOUS
 62
     0
  2
_OPEN
 10
2362.3719569999998
 20
1972.5873240000001
 30
0.0
 41
40.0
 42
40.0
 43
40.0
 50
270.0
  0
TEXT
  8
3
  40
60
  5
7FF3
  62
0
  72
0
  71
0
 10
2192.37
 20
2056.39
 30
0.000000
  1
380
  0
POINT
  5
7F84
  8
DEFPOINTS
  6
CONTINUOUS
 62
     0
 10
2157.4240173265689
 20
2352.5873239999992
 30
0.0
  0
POINT
  5
7F85
  8
DEFPOINTS
  6
CONTINUOUS
 62
     0
 10
2025.261158
 20
1972.5873240000001
 30
0.0
  0
POINT
  5
7F86
  8
DEFPOINTS
  6
CONTINUOUS
 62
     0
 10
2362.3719569999998
 20
1972.5873240000001
 30
0.0
  0
ENDBLK
  5
7E87
  8
0
  0
BLOCK
  8
0
  2
*D7
 70
     1
 10
0.0
 20
0.0
 30
0.0
  3
*D7
  1

  0
LINE
  5
7E41
  8
0
  6
BYBLOCK
 62
     0
 10
2035.2611579999991
 20
1885.5873239999989
 30
0.0
 11
2382.3719569999989
 21
1885.5873239999989
 31
0.0
  0
LINE
  5
7E42
  8
0
  6
BYBLOCK
 62
     0
 10
2362.3719569999998
 20
2012.5873240000001
 30
0.0
 11
2362.3719569999998
 21
2052.5873240000001
 31
0.0
  0
LINE
  5
7E43
  8
0
  6
BYBLOCK
 62
     0
 10
2362.3719569999998
 20
1845.5873240000001
 30
0.0
 11
2362.3719569999998
 21
1805.5873240000001
 31
0.0
  0
TEXT
  5
7E44
  8
3
 62
     0
 10
2460.7148794980239
 20
1884.2635036224219
 30
0.0
 40
60.0
  1
87
 50
90.0
  0
LINE
  5
7E45
  8
0
  6
BYBLOCK
 62
     0
 10
2362.3719569999998
 20
1972.5873240000001
 30
0.0
 11
2362.3719569999998
 21
1885.5873239999989
 31
0.0
  0
INSERT
  5
7E46
  8
0
  6
BYBLOCK
 62
     0
  2
_OPEN
 10
2362.3719569999998
 20
1972.5873240000001
 30
0.0
 41
40.0
 42
40.0
 43
40.0
 50
270.0
  0
INSERT
  5
7E47
  8
0
  6
BYBLOCK
 62
     0
  2
_DOT
 10
2362.3719569999998
 20
1885.5873239999989
 30
0.0
 41
40.0
 42
40.0
 43
40.0
 50
90.0
  0
POINT
  5
7E48
  8
DEFPOINTS
  6
BYBLOCK
 62
     0
 10
2025.261158
 20
1972.5873240000001
 30
0.0
  0
POINT
  5
7E49
  8
DEFPOINTS
  6
BYBLOCK
 62
     0
 10
2025.261158
 20
1885.5873239999989
 30
0.0
  0
POINT
  5
7E4A
  8
DEFPOINTS
  6
BYBLOCK
 62
     0
 10
2362.3719569999998
 20
1885.5873239999989
 30
0.0
  0
ENDBLK
  5
7E4B
  8
0
  0
BLOCK
  8
0
  2
*D8
 70
     1
 10
0.0
 20
0.0
 30
0.0
  3
*D8
  1

  0
LINE
  5
7F87
  8
3
  6
CONTINUOUS
 62
     0
 10
1025.2611579999991
 20
1835.577323999999
 30
0.0
 11
1025.2611579999991
 21
1686.085842
 31
0.0
  0
LINE
  5
7F88
  8
3
  6
CONTINUOUS
 62
     0
 10
1765.2611579999991
 20
1727.8487210882679
 30
0.0
 11
1765.2611579999991
 21
1686.085842
 31
0.0
  0
LINE
  5
7F89
  8
3
  6
CONTINUOUS
 62
     0
 10
1065.2611579999991
 20
1706.085842
 30
0.0
 11
1725.261158
 21
1706.085842
 31
0.0
  0
INSERT
  5
7F8A
  8
3
  6
CONTINUOUS
 62
     0
  2
_OPEN
 10
1025.2611579999991
 20
1706.085842
 30
0.0
 41
40.0
 42
40.0
 43
40.0
 50
180.0
  0
INSERT
  5
7F8B
  8
3
  6
CONTINUOUS
 62
     0
  2
_OPEN
 10
1765.2611579999991
 20
1706.085842
 30
0.0
 41
40.0
 42
40.0
 43
40.0
  0
TEXT
  8
3
  40
60
  5
7FF4
  62
0
  72
0
  71
0
 10
1311.97
 20
1649.89
 30
0.000000
  1
740
  0
POINT
  5
7F8D
  8
DEFPOINTS
  6
CONTINUOUS
 62
     0
 10
1025.2611579999991
 20
1845.577323999999
 30
0.0
  0
POINT
  5
7F8E
  8
DEFPOINTS
  6
CONTINUOUS
 62
     0
 10
1765.2611579999991
 20
1737.8487210882679
 30
0.0
  0
POINT
  5
7F8F
  8
DEFPOINTS
  6
CONTINUOUS
 62
     0
 10
1765.2611579999991
 20
1706.085842
 30
0.0
  0
ENDBLK
  5
7EBF
  8
0
  0
BLOCK
  8
0
  2
*D9
 70
     1
 10
0.0
 20
0.0
 30
0.0
  3
*D9
  1

  0
LINE
  5
7F90
  8
3
  6
CONTINUOUS
 62
     0
 10
2025.261158
 20
1835.577323999999
 30
0.0
 11
2025.261158
 21
1686.085842
 31
0.0
  0
LINE
  5
7F91
  8
3
  6
CONTINUOUS
 62
     0
 10
1805.2611579999991
 20
1706.085842
 30
0.0
 11
1985.2611579999991
 21
1706.085842
 31
0.0
  0
TEXT
  8
3
  40
60
  5
7FF5
  62
0
  72
0
  71
0
 10
1794.02
 20
1650.26
 30
0.000000
  1
260
  0
INSERT
  5
7F93
  8
3
  6
CONTINUOUS
 62
     0
  2
_OPEN
 10
1765.2611579999991
 20
1706.085842
 30
0.0
 41
40.0
 42
40.0
 43
40.0
 50
180.0
  0
INSERT
  5
7F94
  8
3
  6
CONTINUOUS
 62
     0
  2
_OPEN
 10
2025.261158
 20
1706.085842
 30
0.0
 41
40.0
 42
40.0
 43
40.0
  0
POINT
  5
7F95
  8
DEFPOINTS
  6
CONTINUOUS
 62
     0
 10
1765.2611579999991
 20
1737.8487210882679
 30
0.0
  0
POINT
  5
7F96
  8
DEFPOINTS
  6
CONTINUOUS
 62
     0
 10
2025.261158
 20
1845.577323999999
 30
0.0
  0
POINT
  5
7F97
  8
DEFPOINTS
  6
CONTINUOUS
 62
     0
 10
2025.261158
 20
1706.085842
 30
0.0
  0
ENDBLK
  5
7EB4
  8
0
  0
BLOCK
  8
0
  2
*D10
 70
     1
 10
0.0
 20
0.0
 30
0.0
  3
*D10
  1

  0
LINE
  5
7F98
  8
3
  6
CONTINUOUS
 62
     0
 10
2905.9993209999998
 20
1835.577323999999
 30
0.0
 11
2905.9993209999998
 21
1667.0303309999999
 31
0.0
  0
LINE
  5
7F99
  8
3
  6
CONTINUOUS
 62
     0
 10
3241.9993209999998
 20
1753.322049739221
 30
0.0
 11
3241.9993209999998
 21
1667.0303309999999
 31
0.0
  0
LINE
  5
7F9A
  8
3
  6
CONTINUOUS
 62
     0
 10
2945.9993209999998
 20
1687.0303309999999
 30
0.0
 11
3201.9993209999998
 21
1687.0303309999999
 31
0.0
  0
INSERT
  5
7F9B
  8
3
  6
CONTINUOUS
 62
     0
  2
_OPEN
 10
2905.9993209999998
 20
1687.0303309999999
 30
0.0
 41
40.0
 42
40.0
 43
40.0
 50
180.0
  0
INSERT
  5
7F9C
  8
3
  6
CONTINUOUS
 62
     0
  2
_OPEN
 10
3241.9993209999998
 20
1687.0303309999999
 30
0.0
 41
40.0
 42
40.0
 43
40.0
  0
TEXT
  8
3
  40
60
  5
7FF6
  62
0
  72
0
  71
0
 10
2957.42
 20
1630.83
 30
0.000000
  1
336
  0
POINT
  5
7F9E
  8
DEFPOINTS
  6
CONTINUOUS
 62
     0
 10
2905.9993209999998
 20
1845.577323999999
 30
0.0
  0
POINT
  5
7F9F
  8
DEFPOINTS
  6
CONTINUOUS
 62
     0
 10
3241.9993209999998
 20
1763.322049739221
 30
0.0
  0
POINT
  5
7FA0
  8
DEFPOINTS
  6
CONTINUOUS
 62
     0
 10
3241.9993209999998
 20
1687.0303309999999
 30
0.0
  0
ENDBLK
  5
7EE9
  8
0
  0
BLOCK
  8
0
  2
*D11
 70
     1
 10
0.0
 20
0.0
 30
0.0
  3
*D11
  1

  0
LINE
  5
7FA1
  8
3
  6
CONTINUOUS
 62
     0
 10
3515.9993209999998
 20
1835.577323999999
 30
0.0
 11
3515.9993209999998
 21
1667.0303309999999
 31
0.0
  0
LINE
  5
7FA2
  8
3
  6
CONTINUOUS
 62
     0
 10
3281.9993209999998
 20
1687.0303309999999
 30
0.0
 11
3475.9993209999998
 21
1687.0303309999999
 31
0.0
  0
TEXT
  8
3
  40
60
  5
7FF7
  62
0
  72
0
  71
0
 10
3254.28
 20
1627.12
 30
0.000000
  1
274
  0
INSERT
  5
7FA4
  8
3
  6
CONTINUOUS
 62
     0
  2
_OPEN
 10
3241.9993209999998
 20
1687.0303309999999
 30
0.0
 41
40.0
 42
40.0
 43
40.0
 50
180.0
  0
INSERT
  5
7FA5
  8
3
  6
CONTINUOUS
 62
     0
  2
_OPEN
 10
3515.9993209999998
 20
1687.0303309999999
 30
0.0
 41
40.0
 42
40.0
 43
40.0
  0
POINT
  5
7FA6
  8
DEFPOINTS
  6
CONTINUOUS
 62
     0
 10
3241.9993209999998
 20
1765.5492857133461
 30
0.0
  0
POINT
  5
7FA7
  8
DEFPOINTS
  6
CONTINUOUS
 62
     0
 10
3515.9993209999998
 20
1845.577323999999
 30
0.0
  0
POINT
  5
7FA8
  8
DEFPOINTS
  6
CONTINUOUS
 62
     0
 10
3515.9993209999998
 20
1687.0303309999999
 30
0.0
  0
ENDBLK
  5
7EF3
  8
0
  0
BLOCK
  8
0
  2
*D12
 70
     1
 10
0.0
 20
0.0
 30
0.0
  3
*D12
  1

  0
LINE
  5
7FA9
  8
3
  6
CONTINUOUS
 62
     0
 10
3391.9993209999998
 20
2750.5873239999992
 30
0.0
 11
3391.9993209999998
 21
2835.019507
 31
0.0
  0
LINE
  5
7FAA
  8
3
  6
CONTINUOUS
 62
     0
 10
3091.9993209999998
 20
2750.5873239999992
 30
0.0
 11
3091.9993209999998
 21
2835.019507
 31
0.0
  0
LINE
  5
7FAB
  8
3
  6
CONTINUOUS
 62
     0
 10
3431.9993209999998
 20
2815.019507
 30
0.0
 11
3471.9993209999998
 21
2815.019507
 31
0.0
  0
LINE
  5
7FAC
  8
3
  6
CONTINUOUS
 62
     0
 10
3051.9993209999998
 20
2815.019507
 30
0.0
 11
3011.9993209999998
 21
2815.019507
 31
0.0
  0
LINE
  5
7FAD
  8
3
  6
CONTINUOUS
 62
     0
 10
3391.9993209999998
 20
2815.019507
 30
0.0
 11
3091.9993209999998
 21
2815.019507
 31
0.0
  0
INSERT
  5
7FAE
  8
3
  6
CONTINUOUS
 62
     0
  2
_OPEN
 10
3391.9993209999998
 20
2815.019507
 30
0.0
 41
40.0
 42
40.0
 43
40.0
 50
180.0
  0
INSERT
  5
7FAF
  8
3
  6
CONTINUOUS
 62
     0
  2
_OPEN
 10
3091.9993209999998
 20
2815.019507
 30
0.0
 41
40.0
 42
40.0
 43
40.0
  0
TEXT
  8
3
  40
60
  5
7FF8
  62
0
  72
0
  71
0
 10
3109.14
 20
2758.82
 30
0.000000
  1
300
  0
POINT
  5
7FB1
  8
DEFPOINTS
  6
CONTINUOUS
 62
     0
 10
3391.9993209999998
 20
2740.5873239999992
 30
0.0
  0
POINT
  5
7FB2
  8
DEFPOINTS
  6
CONTINUOUS
 62
     0
 10
3091.9993209999998
 20
2740.5873239999992
 30
0.0
  0
POINT
  5
7FB3
  8
DEFPOINTS
  6
CONTINUOUS
 62
     0
 10
3091.9993209999998
 20
2815.019507
 30
0.0
  0
ENDBLK
  5
7D67
  8
0
  0
BLOCK
  8
0
  2
*D13
 70
     1
 10
0.0
 20
0.0
 30
0.0
  3
*D13
  1

  0
LINE
  5
7FB4
  8
3
  6
CONTINUOUS
 62
     0
 10
2911.9993209999998
 20
2717.5873240000001
 30
0.0
 11
2911.9993209999998
 21
2979.8078049999999
 31
0.0
  0
LINE
  5
7FB5
  8
3
  6
CONTINUOUS
 62
     0
 10
3201.9993209999998
 20
2959.8078049999999
 30
0.0
 11
2951.9993209999998
 21
2959.8078049999999
 31
0.0
  0
INSERT
  5
7FB6
  8
3
  6
CONTINUOUS
 62
     0
  2
_OPEN
 10
3241.9993209999998
 20
2959.8078049999999
 30
0.0
 41
40.0
 42
40.0
 43
40.0
  0
INSERT
  5
7FB7
  8
3
  6
CONTINUOUS
 62
     0
  2
_OPEN
 10
2911.9993209999998
 20
2959.8078049999999
 30
0.0
 41
40.0
 42
40.0
 43
40.0
 50
180.0
  0
TEXT
  8
3
  40
60
  5
7FF9
  62
0
  72
0
  71
0
 10
2957.00
 20
2953.61
 30
0.000000
  1
MAX
  0
TEXT
  8
3
  40
60
  5
7FFA
  62
0
  72
0
  71
0
 10
2957.00
 20
2875.61
 30
0.000000
  1
380
  0
POINT
  5
7FB9
  8
DEFPOINTS
  6
CONTINUOUS
 62
     0
 10
3241.9993209999998
 20
2943.9030320000002
 30
0.0
  0
POINT
  5
7FBA
  8
DEFPOINTS
  6
CONTINUOUS
 62
     0
 10
2911.9993209999998
 20
2707.5873239999992
 30
0.0
  0
POINT
  5
7FBB
  8
DEFPOINTS
  6
CONTINUOUS
 62
     0
 10
2911.9993209999998
 20
2959.8078049999999
 30
0.0
  0
ENDBLK
  5
7EDE
  8
0
  0
BLOCK
  8
0
  2
*D14
 70
     1
 10
0.0
 20
0.0
 30
0.0
  3
*D14
  1

  0
LINE
  5
7FBC
  8
3
  6
CONTINUOUS
 62
     0
 10
3401.9993209999998
 20
2567.5873239999992
 30
0.0
 11
3572.1424380000012
 21
2567.5873239999992
 31
0.0
  0
LINE
  5
7FBD
  8
3
  6
CONTINUOUS
 62
     0
 10
3401.9993209999998
 20
2137.5873239999992
 30
0.0
 11
3572.1424380000012
 21
2137.5873239999992
 31
0.0
  0
LINE
  5
7FBE
  8
3
  6
CONTINUOUS
 62
     0
 10
3552.1424379999999
 20
2527.5873239999992
 30
0.0
 11
3552.1424379999999
 21
2177.5873239999992
 31
0.0
  0
INSERT
  5
7FBF
  8
3
  6
CONTINUOUS
 62
     0
  2
_OPEN
 10
3552.1424379999999
 20
2567.5873239999992
 30
0.0
 41
40.0
 42
40.0
 43
40.0
 50
90.0
  0
INSERT
  5
7FC0
  8
3
  6
CONTINUOUS
 62
     0
  2
_OPEN
 10
3552.1424379999999
 20
2137.5873239999992
 30
0.0
 41
40.0
 42
40.0
 43
40.0
 50
270.0
  0
TEXT
  8
3
  40
60
  5
7FFB
  62
0
  72
0
  71
0
 10
3382.14
 20
2235.47
 30
0.000000
  1
φ430
  0
POINT
  5
7FC2
  8
DEFPOINTS
  6
CONTINUOUS
 62
     0
 10
3391.9993209999998
 20
2567.5873239999992
 30
0.0
  0
POINT
  5
7FC3
  8
DEFPOINTS
  6
CONTINUOUS
 62
     0
 10
3391.9993209999998
 20
2137.5873239999992
 30
0.0
  0
POINT
  5
7FC4
  8
DEFPOINTS
  6
CONTINUOUS
 62
     0
 10
3552.1424379999999
 20
2137.5873239999992
 30
0.0
  0
ENDBLK
  5
7E63
  8
0
  0
BLOCK
  8
0
  2
*D15
 70
     1
 10
0.0
 20
0.0
 30
0.0
  3
*D15
  1

  0
LINE
  5
7FC5
  8
3
  6
CONTINUOUS
 62
     0
 10
1015.261158
 20
4031.3473240000012
 30
0.0
 11
854.87039200000061
 21
4031.3473240000012
 31
0.0
  0
LINE
  5
7FC6
  8
3
  6
CONTINUOUS
 62
     0
 10
1015.261158
 20
3421.3473239999998
 30
0.0
 11
854.87039200000061
 21
3421.3473239999998
 31
0.0
  0
LINE
  5
7FC7
  8
3
  6
CONTINUOUS
 62
     0
 10
874.87039200000072
 20
3991.3473240000012
 30
0.0
 11
874.87039200000049
 21
3461.3473240000012
 31
0.0
  0
INSERT
  5
7FC8
  8
3
  6
CONTINUOUS
 62
     0
  2
_OPEN
 10
874.87039200000072
 20
4031.3473240000012
 30
0.0
 41
40.0
 42
40.0
 43
40.0
 50
90.0
  0
INSERT
  5
7FC9
  8
3
  6
CONTINUOUS
 62
     0
  2
_OPEN
 10
874.87039200000049
 20
3421.3473239999998
 30
0.0
 41
40.0
 42
40.0
 43
40.0
 50
270.0
  0
TEXT
  8
3
  40
60
  5
7FFC
  62
0
  72
0
  71
0
 10
704.870
 20
3614.55
 30
0.000000
  1
610
  0
POINT
  5
7FCB
  8
DEFPOINTS
  6
CONTINUOUS
 62
     0
 10
1025.2611579999991
 20
4031.3473239999998
 30
0.0
  0
POINT
  5
7FCC
  8
DEFPOINTS
  6
CONTINUOUS
 62
     0
 10
1025.2611579999991
 20
3421.3473239999998
 30
0.0
  0
POINT
  5
7FCD
  8
DEFPOINTS
  6
CONTINUOUS
 62
     0
 10
874.87039200000049
 20
3421.3473239999998
 30
0.0
  0
ENDBLK
  5
7F30
  8
0
  0
BLOCK
  8
0
  2
*D16
 70
     1
 10
0.0
 20
0.0
 30
0.0
  3
*D16
  1

  0
LINE
  5
7FCE
  8
3
  6
CONTINUOUS
 62
     0
 10
1025.2611579999991
 20
4041.3473239999998
 30
0.0
 11
1025.2611579999991
 21
4156.288481999999
 31
0.0
  0
LINE
  5
7FCF
  8
3
  6
CONTINUOUS
 62
     0
 10
2025.261158
 20
4041.3473239999998
 30
0.0
 11
2025.261158
 21
4156.288481999999
 31
0.0
  0
LINE
  5
7FD0
  8
3
  6
CONTINUOUS
 62
     0
 10
1065.2611579999991
 20
4136.2884819999999
 30
0.0
 11
1985.2611579999991
 21
4136.2884819999999
 31
0.0
  0
INSERT
  5
7FD1
  8
3
  6
CONTINUOUS
 62
     0
  2
_OPEN
 10
1025.2611579999991
 20
4136.2884819999999
 30
0.0
 41
40.0
 42
40.0
 43
40.0
 50
180.0
  0
INSERT
  5
7FD2
  8
3
  6
CONTINUOUS
 62
     0
  2
_OPEN
 10
2025.261158
 20
4136.2884819999999
 30
0.0
 41
40.0
 42
40.0
 43
40.0
  0
TEXT
  8
3
  40
60
  5
7FFD
  62
0
  72
0
  71
0
 10
1381.55
 20
4080.09
 30
0.000000
  1
1000
  0
POINT
  5
7FD4
  8
DEFPOINTS
  6
CONTINUOUS
 62
     0
 10
1025.2611579999991
 20
4031.3473239999998
 30
0.0
  0
POINT
  5
7FD5
  8
DEFPOINTS
  6
CONTINUOUS
 62
     0
 10
2025.261158
 20
4031.3473239999998
 30
0.0
  0
POINT
  5
7FD6
  8
DEFPOINTS
  6
CONTINUOUS
 62
     0
 10
2025.261158
 20
4136.2884819999999
 30
0.0
  0
ENDBLK
  5
7D17
  8
0
  0
BLOCK
  8
0
  2
*D17
 70
     1
 10
0.0
 20
0.0
 30
0.0
  3
*D17
  1

  0
LINE
  5
7F17
  8
0
  6
BYBLOCK
 62
     0
 10
3241.9993209999998
 20
2913.7847532805549
 30
0.0
 11
3241.9993209999998
 21
2979.8078049999999
 31
0.0
  0
LINE
  5
7F18
  8
0
  6
BYBLOCK
 62
     0
 10
3392.9993209999998
 20
2577.5873239999992
 30
0.0
 11
3392.9993209999998
 21
2979.8078049999999
 31
0.0
  0
LINE
  5
7F19
  8
0
  6
BYBLOCK
 62
     0
 10
3281.9993209999998
 20
2959.8078049999999
 30
0.0
 11
3352.9993209999998
 21
2959.8078049999999
 31
0.0
  0
TEXT
  5
7F1A
  8
3
 62
     0
 10
3253.7384780114512
 20
2978.4709870339429
 30
0.0
 40
60.0
  1
151
  0
INSERT
  5
7F1B
  8
0
  6
BYBLOCK
 62
     0
  2
_OPEN
 10
3241.9993209999998
 20
2959.8078049999999
 30
0.0
 41
40.0
 42
40.0
 43
40.0
 50
180.0
  0
INSERT
  5
7F1C
  8
0
  6
BYBLOCK
 62
     0
  2
_OPEN
 10
3392.9993209999998
 20
2959.8078049999999
 30
0.0
 41
40.0
 42
40.0
 43
40.0
  0
POINT
  5
7F1D
  8
DEFPOINTS
  6
BYBLOCK
 62
     0
 10
3241.9993209999998
 20
2903.7847532805549
 30
0.0
  0
POINT
  5
7F1E
  8
DEFPOINTS
  6
BYBLOCK
 62
     0
 10
3392.9993209999998
 20
2567.5873239999992
 30
0.0
  0
POINT
  5
7F1F
  8
DEFPOINTS
  6
BYBLOCK
 62
     0
 10
3392.9993209999998
 20
2959.8078049999999
 30
0.0
  0
ENDBLK
  5
7F20
  8
0
  0
BLOCK
  8
0
  2
*D18
 70
     1
 10
0.0
 20
0.0
 30
0.0
  3
*D18
  1

  0
LINE
  5
7FD7
  8
3
  6
CONTINUOUS
 62
     0
 10
2035.2611579999991
 20
1885.5873239999989
 30
0.0
 11
2382.3719569999998
 21
1885.5873239999989
 31
0.0
  0
LINE
  5
7FD8
  8
3
  6
CONTINUOUS
 62
     0
 10
2035.2611579999991
 20
1845.577323999999
 30
0.0
 11
2382.3719569999998
 21
1845.577323999999
 31
0.0
  0
LINE
  5
7FD9
  8
3
  6
CONTINUOUS
 62
     0
 10
2362.3719569999998
 20
1925.5873240000001
 30
0.0
 11
2362.3719569999998
 21
1965.5873239999989
 31
0.0
  0
LINE
  5
7FDA
  8
3
  6
CONTINUOUS
 62
     0
 10
2362.3719569999998
 20
1805.5773240000001
 30
0.0
 11
2362.3719569999998
 21
1628.4344668571421
 31
0.0
  0
LINE
  5
7FDB
  8
3
  6
CONTINUOUS
 62
     0
 10
2362.3719569999998
 20
1885.5873239999989
 30
0.0
 11
2362.3719569999998
 21
1845.577323999999
 31
0.0
  0
INSERT
  5
7FDC
  8
3
  6
CONTINUOUS
 62
     0
  2
_DOT
 10
2362.3719569999998
 20
1885.5873239999989
 30
0.0
 41
40.0
 42
40.0
 43
40.0
 50
270.0
  0
INSERT
  5
7FDD
  8
3
  6
CONTINUOUS
 62
     0
  2
_OPEN
 10
2362.3719569999998
 20
1845.577323999999
 30
0.0
 41
40.0
 42
40.0
 43
40.0
 50
90.0
  0
TEXT
  8
3
  40
60
  5
7FFE
  62
0
  72
0
  71
0
 10
2192.37
 20
1590.81
 30
0.000000
  1
40
  0
POINT
  5
7FDF
  8
DEFPOINTS
  6
CONTINUOUS
 62
     0
 10
2025.261158
 20
1885.5873239999989
 30
0.0
  0
POINT
  5
7FE0
  8
DEFPOINTS
  6
CONTINUOUS
 62
     0
 10
2025.261158
 20
1845.577323999999
 30
0.0
  0
POINT
  5
7FE1
  8
DEFPOINTS
  6
CONTINUOUS
 62
     0
 10
2362.3719569999998
 20
1845.577323999999
 30
0.0
  0
ENDBLK
  5
7E58
  8
0
  0
BLOCK
  8
0
  2
_DOT
 70
     0
 10
0.0
 20
0.0
 30
0.0
  3
_DOT
  1

  0
LINE
  5
7E64
  8
0
  6
BYBLOCK
 62
     0
 10
0.0
 20
0.0
 30
0.0
 11
-1.0
 21
-0.0000000000000284
 31
0.0
  0
POLYLINE
  5
7E65
  8
0
  6
BYBLOCK
 62
     0
 66
     1
 10
0.0
 20
0.0
 30
0.0
 70
     1
 40
0.1666666666666666
 41
0.1666666666666666
  0
VERTEX
  5
7FE2
  8
0
  6
BYBLOCK
 62
     0
 10
-0.0833333333333286
 20
-0.0000000000000284
 30
0.0
 42
1.0
  0
VERTEX
  5
7FE3
  8
0
  6
BYBLOCK
 62
     0
 10
0.0833333333333286
 20
-0.0000000000000284
 30
0.0
 42
1.0
  0
SEQEND
  5
7FE4
  8
0
  6
BYBLOCK
 62
     0
  0
ENDBLK
  5
7E3F
  8
0
  0
BLOCK
  8
0
  2
*D20
 70
     1
 10
0.0
 20
0.0
 30
0.0
  3
*D20
  1

  0
LINE
  5
7FE5
  8
3
 62
     0
 10
2065.2611579999989
 20
2777.5873239999992
 30
0.0
 11
2065.2611579999989
 21
3006.4409373267681
 31
0.0
  0
LINE
  5
7FE6
  8
3
 62
     0
 10
1025.2611579999991
 20
2062.5873239999992
 30
0.0
 11
1025.2611579999991
 21
3006.4409373267681
 31
0.0
  0
LINE
  5
7FE7
  8
3
 62
     0
 10
2025.261158
 20
2986.4409373267681
 30
0.0
 11
1065.2611579999991
 21
2986.4409373267681
 31
0.0
  0
INSERT
  5
7FE8
  8
3
 62
     0
  2
_OPEN
 10
2065.2611579999989
 20
2986.4409373267681
 30
0.0
 41
40.0
 42
40.0
 43
40.0
  0
INSERT
  5
7FE9
  8
3
 62
     0
  2
_OPEN
 10
1025.2611579999991
 20
2986.4409373267681
 30
0.0
 41
40.0
 42
40.0
 43
40.0
 50
180.0
  0
TEXT
  8
3
  40
60
  5
7FFF
  62
0
  72
0
  71
0
 10
1508.78
 20
2930.24
 30
0.000000
  1
1040
  0
POINT
  5
7FEB
  8
DEFPOINTS
 62
     0
 10
2065.2611579999989
 20
2767.5873239999992
 30
0.0
  0
POINT
  5
7FEC
  8
DEFPOINTS
 62
     0
 10
1025.2611579999991
 20
2052.5873239999992
 30
0.0
  0
POINT
  5
7FED
  8
DEFPOINTS
 62
     0
 10
1025.2611579999991
 20
2986.4409373267681
 30
0.0
  0
ENDBLK
  5
7EAA
  8
0
  0
ENDSEC
  0
SECTION
  2
ENTITIES
  0
LINE
  5
7A7C
  8
1
  6
CONTINUOUS
 10
1025.2611579999991
 20
1885.5873239999989
 30
0.0
 11
2025.261158
 21
1885.5873239999989
 31
0.0
  0
LINE
  5
7A7D
  8
1
  6
CONTINUOUS
 10
1025.2611579999991
 20
1950.5873239999989
 30
0.0
 11
2025.261158
 21
1950.5873239999989
 31
0.0
  0
LINE
  5
7A7E
  8
1
  6
CONTINUOUS
 10
2035.2611579999991
 20
2052.5873239999992
 30
0.0
 11
1025.2611579999991
 21
2052.5873239999992
 31
0.0
  0
LINE
  5
7A7F
  8
1
  6
CONTINUOUS
 10
2025.261158
 20
1972.5873240000001
 30
0.0
 11
1025.2611579999991
 21
1972.5873240000001
 31
0.0
  0
LINE
  5
7A80
  8
1
  6
CONTINUOUS
 10
1025.2611579999991
 20
1845.577323999999
 30
0.0
 11
1065.2611579999991
 21
1845.577323999999
 31
0.0
  0
LINE
  5
7A81
  8
1
  6
CONTINUOUS
 10
1025.2611579999991
 20
1950.5873239999989
 30
0.0
 11
1025.2611579999991
 21
1845.577323999999
 31
0.0
  0
LINE
  5
7A82
  8
1
  6
CONTINUOUS
 10
1025.2611579999991
 20
2052.5873239999992
 30
0.0
 11
1025.2611579999991
 21
1972.5873240000001
 31
0.0
  0
CIRCLE
  5
7A83
  8
1
  6
CONTINUOUS
 10
1765.2611579999991
 20
2352.5873239999992
 30
0.0
 40
240.0
  0
LINE
  5
7A84
  8
1
  6
CONTINUOUS
 10
2035.2611579999991
 20
2652.5873239999992
 30
0.0
 11
1425.261158
 21
2652.5873239999992
 31
0.0
  0
ARC
  5
7A85
  8
1
  6
CONTINUOUS
 10
1743.261158
 20
2374.5873239999992
 30
0.0
 40
310.75999999999999
 50
185.83000000000001
 51
277.30999999999989
  0
ARC
  5
7A86
  8
1
  6
CONTINUOUS
 10
1792.2611579999991
 20
2379.5873239999992
 30
0.0
 40
360.00999999999988
 50
94.299999999999969
 51
185.83000000000001
  0
LINE
  5
7A87
  8
1
  6
CONTINUOUS
 10
1750.7611579999991
 20
2707.5873239999992
 30
0.0
 11
1070.761158
 21
2302.5873239999992
 31
0.0
  0
LINE
  5
7A88
  8
1
  6
CONTINUOUS
 10
1210.6211579999999
 20
2233.0973239999998
 30
0.0
 11
1727.3011579999991
 21
2445.0973239999998
 31
0.0
  0
LINE
  5
7A89
  8
1
  6
CONTINUOUS
 10
1789.651157999999
 20
2255.6073240000001
 30
0.0
 11
1248.031158
 21
2119.397324
 31
0.0
  0
CIRCLE
  5
7A8A
  8
1
  6
CONTINUOUS
 10
1765.2611579999991
 20
2352.5873239999992
 30
0.0
 40
215.0
  0
LINE
  5
7A8B
  8
1
  6
CONTINUOUS
 10
1425.261158
 20
2652.5873239999992
 30
0.0
 11
1425.261158
 21
2052.5873239999992
 31
0.0
  0
LINE
  5
7A8C
  8
2
  6
CENTER
 10
1233.391157999999
 20
2117.5873240000001
 30
0.0
 11
1233.391157999999
 21
2237.5873239999992
 31
0.0
  0
ARC
  5
7A8D
  8
1
  6
CONTINUOUS
 10
1233.391157999999
 20
2177.5873239999992
 30
0.0
 40
101.0
 50
322.88
 51
217.12
  0
CIRCLE
  5
7A8E
  8
1
  6
CONTINUOUS
 10
1233.391157999999
 20
2177.5873239999992
 30
0.0
 40
60.0
  0
LINE
  5
7A8F
  8
1
  6
CONTINUOUS
 10
1070.761158
 20
2052.5873239999992
 30
0.0
 11
1070.761158
 21
2302.5873239999992
 31
0.0
  0
LINE
  5
7A90
  8
2
  6
CENTER
 10
1173.3911579999999
 20
2177.5873239999992
 30
0.0
 11
1293.3911579999999
 21
2177.5873239999992
 31
0.0
  0
LINE
  5
7A91
  8
1
  6
CONTINUOUS
 10
1133.3911579999999
 20
2089.5873239999992
 30
0.0
 11
1152.8611579999999
 21
2116.627324
 31
0.0
  0
LINE
  5
7A92
  8
1
  6
CONTINUOUS
 10
1133.3911579999999
 20
2052.5873239999992
 30
0.0
 11
1133.3911579999999
 21
2089.5873239999992
 31
0.0
  0
LINE
  5
7A93
  8
1
  6
CONTINUOUS
 10
1065.2611579999991
 20
1885.577323999999
 30
0.0
 11
1065.2611579999991
 21
1845.577323999999
 31
0.0
  0
LINE
  5
7A94
  8
1
  6
CONTINUOUS
 10
1333.391157999999
 20
2052.5873239999992
 30
0.0
 11
1333.391157999999
 21
2089.5873239999992
 31
0.0
  0
LINE
  5
7A95
  8
1
  6
CONTINUOUS
 10
1333.391157999999
 20
2089.5873239999992
 30
0.0
 11
1313.9311580000001
 21
2116.627324
 31
0.0
  0
LINE
  5
7A96
  8
1
  6
CONTINUOUS
 10
2035.2611579999991
 20
2652.5873239999992
 30
0.0
 11
2035.2611579999991
 21
2052.5873239999992
 31
0.0
  0
ARC
  5
7A97
  8
1
  6
CONTINUOUS
 10
1748.2611579999991
 20
2335.5873240000001
 30
0.0
 40
271.43999999999988
 50
277.30999999999989
 51
1.0600000000000001
  0
LINE
  5
7A98
  8
1
  6
CONTINUOUS
 10
1940.7611579999991
 20
2052.5873239999992
 30
0.0
 11
1940.7611579999991
 21
2592.5873240000001
 31
0.0
  0
LINE
  5
7A9A
  8
1
  6
CONTINUOUS
 10
2025.261158
 20
1950.5873239999989
 30
0.0
 11
2025.261158
 21
1845.577323999999
 31
0.0
  0
LINE
  5
7A9B
  8
1
  6
CONTINUOUS
 10
2025.261158
 20
2052.5873239999992
 30
0.0
 11
2025.261158
 21
1972.5873240000001
 31
0.0
  0
LINE
  5
7A9C
  8
1
  6
CONTINUOUS
 10
1985.2611579999991
 20
1885.577323999999
 30
0.0
 11
1985.2611579999991
 21
1845.577323999999
 31
0.0
  0
LINE
  5
7A9D
  8
1
  6
CONTINUOUS
 10
2025.261158
 20
1845.577323999999
 30
0.0
 11
1985.2611579999991
 21
1845.577323999999
 31
0.0
  0
LINE
  5
7A9E
  8
1
  6
CONTINUOUS
 10
2065.2611579999989
 20
2740.5873239999992
 30
0.0
 11
1765.2611579999991
 21
2738.5873239999992
 31
0.0
  0
LINE
  5
7A9F
  8
1
  6
CONTINUOUS
 10
1940.7611579999991
 20
2592.5873240000001
 30
0.0
 11
1750.7611579999991
 21
2707.5873239999992
 31
0.0
  0
LINE
  5
7AA0
  8
2
  6
CENTER
 10
3430.897254
 20
2352.5873239999992
 30
0.0
 11
2854.6032890695101
 21
2352.5873239999992
 31
0.0
  0
CIRCLE
  5
7AA1
  8
1
  6
CONTINUOUS
 10
1765.2611579999991
 20
2352.5873239999992
 30
0.0
 40
100.0
  0
LINE
  5
7AA2
  8
2
  6
CENTER
 10
1765.2611579999991
 20
4017.231664665238
 30
0.0
 11
1765.2611579999991
 21
3384.598770032982
 31
0.0
  0
LINE
  5
7AA3
  8
1
  6
CONTINUOUS
 10
2045.261158
 20
2340.5873239999992
 30
0.0
 11
2045.261158
 21
2740.4473239999988
 31
0.0
  0
LINE
  5
7AA4
  8
1
  6
CONTINUOUS
 10
2065.2611579999989
 20
2313.5873239999992
 30
0.0
 11
2065.2611579999989
 21
2767.5873239999992
 31
0.0
  0
LINE
  5
7AA5
  8
1
  6
CONTINUOUS
 10
2019.661157999999
 20
2340.5873239999992
 30
0.0
 11
2065.2611579999989
 21
2340.5873239999992
 31
0.0
  0
LINE
  5
7AA6
  8
1
  6
CONTINUOUS
 10
2025.261158
 20
3951.3573239999992
 30
0.0
 11
1025.2611579999991
 21
3951.3573239999992
 31
0.0
  0
LINE
  5
7AA7
  8
1
  6
CONTINUOUS
 10
1219.3911579999999
 20
3563.3573240000001
 30
0.0
 11
1025.2611579999991
 21
3563.3573240000001
 31
0.0
  0
LINE
  5
7AA8
  8
1
  6
CONTINUOUS
 10
1065.2611579999991
 20
4031.3473239999998
 30
0.0
 11
1025.2611579999991
 21
4031.3473239999998
 31
0.0
  0
LINE
  5
7AA9
  8
1
  6
CONTINUOUS
 10
1065.2611579999991
 20
3421.3473239999998
 30
0.0
 11
1025.2611579999991
 21
3421.3473239999998
 31
0.0
  0
LINE
  5
7AAA
  8
1
  6
CONTINUOUS
 10
1025.2611579999991
 20
4031.3473239999998
 30
0.0
 11
1025.2611579999991
 21
3421.3473239999998
 31
0.0
  0
LINE
  5
7AAB
  8
1
  6
CONTINUOUS
 10
1425.261158
 20
3607.3573240000001
 30
0.0
 11
2065.2611579999989
 21
3607.3573240000001
 31
0.0
  0
LINE
  5
7AAC
  8
1
  6
CONTINUOUS
 10
1425.261158
 20
3907.3573240000001
 30
0.0
 11
2065.2611579999989
 21
3907.3573240000001
 31
0.0
  0
LINE
  5
7AAD
  8
1
  6
CONTINUOUS
 10
1070.761158
 20
3427.3573240000001
 30
0.0
 11
1940.7611579999991
 21
3427.3573240000001
 31
0.0
  0
LINE
  5
7AAE
  8
1
  6
CONTINUOUS
 10
1070.761158
 20
3527.3573240000001
 30
0.0
 11
1940.7611579999991
 21
3527.3573240000001
 31
0.0
  0
LINE
  5
7AAF
  8
1
  6
CONTINUOUS
 10
1751.2611579999991
 20
3563.3573240000001
 30
0.0
 11
1247.3911579999999
 21
3563.3573240000001
 31
0.0
  0
LINE
  5
7AB0
  8
1
  6
CONTINUOUS
 10
1065.2611579999991
 20
4031.3473239999998
 30
0.0
 11
1065.2611579999991
 21
3951.3473239999998
 31
0.0
  0
LINE
  5
7AB1
  8
1
  6
CONTINUOUS
 10
1219.3911579999999
 20
3502.3573240000001
 30
0.0
 11
1219.3911579999999
 21
3594.877324
 31
0.0
  0
LINE
  5
7AB2
  8
1
  6
CONTINUOUS
 10
1247.3911579999999
 20
3502.3573240000001
 30
0.0
 11
1247.3911579999999
 21
3594.877324
 31
0.0
  0
LINE
  5
7AB3
  8
1
  6
CONTINUOUS
 10
1065.2611579999991
 20
3563.3473239999998
 30
0.0
 11
1065.2611579999991
 21
3421.3473239999998
 31
0.0
  0
LINE
  5
7AB4
  8
1
  6
CONTINUOUS
 10
1173.3911579999999
 20
3452.3573240000001
 30
0.0
 11
1293.3911579999999
 21
3452.3573240000001
 31
0.0
  0
LINE
  5
7AB5
  8
1
  6
CONTINUOUS
 10
1173.3911579999999
 20
3502.3573240000001
 30
0.0
 11
1293.3911579999999
 21
3502.3573240000001
 31
0.0
  0
LINE
  5
7AB6
  8
1
  6
CONTINUOUS
 10
1070.761158
 20
3427.3573240000001
 30
0.0
 11
1070.761158
 21
3527.3573240000001
 31
0.0
  0
LINE
  5
7AB7
  8
1
  6
CONTINUOUS
 10
1173.3911579999999
 20
3452.3573240000001
 30
0.0
 11
1173.3911579999999
 21
3502.3573240000001
 31
0.0
  0
LINE
  5
7AB8
  8
1
  6
CONTINUOUS
 10
1293.3911579999999
 20
3452.3573240000001
 30
0.0
 11
1293.3911579999999
 21
3502.3573240000001
 31
0.0
  0
LINE
  5
7AB9
  8
1
  6
CONTINUOUS
 10
1334.391157999999
 20
3837.5573239999999
 30
0.0
 11
1132.391157999999
 21
3837.5573239999999
 31
0.0
  0
LINE
  5
7ABA
  8
1
  6
CONTINUOUS
 10
1334.391157999999
 20
3594.877324
 30
0.0
 11
1132.391157999999
 21
3594.877324
 31
0.0
  0
LINE
  5
7ABB
  8
1
  6
CONTINUOUS
 10
1132.391157999999
 20
3594.877324
 30
0.0
 11
1132.391157999999
 21
3837.5573239999999
 31
0.0
  0
LINE
  5
7ABC
  8
1
  6
CONTINUOUS
 10
1334.391157999999
 20
3594.877324
 30
0.0
 11
1334.391157999999
 21
3837.5573239999999
 31
0.0
  0
LINE
  5
7ABD
  8
1
  6
CONTINUOUS
 10
1425.261158
 20
3607.3573240000001
 30
0.0
 11
1425.261158
 21
3907.3573240000001
 31
0.0
  0
LINE
  5
7ABE
  8
1
  6
CONTINUOUS
 10
2025.261158
 20
4031.3473239999998
 30
0.0
 11
2025.261158
 21
3907.3573240000001
 31
0.0
  0
LINE
  5
7ABF
  8
1
  6
CONTINUOUS
 10
1985.2611579999991
 20
4031.3473239999998
 30
0.0
 11
1985.2611579999991
 21
3951.3473239999998
 31
0.0
  0
LINE
  5
7AC0
  8
1
  6
CONTINUOUS
 10
2025.261158
 20
3563.3573240000001
 30
0.0
 11
1779.2611579999991
 21
3563.3573240000001
 31
0.0
  0
LINE
  5
7AC1
  8
1
  6
CONTINUOUS
 10
1751.2611579999991
 20
3502.3573240000001
 30
0.0
 11
1751.2611579999991
 21
3607.3573240000001
 31
0.0
  0
LINE
  5
7AC2
  8
1
  6
CONTINUOUS
 10
1779.2611579999991
 20
3502.3573240000001
 30
0.0
 11
1779.2611579999991
 21
3607.3573240000001
 31
0.0
  0
LINE
  5
7AC3
  8
1
  6
CONTINUOUS
 10
1661.741158
 20
3452.3573240000001
 30
0.0
 11
1865.261158
 21
3452.3573240000001
 31
0.0
  0
LINE
  5
7AC4
  8
1
  6
CONTINUOUS
 10
1661.741158
 20
3502.3573240000001
 30
0.0
 11
1865.261158
 21
3502.3573240000001
 31
0.0
  0
LINE
  5
7AC5
  8
1
  6
CONTINUOUS
 10
1661.741158
 20
3452.3573240000001
 30
0.0
 11
1661.741158
 21
3502.3573240000001
 31
0.0
  0
LINE
  5
7AC6
  8
1
  6
CONTINUOUS
 10
1940.7611579999991
 20
3427.3573240000001
 30
0.0
 11
1940.7611579999991
 21
3527.3573240000001
 31
0.0
  0
LINE
  5
7AC7
  8
1
  6
CONTINUOUS
 10
1865.261158
 20
3452.3573240000001
 30
0.0
 11
1865.261158
 21
3502.3573240000001
 31
0.0
  0
LINE
  5
7AC8
  8
1
  6
CONTINUOUS
 10
2025.261158
 20
3607.3573240000001
 30
0.0
 11
2025.261158
 21
3421.3473239999998
 31
0.0
  0
LINE
  5
7AC9
  8
1
  6
CONTINUOUS
 10
1985.2611579999991
 20
3563.3473239999998
 30
0.0
 11
1985.2611579999991
 21
3421.3473239999998
 31
0.0
  0
LINE
  5
7ACA
  8
1
  6
CONTINUOUS
 10
1985.2611579999991
 20
3421.3473239999998
 30
0.0
 11
2025.261158
 21
3421.3473239999998
 31
0.0
  0
LINE
  5
7ACB
  8
1
  6
CONTINUOUS
 10
2065.2611579999989
 20
3580.3573239999992
 30
0.0
 11
2065.2611579999989
 21
3934.3573240000001
 31
0.0
  0
LINE
  5
7ACC
  8
1
  6
CONTINUOUS
 10
2045.261158
 20
3607.3573240000001
 30
0.0
 11
2045.261158
 21
3907.3573240000001
 31
0.0
  0
LINE
  5
7ACD
  8
1
  6
CONTINUOUS
 10
1985.2611579999991
 20
4031.3473239999998
 30
0.0
 11
2025.261158
 21
4031.3473239999998
 31
0.0
  0
LINE
  5
7ACE
  8
1
  6
CONTINUOUS
 10
2905.9993209999998
 20
1885.5873239999989
 30
0.0
 11
3515.9993209999998
 21
1885.5873239999989
 31
0.0
  0
LINE
  5
7ACF
  8
1
  6
CONTINUOUS
 10
3047.9993209999998
 20
1950.5873239999989
 30
0.0
 11
3435.9993209999998
 21
1950.5873239999989
 31
0.0
  0
LINE
  5
7AD0
  8
1
  6
CONTINUOUS
 10
3435.9993209999998
 20
1972.5873240000001
 30
0.0
 11
3047.9993209999998
 21
1972.5873240000001
 31
0.0
  0
LINE
  5
7AD1
  8
1
  6
CONTINUOUS
 10
3435.9993209999998
 20
2052.5873239999992
 30
0.0
 11
2911.9993209999998
 21
2052.5873239999992
 31
0.0
  0
LINE
  5
7AD2
  8
1
  6
CONTINUOUS
 10
3515.9993209999998
 20
1845.577323999999
 30
0.0
 11
2905.9993209999998
 21
1845.577323999999
 31
0.0
  0
LINE
  5
7AD3
  8
1
  6
CONTINUOUS
 10
3091.9993209999998
 20
2740.5873239999992
 30
0.0
 11
3091.9993209999998
 21
2052.5873239999992
 31
0.0
  0
LINE
  5
7AD4
  8
1
  6
CONTINUOUS
 10
3391.9993209999998
 20
2740.5873239999992
 30
0.0
 11
3391.9993209999998
 21
2052.5873239999992
 31
0.0
  0
LINE
  5
7AD5
  8
1
  6
CONTINUOUS
 10
2911.9993209999998
 20
2052.5873239999992
 30
0.0
 11
2911.9993209999998
 21
2707.5873239999992
 31
0.0
  0
LINE
  5
7AD6
  8
1
  6
CONTINUOUS
 10
3011.9993209999998
 20
2052.5873239999992
 30
0.0
 11
3011.9993209999998
 21
2707.5873239999992
 31
0.0
  0
LINE
  5
7AD7
  8
1
  6
CONTINUOUS
 10
2986.9993209999998
 20
2117.5873240000001
 30
0.0
 11
2986.9993209999998
 21
2237.5873239999992
 31
0.0
  0
LINE
  5
7AD8
  8
1
  6
CONTINUOUS
 10
2936.9993209999998
 20
2117.5873240000001
 30
0.0
 11
2936.9993209999998
 21
2237.5873239999992
 31
0.0
  0
LINE
  5
7ADA
  8
1
  6
CONTINUOUS
 10
2936.9993209999998
 20
2117.5873240000001
 30
0.0
 11
2986.9993209999998
 21
2117.5873240000001
 31
0.0
  0
LINE
  5
7ADB
  8
1
  6
CONTINUOUS
 10
2905.9993209999998
 20
1885.5873239999989
 30
0.0
 11
2905.9993209999998
 21
1845.577323999999
 31
0.0
  0
LINE
  5
7ADC
  8
1
  6
CONTINUOUS
 10
3047.9993209999998
 20
1950.5873239999989
 30
0.0
 11
3047.9993209999998
 21
1885.5873239999989
 31
0.0
  0
LINE
  5
7ADD
  8
1
  6
CONTINUOUS
 10
3047.9993209999998
 20
2052.5873239999992
 30
0.0
 11
3047.9993209999998
 21
1972.5873240000001
 31
0.0
  0
LINE
  5
7ADE
  8
1
  6
CONTINUOUS
 10
2986.9993209999998
 20
2191.5873239999992
 30
0.0
 11
3091.9993209999998
 21
2191.5873239999992
 31
0.0
  0
LINE
  5
7ADF
  8
1
  6
CONTINUOUS
 10
2986.9993209999998
 20
2163.5873239999992
 30
0.0
 11
3091.9993209999998
 21
2163.5873239999992
 31
0.0
  0
LINE
  5
7AE0
  8
1
  6
CONTINUOUS
 10
3091.9993209999998
 20
2740.5873239999992
 30
0.0
 11
3391.9993209999998
 21
2740.5873239999992
 31
0.0
  0
LINE
  5
7AE1
  8
1
  6
CONTINUOUS
 10
3091.9993209999998
 20
2340.5873239999992
 30
0.0
 11
3391.9993209999998
 21
2340.5873239999992
 31
0.0
  0
LINE
  5
7AE2
  8
1
  6
CONTINUOUS
 10
3391.9993209999998
 20
2340.5873239999992
 30
0.0
 11
3091.9993209999998
 21
2740.5873239999992
 31
0.0
  0
LINE
  5
7AE3
  8
1
  6
CONTINUOUS
 10
3091.9993209999998
 20
2340.5873239999992
 30
0.0
 11
3391.9993209999998
 21
2740.5873239999992
 31
0.0
  0
LINE
  5
7AE4
  8
1
  6
CONTINUOUS
 10
2936.9993209999998
 20
2237.5873239999992
 30
0.0
 11
2986.9993209999998
 21
2237.5873239999992
 31
0.0
  0
LINE
  5
7AE5
  8
1
  6
CONTINUOUS
 10
2936.9993209999998
 20
2454.3473239999989
 30
0.0
 11
2986.9993209999998
 21
2454.3473239999989
 31
0.0
  0
LINE
  5
7AE6
  8
1
  6
CONTINUOUS
 10
2936.9993209999998
 20
2250.8173239999992
 30
0.0
 11
2986.9993209999998
 21
2250.8173239999992
 31
0.0
  0
LINE
  5
7AE7
  8
1
  6
CONTINUOUS
 10
2936.9993209999998
 20
2250.8173239999992
 30
0.0
 11
2936.9993209999998
 21
2454.3473239999989
 31
0.0
  0
LINE
  5
7AE8
  8
1
  6
CONTINUOUS
 10
2986.9993209999998
 20
2368.3473239999989
 30
0.0
 11
3092.799321
 21
2368.3473239999989
 31
0.0
  0
LINE
  5
7AE9
  8
1
  6
CONTINUOUS
 10
2986.9993209999998
 20
2340.3473239999998
 30
0.0
 11
3092.799321
 21
2340.3473239999998
 31
0.0
  0
LINE
  5
7AEA
  8
1
  6
CONTINUOUS
 10
2986.9993209999998
 20
2250.8173239999992
 30
0.0
 11
2986.9993209999998
 21
2454.3473239999989
 31
0.0
  0
LINE
  5
7AEB
  8
1
  6
CONTINUOUS
 10
2911.9993209999998
 20
2707.5873239999992
 30
0.0
 11
3011.9993209999998
 21
2707.5873239999992
 31
0.0
  0
LINE
  5
7AEC
  8
1
  6
CONTINUOUS
 10
3435.9993209999998
 20
1950.5873239999989
 30
0.0
 11
3435.9993209999998
 21
1885.5873239999989
 31
0.0
  0
LINE
  5
7AED
  8
1
  6
CONTINUOUS
 10
3435.9993209999998
 20
2052.5873239999992
 30
0.0
 11
3435.9993209999998
 21
1972.5873240000001
 31
0.0
  0
LINE
  5
7AEE
  8
1
  6
CONTINUOUS
 10
3515.9993209999998
 20
1885.5873239999989
 30
0.0
 11
3515.9993209999998
 21
1845.577323999999
 31
0.0
  0
LINE
  5
7AEF
  8
2
  6
CENTER
 10
3241.9993209999998
 20
2827.4510338914988
 30
0.0
 11
3241.9993209999998
 21
1766.66289767789
 31
0.0
  0
LINE
  5
7AF0
  8
2
  6
CENTER
 10
964.65435950565359
 20
3757.3573240000001
 30
0.0
 11
2128.8433243647992
 21
3757.3573240000001
 31
0.0
  0
LINE
  5
7AF1
  8
2
  6
CENTER
 10
1765.2611579999991
 20
2850.057763894024
 30
0.0
 11
1765.2611579999991
 21
1721.0356183393969
 31
0.0
  0
LINE
  5
7AF2
  8
2
  6
CENTER
 10
2157.4240173265689
 20
2352.5873239999992
 30
0.0
 11
1025.927470494727
 21
2352.5873239999992
 31
0.0
  0
LINE
  5
7AF9
  8
4
  6
CONTINUOUS
 10
3700.0
 20
1000.0
 30
0.0
 11
3700.0
 21
600.0
 31
0.0
  0
LINE
  5
7AFA
  8
4
  6
CONTINUOUS
 10
2300.0
 20
1000.0
 30
0.0
 11
2300.0
 21
600.0
 31
0.0
  0
LINE
  5
7AFB
  8
4
  6
CONTINUOUS
 10
1300.0
 20
1000.0
 30
0.0
 11
1300.0
 21
600.0
 31
0.0
  0
LINE
  5
7AFE
  8
4
  6
CONTINUOUS
 10
1300.0
 20
600.0
 30
0.0
 11
3700.0
 21
600.0
 31
0.0
  0
LINE
  5
7AFF
  8
4
  6
CONTINUOUS
 10
1300.0
 20
800.0
 30
0.0
 11
3700.0
 21
800.0
 31
0.0
  0
TEXT
  5
7B00
  8
4
  6
CONTINUOUS
 10
1377.004162
 20
863.086052
 30
0.0
 40
100.0
  1
機器名称
  0
TEXT
  5
7B01
  8
4
  6
CONTINUOUS
 10
1372.516212
 20
643.29031299999986
 30
0.0
 40
100.0
  1
機器型番
  0
TEXT
  5
7B02
  8
4
  6
CONTINUOUS
 10
2355.3574910000002
 20
845.14353800000015
 30
0.0
 40
100.0
  1
ミツヤ多翼送風機
  0
TEXT
  5
7B03
  8
4
  6
CONTINUOUS
 10
2373.3089909999999
 20
634.31916899999999
 30
0.0
 40
100.0
  1
MF#2 1/2-4
  0
TEXT
  5
7B05
  8
4
  6
CONTINUOUS
 10
1521.5559609999989
 20
4766.8576830000002
 30
0.0
 40
108.0
  1
天井吊防振ベット
  0
TEXT
  5
7B06
  8
4
  6
CONTINUOUS
 10
632.33518700000002
 20
5067.7619520000007
 30
0.0
 40
144.0
  1
ベルト駆動式片吸込量持多翼ファン
  0
LINE
  5
7B07
  8
4
  6
CONTINUOUS
 10
500.0
 20
4938.8175090000004
 30
0.0
 11
3700.0
 21
4938.8175090000004
 31
0.0
  0
LINE
  5
7B08
  8
4
  6
CONTINUOUS
 10
500.0
 20
5338.8175090000004
 30
0.0
 11
3700.0
 21
5338.8175090000004
 31
0.0
  0
LINE
  5
7B09
  8
4
  6
CONTINUOUS
 10
1300.0
 20
1000.0
 30
0.0
 11
3700.0
 21
1000.0
 31
0.0
  0
LINE
  5
7B0A
  8
4
  6
CONTINUOUS
 10
500.0
 20
5338.8175090000004
 30
0.0
 11
500.0
 21
4938.8175090000004
 31
0.0
  0
TEXT
  5
7B0B
  8
4
  6
CONTINUOUS
 10
583.37313200000006
 20
4764.6389549999994
 30
0.0
 40
108.0
  1
右回転右横向
  0
TEXT
  5
7B0C
  8
4
  6
CONTINUOUS
 10
2937.9391179999998
 20
5412.122163
 30
0.0
 40
112.0
  1
No.
  0
TEXT
  5
7B0D
  8
4
  6
CONTINUOUS
 10
2622.5921250000001
 20
4766.8576830000002
 30
0.0
 40
108.0
  1
縮尺：1/20
  0
LINE
  5
7B0E
  8
4
  6
CONTINUOUS
 10
3700.0
 20
5338.8175090000004
 30
0.0
 11
3700.0
 21
4938.8175090000004
 31
0.0
  0
LINE
  5
7B10
  8
4
  6
CONTINUOUS
 10
2881.234845
 20
5362.5271659999999
 30
0.0
 11
2881.234845
 21
5573.3045229999998
 31
0.0
  0
LINE
  5
7B11
  8
4
  6
CONTINUOUS
 10
2881.234845
 20
5573.3045229999998
 30
0.0
 11
3700.0
 21
5573.3045229999998
 31
0.0
  0
LINE
  5
7B12
  8
4
  6
CONTINUOUS
 10
3700.0
 20
5573.3045229999998
 30
0.0
 11
3700.0
 21
5362.5271659999999
 31
0.0
  0
LINE
  5
7B13
  8
4
  6
CONTINUOUS
 10
3700.0
 20
5362.5271659999999
 30
0.0
 11
2881.234845
 21
5362.5271659999999
 31
0.0
  0
DIMENSION
  5
7B25
  8
3
  6
CONTINUOUS
  2
*D1
 10
2220.8105399999999
 20
2340.5873239999992
 30
0.0
 11
2220.810539999999
 21
2519.356276999999
 31
0.0
 70
   128
 13
2065.2611579999989
 23
2740.5873239999992
 33
0.0
 14
2065.2611579999989
 24
2340.5873239999992
 34
0.0
 50
90.0
1001
ACAD
1000
DSTYLE
1002
{
1070
   287
1070
     3
1070
    40
1040
20.0
1070
   143
1040
0.039
1070
   172
1070
     1
1070
   271
1070
     0
1070
   279
1070
     0
1070
   288
1070
     1
1002
}
  0
DIMENSION
  5
7B5B
  8
3
  6
CONTINUOUS
  2
*D2
 10
2501.9268539999998
 20
1845.577323999999
 30
0.0
 11
2501.9268539999998
 21
2361.1841629999999
 31
0.0
 70
   128
 13
2065.2611579999989
 23
2767.5873239999992
 33
0.0
 14
2025.261158
 24
1845.577323999999
 34
0.0
 50
90.0
1001
ACAD
1000
DSTYLE
1002
{
1070
   287
1070
     3
1070
    40
1040
20.0
1070
   143
1040
0.039
1070
   172
1070
     1
1070
   271
1070
     0
1070
   279
1070
     0
1070
   288
1070
     1
1002
}
  0
DIMENSION
  5
7B68
  8
3
  6
CONTINUOUS
  2
*D3
 10
1765.2611579999991
 20
2871.889772999999
 30
0.0
 11
1928.1183008571429
 21
2871.889772999999
 31
0.0
 70
   128
 13
2065.2611579999989
 23
2767.5873239999992
 33
0.0
 14
1765.2611579999991
 24
2859.1370125860649
 34
0.0
1001
ACAD
1000
DSTYLE
1002
{
1070
   287
1070
     3
1070
    40
1040
20.0
1070
   143
1040
0.039
1070
   172
1070
     1
1070
   271
1070
     0
1070
   279
1070
     0
1070
   288
1070
     1
1002
}
  0
DIMENSION
  5
7B74
  8
3
  6
CONTINUOUS
  2
*D4
 10
1425.261158
 20
2871.889772999999
 30
0.0
 11
1595.2611579999991
 21
2921.8897729999999
 31
0.0
 70
     0
 13
1765.2611579999991
 23
2859.1370125860649
 33
0.0
 14
1425.261158
 24
2652.5873239999992
 34
0.0
1001
ACAD
1000
DSTYLE
1002
{
1070
   287
1070
     4
1070
    40
1040
20.0
1070
    75
1070
     1
1070
   143
1040
0.039
1070
   172
1070
     1
1070
   271
1070
     0
1070
   279
1070
     1
1070
   288
1070
     1
1002
}
  0
DIMENSION
  5
7B92
  8
3
  6
CONTINUOUS
  2
*D5
 10
2362.3719569999998
 20
2352.5873239999992
 30
0.0
 11
2362.3719569999998
 21
2510.627782
 31
0.0
 70
   128
 13
2065.2611579999989
 23
2740.5873239999992
 33
0.0
 14
2157.4240173265689
 24
2352.5873239999992
 34
0.0
 50
90.0
1001
ACAD
1000
DSTYLE
1002
{
1070
   287
1070
     3
1070
    40
1040
20.0
1070
   143
1040
0.039
1070
   172
1070
     1
1070
   271
1070
     0
1070
   279
1070
     0
1070
   288
1070
     1
1002
}
  0
DIMENSION
  5
7B9E
  8
3
  6
CONTINUOUS
  2
*D6
 10
2362.3719569999998
 20
1972.5873240000001
 30
0.0
 11
2312.3719569999989
 21
2162.5873239999992
 31
0.0
 70
     0
 13
2157.4240173265689
 23
2352.5873239999992
 33
0.0
 14
2025.261158
 24
1972.5873240000001
 34
0.0
 50
90.0
1001
ACAD
1000
DSTYLE
1002
{
1070
   287
1070
     4
1070
    40
1040
20.0
1070
    75
1070
     1
1070
   143
1040
0.039
1070
   172
1070
     1
1070
   271
1070
     0
1070
   279
1070
     1
1070
   288
1070
     1
1002
}
  0
DIMENSION
  5
7BAE
  8
3
  6
CONTINUOUS
  2
*D7
 10
2362.3719569999998
 20
1885.5873239999989
 30
0.0
 11
2430.7148794980239
 21
1932.834932193851
 31
0.0
 70
   128
 13
2025.261158
 23
1972.5873240000001
 33
0.0
 14
2025.261158
 24
1885.5873239999989
 34
0.0
 50
90.0
1001
ACAD
1000
DSTYLE
1002
{
1070
   288
1070
     1
1070
   172
1070
     1
1070
    75
1070
     1
1070
    40
1040
20.0
1070
   271
1070
     0
1070
     7
1000
_DOT
1070
   143
1040
0.039
1002
}
  0
DIMENSION
  5
7BBB
  8
3
  6
CONTINUOUS
  2
*D8
 10
1765.2611579999991
 20
1706.085842
 30
0.0
 11
1431.9746990000001
 21
1706.085842
 31
0.0
 70
   128
 13
1025.2611579999991
 23
1845.577323999999
 33
0.0
 14
1765.2611579999991
 24
1737.8487210882679
 34
0.0
1001
ACAD
1000
DSTYLE
1002
{
1070
   287
1070
     3
1070
    40
1040
20.0
1070
   143
1040
0.039
1070
   172
1070
     1
1070
   271
1070
     0
1070
   279
1070
     0
1070
   288
1070
     1
1002
}
  0
DIMENSION
  5
7BC9
  8
3
  6
CONTINUOUS
  2
*D9
 10
2025.261158
 20
1706.085842
 30
0.0
 11
1914.0202919999999
 21
1706.4556279999999
 31
0.0
 70
   128
 13
1765.2611579999991
 23
1737.8487210882679
 33
0.0
 14
2025.261158
 24
1845.577323999999
 34
0.0
1001
ACAD
1000
DSTYLE
1002
{
1070
   287
1070
     4
1070
    40
1040
20.0
1070
    75
1070
     1
1070
   143
1040
0.039
1070
   172
1070
     1
1070
   271
1070
     0
1070
   279
1070
     1
1070
   288
1070
     1
1002
}
  0
DIMENSION
  5
7BE3
  8
3
  6
CONTINUOUS
  2
*D10
 10
3241.9993209999998
 20
1687.0303309999999
 30
0.0
 11
3077.4244990000002
 21
1687.0303309999999
 31
0.0
 70
   128
 13
2905.9993209999998
 23
1845.577323999999
 33
0.0
 14
3241.9993209999998
 24
1763.322049739221
 34
0.0
1001
ACAD
1000
DSTYLE
1002
{
1070
   287
1070
     3
1070
    40
1040
20.0
1070
   143
1040
0.039
1070
   172
1070
     1
1070
   271
1070
     0
1070
   279
1070
     0
1070
   288
1070
     1
1002
}
  0
DIMENSION
  5
7BF1
  8
3
  6
CONTINUOUS
  2
*D11
 10
3515.9993209999998
 20
1687.0303309999999
 30
0.0
 11
3374.2777959999999
 21
1683.318591
 31
0.0
 70
   128
 13
3241.9993209999998
 23
1765.5492857133461
 33
0.0
 14
3515.9993209999998
 24
1845.577323999999
 34
0.0
1001
ACAD
1000
DSTYLE
1002
{
1070
   287
1070
     4
1070
    40
1040
20.0
1070
    75
1070
     1
1070
   143
1040
0.039
1070
   172
1070
     1
1070
   271
1070
     0
1070
   279
1070
     1
1070
   288
1070
     1
1002
}
  0
DIMENSION
  5
7C18
  8
3
  6
CONTINUOUS
  2
*D12
 10
3091.9993209999998
 20
2815.019507
 30
0.0
 11
3229.1421780000001
 21
2815.019507
 31
0.0
 70
   128
 13
3391.9993209999998
 23
2740.5873239999992
 33
0.0
 14
3091.9993209999998
 24
2740.5873239999992
 34
0.0
1001
ACAD
1000
DSTYLE
1002
{
1070
   287
1070
     3
1070
    40
1040
20.0
1070
   143
1040
0.039
1070
   172
1070
     1
1070
   271
1070
     0
1070
   279
1070
     0
1070
   288
1070
     1
1002
}
  0
DIMENSION
  5
7C32
  8
3
  6
CONTINUOUS
  2
*D13
 10
2911.9993209999998
 20
2959.8078049999999
 30
0.0
 11
3076.9993209999998
 21
3059.8078049999999
 31
0.0
 70
     0
  1
MAX\P380
 13
3241.9993209999998
 23
2943.9030320000002
 33
0.0
 14
2911.9993209999998
 24
2707.5873239999992
 34
0.0
1001
ACAD
1000
DSTYLE
1002
{
1070
   287
1070
     4
1070
    40
1040
20.0
1070
    75
1070
     1
1070
   143
1040
0.039
1070
   172
1070
     1
1070
   271
1070
     0
1070
   279
1070
     1
1070
   288
1070
     1
1002
}
  0
DIMENSION
  5
7C41
  8
3
  6
CONTINUOUS
  2
*D14
 10
3552.1424379999999
 20
2137.5873239999992
 30
0.0
 11
3552.1424379999999
 21
2341.6701670000002
 31
0.0
 70
   128
 13
3391.9993209999998
 23
2567.5873239999992
 33
0.0
 14
3391.9993209999998
 24
2137.5873239999992
 34
0.0
 50
90.0
1001
ACAD
1000
DSTYLE
1002
{
1070
   287
1070
     3
1070
     3
1000
φ<>
1070
    40
1040
20.0
1070
   143
1040
0.039
1070
   172
1070
     1
1070
   271
1070
     0
1070
   279
1070
     0
1070
   288
1070
     1
1002
}
  0
DIMENSION
  5
7C5B
  8
3
  6
CONTINUOUS
  2
*D15
 10
874.87039200000049
 20
3421.3473239999998
 30
0.0
 11
874.87039200000004
 21
3720.7514769999998
 31
0.0
 70
   128
 13
1025.2611579999991
 23
4031.3473239999998
 33
0.0
 14
1025.2611579999991
 24
3421.3473239999998
 34
0.0
 50
90.0
1001
ACAD
1000
DSTYLE
1002
{
1070
   287
1070
     3
1070
    40
1040
20.0
1070
   143
1040
0.039
1070
   172
1070
     1
1070
   271
1070
     0
1070
   279
1070
     0
1070
   288
1070
     1
1002
}
  0
DIMENSION
  5
7C68
  8
3
  6
CONTINUOUS
  2
*D16
 10
2025.261158
 20
4136.2884819999999
 30
0.0
 11
1501.554523
 21
4136.2884819999999
 31
0.0
 70
   128
 13
1025.2611579999991
 23
4031.3473239999998
 33
0.0
 14
2025.261158
 24
4031.3473239999998
 34
0.0
1001
ACAD
1000
DSTYLE
1002
{
1070
   287
1070
     3
1070
    40
1040
20.0
1070
   143
1040
0.039
1070
   172
1070
     1
1070
   271
1070
     0
1070
   279
1070
     0
1070
   288
1070
     1
1002
}
  0
LINE
  5
7D68
  8
1
  6
CONTINUOUS
 10
3392.9993209999998
 20
2567.5873239999992
 30
0.0
 11
3392.9993209999998
 21
2137.5873239999992
 31
0.0
  0
DIMENSION
  5
7D78
  8
3
  6
CONTINUOUS
  2
*D17
 10
3392.9993209999998
 20
2959.8078049999999
 30
0.0
 11
3312.3099065828778
 21
3008.4709870339429
 31
0.0
 70
   128
 13
3241.9993209999998
 23
2903.7847532805549
 33
0.0
 14
3392.9993209999998
 24
2567.5873239999992
 34
0.0
1001
ACAD
1000
DSTYLE
1002
{
1070
   288
1070
     1
1070
   172
1070
     1
1070
    40
1040
20.0
1070
   271
1070
     0
1070
   143
1040
0.039
1002
}
  0
DIMENSION
  5
7DCD
  8
3
  6
CONTINUOUS
  2
*D18
 10
2362.3719569999998
 20
1845.577323999999
 30
0.0
 11
2362.3719569999998
 21
1697.005895428571
 31
0.0
 70
   128
 13
2025.261158
 23
1885.5873239999989
 33
0.0
 14
2025.261158
 24
1845.577323999999
 34
0.0
 50
90.0
1001
ACAD
1000
DSTYLE
1002
{
1070
   287
1070
     3
1070
    40
1040
20.0
1070
   143
1040
0.039
1070
   172
1070
     1
1070
   271
1070
     0
1070
   279
1070
     0
1070
   288
1070
     1
1070
     6
1000
DOT
1002
}
  0
DIMENSION
  5
7E9F
  8
3
  2
*D20
 10
1025.2611579999991
 20
2986.4409373267681
 30
0.0
 11
1628.7786459063859
 21
2986.4409373267681
 31
0.0
 70
   128
 13
2065.2611579999989
 23
2767.5873239999992
 33
0.0
 14
1025.2611579999991
 24
2052.5873239999992
 34
0.0
1001
ACAD
1000
DSTYLE
1002
{
1070
   287
1070
     3
1070
    40
1040
20.0
1070
   143
1040
0.039
1070
   172
1070
     1
1070
   271
1070
     0
1070
   279
1070
     0
1070
   288
1070
     1
1002
}
  0
ENDSEC
  0
EOF
