  0
SECTION
  2
HEADER
  9
$ACADVER
  1
AC1009
  9
$INSBASE
 10
0.0
 20
0.0
 30
0.0
  9
$EXTMIN
 10
500.0
 20
600.0
 30
0.0
  9
$EXTMAX
 10
3700.0
 20
5573.3045229999998
 30
0.0
  9
$LIMMIN
 10
0.0
 20
0.0
  9
$LIMMAX
 10
297.0
 20
210.0
  9
$ORTHOMODE
 70
     0
  9
$REGENMODE
 70
     1
  9
$FILLMODE
 70
     0
  9
$QTEXTMODE
 70
     0
  9
$MIRRTEXT
 70
     1
  9
$DRAGMODE
 70
     2
  9
$LTSCALE
 40
100.0
  9
$OSMODE
 70
    37
  9
$ATTMODE
 70
     1
  9
$TEXTSIZE
 40
180.0
  9
$TRACEWID
 40
0.05
  9
$TEXTSTYLE
  7
STANDARD
  9
$CLAYER
  8
3
  9
$CELTYPE
  6
BYLAYER
  9
$CECOLOR
 62
   256
  9
$DIMSCALE
 40
20.0
  9
$DIMASZ
 40
2.0
  9
$DIMEXO
 40
0.5
  9
$DIMDLI
 40
10.0
  9
$DIMRND
 40
0.0
  9
$DIMDLE
 40
0.0
  9
$DIMEXE
 40
1.0
  9
$DIMTP
 40
1.0
  9
$DIMTM
 40
1.0
  9
$DIMTXT
 40
3.0
  9
$DIMCEN
 40
0.0
  9
$DIMTSZ
 40
0.0
  9
$DIMTOL
 70
     0
  9
$DIMLIM
 70
     0
  9
$DIMTIH
 70
     0
  9
$DIMTOH
 70
     0
  9
$DIMSE1
 70
     0
  9
$DIMSE2
 70
     0
  9
$DIMTAD
 70
     1
  9
$DIMZIN
 70
     8
  9
$DIMBLK
  1

  9
$DIMASO
 70
     1
  9
$DIMSHO
 70
     1
  9
$DIMPOST
  1

  9
$DIMAPOST
  1

  9
$DIMALT
 70
     0
  9
$DIMALTD
 70
     2
  9
$DIMALTF
 40
0.039
  9
$DIMLFAC
 40
1.0
  9
$DIMTOFL
 70
     1
  9
$DIMTVP
 40
0.0
  9
$DIMTIX
 70
     0
  9
$DIMSOXD
 70
     0
  9
$DIMSAH
 70
     1
  9
$DIMBLK1
  1
OPEN
  9
$DIMBLK2
  1
OPEN
  9
$DIMSTYLE
  2
IGA
  9
$DIMCLRD
 70
     0
  9
$DIMCLRE
 70
     0
  9
$DIMCLRT
 70
     0
  9
$DIMTFAC
 40
10.0
  9
$DIMGAP
 40
1.0
  9
$LUNITS
 70
     2
  9
$LUPREC
 70
     3
  9
$SKETCHINC
 40
0.1
  9
$FILLETRAD
 40
50.0
  9
$AUNITS
 70
     0
  9
$AUPREC
 70
     0
  9
$MENU
  1
acad
  9
$ELEVATION
 40
0.0
  9
$PELEVATION
 40
0.0
  9
$THICKNESS
 40
0.0
  9
$LIMCHECK
 70
     0
  9
$BLIPMODE
 70
     0
  9
$CHAMFERA
 40
0.5
  9
$CHAMFERB
 40
0.5
  9
$SKPOLY
 70
     0
  9
$TDCREATE
 40
2450728.4533329862
  9
$TDUPDATE
 40
2454953.7652343749
  9
$TDINDWG
 40
0.0054232755
  9
$TDUSRTIMER
 40
0.0054232755
  9
$USRTIMER
 70
     1
  9
$ANGBASE
 50
0.0
  9
$ANGDIR
 70
     0
  9
$PDMODE
 70
     0
  9
$PDSIZE
 40
0.0
  9
$PLINEWID
 40
0.0
  9
$COORDS
 70
     1
  9
$SPLFRAME
 70
     0
  9
$SPLINETYPE
 70
     6
  9
$SPLINESEGS
 70
     8
  9
$ATTDIA
 70
     0
  9
$ATTREQ
 70
     1
  9
$HANDLING
 70
 10241
  9
$HANDSEED
  5
7EB7
  9
$SURFTAB1
 70
     6
  9
$SURFTAB2
 70
     6
  9
$SURFTYPE
 70
     6
  9
$SURFU
 70
     6
  9
$SURFV
 70
     6
  9
$UCSNAME
  2

  9
$UCSORG
 10
0.0
 20
0.0
 30
0.0
  9
$UCSXDIR
 10
1.0
 20
0.0
 30
0.0
  9
$UCSYDIR
 10
0.0
 20
1.0
 30
0.0
  9
$PUCSNAME
  2

  9
$PUCSORG
 10
0.0
 20
0.0
 30
0.0
  9
$PUCSXDIR
 10
1.0
 20
0.0
 30
0.0
  9
$PUCSYDIR
 10
0.0
 20
1.0
 30
0.0
  9
$USERI1
 70
     0
  9
$USERI2
 70
     0
  9
$USERI3
 70
     0
  9
$USERI4
 70
     0
  9
$USERI5
 70
     0
  9
$USERR1
 40
0.0
  9
$USERR2
 40
0.0
  9
$USERR3
 40
0.0
  9
$USERR4
 40
0.0
  9
$USERR5
 40
0.0
  9
$WORLDVIEW
 70
     1
  9
$SHADEDGE
 70
     3
  9
$SHADEDIF
 70
    70
  9
$TILEMODE
 70
     1
  9
$MAXACTVP
 70
    16
  9
$PLIMCHECK
 70
     0
  9
$PEXTMIN
 10
1.0000000000000000E+020
 20
1.0000000000000000E+020
 30
1.0000000000000000E+020
  9
$PEXTMAX
 10
-1.0000000000000000E+020
 20
-1.0000000000000000E+020
 30
-1.0000000000000000E+020
  9
$PLIMMIN
 10
0.0
 20
0.0
  9
$PLIMMAX
 10
12.0
 20
9.0
  9
$UNITMODE
 70
     0
  9
$VISRETAIN
 70
     0
  9
$PLINEGEN
 70
     0
  9
$PSLTSCALE
 70
     1
  0
ENDSEC
  0
SECTION
  2
TABLES
  0
TABLE
  2
VPORT
 70
     2
  0
VPORT
  2
*ACTIVE
 70
     0
 10
0.0
 20
0.0
 11
1.0
 21
1.0
 12
6292.1124769529506
 22
3086.6374998146398
 13
0.0
 23
0.0
 14
10.0
 24
10.0
 15
10.0
 25
10.0
 16
0.0
 26
0.0
 36
1.0
 17
0.0
 27
0.0
 37
0.0
 40
5011.4968576296578
 41
3.1666666666666661
 42
50.0
 43
0.0
 44
0.0
 50
0.0
 51
0.0
 71
     0
 72
   100
 73
     1
 74
     0
 75
     0
 76
     0
 77
     0
 78
     0
  0
ENDTAB
  0
TABLE
  2
LTYPE
 70
     2
  0
LTYPE
  2
CONTINUOUS
 70
     0
  3
Solid line
 72
    65
 73
     0
 40
0.0
  0
LTYPE
  2
CENTER
 70
     0
  3
____ _ ____ _ ____ _ ____ _ ____ _ ____ _ ____ 
 72
    65
 73
     4
 40
2.0
 49
1.25
 49
-0.25
 49
0.25
 49
-0.25
  0
ENDTAB
  0
TABLE
  2
LAYER
 70
     6
  0
LAYER
  2
0
 70
     0
 62
     7
  6
CONTINUOUS
  0
LAYER
  2
3
 70
     0
 62
     2
  6
CONTINUOUS
  0
LAYER
  2
2
 70
     0
 62
     3
  6
CENTER
  0
LAYER
  2
1
 70
     0
 62
     4
  6
CONTINUOUS
  0
LAYER
  2
4
 70
     0
 62
     7
  6
CONTINUOUS
  0
LAYER
  2
DEFPOINTS
 70
     0
 62
     7
  6
CONTINUOUS
  0
ENDTAB
  0
TABLE
  2
STYLE
 70
     1
  0
STYLE
  2
STANDARD
 70
     0
 40
0.0
 41
1.0
 50
0.0
 71
     0
 42
180.0
  3
simplex.shx
  4
extfont.shx
  0
ENDTAB
  0
TABLE
  2
VIEW
 70
     0
  0
ENDTAB
  0
TABLE
  2
UCS
 70
     0
  0
ENDTAB
  0
TABLE
  2
APPID
 70
     1
  0
APPID
  2
ACAD
 70
     0
  0
ENDTAB
  0
TABLE
  2
DIMSTYLE
 70
     1
  0
DIMSTYLE
  2
IGA
 70
     0
  3

  4

  5

  6
OPEN
  7
OPEN
 40
2.0
 41
2.0
 42
0.5
 43
10.0
 44
1.0
 45
0.0
 46
0.0
 47
1.0
 48
1.0
140
3.0
141
0.0
142
0.0
143
0.03937
144
1.0
145
0.0
146
10.0
147
1.0
 71
     0
 72
     0
 73
     0
 74
     0
 75
     0
 76
     0
 77
     1
 78
     8
170
     0
171
     2
172
     0
173
     1
174
     0
175
     0
176
     0
177
     0
178
     0
  0
ENDTAB
  0
ENDSEC
  0
SECTION
  2
BLOCKS
  0
BLOCK
  8
0
  2
$MODEL_SPACE
 70
     0
 10
0.0
 20
0.0
 30
0.0
  3
$MODEL_SPACE
  1

  0
ENDBLK
  5
1B
  8
0
  0
BLOCK
 67
     1
  8
0
  2
$PAPER_SPACE
 70
     0
 10
0.0
 20
0.0
 30
0.0
  3
$PAPER_SPACE
  1

  0
ENDBLK
  5
18
 67
     1
  8
0
  0
BLOCK
  8
0
  2
_OPEN
 70
     0
 10
0.0
 20
0.0
 30
0.0
  3
_OPEN
  1

  0
LINE
  5
7B16
  8
0
  6
BYBLOCK
 62
     0
 10
-1.0
 20
0.166667
 30
0.0
 11
0.0
 21
0.0
 31
0.0
  0
LINE
  5
7B17
  8
0
  6
BYBLOCK
 62
     0
 10
0.0
 20
0.0
 30
0.0
 11
-1.0
 21
-0.166667
 31
0.0
  0
LINE
  5
7B18
  8
0
  6
BYBLOCK
 62
     0
 10
0.0
 20
0.0
 30
0.0
 11
-1.0
 21
0.0
 31
0.0
  0
ENDBLK
  5
7B19
  8
0
  0
BLOCK
  8
0
  2
*D1
 70
     1
 10
0.0
 20
0.0
 30
0.0
  3
*D1
  1

  0
LINE
  5
7DFE
  8
3
  6
CONTINUOUS
 62
     0
 10
1969.6983640000001
 20
2073.0623879999989
 30
0.0
 11
2102.009458
 21
2073.0623879999989
 31
0.0
  0
LINE
  5
7DFF
  8
3
  6
CONTINUOUS
 62
     0
 10
1969.6983640000001
 20
2473.0623879999998
 30
0.0
 11
2102.009458
 21
2473.0623879999998
 31
0.0
  0
LINE
  5
7E00
  8
3
  6
CONTINUOUS
 62
     0
 10
2082.009458
 20
2113.0623879999989
 30
0.0
 11
2082.009458
 21
2433.0623879999989
 31
0.0
  0
INSERT
  5
7E01
  8
3
  6
CONTINUOUS
 62
     0
  2
_OPEN
 10
2082.009458
 20
2073.0623879999989
 30
0.0
 41
40.0
 42
40.0
 43
40.0
 50
270.0
  0
INSERT
  5
7E02
  8
3
  6
CONTINUOUS
 62
     0
  2
_OPEN
 10
2082.009458
 20
2473.0623879999998
 30
0.0
 41
40.0
 42
40.0
 43
40.0
 50
90.0
  0
TEXT
  8
3
  40
60
  5
7EA4
  62
0
  72
0
  71
0
 10
1912.01
 20
2146.20
 30
0.000000
  1
400
  0
POINT
  5
7E04
  8
DEFPOINTS
  6
CONTINUOUS
 62
     0
 10
1959.6983640000001
 20
2073.0623879999989
 30
0.0
  0
POINT
  5
7E05
  8
DEFPOINTS
  6
CONTINUOUS
 62
     0
 10
1959.6983640000001
 20
2473.0623879999998
 30
0.0
  0
POINT
  5
7E06
  8
DEFPOINTS
  6
CONTINUOUS
 62
     0
 10
2082.009458
 20
2473.0623879999998
 30
0.0
  0
ENDBLK
  5
7B26
  8
0
  0
BLOCK
  8
0
  2
*D2
 70
     1
 10
0.0
 20
0.0
 30
0.0
  3
*D2
  1

  0
LINE
  5
7E07
  8
3
  6
CONTINUOUS
 62
     0
 10
1969.6983640000001
 20
2073.0623879999989
 30
0.0
 11
2217.8349130000001
 21
2073.0623879999989
 31
0.0
  0
LINE
  5
7E08
  8
3
  6
CONTINUOUS
 62
     0
 10
2143.3312660000001
 20
2461.0623879999998
 30
0.0
 11
2217.8349130000001
 21
2461.0623879999998
 31
0.0
  0
LINE
  5
7E09
  8
3
  6
CONTINUOUS
 62
     0
 10
2197.8349130000001
 20
2113.0623879999989
 30
0.0
 11
2197.8349130000001
 21
2421.0623879999998
 31
0.0
  0
INSERT
  5
7E0A
  8
3
  6
CONTINUOUS
 62
     0
  2
_OPEN
 10
2197.8349130000001
 20
2073.0623879999989
 30
0.0
 41
40.0
 42
40.0
 43
40.0
 50
270.0
  0
INSERT
  5
7E0B
  8
3
  6
CONTINUOUS
 62
     0
  2
_OPEN
 10
2197.8349130000001
 20
2461.0623879999998
 30
0.0
 41
40.0
 42
40.0
 43
40.0
 50
90.0
  0
TEXT
  8
3
  40
60
  5
7EA5
  62
0
  72
0
  71
0
 10
2027.83
 20
2146.20
 30
0.000000
  1
388
  0
POINT
  5
7E0D
  8
DEFPOINTS
  6
CONTINUOUS
 62
     0
 10
1959.6983640000001
 20
2073.0623879999989
 30
0.0
  0
POINT
  5
7E0E
  8
DEFPOINTS
  6
CONTINUOUS
 62
     0
 10
2133.3312660000001
 20
2461.0623879999998
 30
0.0
  0
POINT
  5
7E0F
  8
DEFPOINTS
  6
CONTINUOUS
 62
     0
 10
2197.8349130000001
 20
2461.0623879999998
 30
0.0
  0
ENDBLK
  5
7B33
  8
0
  0
BLOCK
  8
0
  2
*D3
 70
     1
 10
0.0
 20
0.0
 30
0.0
  3
*D3
  1

  0
LINE
  5
7E10
  8
3
  6
CONTINUOUS
 62
     0
 10
1939.6983640000001
 20
2761.0623879999998
 30
0.0
 11
2350.2068800000002
 21
2761.0623879999998
 31
0.0
  0
LINE
  5
7E11
  8
3
  6
CONTINUOUS
 62
     0
 10
2143.3312660000001
 20
2461.0623879999998
 30
0.0
 11
2350.2068800000002
 21
2461.0623879999998
 31
0.0
  0
LINE
  5
7E12
  8
3
  6
CONTINUOUS
 62
     0
 10
2330.2068800000002
 20
2801.0623879999998
 30
0.0
 11
2330.2068800000002
 21
2841.0623879999998
 31
0.0
  0
LINE
  5
7E13
  8
3
  6
CONTINUOUS
 62
     0
 10
2330.2068800000002
 20
2421.0623879999998
 30
0.0
 11
2330.2068800000002
 21
2381.0623879999989
 31
0.0
  0
LINE
  5
7E14
  8
3
  6
CONTINUOUS
 62
     0
 10
2330.2068800000002
 20
2761.0623879999998
 30
0.0
 11
2330.2068800000002
 21
2461.0623879999998
 31
0.0
  0
INSERT
  5
7E15
  8
3
  6
CONTINUOUS
 62
     0
  2
_OPEN
 10
2330.2068800000002
 20
2761.0623879999998
 30
0.0
 41
40.0
 42
40.0
 43
40.0
 50
270.0
  0
INSERT
  5
7E16
  8
3
  6
CONTINUOUS
 62
     0
  2
_OPEN
 10
2330.2068800000002
 20
2461.0623879999998
 30
0.0
 41
40.0
 42
40.0
 43
40.0
 50
90.0
  0
TEXT
  8
3
  40
60
  5
7EA6
  62
0
  72
0
  71
0
 10
2160.21
 20
2492.01
 30
0.000000
  1
300
  0
POINT
  5
7E18
  8
DEFPOINTS
  6
CONTINUOUS
 62
     0
 10
1929.6983640000001
 20
2761.0623879999998
 30
0.0
  0
POINT
  5
7E19
  8
DEFPOINTS
  6
CONTINUOUS
 62
     0
 10
2133.3312660000001
 20
2461.0623879999998
 30
0.0
  0
POINT
  5
7E1A
  8
DEFPOINTS
  6
CONTINUOUS
 62
     0
 10
2330.2068800000002
 20
2461.0623879999998
 30
0.0
  0
ENDBLK
  5
7B40
  8
0
  0
BLOCK
  8
0
  2
*D4
 70
     1
 10
0.0
 20
0.0
 30
0.0
  3
*D4
  1

  0
LINE
  5
7E1B
  8
3
  6
CONTINUOUS
 62
     0
 10
1929.6983640000001
 20
1946.0623879999989
 30
0.0
 11
2350.2068800000002
 21
1946.0623879999989
 31
0.0
  0
LINE
  5
7E1C
  8
3
  6
CONTINUOUS
 62
     0
 10
2330.2068799999988
 20
2421.0623879999998
 30
0.0
 11
2330.2068799999988
 21
1986.0623879999989
 31
0.0
  0
INSERT
  5
7E1D
  8
3
  6
CONTINUOUS
 62
     0
  2
_OPEN
 10
2330.2068799999988
 20
2461.0623879999998
 30
0.0
 41
40.0
 42
40.0
 43
40.0
 50
90.0
  0
INSERT
  5
7E1E
  8
3
  6
CONTINUOUS
 62
     0
  2
_OPEN
 10
2330.2068799999988
 20
1946.0623879999989
 30
0.0
 41
40.0
 42
40.0
 43
40.0
 50
270.0
  0
TEXT
  8
3
  40
60
  5
7EA7
  62
0
  72
0
  71
0
 10
2160.21
 20
2097.36
 30
0.000000
  1
515
  0
POINT
  5
7E20
  8
DEFPOINTS
  6
CONTINUOUS
 62
     0
 10
2133.3312660000001
 20
2461.0623879999998
 30
0.0
  0
POINT
  5
7E21
  8
DEFPOINTS
  6
CONTINUOUS
 62
     0
 10
1919.6983640000001
 20
1946.0623879999989
 30
0.0
  0
POINT
  5
7E22
  8
DEFPOINTS
  6
CONTINUOUS
 62
     0
 10
2330.2068799999988
 20
1946.0623879999989
 30
0.0
  0
ENDBLK
  5
7B4C
  8
0
  0
BLOCK
  8
0
  2
*D5
 70
     1
 10
0.0
 20
0.0
 30
0.0
  3
*D5
  1

  0
LINE
  5
7D73
  8
0
  6
BYBLOCK
 62
     0
 10
1929.6983640000001
 20
1859.0623879999989
 30
0.0
 11
2350.2068800000002
 21
1859.0623879999989
 31
0.0
  0
LINE
  5
7D74
  8
0
  6
BYBLOCK
 62
     0
 10
2330.2068799999988
 20
1986.0623879999989
 30
0.0
 11
2330.2068799999988
 21
2026.0623879999989
 31
0.0
  0
LINE
  5
7D75
  8
0
  6
BYBLOCK
 62
     0
 10
2330.2068799999988
 20
1819.0623880000001
 30
0.0
 11
2330.2068799999988
 21
1779.0623879999989
 31
0.0
  0
TEXT
  5
7D76
  8
3
 62
     0
 10
2440.2068800000002
 20
1853.9909594285709
 30
0.0
 40
60.0
  1
87
 50
90.0
  0
LINE
  5
7D77
  8
0
  6
BYBLOCK
 62
     0
 10
2330.2068799999988
 20
1946.0623879999989
 30
0.0
 11
2330.2068799999988
 21
1859.0623879999989
 31
0.0
  0
INSERT
  5
7D78
  8
0
  6
BYBLOCK
 62
     0
  2
_OPEN
 10
2330.2068799999988
 20
1946.0623879999989
 30
0.0
 41
40.0
 42
40.0
 43
40.0
 50
270.0
  0
INSERT
  5
7D79
  8
0
  6
BYBLOCK
 62
     0
  2
_DOT
 10
2330.2068799999988
 20
1859.0623879999989
 30
0.0
 41
40.0
 42
40.0
 43
40.0
 50
90.0
  0
POINT
  5
7D7A
  8
DEFPOINTS
  6
BYBLOCK
 62
     0
 10
1919.6983640000001
 20
1946.0623879999989
 30
0.0
  0
POINT
  5
7D7B
  8
DEFPOINTS
  6
BYBLOCK
 62
     0
 10
1919.6983640000001
 20
1859.0623879999989
 30
0.0
  0
POINT
  5
7D7C
  8
DEFPOINTS
  6
BYBLOCK
 62
     0
 10
2330.2068799999988
 20
1859.0623879999989
 30
0.0
  0
ENDBLK
  5
7D7D
  8
0
  0
BLOCK
  8
0
  2
*D6
 70
     1
 10
0.0
 20
0.0
 30
0.0
  3
*D6
  1

  0
LINE
  5
7E23
  8
3
  6
CONTINUOUS
 62
     0
 10
1939.6983640000001
 20
2761.0623879999998
 30
0.0
 11
2544.6281770000001
 21
2761.0623879999998
 31
0.0
  0
LINE
  5
7E24
  8
3
  6
CONTINUOUS
 62
     0
 10
1929.6983640000001
 20
1819.0523879999989
 30
0.0
 11
2544.6281770000001
 21
1819.0523879999989
 31
0.0
  0
LINE
  5
7E25
  8
3
  6
CONTINUOUS
 62
     0
 10
2524.6281770000001
 20
2721.0623879999989
 30
0.0
 11
2524.6281770000001
 21
1859.0523880000001
 31
0.0
  0
INSERT
  5
7E26
  8
3
  6
CONTINUOUS
 62
     0
  2
_OPEN
 10
2524.6281770000001
 20
2761.0623879999998
 30
0.0
 41
40.0
 42
40.0
 43
40.0
 50
90.0
  0
INSERT
  5
7E27
  8
3
  6
CONTINUOUS
 62
     0
  2
_OPEN
 10
2524.6281770000001
 20
1819.0523879999989
 30
0.0
 41
40.0
 42
40.0
 43
40.0
 50
270.0
  0
TEXT
  8
3
  40
60
  5
7EA8
  62
0
  72
0
  71
0
 10
2354.63
 20
2199.94
 30
0.000000
  1
942
  0
POINT
  5
7E29
  8
DEFPOINTS
  6
CONTINUOUS
 62
     0
 10
1929.6983640000001
 20
2761.0623879999998
 30
0.0
  0
POINT
  5
7E2A
  8
DEFPOINTS
  6
CONTINUOUS
 62
     0
 10
1919.6983640000001
 20
1819.0523879999989
 30
0.0
  0
POINT
  5
7E2B
  8
DEFPOINTS
  6
CONTINUOUS
 62
     0
 10
2524.6281770000001
 20
1819.0523879999989
 30
0.0
  0
ENDBLK
  5
7B69
  8
0
  0
BLOCK
  8
0
  2
*D7
 70
     1
 10
0.0
 20
0.0
 30
0.0
  3
*D7
  1

  0
LINE
  5
7E2C
  8
3
  6
CONTINUOUS
 62
     0
 10
2954.9860290000001
 20
1809.0523879999989
 30
0.0
 11
2954.9860290000001
 21
1615.991507
 31
0.0
  0
LINE
  5
7E2D
  8
3
  6
CONTINUOUS
 62
     0
 10
3290.9860289999988
 20
1672.3283459596289
 30
0.0
 11
3290.9860289999988
 21
1615.991507
 31
0.0
  0
LINE
  5
7E2E
  8
3
  6
CONTINUOUS
 62
     0
 10
2994.9860289999988
 20
1635.991506999999
 30
0.0
 11
3250.9860289999988
 21
1635.991506999999
 31
0.0
  0
INSERT
  5
7E2F
  8
3
  6
CONTINUOUS
 62
     0
  2
_OPEN
 10
2954.9860290000001
 20
1635.991506999999
 30
0.0
 41
40.0
 42
40.0
 43
40.0
 50
180.0
  0
INSERT
  5
7E30
  8
3
  6
CONTINUOUS
 62
     0
  2
_OPEN
 10
3290.9860289999988
 20
1635.991506999999
 30
0.0
 41
40.0
 42
40.0
 43
40.0
  0
TEXT
  8
3
  40
60
  5
7EA9
  62
0
  72
0
  71
0
 10
3004.44
 20
1579.79
 30
0.000000
  1
336
  0
POINT
  5
7E32
  8
DEFPOINTS
  6
CONTINUOUS
 62
     0
 10
2954.9860290000001
 20
1819.0523879999989
 30
0.0
  0
POINT
  5
7E33
  8
DEFPOINTS
  6
CONTINUOUS
 62
     0
 10
3290.9860289999988
 20
1682.3283459596289
 30
0.0
  0
POINT
  5
7E34
  8
DEFPOINTS
  6
CONTINUOUS
 62
     0
 10
3290.9860289999988
 20
1635.991506999999
 30
0.0
  0
ENDBLK
  5
7DC6
  8
0
  0
BLOCK
  8
0
  2
*D8
 70
     1
 10
0.0
 20
0.0
 30
0.0
  3
*D8
  1

  0
LINE
  5
7E35
  8
3
  6
CONTINUOUS
 62
     0
 10
3564.9860289999988
 20
1809.0523879999989
 30
0.0
 11
3564.9860289999988
 21
1615.991507
 31
0.0
  0
LINE
  5
7E36
  8
3
  6
CONTINUOUS
 62
     0
 10
3330.9860289999988
 20
1635.991506999999
 30
0.0
 11
3524.9860290000001
 21
1635.991506999999
 31
0.0
  0
TEXT
  8
3
  40
60
  5
7EAA
  62
0
  72
0
  71
0
 10
3314.71
 20
1579.86
 30
0.000000
  1
274
  0
INSERT
  5
7E38
  8
3
  6
CONTINUOUS
 62
     0
  2
_OPEN
 10
3290.9860289999988
 20
1635.991506999999
 30
0.0
 41
40.0
 42
40.0
 43
40.0
 50
180.0
  0
INSERT
  5
7E39
  8
3
  6
CONTINUOUS
 62
     0
  2
_OPEN
 10
3564.9860289999988
 20
1635.991506999999
 30
0.0
 41
40.0
 42
40.0
 43
40.0
  0
POINT
  5
7E3A
  8
DEFPOINTS
  6
CONTINUOUS
 62
     0
 10
3290.9860289999988
 20
1682.3283459596289
 30
0.0
  0
POINT
  5
7E3B
  8
DEFPOINTS
  6
CONTINUOUS
 62
     0
 10
3564.9860289999988
 20
1819.0523879999989
 30
0.0
  0
POINT
  5
7E3C
  8
DEFPOINTS
  6
CONTINUOUS
 62
     0
 10
3564.9860289999988
 20
1635.991506999999
 30
0.0
  0
ENDBLK
  5
7DBB
  8
0
  0
BLOCK
  8
0
  2
*D9
 70
     1
 10
0.0
 20
0.0
 30
0.0
  3
*D9
  1

  0
LINE
  5
7E3D
  8
3
  6
CONTINUOUS
 62
     0
 10
3440.9860289999988
 20
2771.0623879999998
 30
0.0
 11
3440.9860289999988
 21
2868.1105680000001
 31
0.0
  0
LINE
  5
7E3E
  8
3
  6
CONTINUOUS
 62
     0
 10
3140.9860290000001
 20
2771.0623879999998
 30
0.0
 11
3140.9860290000001
 21
2868.1105680000001
 31
0.0
  0
LINE
  5
7E3F
  8
3
  6
CONTINUOUS
 62
     0
 10
3480.9860289999988
 20
2848.1105680000001
 30
0.0
 11
3520.9860289999988
 21
2848.1105680000001
 31
0.0
  0
LINE
  5
7E40
  8
3
  6
CONTINUOUS
 62
     0
 10
3100.9860289999988
 20
2848.1105680000001
 30
0.0
 11
3060.9860289999988
 21
2848.1105680000001
 31
0.0
  0
LINE
  5
7E41
  8
3
  6
CONTINUOUS
 62
     0
 10
3440.9860289999988
 20
2848.1105680000001
 30
0.0
 11
3140.9860290000001
 21
2848.1105680000001
 31
0.0
  0
INSERT
  5
7E42
  8
3
  6
CONTINUOUS
 62
     0
  2
_OPEN
 10
3440.9860289999988
 20
2848.1105680000001
 30
0.0
 41
40.0
 42
40.0
 43
40.0
 50
180.0
  0
INSERT
  5
7E43
  8
3
  6
CONTINUOUS
 62
     0
  2
_OPEN
 10
3140.9860290000001
 20
2848.1105680000001
 30
0.0
 41
40.0
 42
40.0
 43
40.0
  0
TEXT
  8
3
  40
60
  5
7EAB
  62
0
  72
0
  71
0
 10
3158.13
 20
2791.91
 30
0.000000
  1
300
  0
POINT
  5
7E45
  8
DEFPOINTS
  6
CONTINUOUS
 62
     0
 10
3440.9860289999988
 20
2761.0623879999998
 30
0.0
  0
POINT
  5
7E46
  8
DEFPOINTS
  6
CONTINUOUS
 62
     0
 10
3140.9860290000001
 20
2761.0623879999998
 30
0.0
  0
POINT
  5
7E47
  8
DEFPOINTS
  6
CONTINUOUS
 62
     0
 10
3140.9860290000001
 20
2848.1105680000001
 30
0.0
  0
ENDBLK
  5
7CCF
  8
0
  0
BLOCK
  8
0
  2
*D10
 70
     1
 10
0.0
 20
0.0
 30
0.0
  3
*D10
  1

  0
LINE
  5
7E48
  8
3
  6
CONTINUOUS
 62
     0
 10
2960.9860289999988
 20
2691.0623879999998
 30
0.0
 11
2960.9860289999988
 21
3012.312324
 31
0.0
  0
LINE
  5
7E49
  8
3
  6
CONTINUOUS
 62
     0
 10
3250.9860289999988
 20
2992.312324
 30
0.0
 11
3000.9860289999988
 21
2992.312324
 31
0.0
  0
INSERT
  5
7E4A
  8
3
  6
CONTINUOUS
 62
     0
  2
_OPEN
 10
3290.9860289999988
 20
2992.312324
 30
0.0
 41
40.0
 42
40.0
 43
40.0
  0
INSERT
  5
7E4B
  8
3
  6
CONTINUOUS
 62
     0
  2
_OPEN
 10
2960.9860289999988
 20
2992.312324
 30
0.0
 41
40.0
 42
40.0
 43
40.0
 50
180.0
  0
TEXT
  8
3
  40
60
  5
7EAC
  62
0
  72
0
  71
0
 10
3005.99
 20
2986.11
 30
0.000000
  1
MAX
  0
TEXT
  8
3
  40
60
  5
7EAD
  62
0
  72
0
  71
0
 10
3005.99
 20
2908.11
 30
0.000000
  1
380
  0
POINT
  5
7E4D
  8
DEFPOINTS
  6
CONTINUOUS
 62
     0
 10
3290.9860289999988
 20
2945.5682040000002
 30
0.0
  0
POINT
  5
7E4E
  8
DEFPOINTS
  6
CONTINUOUS
 62
     0
 10
2960.9860289999988
 20
2681.0623879999989
 30
0.0
  0
POINT
  5
7E4F
  8
DEFPOINTS
  6
CONTINUOUS
 62
     0
 10
2960.9860289999988
 20
2992.312324
 30
0.0
  0
ENDBLK
  5
7CF9
  8
0
  0
BLOCK
  8
0
  2
*D11
 70
     1
 10
0.0
 20
0.0
 30
0.0
  3
*D11
  1

  0
LINE
  5
7E50
  8
3
  6
CONTINUOUS
 62
     0
 10
1959.6983640000001
 20
2510.0623879999998
 30
0.0
 11
1959.6983640000001
 21
2880.037206
 31
0.0
  0
LINE
  5
7E51
  8
3
  6
CONTINUOUS
 62
     0
 10
1659.6983640000001
 20
2853.0509603898131
 30
0.0
 11
1659.6983640000001
 21
2880.037206
 31
0.0
  0
LINE
  5
7E52
  8
3
  6
CONTINUOUS
 62
     0
 10
1919.6983640000001
 20
2860.037206
 30
0.0
 11
1699.6983640000001
 21
2860.037206
 31
0.0
  0
INSERT
  5
7E53
  8
3
  6
CONTINUOUS
 62
     0
  2
_OPEN
 10
1959.6983640000001
 20
2860.037206
 30
0.0
 41
40.0
 42
40.0
 43
40.0
  0
INSERT
  5
7E54
  8
3
  6
CONTINUOUS
 62
     0
  2
_OPEN
 10
1659.6983640000001
 20
2860.037206
 30
0.0
 41
40.0
 42
40.0
 43
40.0
 50
180.0
  0
TEXT
  8
3
  40
60
  5
7EAE
  62
0
  72
0
  71
0
 10
1676.84
 20
2803.84
 30
0.000000
  1
300
  0
POINT
  5
7E56
  8
DEFPOINTS
  6
CONTINUOUS
 62
     0
 10
1959.6983640000001
 20
2500.0623879999989
 30
0.0
  0
POINT
  5
7E57
  8
DEFPOINTS
  6
CONTINUOUS
 62
     0
 10
1659.6983640000001
 20
2843.0509603898131
 30
0.0
  0
POINT
  5
7E58
  8
DEFPOINTS
  6
CONTINUOUS
 62
     0
 10
1659.6983640000001
 20
2860.037206
 30
0.0
  0
ENDBLK
  5
7D33
  8
0
  0
BLOCK
  8
0
  2
*D12
 70
     1
 10
0.0
 20
0.0
 30
0.0
  3
*D12
  1

  0
LINE
  5
7E59
  8
3
  6
CONTINUOUS
 62
     0
 10
1327.6983640000001
 20
2444.0623879999998
 30
0.0
 11
1327.6983640000001
 21
2880.037206
 31
0.0
  0
LINE
  5
7E5A
  8
3
  6
CONTINUOUS
 62
     0
 10
1619.6983640000001
 20
2860.037206
 30
0.0
 11
1367.6983640000001
 21
2860.037206
 31
0.0
  0
INSERT
  5
7E5B
  8
3
  6
CONTINUOUS
 62
     0
  2
_OPEN
 10
1659.6983640000001
 20
2860.037206
 30
0.0
 41
40.0
 42
40.0
 43
40.0
  0
INSERT
  5
7E5C
  8
3
  6
CONTINUOUS
 62
     0
  2
_OPEN
 10
1327.6983640000001
 20
2860.037206
 30
0.0
 41
40.0
 42
40.0
 43
40.0
 50
180.0
  0
TEXT
  8
3
  40
60
  5
7EAF
  62
0
  72
0
  71
0
 10
1373.70
 20
2803.84
 30
0.000000
  1
332
  0
POINT
  5
7E5E
  8
DEFPOINTS
  6
CONTINUOUS
 62
     0
 10
1659.6983640000001
 20
2843.0509603898131
 30
0.0
  0
POINT
  5
7E5F
  8
DEFPOINTS
  6
CONTINUOUS
 62
     0
 10
1327.6983640000001
 20
2434.0623879999998
 30
0.0
  0
POINT
  5
7E60
  8
DEFPOINTS
  6
CONTINUOUS
 62
     0
 10
1327.6983640000001
 20
2860.037206
 30
0.0
  0
ENDBLK
  5
7D3D
  8
0
  0
BLOCK
  8
0
  2
*D13
 70
     1
 10
0.0
 20
0.0
 30
0.0
  3
*D13
  1

  0
LINE
  5
7E61
  8
3
  6
CONTINUOUS
 62
     0
 10
919.69836399999997
 20
1809.0523879999989
 30
0.0
 11
919.69836399999997
 21
1652.7464930000001
 31
0.0
  0
LINE
  5
7E62
  8
3
  6
CONTINUOUS
 62
     0
 10
1659.6983640000001
 20
1690.4754607825789
 30
0.0
 11
1659.6983640000001
 21
1652.7464930000001
 31
0.0
  0
LINE
  5
7E63
  8
3
  6
CONTINUOUS
 62
     0
 10
959.69836400000008
 20
1672.7464930000001
 30
0.0
 11
1619.6983640000001
 21
1672.7464930000001
 31
0.0
  0
INSERT
  5
7E64
  8
3
  6
CONTINUOUS
 62
     0
  2
_OPEN
 10
919.69836399999997
 20
1672.7464930000001
 30
0.0
 41
40.0
 42
40.0
 43
40.0
 50
180.0
  0
INSERT
  5
7E65
  8
3
  6
CONTINUOUS
 62
     0
  2
_OPEN
 10
1659.6983640000001
 20
1672.7464930000001
 30
0.0
 41
40.0
 42
40.0
 43
40.0
  0
TEXT
  8
3
  40
60
  5
7EB0
  62
0
  72
0
  71
0
 10
1151.23
 20
1616.55
 30
0.000000
  1
740
  0
POINT
  5
7E67
  8
DEFPOINTS
  6
CONTINUOUS
 62
     0
 10
919.69836399999997
 20
1819.0523879999989
 30
0.0
  0
POINT
  5
7E68
  8
DEFPOINTS
  6
CONTINUOUS
 62
     0
 10
1659.6983640000001
 20
1700.4754607825801
 30
0.0
  0
POINT
  5
7E69
  8
DEFPOINTS
  6
CONTINUOUS
 62
     0
 10
1659.6983640000001
 20
1672.7464930000001
 30
0.0
  0
ENDBLK
  5
7DDB
  8
0
  0
BLOCK
  8
0
  2
*D14
 70
     1
 10
0.0
 20
0.0
 30
0.0
  3
*D14
  1

  0
LINE
  5
7E6A
  8
3
  6
CONTINUOUS
 62
     0
 10
1919.6983640000001
 20
1809.0523879999989
 30
0.0
 11
1919.6983640000001
 21
1652.7464930000001
 31
0.0
  0
LINE
  5
7E6B
  8
3
  6
CONTINUOUS
 62
     0
 10
1699.6983640000001
 20
1672.7464930000001
 30
0.0
 11
1879.6983640000001
 21
1672.7464930000001
 31
0.0
  0
TEXT
  8
3
  40
60
  5
7EB1
  62
0
  72
0
  71
0
 10
1691.10
 20
1616.34
 30
0.000000
  1
260
  0
INSERT
  5
7E6D
  8
3
  6
CONTINUOUS
 62
     0
  2
_OPEN
 10
1659.6983640000001
 20
1672.7464930000001
 30
0.0
 41
40.0
 42
40.0
 43
40.0
 50
180.0
  0
INSERT
  5
7E6E
  8
3
  6
CONTINUOUS
 62
     0
  2
_OPEN
 10
1919.6983640000001
 20
1672.7464930000001
 30
0.0
 41
40.0
 42
40.0
 43
40.0
  0
POINT
  5
7E6F
  8
DEFPOINTS
  6
CONTINUOUS
 62
     0
 10
1659.6983640000001
 20
1697.6680273619399
 30
0.0
  0
POINT
  5
7E70
  8
DEFPOINTS
  6
CONTINUOUS
 62
     0
 10
1919.6983640000001
 20
1819.0523879999989
 30
0.0
  0
POINT
  5
7E71
  8
DEFPOINTS
  6
CONTINUOUS
 62
     0
 10
1919.6983640000001
 20
1672.7464930000001
 30
0.0
  0
ENDBLK
  5
7DD0
  8
0
  0
BLOCK
  8
0
  2
*D15
 70
     1
 10
0.0
 20
0.0
 30
0.0
  3
*D15
  1

  0
LINE
  5
7E72
  8
3
  6
CONTINUOUS
 62
     0
 10
3450.9860290000001
 20
2676.0623879999998
 30
0.0
 11
3651.212129
 21
2676.0623879999998
 31
0.0
  0
LINE
  5
7E73
  8
3
  6
CONTINUOUS
 62
     0
 10
3450.9860290000001
 20
2246.0623879999989
 30
0.0
 11
3651.212129
 21
2246.0623879999989
 31
0.0
  0
LINE
  5
7E74
  8
3
  6
CONTINUOUS
 62
     0
 10
3631.2121290000009
 20
2636.0623879999998
 30
0.0
 11
3631.2121290000009
 21
2286.0623879999989
 31
0.0
  0
INSERT
  5
7E75
  8
3
  6
CONTINUOUS
 62
     0
  2
_OPEN
 10
3631.2121290000009
 20
2676.0623879999998
 30
0.0
 41
40.0
 42
40.0
 43
40.0
 50
90.0
  0
INSERT
  5
7E76
  8
3
  6
CONTINUOUS
 62
     0
  2
_OPEN
 10
3631.2121290000009
 20
2246.0623879999989
 30
0.0
 41
40.0
 42
40.0
 43
40.0
 50
270.0
  0
TEXT
  8
3
  40
60
  5
7EB2
  62
0
  72
0
  71
0
 10
3461.21
 20
2352.88
 30
0.000000
  1
φ430
  0
POINT
  5
7E78
  8
DEFPOINTS
  6
CONTINUOUS
 62
     0
 10
3440.9860289999988
 20
2676.0623879999998
 30
0.0
  0
POINT
  5
7E79
  8
DEFPOINTS
  6
CONTINUOUS
 62
     0
 10
3440.9860289999988
 20
2246.0623879999989
 30
0.0
  0
POINT
  5
7E7A
  8
DEFPOINTS
  6
CONTINUOUS
 62
     0
 10
3631.2121290000009
 20
2246.0623879999989
 30
0.0
  0
ENDBLK
  5
7D04
  8
0
  0
BLOCK
  8
0
  2
*D16
 70
     1
 10
0.0
 20
0.0
 30
0.0
  3
*D16
  1

  0
LINE
  5
7E7B
  8
3
  6
CONTINUOUS
 62
     0
 10
919.69836399999997
 20
4014.822388
 30
0.0
 11
919.69836399999997
 21
4144.5573520000007
 31
0.0
  0
LINE
  5
7E7C
  8
3
  6
CONTINUOUS
 62
     0
 10
1919.6983640000001
 20
4014.822388
 30
0.0
 11
1919.6983640000001
 21
4144.5573520000007
 31
0.0
  0
LINE
  5
7E7D
  8
3
  6
CONTINUOUS
 62
     0
 10
959.69836400000008
 20
4124.5573519999998
 30
0.0
 11
1879.6983640000001
 21
4124.5573519999998
 31
0.0
  0
INSERT
  5
7E7E
  8
3
  6
CONTINUOUS
 62
     0
  2
_OPEN
 10
919.69836399999997
 20
4124.5573519999998
 30
0.0
 41
40.0
 42
40.0
 43
40.0
 50
180.0
  0
INSERT
  5
7E7F
  8
3
  6
CONTINUOUS
 62
     0
  2
_OPEN
 10
1919.6983640000001
 20
4124.5573519999998
 30
0.0
 41
40.0
 42
40.0
 43
40.0
  0
TEXT
  8
3
  40
60
  5
7EB3
  62
0
  72
0
  71
0
 10
1333.24
 20
4068.36
 30
0.000000
  1
1000
  0
POINT
  5
7E81
  8
DEFPOINTS
  6
CONTINUOUS
 62
     0
 10
919.69836399999997
 20
4004.822388
 30
0.0
  0
POINT
  5
7E82
  8
DEFPOINTS
  6
CONTINUOUS
 62
     0
 10
1919.6983640000001
 20
4004.822388
 30
0.0
  0
POINT
  5
7E83
  8
DEFPOINTS
  6
CONTINUOUS
 62
     0
 10
1919.6983640000001
 20
4124.5573519999998
 30
0.0
  0
ENDBLK
  5
7C65
  8
0
  0
BLOCK
  8
0
  2
*D17
 70
     1
 10
0.0
 20
0.0
 30
0.0
  3
*D17
  1

  0
LINE
  5
7E84
  8
3
  6
CONTINUOUS
 62
     0
 10
909.69836400000008
 20
4004.822388
 30
0.0
 11
747.89775800000064
 21
4004.822388
 31
0.0
  0
LINE
  5
7E85
  8
3
  6
CONTINUOUS
 62
     0
 10
909.69836400000008
 20
3394.822388
 30
0.0
 11
747.89775800000052
 21
3394.822388
 31
0.0
  0
LINE
  5
7E86
  8
3
  6
CONTINUOUS
 62
     0
 10
767.89775800000064
 20
3964.822388
 30
0.0
 11
767.89775800000052
 21
3434.822388
 31
0.0
  0
INSERT
  5
7E87
  8
3
  6
CONTINUOUS
 62
     0
  2
_OPEN
 10
767.89775800000064
 20
4004.822388
 30
0.0
 41
40.0
 42
40.0
 43
40.0
 50
90.0
  0
INSERT
  5
7E88
  8
3
  6
CONTINUOUS
 62
     0
  2
_OPEN
 10
767.89775800000052
 20
3394.822388
 30
0.0
 41
40.0
 42
40.0
 43
40.0
 50
270.0
  0
TEXT
  8
3
  40
60
  5
7EB4
  62
0
  72
0
  71
0
 10
597.898
 20
3598.33
 30
0.000000
  1
610
  0
POINT
  5
7E8A
  8
DEFPOINTS
  6
CONTINUOUS
 62
     0
 10
919.69836399999997
 20
4004.822388
 30
0.0
  0
POINT
  5
7E8B
  8
DEFPOINTS
  6
CONTINUOUS
 62
     0
 10
919.69836399999997
 20
3394.822388
 30
0.0
  0
POINT
  5
7E8C
  8
DEFPOINTS
  6
CONTINUOUS
 62
     0
 10
767.89775800000052
 20
3394.822388
 30
0.0
  0
ENDBLK
  5
7C5A
  8
0
  0
BLOCK
  8
0
  2
*D18
 70
     1
 10
0.0
 20
0.0
 30
0.0
  3
*D18
  1

  0
LINE
  5
7E8D
  8
3
  6
CONTINUOUS
 62
     0
 10
1929.6983640000001
 20
1859.0623879999989
 30
0.0
 11
2349.337618
 21
1859.0623879999989
 31
0.0
  0
LINE
  5
7E8E
  8
3
  6
CONTINUOUS
 62
     0
 10
1929.6983640000001
 20
1819.0523879999989
 30
0.0
 11
2349.337618
 21
1819.0523879999989
 31
0.0
  0
LINE
  5
7E8F
  8
3
  6
CONTINUOUS
 62
     0
 10
2329.337618
 20
1899.0623879999989
 30
0.0
 11
2329.337618
 21
1939.0623879999989
 31
0.0
  0
LINE
  5
7E90
  8
3
  6
CONTINUOUS
 62
     0
 10
2329.337618
 20
1779.0523880000001
 30
0.0
 11
2329.337618
 21
1601.909530857142
 31
0.0
  0
LINE
  5
7E91
  8
3
  6
CONTINUOUS
 62
     0
 10
2329.337618
 20
1859.0623879999989
 30
0.0
 11
2329.337618
 21
1819.0523879999989
 31
0.0
  0
INSERT
  5
7E92
  8
3
  6
CONTINUOUS
 62
     0
  2
_DOT
 10
2329.337618
 20
1859.0623879999989
 30
0.0
 41
40.0
 42
40.0
 43
40.0
 50
270.0
  0
INSERT
  5
7E93
  8
3
  6
CONTINUOUS
 62
     0
  2
_OPEN
 10
2329.337618
 20
1819.0523879999989
 30
0.0
 41
40.0
 42
40.0
 43
40.0
 50
90.0
  0
TEXT
  8
3
  40
60
  5
7EB5
  62
0
  72
0
  71
0
 10
2159.34
 20
1564.28
 30
0.000000
  1
40
  0
POINT
  5
7E95
  8
DEFPOINTS
  6
CONTINUOUS
 62
     0
 10
1919.6983640000001
 20
1859.0623879999989
 30
0.0
  0
POINT
  5
7E96
  8
DEFPOINTS
  6
CONTINUOUS
 62
     0
 10
1919.6983640000001
 20
1819.0523879999989
 30
0.0
  0
POINT
  5
7E97
  8
DEFPOINTS
  6
CONTINUOUS
 62
     0
 10
2329.337618
 20
1819.0523879999989
 30
0.0
  0
ENDBLK
  5
7D8A
  8
0
  0
BLOCK
  8
0
  2
*D19
 70
     1
 10
0.0
 20
0.0
 30
0.0
  3
*D19
  1

  0
LINE
  5
7DA8
  8
0
  6
BYBLOCK
 62
     0
 10
3290.9860289999988
 20
2955.5682040000002
 30
0.0
 11
3290.9860289999988
 21
3012.312324
 31
0.0
  0
LINE
  5
7DA9
  8
0
  6
BYBLOCK
 62
     0
 10
3441.9860289999988
 20
2686.0623879999989
 30
0.0
 11
3441.9860289999988
 21
3012.312324
 31
0.0
  0
LINE
  5
7DAA
  8
0
  6
BYBLOCK
 62
     0
 10
3330.9860289999988
 20
2992.312324
 30
0.0
 11
3401.9860289999988
 21
2992.312324
 31
0.0
  0
TEXT
  5
7DAB
  8
3
 62
     0
 10
3292.9099653314611
 20
3023.41509589409
 30
0.0
 40
60.0
  1
151
  0
INSERT
  5
7DAC
  8
0
  6
BYBLOCK
 62
     0
  2
_OPEN
 10
3290.9860289999988
 20
2992.312324
 30
0.0
 41
40.0
 42
40.0
 43
40.0
 50
180.0
  0
INSERT
  5
7DAD
  8
0
  6
BYBLOCK
 62
     0
  2
_OPEN
 10
3441.9860289999988
 20
2992.312324
 30
0.0
 41
40.0
 42
40.0
 43
40.0
  0
POINT
  5
7DAE
  8
DEFPOINTS
  6
BYBLOCK
 62
     0
 10
3290.9860289999988
 20
2945.5682040000002
 30
0.0
  0
POINT
  5
7DAF
  8
DEFPOINTS
  6
BYBLOCK
 62
     0
 10
3441.9860289999988
 20
2676.0623879999998
 30
0.0
  0
POINT
  5
7DB0
  8
DEFPOINTS
  6
BYBLOCK
 62
     0
 10
3441.9860289999988
 20
2992.312324
 30
0.0
  0
ENDBLK
  5
7DB1
  8
0
  0
BLOCK
  8
0
  2
*D20
 70
     1
 10
0.0
 20
0.0
 30
0.0
  3
*D20
  1

  0
LINE
  5
7E98
  8
3
 62
     0
 10
1959.6983640000001
 20
2510.0623879999998
 30
0.0
 11
1959.6983640000001
 21
2993.2098121368999
 31
0.0
  0
LINE
  5
7E99
  8
3
 62
     0
 10
919.69836399999997
 20
2036.0623879999989
 30
0.0
 11
919.6983640000002
 21
2993.2098121368999
 31
0.0
  0
LINE
  5
7E9A
  8
3
 62
     0
 10
1919.6983640000001
 20
2973.2098121368999
 30
0.0
 11
959.69836400000031
 21
2973.2098121368999
 31
0.0
  0
INSERT
  5
7E9B
  8
3
 62
     0
  2
_OPEN
 10
1959.6983640000001
 20
2973.2098121368999
 30
0.0
 41
40.0
 42
40.0
 43
40.0
  0
INSERT
  5
7E9C
  8
3
 62
     0
  2
_OPEN
 10
919.6983640000002
 20
2973.2098121368999
 30
0.0
 41
40.0
 42
40.0
 43
40.0
 50
180.0
  0
TEXT
  8
3
  40
60
  5
7EB6
  62
0
  72
0
  71
0
 10
1417.09
 20
2917.01
 30
0.000000
  1
1040
  0
POINT
  5
7E9E
  8
DEFPOINTS
 62
     0
 10
1959.6983640000001
 20
2500.0623879999989
 30
0.0
  0
POINT
  5
7E9F
  8
DEFPOINTS
 62
     0
 10
919.69836399999997
 20
2026.0623879999989
 30
0.0
  0
POINT
  5
7EA0
  8
DEFPOINTS
 62
     0
 10
919.6983640000002
 20
2973.2098121368999
 30
0.0
  0
ENDBLK
  5
7D55
  8
0
  0
BLOCK
  8
0
  2
_DOT
 70
     0
 10
0.0
 20
0.0
 30
0.0
  3
_DOT
  1

  0
LINE
  5
7D8B
  8
0
  6
BYBLOCK
 62
     0
 10
0.0
 20
0.0
 30
0.0
 11
-1.0
 21
-0.0000000000000284
 31
0.0
  0
POLYLINE
  5
7D8C
  8
0
  6
BYBLOCK
 62
     0
 66
     1
 10
0.0
 20
0.0
 30
0.0
 70
     1
 40
0.1666666666666666
 41
0.1666666666666666
  0
VERTEX
  5
7EA1
  8
0
  6
BYBLOCK
 62
     0
 10
-0.0833333333333286
 20
-0.0000000000000284
 30
0.0
 42
1.0
  0
VERTEX
  5
7EA2
  8
0
  6
BYBLOCK
 62
     0
 10
0.0833333333333286
 20
-0.0000000000000284
 30
0.0
 42
1.0
  0
SEQEND
  5
7EA3
  8
0
  6
BYBLOCK
 62
     0
  0
ENDBLK
  5
7D71
  8
0
  0
ENDSEC
  0
SECTION
  2
ENTITIES
  0
LINE
  5
7A7B
  8
1
  6
CONTINUOUS
 10
2954.9860290000001
 20
1859.0623879999989
 30
0.0
 11
3564.9860289999988
 21
1859.0623879999989
 31
0.0
  0
LINE
  5
7A7C
  8
1
  6
CONTINUOUS
 10
3564.9860289999988
 20
1819.0523879999989
 30
0.0
 11
2954.9860290000001
 21
1819.0523879999989
 31
0.0
  0
CIRCLE
  5
7A7D
  8
1
  6
CONTINUOUS
 10
1659.6983640000001
 20
2461.0623879999998
 30
0.0
 40
240.0
  0
LINE
  5
7A7E
  8
1
  6
CONTINUOUS
 10
919.69836399999997
 20
1859.0623879999989
 30
0.0
 11
1919.6983640000001
 21
1859.0623879999989
 31
0.0
  0
LINE
  5
7A7F
  8
1
  6
CONTINUOUS
 10
919.69836399999997
 20
1924.0623879999989
 30
0.0
 11
1919.6983640000001
 21
1924.0623879999989
 31
0.0
  0
LINE
  5
7A80
  8
1
  6
CONTINUOUS
 10
1929.6983640000001
 20
2761.0623879999998
 30
0.0
 11
1389.6983640000001
 21
2761.0623879999998
 31
0.0
  0
ARC
  5
7A81
  8
1
  6
CONTINUOUS
 10
1637.6983640000001
 20
2439.0623879999989
 30
0.0
 40
310.75999999999999
 50
82.689999999999998
 51
174.1699999999999
  0
ARC
  5
7A82
  8
1
  6
CONTINUOUS
 10
1686.6983640000001
 20
2434.0623879999998
 30
0.0
 40
360.00999999999988
 50
174.1699999999999
 51
265.69999999999999
  0
LINE
  5
7A83
  8
2
  6
CENTER
 10
3490.6636899999999
 20
2461.0623879999998
 30
0.0
 11
2852.4589309999992
 21
2461.0623879999998
 31
0.0
  0
LINE
  5
7A84
  8
1
  6
CONTINUOUS
 10
1929.6983640000001
 20
2026.0623879999989
 30
0.0
 11
919.69836399999997
 21
2026.0623879999989
 31
0.0
  0
CIRCLE
  5
7A85
  8
1
  6
CONTINUOUS
 10
1659.6983640000001
 20
2461.0623879999998
 30
0.0
 40
100.0
  0
LINE
  5
7A86
  8
1
  6
CONTINUOUS
 10
1645.1983640000001
 20
2681.0623879999989
 30
0.0
 11
965.19836399999997
 21
2276.0623879999989
 31
0.0
  0
LINE
  5
7A87
  8
1
  6
CONTINUOUS
 10
1919.6983640000001
 20
1946.0623879999989
 30
0.0
 11
919.69836399999997
 21
1946.0623879999989
 31
0.0
  0
LINE
  5
7A88
  8
1
  6
CONTINUOUS
 10
1704.338363999999
 20
2371.572388
 30
0.0
 11
1154.6183639999999
 21
2097.3723879999989
 31
0.0
  0
CIRCLE
  5
7A89
  8
1
  6
CONTINUOUS
 10
1659.6983640000001
 20
2461.0623879999998
 30
0.0
 40
215.0
  0
LINE
  5
7A8A
  8
1
  6
CONTINUOUS
 10
965.19836399999997
 20
2026.0623879999989
 30
0.0
 11
965.19836399999997
 21
2276.0623879999989
 31
0.0
  0
LINE
  5
7A8B
  8
1
  6
CONTINUOUS
 10
919.69836399999997
 20
1924.0623879999989
 30
0.0
 11
919.69836399999997
 21
1819.0523879999989
 31
0.0
  0
LINE
  5
7A8C
  8
1
  6
CONTINUOUS
 10
919.69836399999997
 20
2026.0623879999989
 30
0.0
 11
919.69836399999997
 21
1946.0623879999989
 31
0.0
  0
LINE
  5
7A8D
  8
1
  6
CONTINUOUS
 10
919.69836399999997
 20
1819.0523879999989
 30
0.0
 11
959.69836400000008
 21
1819.0523879999989
 31
0.0
  0
LINE
  5
7A8E
  8
1
  6
CONTINUOUS
 10
959.69836400000008
 20
1859.0523880000001
 30
0.0
 11
959.69836400000008
 21
1819.0523879999989
 31
0.0
  0
CIRCLE
  5
7A8F
  8
1
  6
CONTINUOUS
 10
1127.8283639999991
 20
2151.0623879999989
 30
0.0
 40
60.0
  0
ARC
  5
7A90
  8
1
  6
CONTINUOUS
 10
1127.8283639999991
 20
2151.0623879999989
 30
0.0
 40
101.0
 50
322.88
 51
217.12
  0
LINE
  5
7A91
  8
2
  6
CENTER
 10
1127.8283639999991
 20
2091.0623879999998
 30
0.0
 11
1127.8283639999991
 21
2211.0623879999989
 31
0.0
  0
LINE
  5
7A92
  8
1
  6
CONTINUOUS
 10
1389.6983640000001
 20
2026.0623879999989
 30
0.0
 11
1389.6983640000001
 21
2761.0623879999998
 31
0.0
  0
LINE
  5
7A93
  8
2
  6
CENTER
 10
1067.828364
 20
2151.0623879999989
 30
0.0
 11
1187.828364
 21
2151.0623879999989
 31
0.0
  0
LINE
  5
7A94
  8
1
  6
CONTINUOUS
 10
1027.828364
 20
2026.0623879999989
 30
0.0
 11
1027.828364
 21
2063.0623879999998
 31
0.0
  0
LINE
  5
7A95
  8
1
  6
CONTINUOUS
 10
1027.828364
 20
2063.0623879999998
 30
0.0
 11
1047.298364
 21
2090.112388
 31
0.0
  0
LINE
  5
7A96
  8
1
  6
CONTINUOUS
 10
1227.828364
 20
2063.0623879999998
 30
0.0
 11
1208.3683639999999
 21
2090.112388
 31
0.0
  0
LINE
  5
7A97
  8
1
  6
CONTINUOUS
 10
1227.828364
 20
2026.0623879999989
 30
0.0
 11
1227.828364
 21
2063.0623879999998
 31
0.0
  0
LINE
  5
7A98
  8
1
  6
CONTINUOUS
 10
1094.318364
 20
2200.8323879999989
 30
0.0
 11
1603.838364
 21
2544.0023879999999
 31
0.0
  0
LINE
  5
7A9B
  8
1
  6
CONTINUOUS
 10
1939.6983640000001
 20
2473.0623879999998
 30
0.0
 11
1939.6983640000001
 21
2073.1923879999999
 31
0.0
  0
LINE
  5
7A9C
  8
1
  6
CONTINUOUS
 10
1929.6983640000001
 20
2026.0623879999989
 30
0.0
 11
1929.6983640000001
 21
2761.0623879999998
 31
0.0
  0
LINE
  5
7A9D
  8
1
  6
CONTINUOUS
 10
1959.6983640000001
 20
2500.0623879999989
 30
0.0
 11
1959.6983640000001
 21
2046.0623880000001
 31
0.0
  0
LINE
  5
7A9E
  8
1
  6
CONTINUOUS
 10
1835.1983640000001
 20
2026.0623879999989
 30
0.0
 11
1835.1983640000001
 21
2566.0623879999998
 31
0.0
  0
LINE
  5
7A9F
  8
1
  6
CONTINUOUS
 10
1959.6983640000001
 20
2073.0623879999989
 30
0.0
 11
1659.6983640000001
 21
2075.0623879999998
 31
0.0
  0
LINE
  5
7AA0
  8
1
  6
CONTINUOUS
 10
1919.6983640000001
 20
1924.0623879999989
 30
0.0
 11
1919.6983640000001
 21
1819.0523879999989
 31
0.0
  0
LINE
  5
7AA1
  8
1
  6
CONTINUOUS
 10
1919.6983640000001
 20
2026.0623879999989
 30
0.0
 11
1919.6983640000001
 21
1946.0623879999989
 31
0.0
  0
LINE
  5
7AA2
  8
1
  6
CONTINUOUS
 10
1879.6983640000001
 20
1859.0523880000001
 30
0.0
 11
1879.6983640000001
 21
1819.0523879999989
 31
0.0
  0
LINE
  5
7AA3
  8
1
  6
CONTINUOUS
 10
1919.6983640000001
 20
1819.0523879999989
 30
0.0
 11
1879.6983640000001
 21
1819.0523879999989
 31
0.0
  0
ARC
  5
7AA6
  8
1
  6
CONTINUOUS
 10
1642.6983640000001
 20
2478.0623879999998
 30
0.0
 40
271.43999999999988
 50
358.93999999999988
 51
82.689999999999998
  0
LINE
  5
7AA7
  8
1
  6
CONTINUOUS
 10
1914.098363999999
 20
2473.0623879999998
 30
0.0
 11
1959.6983640000001
 21
2473.0623879999998
 31
0.0
  0
LINE
  5
7AA8
  8
1
  6
CONTINUOUS
 10
1835.1983640000001
 20
2566.0623879999998
 30
0.0
 11
1645.1983640000001
 21
2681.0623879999989
 31
0.0
  0
LINE
  5
7AA9
  8
2
  6
CENTER
 10
1659.6983640000001
 20
1699.539657672392
 30
0.0
 11
1659.6983640000001
 21
2829.6491931433352
 31
0.0
  0
LINE
  5
7AAA
  8
1
  6
CONTINUOUS
 10
2985.9860289999988
 20
2091.0623879999998
 30
0.0
 11
2985.9860289999988
 21
2211.0623879999989
 31
0.0
  0
LINE
  5
7AAB
  8
1
  6
CONTINUOUS
 10
3035.9860290000001
 20
2091.0623879999998
 30
0.0
 11
3035.9860290000001
 21
2211.0623879999989
 31
0.0
  0
LINE
  5
7AAC
  8
1
  6
CONTINUOUS
 10
3060.9860289999988
 20
2026.0623879999989
 30
0.0
 11
3060.9860289999988
 21
2681.0623879999989
 31
0.0
  0
LINE
  5
7AAD
  8
1
  6
CONTINUOUS
 10
2960.9860289999988
 20
2026.0623879999989
 30
0.0
 11
2960.9860289999988
 21
2681.0623879999989
 31
0.0
  0
LINE
  5
7AAE
  8
1
  6
CONTINUOUS
 10
3441.9860289999988
 20
2676.0623879999998
 30
0.0
 11
3441.9860289999988
 21
2246.0623879999989
 31
0.0
  0
LINE
  5
7AAF
  8
1
  6
CONTINUOUS
 10
3140.9860290000001
 20
2761.0623879999998
 30
0.0
 11
3140.9860290000001
 21
2026.0623879999989
 31
0.0
  0
LINE
  5
7AB0
  8
1
  6
CONTINUOUS
 10
3440.9860289999988
 20
2073.0623879999989
 30
0.0
 11
3140.9860290000001
 21
2473.0623879999998
 31
0.0
  0
LINE
  5
7AB1
  8
1
  6
CONTINUOUS
 10
3140.9860290000001
 20
2073.0623879999989
 30
0.0
 11
3440.9860289999988
 21
2473.0623879999998
 31
0.0
  0
LINE
  5
7AB2
  8
1
  6
CONTINUOUS
 10
3096.9860289999988
 20
1924.0623879999989
 30
0.0
 11
3484.9860289999988
 21
1924.0623879999989
 31
0.0
  0
LINE
  5
7AB3
  8
1
  6
CONTINUOUS
 10
3484.9860289999988
 20
2026.0623879999989
 30
0.0
 11
2960.9860289999988
 21
2026.0623879999989
 31
0.0
  0
LINE
  5
7AB4
  8
1
  6
CONTINUOUS
 10
3484.9860289999988
 20
1946.0623879999989
 30
0.0
 11
3096.9860289999988
 21
1946.0623879999989
 31
0.0
  0
LINE
  5
7AB5
  8
1
  6
CONTINUOUS
 10
3140.9860290000001
 20
2073.0623879999989
 30
0.0
 11
3440.9860289999988
 21
2073.0623879999989
 31
0.0
  0
LINE
  5
7AB6
  8
1
  6
CONTINUOUS
 10
3035.9860290000001
 20
2137.0623879999989
 30
0.0
 11
3140.9860290000001
 21
2137.0623879999989
 31
0.0
  0
LINE
  5
7AB7
  8
1
  6
CONTINUOUS
 10
3035.9860290000001
 20
2165.0623879999989
 30
0.0
 11
3140.9860290000001
 21
2165.0623879999989
 31
0.0
  0
LINE
  5
7AB8
  8
1
  6
CONTINUOUS
 10
3096.9860289999988
 20
1924.0623879999989
 30
0.0
 11
3096.9860289999988
 21
1859.0623879999989
 31
0.0
  0
LINE
  5
7AB9
  8
1
  6
CONTINUOUS
 10
2985.9860289999988
 20
2091.0623879999998
 30
0.0
 11
3035.9860290000001
 21
2091.0623879999998
 31
0.0
  0
LINE
  5
7ABA
  8
1
  6
CONTINUOUS
 10
3096.9860289999988
 20
2026.0623879999989
 30
0.0
 11
3096.9860289999988
 21
1946.0623879999989
 31
0.0
  0
LINE
  5
7ABB
  8
1
  6
CONTINUOUS
 10
2954.9860290000001
 20
1859.0623879999989
 30
0.0
 11
2954.9860290000001
 21
1819.0523879999989
 31
0.0
  0
LINE
  5
7ABC
  8
1
  6
CONTINUOUS
 10
3484.9860289999988
 20
1924.0623879999989
 30
0.0
 11
3484.9860289999988
 21
1859.0623879999989
 31
0.0
  0
LINE
  5
7ABD
  8
1
  6
CONTINUOUS
 10
3484.9860289999988
 20
2026.0623879999989
 30
0.0
 11
3484.9860289999988
 21
1946.0623879999989
 31
0.0
  0
LINE
  5
7ABE
  8
1
  6
CONTINUOUS
 10
3140.9860290000001
 20
2761.0623879999998
 30
0.0
 11
3440.9860289999988
 21
2761.0623879999998
 31
0.0
  0
LINE
  5
7ABF
  8
1
  6
CONTINUOUS
 10
3140.9860290000001
 20
2473.0623879999998
 30
0.0
 11
3440.9860289999988
 21
2473.0623879999998
 31
0.0
  0
LINE
  5
7AC0
  8
1
  6
CONTINUOUS
 10
3035.9860290000001
 20
2448.8223879999991
 30
0.0
 11
3140.9860290000001
 21
2448.8223879999991
 31
0.0
  0
LINE
  5
7AC1
  8
1
  6
CONTINUOUS
 10
3035.9860290000001
 20
2476.822388
 30
0.0
 11
3140.9860290000001
 21
2476.822388
 31
0.0
  0
LINE
  5
7AC2
  8
1
  6
CONTINUOUS
 10
2985.9860289999988
 20
2359.2923879999989
 30
0.0
 11
3035.9860290000001
 21
2359.2923879999989
 31
0.0
  0
LINE
  5
7AC3
  8
1
  6
CONTINUOUS
 10
2985.9860289999988
 20
2562.822388
 30
0.0
 11
3035.9860290000001
 21
2562.822388
 31
0.0
  0
LINE
  5
7AC4
  8
1
  6
CONTINUOUS
 10
2985.9860289999988
 20
2359.2923879999989
 30
0.0
 11
2985.9860289999988
 21
2562.822388
 31
0.0
  0
LINE
  5
7AC5
  8
1
  6
CONTINUOUS
 10
3035.9860290000001
 20
2359.2923879999989
 30
0.0
 11
3035.9860290000001
 21
2562.822388
 31
0.0
  0
LINE
  5
7AC6
  8
1
  6
CONTINUOUS
 10
2985.9860289999988
 20
2211.0623879999989
 30
0.0
 11
3035.9860290000001
 21
2211.0623879999989
 31
0.0
  0
LINE
  5
7AC7
  8
1
  6
CONTINUOUS
 10
2960.9860289999988
 20
2681.0623879999989
 30
0.0
 11
3060.9860289999988
 21
2681.0623879999989
 31
0.0
  0
LINE
  5
7AC8
  8
1
  6
CONTINUOUS
 10
1556.1783640000001
 20
3475.8323879999998
 30
0.0
 11
1759.6983640000001
 21
3475.8323879999998
 31
0.0
  0
LINE
  5
7AC9
  8
1
  6
CONTINUOUS
 10
1556.1783640000001
 20
3425.8323879999998
 30
0.0
 11
1759.6983640000001
 21
3425.8323879999998
 31
0.0
  0
LINE
  5
7ACA
  8
1
  6
CONTINUOUS
 10
965.19836399999997
 20
3500.8323879999998
 30
0.0
 11
1835.1983640000001
 21
3500.8323879999998
 31
0.0
  0
LINE
  5
7ACB
  8
1
  6
CONTINUOUS
 10
965.19836399999997
 20
3400.8323879999998
 30
0.0
 11
1835.1983640000001
 21
3400.8323879999998
 31
0.0
  0
LINE
  5
7ACC
  8
1
  6
CONTINUOUS
 10
1319.6983640000001
 20
3880.8323879999998
 30
0.0
 11
1959.6983640000001
 21
3880.8323879999998
 31
0.0
  0
LINE
  5
7ACD
  8
1
  6
CONTINUOUS
 10
1319.6983640000001
 20
3580.8323879999998
 30
0.0
 11
1959.6983640000001
 21
3580.8323879999998
 31
0.0
  0
LINE
  5
7ACE
  8
1
  6
CONTINUOUS
 10
1919.6983640000001
 20
3924.8323879999998
 30
0.0
 11
919.69836399999997
 21
3924.8323879999998
 31
0.0
  0
LINE
  5
7ACF
  8
1
  6
CONTINUOUS
 10
1645.6983640000001
 20
3536.8323879999998
 30
0.0
 11
1141.8283639999991
 21
3536.8323879999998
 31
0.0
  0
LINE
  5
7AD0
  8
1
  6
CONTINUOUS
 10
1113.8283639999991
 20
3536.8323879999998
 30
0.0
 11
919.69836399999997
 21
3536.8323879999998
 31
0.0
  0
LINE
  5
7AD1
  8
1
  6
CONTINUOUS
 10
919.69836399999997
 20
4004.822388
 30
0.0
 11
919.69836399999997
 21
3394.822388
 31
0.0
  0
LINE
  5
7AD2
  8
1
  6
CONTINUOUS
 10
959.69836400000008
 20
4004.822388
 30
0.0
 11
959.69836400000008
 21
3924.822388
 31
0.0
  0
LINE
  5
7AD3
  8
1
  6
CONTINUOUS
 10
959.69836400000008
 20
3536.822388
 30
0.0
 11
959.69836400000008
 21
3394.822388
 31
0.0
  0
LINE
  5
7AD4
  8
1
  6
CONTINUOUS
 10
965.19836399999997
 20
3400.8323879999998
 30
0.0
 11
965.19836399999997
 21
3500.8323879999998
 31
0.0
  0
LINE
  5
7AD5
  8
1
  6
CONTINUOUS
 10
959.69836400000008
 20
3394.822388
 30
0.0
 11
919.69836399999997
 21
3394.822388
 31
0.0
  0
LINE
  5
7AD6
  8
1
  6
CONTINUOUS
 10
959.69836400000008
 20
4004.822388
 30
0.0
 11
919.69836399999997
 21
4004.822388
 31
0.0
  0
LINE
  5
7AD7
  8
1
  6
CONTINUOUS
 10
1141.8283639999991
 20
3475.8323879999998
 30
0.0
 11
1141.8283639999991
 21
3568.362388
 31
0.0
  0
LINE
  5
7AD8
  8
1
  6
CONTINUOUS
 10
1113.8283639999991
 20
3475.8323879999998
 30
0.0
 11
1113.8283639999991
 21
3568.362388
 31
0.0
  0
LINE
  5
7AD9
  8
1
  6
CONTINUOUS
 10
1067.828364
 20
3475.8323879999998
 30
0.0
 11
1187.828364
 21
3475.8323879999998
 31
0.0
  0
LINE
  5
7ADA
  8
1
  6
CONTINUOUS
 10
1067.828364
 20
3425.8323879999998
 30
0.0
 11
1187.828364
 21
3425.8323879999998
 31
0.0
  0
LINE
  5
7ADB
  8
1
  6
CONTINUOUS
 10
1067.828364
 20
3425.8323879999998
 30
0.0
 11
1067.828364
 21
3475.8323879999998
 31
0.0
  0
LINE
  5
7ADC
  8
1
  6
CONTINUOUS
 10
1187.828364
 20
3425.8323879999998
 30
0.0
 11
1187.828364
 21
3475.8323879999998
 31
0.0
  0
LINE
  5
7ADD
  8
1
  6
CONTINUOUS
 10
1228.8283639999991
 20
3568.362388
 30
0.0
 11
1026.8283639999991
 21
3568.362388
 31
0.0
  0
LINE
  5
7ADE
  8
1
  6
CONTINUOUS
 10
1228.8283639999991
 20
3811.0423879999998
 30
0.0
 11
1026.8283639999991
 21
3811.0423879999998
 31
0.0
  0
LINE
  5
7ADF
  8
1
  6
CONTINUOUS
 10
1026.8283639999991
 20
3568.362388
 30
0.0
 11
1026.8283639999991
 21
3811.0423879999998
 31
0.0
  0
LINE
  5
7AE0
  8
1
  6
CONTINUOUS
 10
1319.6983640000001
 20
3580.8323879999998
 30
0.0
 11
1319.6983640000001
 21
3880.8323879999998
 31
0.0
  0
LINE
  5
7AE1
  8
1
  6
CONTINUOUS
 10
1228.8283639999991
 20
3568.362388
 30
0.0
 11
1228.8283639999991
 21
3811.0423879999998
 31
0.0
  0
LINE
  5
7AE2
  8
1
  6
CONTINUOUS
 10
1556.1783640000001
 20
3425.8323879999998
 30
0.0
 11
1556.1783640000001
 21
3475.8323879999998
 31
0.0
  0
LINE
  5
7AE3
  8
1
  6
CONTINUOUS
 10
1919.6983640000001
 20
4004.822388
 30
0.0
 11
1919.6983640000001
 21
3880.8323879999998
 31
0.0
  0
LINE
  5
7AE4
  8
1
  6
CONTINUOUS
 10
1879.6983640000001
 20
4004.822388
 30
0.0
 11
1879.6983640000001
 21
3924.822388
 31
0.0
  0
LINE
  5
7AE5
  8
1
  6
CONTINUOUS
 10
1673.6983640000001
 20
3475.8323879999998
 30
0.0
 11
1673.6983640000001
 21
3580.8323879999998
 31
0.0
  0
LINE
  5
7AE6
  8
1
  6
CONTINUOUS
 10
1645.6983640000001
 20
3475.8323879999998
 30
0.0
 11
1645.6983640000001
 21
3580.8323879999998
 31
0.0
  0
LINE
  5
7AE7
  8
1
  6
CONTINUOUS
 10
1919.6983640000001
 20
3580.8323879999998
 30
0.0
 11
1919.6983640000001
 21
3394.822388
 31
0.0
  0
LINE
  5
7AE8
  8
1
  6
CONTINUOUS
 10
1879.6983640000001
 20
3536.822388
 30
0.0
 11
1879.6983640000001
 21
3394.822388
 31
0.0
  0
LINE
  5
7AE9
  8
1
  6
CONTINUOUS
 10
1759.6983640000001
 20
3425.8323879999998
 30
0.0
 11
1759.6983640000001
 21
3475.8323879999998
 31
0.0
  0
LINE
  5
7AEA
  8
1
  6
CONTINUOUS
 10
1835.1983640000001
 20
3400.8323879999998
 30
0.0
 11
1835.1983640000001
 21
3500.8323879999998
 31
0.0
  0
LINE
  5
7AEB
  8
1
  6
CONTINUOUS
 10
1879.6983640000001
 20
3394.822388
 30
0.0
 11
1919.6983640000001
 21
3394.822388
 31
0.0
  0
LINE
  5
7AEC
  8
1
  6
CONTINUOUS
 10
1919.6983640000001
 20
3536.8323879999998
 30
0.0
 11
1673.6983640000001
 21
3536.8323879999998
 31
0.0
  0
LINE
  5
7AED
  8
1
  6
CONTINUOUS
 10
1939.6983640000001
 20
3580.8323879999998
 30
0.0
 11
1939.6983640000001
 21
3880.8323879999998
 31
0.0
  0
LINE
  5
7AEE
  8
1
  6
CONTINUOUS
 10
1959.6983640000001
 20
3553.8323879999998
 30
0.0
 11
1959.6983640000001
 21
3907.8323879999998
 31
0.0
  0
LINE
  5
7AEF
  8
1
  6
CONTINUOUS
 10
1879.6983640000001
 20
4004.822388
 30
0.0
 11
1919.6983640000001
 21
4004.822388
 31
0.0
  0
LINE
  5
7AF0
  8
1
  6
CONTINUOUS
 10
3564.9860289999988
 20
1859.0623879999989
 30
0.0
 11
3564.9860289999988
 21
1819.0523879999989
 31
0.0
  0
LINE
  5
7AF1
  8
2
  6
CENTER
 10
3290.9860289999988
 20
2801.704584999999
 30
0.0
 11
3290.9860289999988
 21
1675.062754809039
 31
0.0
  0
LINE
  5
7AF2
  8
2
  6
CENTER
 10
844.9130550000001
 20
3730.8323879999998
 30
0.0
 11
2016.5092859982431
 21
3730.8323879999998
 31
0.0
  0
LINE
  5
7AF3
  8
2
  6
CENTER
 10
1659.6983640000001
 20
3343.7837364132961
 30
0.0
 11
1659.6983640000001
 21
3970.9826927235281
 31
0.0
  0
LINE
  5
7AF4
  8
2
  6
CENTER
 10
2133.3312660000001
 20
2461.0623879999998
 30
0.0
 11
1109.92114796433
 21
2461.0623879999998
 31
0.0
  0
LINE
  5
7AF5
  8
4
  6
CONTINUOUS
 10
3700.0
 20
1000.0
 30
0.0
 11
3700.0
 21
600.0
 31
0.0
  0
LINE
  5
7AF6
  8
4
  6
CONTINUOUS
 10
2300.0
 20
1000.0
 30
0.0
 11
2300.0
 21
600.0
 31
0.0
  0
LINE
  5
7AF7
  8
4
  6
CONTINUOUS
 10
1300.0
 20
1000.0
 30
0.0
 11
1300.0
 21
600.0
 31
0.0
  0
LINE
  5
7AFA
  8
4
  6
CONTINUOUS
 10
1300.0
 20
600.0
 30
0.0
 11
3700.0
 21
600.0
 31
0.0
  0
LINE
  5
7AFB
  8
4
  6
CONTINUOUS
 10
1300.0
 20
800.0
 30
0.0
 11
3700.0
 21
800.0
 31
0.0
  0
TEXT
  5
7AFC
  8
4
  6
CONTINUOUS
 10
1377.004162
 20
863.086052
 30
0.0
 40
100.0
  1
機器名称
  0
TEXT
  5
7AFD
  8
4
  6
CONTINUOUS
 10
1372.516212
 20
643.29031299999986
 30
0.0
 40
100.0
  1
機器型番
  0
TEXT
  5
7AFE
  8
4
  6
CONTINUOUS
 10
2355.3574910000002
 20
845.14353800000015
 30
0.0
 40
100.0
  1
ミツヤ多翼送風機
  0
TEXT
  5
7AFF
  8
4
  6
CONTINUOUS
 10
2373.3089909999999
 20
634.31916899999999
 30
0.0
 40
100.0
  1
MF#2 1/2-4
  0
TEXT
  5
7B01
  8
4
  6
CONTINUOUS
 10
1510.478437
 20
4766.8576830000002
 30
0.0
 40
108.0
  1
天井吊防振ベット
  0
TEXT
  5
7B02
  8
4
  6
CONTINUOUS
 10
632.33518700000002
 20
5067.7619520000007
 30
0.0
 40
144.0
  1
ベルト駆動式片吸込両持多翼ファン
  0
LINE
  5
7B03
  8
4
  6
CONTINUOUS
 10
500.0
 20
4938.8175090000004
 30
0.0
 11
3700.0
 21
4938.8175090000004
 31
0.0
  0
LINE
  5
7B04
  8
4
  6
CONTINUOUS
 10
500.0
 20
5338.8175090000004
 30
0.0
 11
3700.0
 21
5338.8175090000004
 31
0.0
  0
LINE
  5
7B05
  8
4
  6
CONTINUOUS
 10
1300.0
 20
1000.0
 30
0.0
 11
3700.0
 21
1000.0
 31
0.0
  0
LINE
  5
7B06
  8
4
  6
CONTINUOUS
 10
500.0
 20
5338.8175090000004
 30
0.0
 11
500.0
 21
4938.8175090000004
 31
0.0
  0
TEXT
  5
7B07
  8
4
  6
CONTINUOUS
 10
627.68324900000005
 20
4764.6389549999994
 30
0.0
 40
108.0
  1
左回転右横向
  0
TEXT
  5
7B08
  8
4
  6
CONTINUOUS
 10
2937.9391179999998
 20
5412.122163
 30
0.0
 40
112.0
  1
No.
  0
TEXT
  5
7B09
  8
4
  6
CONTINUOUS
 10
2622.5921250000001
 20
4766.8576830000002
 30
0.0
 40
108.0
  1
縮尺：1/20
  0
LINE
  5
7B0A
  8
4
  6
CONTINUOUS
 10
3700.0
 20
5338.8175090000004
 30
0.0
 11
3700.0
 21
4938.8175090000004
 31
0.0
  0
LINE
  5
7B0C
  8
4
  6
CONTINUOUS
 10
2881.234845
 20
5362.5271659999999
 30
0.0
 11
2881.234845
 21
5573.3045229999998
 31
0.0
  0
LINE
  5
7B0D
  8
4
  6
CONTINUOUS
 10
2881.234845
 20
5573.3045229999998
 30
0.0
 11
3700.0
 21
5573.3045229999998
 31
0.0
  0
LINE
  5
7B0E
  8
4
  6
CONTINUOUS
 10
3700.0
 20
5573.3045229999998
 30
0.0
 11
3700.0
 21
5362.5271659999999
 31
0.0
  0
LINE
  5
7B0F
  8
4
  6
CONTINUOUS
 10
3700.0
 20
5362.5271659999999
 30
0.0
 11
2881.234845
 21
5362.5271659999999
 31
0.0
  0
DIMENSION
  5
7B27
  8
3
  6
CONTINUOUS
  2
*D1
 10
2082.009458
 20
2473.0623879999998
 30
0.0
 11
2082.0094579999991
 21
2252.3984030000001
 31
0.0
 70
   128
 13
1959.6983640000001
 23
2073.0623879999989
 33
0.0
 14
1959.6983640000001
 24
2473.0623879999998
 34
0.0
 50
90.0
1001
ACAD
1000
DSTYLE
1002
{
1070
   287
1070
     3
1070
    40
1040
20.0
1070
   143
1040
0.039
1070
   172
1070
     1
1070
   271
1070
     0
1070
   279
1070
     0
1070
   288
1070
     1
1002
}
  0
DIMENSION
  5
7B34
  8
3
  6
CONTINUOUS
  2
*D2
 10
2197.8349130000001
 20
2461.0623879999998
 30
0.0
 11
2197.8349129999988
 21
2252.3984030000001
 31
0.0
 70
   128
 13
1959.6983640000001
 23
2073.0623879999989
 33
0.0
 14
2133.3312660000001
 24
2461.0623879999998
 34
0.0
 50
90.0
1001
ACAD
1000
DSTYLE
1002
{
1070
   287
1070
     3
1070
    40
1040
20.0
1070
   143
1040
0.039
1070
   172
1070
     1
1070
   271
1070
     0
1070
   279
1070
     0
1070
   288
1070
     1
1002
}
  0
DIMENSION
  5
7B41
  8
3
  6
CONTINUOUS
  2
*D3
 10
2330.2068800000002
 20
2461.0623879999998
 30
0.0
 11
2330.2068799999988
 21
2598.2052450000001
 31
0.0
 70
   128
 13
1929.6983640000001
 23
2761.0623879999998
 33
0.0
 14
2133.3312660000001
 24
2461.0623879999998
 34
0.0
 50
90.0
1001
ACAD
1000
DSTYLE
1002
{
1070
   287
1070
     3
1070
    40
1040
20.0
1070
   143
1040
0.039
1070
   172
1070
     1
1070
   271
1070
     0
1070
   279
1070
     0
1070
   288
1070
     1
1002
}
  0
DIMENSION
  5
7B4D
  8
3
  6
CONTINUOUS
  2
*D4
 10
2330.2068799999988
 20
1946.0623879999989
 30
0.0
 11
2280.2068799999988
 21
2203.5623879999998
 31
0.0
 70
     0
 13
2133.3312660000001
 23
2461.0623879999998
 33
0.0
 14
1919.6983640000001
 24
1946.0623879999989
 34
0.0
 50
90.0
1001
ACAD
1000
DSTYLE
1002
{
1070
   287
1070
     4
1070
    40
1040
20.0
1070
    75
1070
     1
1070
   143
1040
0.039
1070
   172
1070
     1
1070
   271
1070
     0
1070
   279
1070
     1
1070
   288
1070
     1
1002
}
  0
DIMENSION
  5
7B5D
  8
3
  6
CONTINUOUS
  2
*D5
 10
2330.2068799999988
 20
1859.0623879999989
 30
0.0
 11
2410.2068800000002
 21
1902.5623879999989
 31
0.0
 70
     0
 13
1919.6983640000001
 23
1946.0623879999989
 33
0.0
 14
1919.6983640000001
 24
1859.0623879999989
 34
0.0
 50
90.0
1001
ACAD
1000
DSTYLE
1002
{
1070
   288
1070
     1
1070
   172
1070
     1
1070
    75
1070
     1
1070
    40
1040
20.0
1070
   271
1070
     0
1070
     7
1000
_DOT
1070
   143
1040
0.039
1002
}
  0
DIMENSION
  5
7B6A
  8
3
  6
CONTINUOUS
  2
*D6
 10
2524.6281770000001
 20
1819.0523879999989
 30
0.0
 11
2524.6281770000001
 21
2306.1351730000001
 31
0.0
 70
   128
 13
1929.6983640000001
 23
2761.0623879999998
 33
0.0
 14
1919.6983640000001
 24
1819.0523879999989
 34
0.0
 50
90.0
1001
ACAD
1000
DSTYLE
1002
{
1070
   287
1070
     3
1070
    40
1040
20.0
1070
   143
1040
0.039
1070
   172
1070
     1
1070
   271
1070
     0
1070
   279
1070
     0
1070
   288
1070
     1
1002
}
  0
DIMENSION
  5
7B77
  8
3
  6
CONTINUOUS
  2
*D7
 10
3290.9860289999988
 20
1635.991506999999
 30
0.0
 11
3124.438556999999
 21
1635.991506999999
 31
0.0
 70
   128
 13
2954.9860290000001
 23
1819.0523879999989
 33
0.0
 14
3290.9860289999988
 24
1682.3283459596289
 34
0.0
1001
ACAD
1000
DSTYLE
1002
{
1070
   287
1070
     3
1070
    40
1040
20.0
1070
   143
1040
0.039
1070
   172
1070
     1
1070
   271
1070
     0
1070
   279
1070
     0
1070
   288
1070
     1
1002
}
  0
DIMENSION
  5
7B85
  8
3
  6
CONTINUOUS
  2
*D8
 10
3564.9860289999988
 20
1635.991506999999
 30
0.0
 11
3434.7115739999999
 21
1636.062426
 31
0.0
 70
   128
 13
3290.9860289999988
 23
1682.3283459596289
 33
0.0
 14
3564.9860289999988
 24
1819.0523879999989
 34
0.0
1001
ACAD
1000
DSTYLE
1002
{
1070
   287
1070
     4
1070
    40
1040
20.0
1070
    75
1070
     1
1070
   143
1040
0.039
1070
   172
1070
     1
1070
   271
1070
     0
1070
   279
1070
     1
1070
   288
1070
     1
1002
}
  0
DIMENSION
  5
7B92
  8
3
  6
CONTINUOUS
  2
*D9
 10
3140.9860290000001
 20
2848.1105680000001
 30
0.0
 11
3278.128886
 21
2848.1105680000001
 31
0.0
 70
   128
 13
3440.9860289999988
 23
2761.0623879999998
 33
0.0
 14
3140.9860290000001
 24
2761.0623879999998
 34
0.0
1001
ACAD
1000
DSTYLE
1002
{
1070
   287
1070
     3
1070
    40
1040
20.0
1070
   143
1040
0.039
1070
   172
1070
     1
1070
   271
1070
     0
1070
   279
1070
     0
1070
   288
1070
     1
1002
}
  0
DIMENSION
  5
7BAC
  8
3
  6
CONTINUOUS
  2
*D10
 10
2960.9860289999988
 20
2992.312324
 30
0.0
 11
3125.9860289999988
 21
3092.3123239999991
 31
0.0
 70
     0
  1
MAX\P380
 13
3290.9860289999988
 23
2945.5682040000002
 33
0.0
 14
2960.9860289999988
 24
2681.0623879999989
 34
0.0
1001
ACAD
1000
DSTYLE
1002
{
1070
   287
1070
     4
1070
    40
1040
20.0
1070
    75
1070
     1
1070
   143
1040
0.039
1070
   172
1070
     1
1070
   271
1070
     0
1070
   279
1070
     1
1070
   288
1070
     1
1002
}
  0
DIMENSION
  5
7BB9
  8
3
  6
CONTINUOUS
  2
*D11
 10
1659.6983640000001
 20
2860.037206
 30
0.0
 11
1796.841221142857
 21
2860.037206
 31
0.0
 70
   128
 13
1959.6983640000001
 23
2500.0623879999989
 33
0.0
 14
1659.6983640000001
 24
2843.0509603898131
 34
0.0
1001
ACAD
1000
DSTYLE
1002
{
1070
   287
1070
     3
1070
    40
1040
20.0
1070
   143
1040
0.039
1070
   172
1070
     1
1070
   271
1070
     0
1070
   279
1070
     0
1070
   288
1070
     1
1002
}
  0
DIMENSION
  5
7BC5
  8
3
  6
CONTINUOUS
  2
*D12
 10
1327.6983640000001
 20
2860.037206
 30
0.0
 11
1493.6983640000001
 21
2910.037206
 31
0.0
 70
     0
 13
1659.6983640000001
 23
2843.0509603898131
 33
0.0
 14
1327.6983640000001
 24
2434.0623879999998
 34
0.0
1001
ACAD
1000
DSTYLE
1002
{
1070
   287
1070
     4
1070
    40
1040
20.0
1070
    75
1070
     1
1070
   143
1040
0.039
1070
   172
1070
     1
1070
   271
1070
     0
1070
   279
1070
     1
1070
   288
1070
     1
1002
}
  0
DIMENSION
  5
7BD2
  8
3
  6
CONTINUOUS
  2
*D13
 10
1659.6983640000001
 20
1672.7464930000001
 30
0.0
 11
1271.2312930000001
 21
1672.7464930000001
 31
0.0
 70
   128
 13
919.69836399999997
 23
1819.0523879999989
 33
0.0
 14
1659.6983640000001
 24
1700.4754607825801
 34
0.0
1001
ACAD
1000
DSTYLE
1002
{
1070
   287
1070
     3
1070
    40
1040
20.0
1070
   143
1040
0.039
1070
   172
1070
     1
1070
   271
1070
     0
1070
   279
1070
     0
1070
   288
1070
     1
1002
}
  0
DIMENSION
  5
7BE0
  8
3
  6
CONTINUOUS
  2
*D14
 10
1919.6983640000001
 20
1672.7464930000001
 30
0.0
 11
1811.1040720000001
 21
1672.5413529999989
 31
0.0
 70
   128
 13
1659.6983640000001
 23
1697.6680273619399
 33
0.0
 14
1919.6983640000001
 24
1819.0523879999989
 34
0.0
1001
ACAD
1000
DSTYLE
1002
{
1070
   287
1070
     4
1070
    40
1040
20.0
1070
    75
1070
     1
1070
   143
1040
0.039
1070
   172
1070
     1
1070
   271
1070
     0
1070
   279
1070
     1
1070
   288
1070
     1
1002
}
  0
DIMENSION
  5
7BF0
  8
3
  6
CONTINUOUS
  2
*D15
 10
3631.2121290000009
 20
2246.0623879999989
 30
0.0
 11
3631.212129
 21
2459.0782789999989
 31
0.0
 70
   128
 13
3440.9860289999988
 23
2676.0623879999998
 33
0.0
 14
3440.9860289999988
 24
2246.0623879999989
 34
0.0
 50
90.0
1001
ACAD
1000
DSTYLE
1002
{
1070
   287
1070
     3
1070
     3
1000
φ<>
1070
    40
1040
20.0
1070
   143
1040
0.039
1070
   172
1070
     1
1070
   271
1070
     0
1070
   279
1070
     0
1070
   288
1070
     1
1002
}
  0
DIMENSION
  5
7BFD
  8
3
  6
CONTINUOUS
  2
*D16
 10
1919.6983640000001
 20
4124.5573519999998
 30
0.0
 11
1453.24272
 21
4124.5573519999998
 31
0.0
 70
   128
 13
919.69836399999997
 23
4004.822388
 33
0.0
 14
1919.6983640000001
 24
4004.822388
 34
0.0
1001
ACAD
1000
DSTYLE
1002
{
1070
   287
1070
     3
1070
    40
1040
20.0
1070
   143
1040
0.039
1070
   172
1070
     1
1070
   271
1070
     0
1070
   279
1070
     0
1070
   288
1070
     1
1002
}
  0
DIMENSION
  5
7C0A
  8
3
  6
CONTINUOUS
  2
*D17
 10
767.89775800000052
 20
3394.822388
 30
0.0
 11
767.89775799999995
 21
3704.5264689999999
 31
0.0
 70
   128
 13
919.69836399999997
 23
4004.822388
 33
0.0
 14
919.69836399999997
 24
3394.822388
 34
0.0
 50
90.0
1001
ACAD
1000
DSTYLE
1002
{
1070
   287
1070
     3
1070
    40
1040
20.0
1070
   143
1040
0.039
1070
   172
1070
     1
1070
   271
1070
     0
1070
   279
1070
     0
1070
   288
1070
     1
1002
}
  0
DIMENSION
  5
7C35
  8
3
  6
CONTINUOUS
  2
*D18
 10
2329.337618
 20
1819.0523879999989
 30
0.0
 11
2329.3376179999991
 21
1670.4809594285709
 31
0.0
 70
   128
 13
1919.6983640000001
 23
1859.0623879999989
 33
0.0
 14
1919.6983640000001
 24
1819.0523879999989
 34
0.0
 50
90.0
1001
ACAD
1000
DSTYLE
1002
{
1070
   287
1070
     3
1070
    40
1040
20.0
1070
   143
1040
0.039
1070
   172
1070
     1
1070
   271
1070
     0
1070
   279
1070
     0
1070
   288
1070
     1
1070
     6
1000
DOT
1002
}
  0
LINE
  5
7C7D
  8
1
  6
CONTINUOUS
 10
3440.9860289999988
 20
2761.0623879999998
 30
0.0
 11
3440.9860289999988
 21
2026.0623879999989
 31
0.0
  0
DIMENSION
  5
7C8D
  8
3
  6
CONTINUOUS
  2
*D19
 10
3441.9860289999988
 20
2992.312324
 30
0.0
 11
3351.48139390289
 21
3053.41509589409
 31
0.0
 70
   128
 13
3290.9860289999988
 23
2945.5682040000002
 33
0.0
 14
3441.9860289999988
 24
2676.0623879999998
 34
0.0
1001
ACAD
1000
DSTYLE
1002
{
1070
   288
1070
     1
1070
   172
1070
     1
1070
    40
1040
20.0
1070
   271
1070
     0
1070
   143
1040
0.039
1002
}
  0
DIMENSION
  5
7D4A
  8
3
  2
*D20
 10
919.6983640000002
 20
2973.2098121368999
 30
0.0
 11
1537.0944294205181
 21
2973.2098121368999
 31
0.0
 70
   128
 13
1959.6983640000001
 23
2500.0623879999989
 33
0.0
 14
919.69836399999997
 24
2026.0623879999989
 34
0.0
1001
ACAD
1000
DSTYLE
1002
{
1070
   287
1070
     3
1070
    40
1040
20.0
1070
   143
1040
0.039
1070
   172
1070
     1
1070
   271
1070
     0
1070
   279
1070
     0
1070
   288
1070
     1
1002
}
  0
ENDSEC
  0
EOF
