  0
SECTION
  2
HEADER
  9
$ACADVER
  1
AC1009
  9
$INSBASE
 10
0.0
 20
0.0
 30
0.0
  9
$EXTMIN
 10
500.0
 20
600.0
 30
0.0
  9
$EXTMAX
 10
3700.0
 20
5573.3045229999998
 30
0.0
  9
$LIMMIN
 10
0.0
 20
0.0
  9
$LIMMAX
 10
297.0
 20
210.0
  9
$ORTHOMODE
 70
     0
  9
$REGENMODE
 70
     1
  9
$FILLMODE
 70
     0
  9
$QTEXTMODE
 70
     0
  9
$MIRRTEXT
 70
     1
  9
$DRAGMODE
 70
     2
  9
$LTSCALE
 40
100.0
  9
$OSMODE
 70
    37
  9
$ATTMODE
 70
     1
  9
$TEXTSIZE
 40
180.0
  9
$TRACEWID
 40
0.05
  9
$TEXTSTYLE
  7
STANDARD
  9
$CLAYER
  8
3
  9
$CELTYPE
  6
BYLAYER
  9
$CECOLOR
 62
   256
  9
$DIMSCALE
 40
20.0
  9
$DIMASZ
 40
2.0
  9
$DIMEXO
 40
0.5
  9
$DIMDLI
 40
10.0
  9
$DIMRND
 40
0.0
  9
$DIMDLE
 40
0.0
  9
$DIMEXE
 40
1.0
  9
$DIMTP
 40
1.0
  9
$DIMTM
 40
1.0
  9
$DIMTXT
 40
3.0
  9
$DIMCEN
 40
0.0
  9
$DIMTSZ
 40
0.0
  9
$DIMTOL
 70
     0
  9
$DIMLIM
 70
     0
  9
$DIMTIH
 70
     0
  9
$DIMTOH
 70
     0
  9
$DIMSE1
 70
     0
  9
$DIMSE2
 70
     0
  9
$DIMTAD
 70
     1
  9
$DIMZIN
 70
     8
  9
$DIMBLK
  1

  9
$DIMASO
 70
     1
  9
$DIMSHO
 70
     1
  9
$DIMPOST
  1

  9
$DIMAPOST
  1

  9
$DIMALT
 70
     0
  9
$DIMALTD
 70
     2
  9
$DIMALTF
 40
0.039
  9
$DIMLFAC
 40
1.0
  9
$DIMTOFL
 70
     1
  9
$DIMTVP
 40
0.0
  9
$DIMTIX
 70
     0
  9
$DIMSOXD
 70
     0
  9
$DIMSAH
 70
     1
  9
$DIMBLK1
  1
OPEN
  9
$DIMBLK2
  1
OPEN
  9
$DIMSTYLE
  2
IGA
  9
$DIMCLRD
 70
     0
  9
$DIMCLRE
 70
     0
  9
$DIMCLRT
 70
     0
  9
$DIMTFAC
 40
10.0
  9
$DIMGAP
 40
1.0
  9
$LUNITS
 70
     2
  9
$LUPREC
 70
     3
  9
$SKETCHINC
 40
0.1
  9
$FILLETRAD
 40
50.0
  9
$AUNITS
 70
     0
  9
$AUPREC
 70
     0
  9
$MENU
  1
acad
  9
$ELEVATION
 40
0.0
  9
$PELEVATION
 40
0.0
  9
$THICKNESS
 40
0.0
  9
$LIMCHECK
 70
     0
  9
$BLIPMODE
 70
     0
  9
$CHAMFERA
 40
0.5
  9
$CHAMFERB
 40
0.5
  9
$SKPOLY
 70
     0
  9
$TDCREATE
 40
2450728.3926269682
  9
$TDUPDATE
 40
2454953.7651842702
  9
$TDINDWG
 40
0.0061389583
  9
$TDUSRTIMER
 40
0.0061389583
  9
$USRTIMER
 70
     1
  9
$ANGBASE
 50
0.0
  9
$ANGDIR
 70
     0
  9
$PDMODE
 70
     0
  9
$PDSIZE
 40
0.0
  9
$PLINEWID
 40
0.0
  9
$COORDS
 70
     1
  9
$SPLFRAME
 70
     0
  9
$SPLINETYPE
 70
     6
  9
$SPLINESEGS
 70
     8
  9
$ATTDIA
 70
     0
  9
$ATTREQ
 70
     1
  9
$HANDLING
 70
 10241
  9
$HANDSEED
  5
801F
  9
$SURFTAB1
 70
     6
  9
$SURFTAB2
 70
     6
  9
$SURFTYPE
 70
     6
  9
$SURFU
 70
     6
  9
$SURFV
 70
     6
  9
$UCSNAME
  2

  9
$UCSORG
 10
0.0
 20
0.0
 30
0.0
  9
$UCSXDIR
 10
1.0
 20
0.0
 30
0.0
  9
$UCSYDIR
 10
0.0
 20
1.0
 30
0.0
  9
$PUCSNAME
  2

  9
$PUCSORG
 10
0.0
 20
0.0
 30
0.0
  9
$PUCSXDIR
 10
1.0
 20
0.0
 30
0.0
  9
$PUCSYDIR
 10
0.0
 20
1.0
 30
0.0
  9
$USERI1
 70
     0
  9
$USERI2
 70
     0
  9
$USERI3
 70
     0
  9
$USERI4
 70
     0
  9
$USERI5
 70
     0
  9
$USERR1
 40
0.0
  9
$USERR2
 40
0.0
  9
$USERR3
 40
0.0
  9
$USERR4
 40
0.0
  9
$USERR5
 40
0.0
  9
$WORLDVIEW
 70
     1
  9
$SHADEDGE
 70
     3
  9
$SHADEDIF
 70
    70
  9
$TILEMODE
 70
     1
  9
$MAXACTVP
 70
    16
  9
$PLIMCHECK
 70
     0
  9
$PEXTMIN
 10
1.0000000000000000E+020
 20
1.0000000000000000E+020
 30
1.0000000000000000E+020
  9
$PEXTMAX
 10
-1.0000000000000000E+020
 20
-1.0000000000000000E+020
 30
-1.0000000000000000E+020
  9
$PLIMMIN
 10
0.0
 20
0.0
  9
$PLIMMAX
 10
12.0
 20
9.0
  9
$UNITMODE
 70
     0
  9
$VISRETAIN
 70
     0
  9
$PLINEGEN
 70
     0
  9
$PSLTSCALE
 70
     1
  0
ENDSEC
  0
SECTION
  2
TABLES
  0
TABLE
  2
VPORT
 70
     2
  0
VPORT
  2
*ACTIVE
 70
     0
 10
0.0
 20
0.0
 11
1.0
 21
1.0
 12
6292.1124769529506
 22
3086.6374998146398
 13
0.0
 23
0.0
 14
10.0
 24
10.0
 15
10.0
 25
10.0
 16
0.0
 26
0.0
 36
1.0
 17
0.0
 27
0.0
 37
0.0
 40
5011.4968576296578
 41
3.1666666666666661
 42
50.0
 43
0.0
 44
0.0
 50
0.0
 51
0.0
 71
     0
 72
   100
 73
     1
 74
     0
 75
     0
 76
     0
 77
     0
 78
     0
  0
ENDTAB
  0
TABLE
  2
LTYPE
 70
     2
  0
LTYPE
  2
CONTINUOUS
 70
     0
  3
Solid line
 72
    65
 73
     0
 40
0.0
  0
LTYPE
  2
CENTER
 70
     0
  3
____ _ ____ _ ____ _ ____ _ ____ _ ____ _ ____ 
 72
    65
 73
     4
 40
2.0
 49
1.25
 49
-0.25
 49
0.25
 49
-0.25
  0
ENDTAB
  0
TABLE
  2
LAYER
 70
     6
  0
LAYER
  2
0
 70
     0
 62
     7
  6
CONTINUOUS
  0
LAYER
  2
3
 70
     0
 62
     2
  6
CONTINUOUS
  0
LAYER
  2
2
 70
     0
 62
     3
  6
CENTER
  0
LAYER
  2
1
 70
     0
 62
     4
  6
CONTINUOUS
  0
LAYER
  2
4
 70
     0
 62
     7
  6
CONTINUOUS
  0
LAYER
  2
DEFPOINTS
 70
     0
 62
     7
  6
CONTINUOUS
  0
ENDTAB
  0
TABLE
  2
STYLE
 70
     1
  0
STYLE
  2
STANDARD
 70
     0
 40
0.0
 41
1.0
 50
0.0
 71
     0
 42
180.0
  3
simplex.shx
  4
extfont.shx
  0
ENDTAB
  0
TABLE
  2
VIEW
 70
     0
  0
ENDTAB
  0
TABLE
  2
UCS
 70
     0
  0
ENDTAB
  0
TABLE
  2
APPID
 70
     1
  0
APPID
  2
ACAD
 70
     0
  0
ENDTAB
  0
TABLE
  2
DIMSTYLE
 70
     1
  0
DIMSTYLE
  2
IGA
 70
     0
  3

  4

  5

  6
OPEN
  7
OPEN
 40
2.0
 41
2.0
 42
0.5
 43
10.0
 44
1.0
 45
0.0
 46
0.0
 47
1.0
 48
1.0
140
3.0
141
0.0
142
0.0
143
0.03937
144
1.0
145
0.0
146
10.0
147
1.0
 71
     0
 72
     0
 73
     0
 74
     0
 75
     0
 76
     0
 77
     1
 78
     8
170
     0
171
     2
172
     0
173
     1
174
     0
175
     0
176
     0
177
     0
178
     0
  0
ENDTAB
  0
ENDSEC
  0
SECTION
  2
BLOCKS
  0
BLOCK
  8
0
  2
$MODEL_SPACE
 70
     0
 10
0.0
 20
0.0
 30
0.0
  3
$MODEL_SPACE
  1

  0
ENDBLK
  5
1B
  8
0
  0
BLOCK
 67
     1
  8
0
  2
$PAPER_SPACE
 70
     0
 10
0.0
 20
0.0
 30
0.0
  3
$PAPER_SPACE
  1

  0
ENDBLK
  5
18
 67
     1
  8
0
  0
BLOCK
  8
0
  2
_OPEN
 70
     0
 10
0.0
 20
0.0
 30
0.0
  3
_OPEN
  1

  0
LINE
  5
7BBC
  8
0
  6
BYBLOCK
 62
     0
 10
-1.0
 20
0.166667
 30
0.0
 11
0.0
 21
0.0
 31
0.0
  0
LINE
  5
7BBD
  8
0
  6
BYBLOCK
 62
     0
 10
0.0
 20
0.0
 30
0.0
 11
-1.0
 21
-0.166667
 31
0.0
  0
LINE
  5
7BBE
  8
0
  6
BYBLOCK
 62
     0
 10
0.0
 20
0.0
 30
0.0
 11
-1.0
 21
0.0
 31
0.0
  0
ENDBLK
  5
7BBF
  8
0
  0
BLOCK
  8
0
  2
*D1
 70
     1
 10
0.0
 20
0.0
 30
0.0
  3
*D1
  1

  0
LINE
  5
7F71
  8
3
  6
CONTINUOUS
 62
     0
 10
1744.5644890000001
 20
2807.0535540000001
 30
0.0
 11
1744.5644890000001
 21
2920.8377850000002
 31
0.0
  0
LINE
  5
7F72
  8
3
  6
CONTINUOUS
 62
     0
 10
1344.5644890000001
 20
2807.0535540000001
 30
0.0
 11
1344.5644890000001
 21
2920.8377850000002
 31
0.0
  0
LINE
  5
7F73
  8
3
  6
CONTINUOUS
 62
     0
 10
1704.5644890000001
 20
2900.8377850000002
 30
0.0
 11
1384.5644890000001
 21
2900.8377850000002
 31
0.0
  0
INSERT
  5
7F74
  8
3
  6
CONTINUOUS
 62
     0
  2
_OPEN
 10
1744.5644890000001
 20
2900.8377850000002
 30
0.0
 41
40.0
 42
40.0
 43
40.0
  0
INSERT
  5
7F75
  8
3
  6
CONTINUOUS
 62
     0
  2
_OPEN
 10
1344.5644890000001
 20
2900.8377850000002
 30
0.0
 41
40.0
 42
40.0
 43
40.0
 50
180.0
  0
TEXT
  8
3
  40
60
  5
800D
  62
0
  72
0
  71
0
 10
1407.40
 20
2844.64
 30
0.000000
  1
400
  0
POINT
  5
7F77
  8
DEFPOINTS
  6
CONTINUOUS
 62
     0
 10
1744.5644890000001
 20
2797.0535540000001
 30
0.0
  0
POINT
  5
7F78
  8
DEFPOINTS
  6
CONTINUOUS
 62
     0
 10
1344.5644890000001
 20
2797.0535540000001
 30
0.0
  0
POINT
  5
7F79
  8
DEFPOINTS
  6
CONTINUOUS
 62
     0
 10
1344.5644890000001
 20
2900.8377850000002
 30
0.0
  0
ENDBLK
  5
7D6C
  8
0
  0
BLOCK
  8
0
  2
*D2
 70
     1
 10
0.0
 20
0.0
 30
0.0
  3
*D2
  1

  0
LINE
  5
7F7A
  8
3
  6
CONTINUOUS
 62
     0
 10
1744.5644890000001
 20
2910.8377850000002
 30
0.0
 11
1744.5644890000001
 21
3023.3982129999999
 31
0.0
  0
LINE
  5
7F7B
  8
3
  6
CONTINUOUS
 62
     0
 10
1356.5644890000001
 20
2967.4707228020261
 30
0.0
 11
1356.5644890000001
 21
3023.3982129999999
 31
0.0
  0
LINE
  5
7F7C
  8
3
  6
CONTINUOUS
 62
     0
 10
1704.5644890000001
 20
3003.3982129999999
 30
0.0
 11
1396.5644890000001
 21
3003.3982129999999
 31
0.0
  0
INSERT
  5
7F7D
  8
3
  6
CONTINUOUS
 62
     0
  2
_OPEN
 10
1744.5644890000001
 20
3003.3982129999999
 30
0.0
 41
40.0
 42
40.0
 43
40.0
  0
INSERT
  5
7F7E
  8
3
  6
CONTINUOUS
 62
     0
  2
_OPEN
 10
1356.5644890000001
 20
3003.3982129999999
 30
0.0
 41
40.0
 42
40.0
 43
40.0
 50
180.0
  0
TEXT
  8
3
  40
60
  5
800E
  62
0
  72
0
  71
0
 10
1399.58
 20
2947.20
 30
0.000000
  1
388
  0
POINT
  5
7F80
  8
DEFPOINTS
  6
CONTINUOUS
 62
     0
 10
1744.5644890000001
 20
2900.8377850000002
 30
0.0
  0
POINT
  5
7F81
  8
DEFPOINTS
  6
CONTINUOUS
 62
     0
 10
1356.5644890000001
 20
2957.4707228020261
 30
0.0
  0
POINT
  5
7F82
  8
DEFPOINTS
  6
CONTINUOUS
 62
     0
 10
1356.5644890000001
 20
3003.3982129999999
 30
0.0
  0
ENDBLK
  5
7E4F
  8
0
  0
BLOCK
  8
0
  2
*D3
 70
     1
 10
0.0
 20
0.0
 30
0.0
  3
*D3
  1

  0
LINE
  5
7F83
  8
3
  6
CONTINUOUS
 62
     0
 10
1056.5644890000001
 20
2777.0535540000001
 30
0.0
 11
1056.5644890000001
 21
3023.3982129999999
 31
0.0
  0
LINE
  5
7F84
  8
3
  6
CONTINUOUS
 62
     0
 10
1316.5644890000001
 20
3003.3982129999999
 30
0.0
 11
1096.5644890000001
 21
3003.3982129999999
 31
0.0
  0
INSERT
  5
7F85
  8
3
  6
CONTINUOUS
 62
     0
  2
_OPEN
 10
1356.5644890000001
 20
3003.3982129999999
 30
0.0
 41
40.0
 42
40.0
 43
40.0
  0
INSERT
  5
7F86
  8
3
  6
CONTINUOUS
 62
     0
  2
_OPEN
 10
1056.5644890000001
 20
3003.3982129999999
 30
0.0
 41
40.0
 42
40.0
 43
40.0
 50
180.0
  0
TEXT
  8
3
  40
60
  5
800F
  62
0
  72
0
  71
0
 10
1086.56
 20
2947.20
 30
0.000000
  1
300
  0
POINT
  5
7F88
  8
DEFPOINTS
  6
CONTINUOUS
 62
     0
 10
1356.5644890000001
 20
2957.4707228020261
 30
0.0
  0
POINT
  5
7F89
  8
DEFPOINTS
  6
CONTINUOUS
 62
     0
 10
1056.5644890000001
 20
2767.0535540000001
 30
0.0
  0
POINT
  5
7F8A
  8
DEFPOINTS
  6
CONTINUOUS
 62
     0
 10
1056.5644890000001
 20
3003.3982129999999
 30
0.0
  0
ENDBLK
  5
7E44
  8
0
  0
BLOCK
  8
0
  2
*D4
 70
     1
 10
0.0
 20
0.0
 30
0.0
  3
*D4
  1

  0
LINE
  5
7F8B
  8
3
  6
CONTINUOUS
 62
     0
 10
1086.5644890000001
 20
2077.0535540000001
 30
0.0
 11
904.65902500000016
 21
2077.0535540000001
 31
0.0
  0
LINE
  5
7F8C
  8
3
  6
CONTINUOUS
 62
     0
 10
924.65902500000016
 20
2457.0535540000001
 30
0.0
 11
924.65902500000004
 21
2117.0535540000001
 31
0.0
  0
INSERT
  5
7F8D
  8
3
  6
CONTINUOUS
 62
     0
  2
_OPEN
 10
924.65902500000016
 20
2497.0535540000001
 30
0.0
 41
40.0
 42
40.0
 43
40.0
 50
90.0
  0
INSERT
  5
7F8E
  8
3
  6
CONTINUOUS
 62
     0
  2
_OPEN
 10
924.65902500000004
 20
2077.0535540000001
 30
0.0
 41
40.0
 42
40.0
 43
40.0
 50
270.0
  0
TEXT
  8
3
  40
60
  5
8010
  62
0
  72
0
  71
0
 10
754.659
 20
2180.85
 30
0.000000
  1
420
  0
POINT
  5
7F90
  8
DEFPOINTS
  6
CONTINUOUS
 62
     0
 10
971.71669359685666
 20
2497.0535540000001
 30
0.0
  0
POINT
  5
7F91
  8
DEFPOINTS
  6
CONTINUOUS
 62
     0
 10
1096.5644890000001
 20
2077.0535540000001
 30
0.0
  0
POINT
  5
7F92
  8
DEFPOINTS
  6
CONTINUOUS
 62
     0
 10
924.65902500000004
 20
2077.0535540000001
 30
0.0
  0
ENDBLK
  5
7E83
  8
0
  0
BLOCK
  8
0
  2
*D5
 70
     1
 10
0.0
 20
0.0
 30
0.0
  3
*D5
  1

  0
LINE
  5
7ED1
  8
0
  6
BYBLOCK
 62
     0
 10
1096.5644890000001
 20
1940.0535540000001
 30
0.0
 11
1096.5644890000001
 21
1831.376064
 31
0.0
  0
LINE
  5
7ED2
  8
0
  6
BYBLOCK
 62
     0
 10
1356.5644890000001
 20
1863.419601232835
 30
0.0
 11
1356.5644890000001
 21
1831.376064
 31
0.0
  0
LINE
  5
7ED3
  8
0
  6
BYBLOCK
 62
     0
 10
1136.5644890000001
 20
1851.376064
 30
0.0
 11
1316.5644890000001
 21
1851.376064
 31
0.0
  0
TEXT
  5
7ED4
  8
3
 62
     0
 10
1149.421631857143
 20
1872.826152802623
 30
0.0
 40
60.0
  1
260
  0
INSERT
  5
7ED5
  8
0
  6
BYBLOCK
 62
     0
  2
_OPEN
 10
1096.5644890000001
 20
1851.376064
 30
0.0
 41
40.0
 42
40.0
 43
40.0
 50
180.0
  0
INSERT
  5
7ED6
  8
0
  6
BYBLOCK
 62
     0
  2
_OPEN
 10
1356.5644890000001
 20
1851.376064
 30
0.0
 41
40.0
 42
40.0
 43
40.0
  0
POINT
  5
7ED7
  8
DEFPOINTS
  6
BYBLOCK
 62
     0
 10
1096.5644890000001
 20
1950.0535539999989
 30
0.0
  0
POINT
  5
7ED8
  8
DEFPOINTS
  6
BYBLOCK
 62
     0
 10
1356.5644890000001
 20
1873.419601232835
 30
0.0
  0
POINT
  5
7ED9
  8
DEFPOINTS
  6
BYBLOCK
 62
     0
 10
1356.5644890000001
 20
1851.376064
 30
0.0
  0
ENDBLK
  5
7EDA
  8
0
  0
BLOCK
  8
0
  2
*D6
 70
     1
 10
0.0
 20
0.0
 30
0.0
  3
*D6
  1

  0
LINE
  5
7F93
  8
3
  6
CONTINUOUS
 62
     0
 10
2096.564488999999
 20
1940.0535540000001
 30
0.0
 11
2096.564488999999
 21
1831.376064
 31
0.0
  0
LINE
  5
7F94
  8
3
  6
CONTINUOUS
 62
     0
 10
1396.5644890000001
 20
1851.376064
 30
0.0
 11
2056.564488999999
 21
1851.376064
 31
0.0
  0
INSERT
  5
7F95
  8
3
  6
CONTINUOUS
 62
     0
  2
_OPEN
 10
1356.5644890000001
 20
1851.376064
 30
0.0
 41
40.0
 42
40.0
 43
40.0
 50
180.0
  0
INSERT
  5
7F96
  8
3
  6
CONTINUOUS
 62
     0
  2
_OPEN
 10
2096.564488999999
 20
1851.376064
 30
0.0
 41
40.0
 42
40.0
 43
40.0
  0
TEXT
  8
3
  40
60
  5
8011
  62
0
  72
0
  71
0
 10
1606.56
 20
1795.18
 30
0.000000
  1
740
  0
POINT
  5
7F98
  8
DEFPOINTS
  6
CONTINUOUS
 62
     0
 10
1356.5644890000001
 20
1873.419601232835
 30
0.0
  0
POINT
  5
7F99
  8
DEFPOINTS
  6
CONTINUOUS
 62
     0
 10
2096.564488999999
 20
1950.0535539999989
 30
0.0
  0
POINT
  5
7F9A
  8
DEFPOINTS
  6
CONTINUOUS
 62
     0
 10
2096.564488999999
 20
1851.376064
 30
0.0
  0
ENDBLK
  5
7ECF
  8
0
  0
BLOCK
  8
0
  2
*D7
 70
     1
 10
0.0
 20
0.0
 30
0.0
  3
*D7
  1

  0
LINE
  5
7F9B
  8
3
  6
CONTINUOUS
 62
     0
 10
2842.6875909999999
 20
1940.0535540000001
 30
0.0
 11
2842.6875909999999
 21
1767.9884139999999
 31
0.0
  0
LINE
  5
7F9C
  8
3
  6
CONTINUOUS
 62
     0
 10
3178.6875909999999
 20
1806.7632224135839
 30
0.0
 11
3178.6875909999999
 21
1767.9884139999999
 31
0.0
  0
LINE
  5
7F9D
  8
3
  6
CONTINUOUS
 62
     0
 10
2882.687590999999
 20
1787.9884139999999
 30
0.0
 11
3138.6875909999999
 21
1787.9884139999999
 31
0.0
  0
INSERT
  5
7F9E
  8
3
  6
CONTINUOUS
 62
     0
  2
_OPEN
 10
2842.6875909999999
 20
1787.9884139999999
 30
0.0
 41
40.0
 42
40.0
 43
40.0
 50
180.0
  0
INSERT
  5
7F9F
  8
3
  6
CONTINUOUS
 62
     0
  2
_OPEN
 10
3178.6875909999999
 20
1787.9884139999999
 30
0.0
 41
40.0
 42
40.0
 43
40.0
  0
TEXT
  8
3
  40
60
  5
8012
  62
0
  72
0
  71
0
 10
2891.80
 20
1731.79
 30
0.000000
  1
336
  0
POINT
  5
7FA1
  8
DEFPOINTS
  6
CONTINUOUS
 62
     0
 10
2842.6875909999999
 20
1950.0535539999989
 30
0.0
  0
POINT
  5
7FA2
  8
DEFPOINTS
  6
CONTINUOUS
 62
     0
 10
3178.6875909999999
 20
1816.763222413585
 30
0.0
  0
POINT
  5
7FA3
  8
DEFPOINTS
  6
CONTINUOUS
 62
     0
 10
3178.6875909999999
 20
1787.9884139999999
 30
0.0
  0
ENDBLK
  5
7F2C
  8
0
  0
BLOCK
  8
0
  2
*D8
 70
     1
 10
0.0
 20
0.0
 30
0.0
  3
*D8
  1

  0
LINE
  5
7FA4
  8
3
  6
CONTINUOUS
 62
     0
 10
3452.687590999999
 20
1940.0535540000001
 30
0.0
 11
3452.687590999999
 21
1767.9884139999999
 31
0.0
  0
LINE
  5
7FA5
  8
3
  6
CONTINUOUS
 62
     0
 10
3218.6875909999999
 20
1787.9884139999999
 30
0.0
 11
3412.687590999999
 21
1787.9884139999999
 31
0.0
  0
TEXT
  8
3
  40
60
  5
8013
  62
0
  72
0
  71
0
 10
3196.84
 20
1731.09
 30
0.000000
  1
274
  0
INSERT
  5
7FA7
  8
3
  6
CONTINUOUS
 62
     0
  2
_OPEN
 10
3178.6875909999999
 20
1787.9884139999999
 30
0.0
 41
40.0
 42
40.0
 43
40.0
 50
180.0
  0
INSERT
  5
7FA8
  8
3
  6
CONTINUOUS
 62
     0
  2
_OPEN
 10
3452.687590999999
 20
1787.9884139999999
 30
0.0
 41
40.0
 42
40.0
 43
40.0
  0
POINT
  5
7FA9
  8
DEFPOINTS
  6
CONTINUOUS
 62
     0
 10
3178.6875909999999
 20
1828.2079238934441
 30
0.0
  0
POINT
  5
7FAA
  8
DEFPOINTS
  6
CONTINUOUS
 62
     0
 10
3452.687590999999
 20
1950.0535539999989
 30
0.0
  0
POINT
  5
7FAB
  8
DEFPOINTS
  6
CONTINUOUS
 62
     0
 10
3452.687590999999
 20
1787.9884139999999
 30
0.0
  0
ENDBLK
  5
7F21
  8
0
  0
BLOCK
  8
0
  2
*D9
 70
     1
 10
0.0
 20
0.0
 30
0.0
  3
*D9
  1

  0
LINE
  5
7FAC
  8
3
  6
CONTINUOUS
 62
     0
 10
3328.6875909999999
 20
2807.0535540000001
 30
0.0
 11
3328.6875909999999
 21
2909.1216920000002
 31
0.0
  0
LINE
  5
7FAD
  8
3
  6
CONTINUOUS
 62
     0
 10
3028.6875909999999
 20
2807.0535540000001
 30
0.0
 11
3028.6875909999999
 21
2909.1216920000002
 31
0.0
  0
LINE
  5
7FAE
  8
3
  6
CONTINUOUS
 62
     0
 10
3368.6875909999999
 20
2889.1216920000002
 30
0.0
 11
3408.687590999999
 21
2889.1216920000002
 31
0.0
  0
LINE
  5
7FAF
  8
3
  6
CONTINUOUS
 62
     0
 10
2988.6875909999999
 20
2889.1216920000002
 30
0.0
 11
2948.6875909999999
 21
2889.1216920000002
 31
0.0
  0
LINE
  5
7FB0
  8
3
  6
CONTINUOUS
 62
     0
 10
3328.6875909999999
 20
2889.1216920000002
 30
0.0
 11
3028.6875909999999
 21
2889.1216920000002
 31
0.0
  0
INSERT
  5
7FB1
  8
3
  6
CONTINUOUS
 62
     0
  2
_OPEN
 10
3328.6875909999999
 20
2889.1216920000002
 30
0.0
 41
40.0
 42
40.0
 43
40.0
 50
180.0
  0
INSERT
  5
7FB2
  8
3
  6
CONTINUOUS
 62
     0
  2
_OPEN
 10
3028.6875909999999
 20
2889.1216920000002
 30
0.0
 41
40.0
 42
40.0
 43
40.0
  0
TEXT
  8
3
  40
60
  5
8014
  62
0
  72
0
  71
0
 10
3045.83
 20
2832.92
 30
0.000000
  1
300
  0
POINT
  5
7FB4
  8
DEFPOINTS
  6
CONTINUOUS
 62
     0
 10
3328.6875909999999
 20
2797.0535540000001
 30
0.0
  0
POINT
  5
7FB5
  8
DEFPOINTS
  6
CONTINUOUS
 62
     0
 10
3028.6875909999999
 20
2797.0535540000001
 30
0.0
  0
POINT
  5
7FB6
  8
DEFPOINTS
  6
CONTINUOUS
 62
     0
 10
3028.6875909999999
 20
2889.1216920000002
 30
0.0
  0
ENDBLK
  5
7DDA
  8
0
  0
BLOCK
  8
0
  2
*D10
 70
     1
 10
0.0
 20
0.0
 30
0.0
  3
*D10
  1

  0
LINE
  5
7FB7
  8
3
  6
CONTINUOUS
 62
     0
 10
2848.6875909999999
 20
2822.0535540000001
 30
0.0
 11
2848.6875909999999
 21
3039.079256
 31
0.0
  0
LINE
  5
7FB8
  8
3
  6
CONTINUOUS
 62
     0
 10
3138.6875909999999
 20
3019.079256
 30
0.0
 11
2888.6875909999999
 21
3019.079256
 31
0.0
  0
INSERT
  5
7FB9
  8
3
  6
CONTINUOUS
 62
     0
  2
_OPEN
 10
3178.6875909999999
 20
3019.079256
 30
0.0
 41
40.0
 42
40.0
 43
40.0
  0
INSERT
  5
7FBA
  8
3
  6
CONTINUOUS
 62
     0
  2
_OPEN
 10
2848.6875909999999
 20
3019.079256
 30
0.0
 41
40.0
 42
40.0
 43
40.0
 50
180.0
  0
TEXT
  8
3
  40
60
  5
8015
  62
0
  72
0
  71
0
 10
2893.69
 20
3012.88
 30
0.000000
  1
MAX
  0
TEXT
  8
3
  40
60
  5
8016
  62
0
  72
0
  71
0
 10
2893.69
 20
2934.88
 30
0.000000
  1
380
  0
POINT
  5
7FBC
  8
DEFPOINTS
  6
CONTINUOUS
 62
     0
 10
3178.6875909999999
 20
2998.2199000000001
 30
0.0
  0
POINT
  5
7FBD
  8
DEFPOINTS
  6
CONTINUOUS
 62
     0
 10
2848.6875909999999
 20
2812.0535540000001
 30
0.0
  0
POINT
  5
7FBE
  8
DEFPOINTS
  6
CONTINUOUS
 62
     0
 10
2848.6875909999999
 20
3019.079256
 30
0.0
  0
ENDBLK
  5
7F36
  8
0
  0
BLOCK
  8
0
  2
*D11
 70
     1
 10
0.0
 20
0.0
 30
0.0
  3
*D11
  1

  0
LINE
  5
7FBF
  8
3
  6
CONTINUOUS
 62
     0
 10
3338.6875909999999
 20
2712.0535540000001
 30
0.0
 11
3536.665176
 21
2712.0535540000001
 31
0.0
  0
LINE
  5
7FC0
  8
3
  6
CONTINUOUS
 62
     0
 10
3338.6875909999999
 20
2282.0535540000001
 30
0.0
 11
3536.665176
 21
2282.0535540000001
 31
0.0
  0
LINE
  5
7FC1
  8
3
  6
CONTINUOUS
 62
     0
 10
3516.665176
 20
2672.0535540000001
 30
0.0
 11
3516.665176
 21
2322.0535540000001
 31
0.0
  0
INSERT
  5
7FC2
  8
3
  6
CONTINUOUS
 62
     0
  2
_OPEN
 10
3516.665176
 20
2712.0535540000001
 30
0.0
 41
40.0
 42
40.0
 43
40.0
 50
90.0
  0
INSERT
  5
7FC3
  8
3
  6
CONTINUOUS
 62
     0
  2
_OPEN
 10
3516.665176
 20
2282.0535540000001
 30
0.0
 41
40.0
 42
40.0
 43
40.0
 50
270.0
  0
TEXT
  8
3
  40
60
  5
8017
  62
0
  72
0
  71
0
 10
3346.67
 20
2393.47
 30
0.000000
  1
φ430
  0
POINT
  5
7FC5
  8
DEFPOINTS
  6
CONTINUOUS
 62
     0
 10
3328.6875909999999
 20
2712.0535540000001
 30
0.0
  0
POINT
  5
7FC6
  8
DEFPOINTS
  6
CONTINUOUS
 62
     0
 10
3328.6875909999999
 20
2282.0535540000001
 30
0.0
  0
POINT
  5
7FC7
  8
DEFPOINTS
  6
CONTINUOUS
 62
     0
 10
3516.665176
 20
2282.0535540000001
 30
0.0
  0
ENDBLK
  5
7F17
  8
0
  0
BLOCK
  8
0
  2
*D12
 70
     1
 10
0.0
 20
0.0
 30
0.0
  3
*D12
  1

  0
LINE
  5
7FC8
  8
3
  6
CONTINUOUS
 62
     0
 10
2096.564488999999
 20
4145.8235539999987
 30
0.0
 11
2096.564488999999
 21
4251.0868680000003
 31
0.0
  0
LINE
  5
7FC9
  8
3
  6
CONTINUOUS
 62
     0
 10
1096.5644890000001
 20
4145.8235539999987
 30
0.0
 11
1096.5644890000001
 21
4251.0868680000003
 31
0.0
  0
LINE
  5
7FCA
  8
3
  6
CONTINUOUS
 62
     0
 10
2056.564488999999
 20
4231.0868680000012
 30
0.0
 11
1136.5644890000001
 21
4231.0868680000012
 31
0.0
  0
INSERT
  5
7FCB
  8
3
  6
CONTINUOUS
 62
     0
  2
_OPEN
 10
2096.564488999999
 20
4231.0868680000012
 30
0.0
 41
40.0
 42
40.0
 43
40.0
  0
INSERT
  5
7FCC
  8
3
  6
CONTINUOUS
 62
     0
  2
_OPEN
 10
1096.5644890000001
 20
4231.0868680000012
 30
0.0
 41
40.0
 42
40.0
 43
40.0
 50
180.0
  0
TEXT
  8
3
  40
60
  5
8018
  62
0
  72
0
  71
0
 10
1485.56
 20
4174.89
 30
0.000000
  1
1000
  0
POINT
  5
7FCE
  8
DEFPOINTS
  6
CONTINUOUS
 62
     0
 10
2096.564488999999
 20
4135.8235539999987
 30
0.0
  0
POINT
  5
7FCF
  8
DEFPOINTS
  6
CONTINUOUS
 62
     0
 10
1096.5644890000001
 20
4135.8235539999987
 30
0.0
  0
POINT
  5
7FD0
  8
DEFPOINTS
  6
CONTINUOUS
 62
     0
 10
1096.5644890000001
 20
4231.0868680000012
 30
0.0
  0
ENDBLK
  5
7DA3
  8
0
  0
BLOCK
  8
0
  2
*D13
 70
     1
 10
0.0
 20
0.0
 30
0.0
  3
*D13
  1

  0
LINE
  5
7FD1
  8
3
  6
CONTINUOUS
 62
     0
 10
1086.5644890000001
 20
4135.8235539999987
 30
0.0
 11
908.81184500000063
 21
4135.8235539999987
 31
0.0
  0
LINE
  5
7FD2
  8
3
  6
CONTINUOUS
 62
     0
 10
1086.5644890000001
 20
3525.8235540000001
 30
0.0
 11
908.8118450000004
 21
3525.8235540000001
 31
0.0
  0
LINE
  5
7FD3
  8
3
  6
CONTINUOUS
 62
     0
 10
928.81184500000063
 20
4095.8235539999991
 30
0.0
 11
928.81184500000063
 21
3565.8235540000001
 31
0.0
  0
INSERT
  5
7FD4
  8
3
  6
CONTINUOUS
 62
     0
  2
_OPEN
 10
928.81184500000063
 20
4135.8235539999987
 30
0.0
 41
40.0
 42
40.0
 43
40.0
 50
90.0
  0
INSERT
  5
7FD5
  8
3
  6
CONTINUOUS
 62
     0
  2
_OPEN
 10
928.81184500000063
 20
3525.8235540000001
 30
0.0
 41
40.0
 42
40.0
 43
40.0
 50
270.0
  0
TEXT
  8
3
  40
60
  5
8019
  62
0
  72
0
  71
0
 10
758.812
 20
3774.00
 30
0.000000
  1
610
  0
POINT
  5
7FD7
  8
DEFPOINTS
  6
CONTINUOUS
 62
     0
 10
1096.5644890000001
 20
4135.8235539999987
 30
0.0
  0
POINT
  5
7FD8
  8
DEFPOINTS
  6
CONTINUOUS
 62
     0
 10
1096.5644890000001
 20
3525.8235540000001
 30
0.0
  0
POINT
  5
7FD9
  8
DEFPOINTS
  6
CONTINUOUS
 62
     0
 10
928.81184500000063
 20
3525.8235540000001
 30
0.0
  0
ENDBLK
  5
7D98
  8
0
  0
BLOCK
  8
0
  2
*D14
 70
     1
 10
0.0
 20
0.0
 30
0.0
  3
*D14
  1

  0
LINE
  5
7FDA
  8
3
  6
CONTINUOUS
 62
     0
 10
1086.5644890000001
 20
1990.0535540000001
 30
0.0
 11
904.65902500000016
 21
1990.0535540000001
 31
0.0
  0
LINE
  5
7FDB
  8
3
  6
CONTINUOUS
 62
     0
 10
924.65902500000004
 20
2117.0535540000001
 30
0.0
 11
924.65902500000004
 21
2157.0535540000001
 31
0.0
  0
LINE
  5
7FDC
  8
3
  6
CONTINUOUS
 62
     0
 10
924.65902500000004
 20
1950.0535539999989
 30
0.0
 11
924.65902500000004
 21
1910.0535540000001
 31
0.0
  0
TEXT
  8
3
  40
60
  5
801A
  62
0
  72
0
  71
0
 10
743.138
 20
1946.67
 30
0.000000
  1
87
  0
LINE
  5
7FDE
  8
3
  6
CONTINUOUS
 62
     0
 10
924.65902500000004
 20
2077.0535540000001
 30
0.0
 11
924.65902500000004
 21
1990.0535540000001
 31
0.0
  0
INSERT
  5
7FDF
  8
3
  6
CONTINUOUS
 62
     0
  2
_OPEN
 10
924.65902500000004
 20
2077.0535540000001
 30
0.0
 41
40.0
 42
40.0
 43
40.0
 50
270.0
  0
INSERT
  5
7FE0
  8
3
  6
CONTINUOUS
 62
     0
  2
_DOT
 10
924.65902500000004
 20
1990.0535540000001
 30
0.0
 41
40.0
 42
40.0
 43
40.0
 50
90.0
  0
POINT
  5
7FE1
  8
DEFPOINTS
  6
CONTINUOUS
 62
     0
 10
1096.5644890000001
 20
2077.0535540000001
 30
0.0
  0
POINT
  5
7FE2
  8
DEFPOINTS
  6
CONTINUOUS
 62
     0
 10
1096.5644890000001
 20
1990.0535540000001
 30
0.0
  0
POINT
  5
7FE3
  8
DEFPOINTS
  6
CONTINUOUS
 62
     0
 10
924.65902500000004
 20
1990.0535540000001
 30
0.0
  0
ENDBLK
  5
7EB8
  8
0
  0
BLOCK
  8
0
  2
*D15
 70
     1
 10
0.0
 20
0.0
 30
0.0
  3
*D15
  1

  0
LINE
  5
7FE4
  8
3
  6
CONTINUOUS
 62
     0
 10
1086.5644890000001
 20
1990.0535540000001
 30
0.0
 11
904.65902400000039
 21
1990.0535540000001
 31
0.0
  0
LINE
  5
7FE5
  8
3
  6
CONTINUOUS
 62
     0
 10
1086.5644890000001
 20
1950.0535539999989
 30
0.0
 11
904.65902400000039
 21
1950.0535539999989
 31
0.0
  0
LINE
  5
7FE6
  8
3
  6
CONTINUOUS
 62
     0
 10
924.65902400000027
 20
2030.0535539999989
 30
0.0
 11
924.65902400000027
 21
2070.0535540000001
 31
0.0
  0
LINE
  5
7FE7
  8
3
  6
CONTINUOUS
 62
     0
 10
924.65902400000027
 20
1910.0535540000001
 30
0.0
 11
924.65902400000027
 21
1732.910696857143
 31
0.0
  0
LINE
  5
7FE8
  8
3
  6
CONTINUOUS
 62
     0
 10
924.65902400000027
 20
1990.0535540000001
 30
0.0
 11
924.65902400000027
 21
1950.0535539999989
 31
0.0
  0
INSERT
  5
7FE9
  8
3
  6
CONTINUOUS
 62
     0
  2
_DOT
 10
924.65902400000027
 20
1990.0535540000001
 30
0.0
 41
40.0
 42
40.0
 43
40.0
 50
270.0
  0
INSERT
  5
7FEA
  8
3
  6
CONTINUOUS
 62
     0
  2
_OPEN
 10
924.65902400000027
 20
1950.0535539999989
 30
0.0
 41
40.0
 42
40.0
 43
40.0
 50
90.0
  0
TEXT
  8
3
  40
60
  5
801B
  62
0
  72
0
  71
0
 10
754.659
 20
1695.28
 30
0.000000
  1
40
  0
POINT
  5
7FEC
  8
DEFPOINTS
  6
CONTINUOUS
 62
     0
 10
1096.5644890000001
 20
1990.0535540000001
 30
0.0
  0
POINT
  5
7FED
  8
DEFPOINTS
  6
CONTINUOUS
 62
     0
 10
1096.5644890000001
 20
1950.0535539999989
 30
0.0
  0
POINT
  5
7FEE
  8
DEFPOINTS
  6
CONTINUOUS
 62
     0
 10
924.65902400000027
 20
1950.0535539999989
 30
0.0
  0
ENDBLK
  5
7EC5
  8
0
  0
BLOCK
  8
0
  2
*D16
 70
     1
 10
0.0
 20
0.0
 30
0.0
  3
*D16
  1

  0
LINE
  5
7FEF
  8
3
  6
CONTINUOUS
 62
     0
 10
1307.5644890000001
 20
2797.0535540000001
 30
0.0
 11
779.02157900000043
 21
2797.0535540000001
 31
0.0
  0
LINE
  5
7FF0
  8
3
  6
CONTINUOUS
 62
     0
 10
1086.5644890000001
 20
1950.0535539999989
 30
0.0
 11
779.02157900000032
 21
1950.0535539999989
 31
0.0
  0
LINE
  5
7FF1
  8
3
  6
CONTINUOUS
 62
     0
 10
799.02157900000043
 20
2757.0535540000001
 30
0.0
 11
799.02157900000032
 21
1990.0535540000001
 31
0.0
  0
INSERT
  5
7FF2
  8
3
  6
CONTINUOUS
 62
     0
  2
_OPEN
 10
799.02157900000043
 20
2797.0535540000001
 30
0.0
 41
40.0
 42
40.0
 43
40.0
 50
90.0
  0
INSERT
  5
7FF3
  8
3
  6
CONTINUOUS
 62
     0
  2
_OPEN
 10
799.02157900000032
 20
1950.0535539999989
 30
0.0
 41
40.0
 42
40.0
 43
40.0
 50
270.0
  0
TEXT
  8
3
  40
60
  5
801C
  62
0
  72
0
  71
0
 10
629.022
 20
2297.55
 30
0.000000
  1
847
  0
POINT
  5
7FF5
  8
DEFPOINTS
  6
CONTINUOUS
 62
     0
 10
1317.5644890000001
 20
2797.0535540000001
 30
0.0
  0
POINT
  5
7FF6
  8
DEFPOINTS
  6
CONTINUOUS
 62
     0
 10
1096.5644890000001
 20
1950.0535539999989
 30
0.0
  0
POINT
  5
7FF7
  8
DEFPOINTS
  6
CONTINUOUS
 62
     0
 10
799.02157900000032
 20
1950.0535539999989
 30
0.0
  0
ENDBLK
  5
7D56
  8
0
  0
BLOCK
  8
0
  2
*D17
 70
     1
 10
0.0
 20
0.0
 30
0.0
  3
*D17
  1

  0
LINE
  5
7FF8
  8
3
  6
CONTINUOUS
 62
     0
 10
961.71669359685666
 20
2497.0535540000001
 30
0.0
 11
904.65902500000016
 21
2497.0535540000001
 31
0.0
  0
LINE
  5
7FF9
  8
3
  6
CONTINUOUS
 62
     0
 10
1307.5644890000001
 20
2797.0535540000001
 30
0.0
 11
904.65902500000016
 21
2797.0535540000001
 31
0.0
  0
LINE
  5
7FFA
  8
3
  6
CONTINUOUS
 62
     0
 10
924.65902500000004
 20
2537.0535540000001
 30
0.0
 11
924.65902500000004
 21
2757.0535540000001
 31
0.0
  0
INSERT
  5
7FFB
  8
3
  6
CONTINUOUS
 62
     0
  2
_OPEN
 10
924.65902500000004
 20
2497.0535540000001
 30
0.0
 41
40.0
 42
40.0
 43
40.0
 50
270.0
  0
INSERT
  5
7FFC
  8
3
  6
CONTINUOUS
 62
     0
  2
_OPEN
 10
924.65902500000004
 20
2797.0535540000001
 30
0.0
 41
40.0
 42
40.0
 43
40.0
 50
90.0
  0
TEXT
  8
3
  40
60
  5
801D
  62
0
  72
0
  71
0
 10
754.659
 20
2540.85
 30
0.000000
  1
300
  0
POINT
  5
7FFE
  8
DEFPOINTS
  6
CONTINUOUS
 62
     0
 10
971.71669359685666
 20
2497.0535540000001
 30
0.0
  0
POINT
  5
7FFF
  8
DEFPOINTS
  6
CONTINUOUS
 62
     0
 10
1317.5644890000001
 20
2797.0535540000001
 30
0.0
  0
POINT
  5
8000
  8
DEFPOINTS
  6
CONTINUOUS
 62
     0
 10
924.65902500000004
 20
2797.0535540000001
 30
0.0
  0
ENDBLK
  5
7E79
  8
0
  0
BLOCK
  8
0
  2
*D18
 70
     1
 10
0.0
 20
0.0
 30
0.0
  3
*D18
  1

  0
LINE
  5
7F03
  8
0
  6
BYBLOCK
 62
     0
 10
3178.6875909999999
 20
2989.734537076019
 30
0.0
 11
3178.6875909999999
 21
3039.079256
 31
0.0
  0
LINE
  5
7F04
  8
0
  6
BYBLOCK
 62
     0
 10
3329.687590999999
 20
2722.0535540000001
 30
0.0
 11
3329.687590999999
 21
3039.079256
 31
0.0
  0
LINE
  5
7F05
  8
0
  6
BYBLOCK
 62
     0
 10
3218.6875909999999
 20
3019.079256
 30
0.0
 11
3289.687590999999
 21
3019.079256
 31
0.0
  0
TEXT
  5
7F06
  8
3
 62
     0
 10
3187.25391702053
 20
3049.4090351874329
 30
0.0
 40
60.0
  1
151
  0
INSERT
  5
7F07
  8
0
  6
BYBLOCK
 62
     0
  2
_OPEN
 10
3178.6875909999999
 20
3019.079256
 30
0.0
 41
40.0
 42
40.0
 43
40.0
 50
180.0
  0
INSERT
  5
7F08
  8
0
  6
BYBLOCK
 62
     0
  2
_OPEN
 10
3329.687590999999
 20
3019.079256
 30
0.0
 41
40.0
 42
40.0
 43
40.0
  0
POINT
  5
7F09
  8
DEFPOINTS
  6
BYBLOCK
 62
     0
 10
3178.6875909999999
 20
2979.734537076019
 30
0.0
  0
POINT
  5
7F0A
  8
DEFPOINTS
  6
BYBLOCK
 62
     0
 10
3329.687590999999
 20
2712.0535540000001
 30
0.0
  0
POINT
  5
7F0B
  8
DEFPOINTS
  6
BYBLOCK
 62
     0
 10
3329.687590999999
 20
3019.079256
 30
0.0
  0
ENDBLK
  5
7F0C
  8
0
  0
BLOCK
  8
0
  2
_DOT
 70
     0
 10
0.0
 20
0.0
 30
0.0
  3
_DOT
  1

  0
LINE
  5
7EDB
  8
0
  6
BYBLOCK
 62
     0
 10
0.0
 20
0.0
 30
0.0
 11
-1.0
 21
-0.0000000000000284
 31
0.0
  0
POLYLINE
  5
7EDC
  8
0
  6
BYBLOCK
 62
     0
 66
     1
 10
0.0
 20
0.0
 30
0.0
 70
     1
 40
0.1666666666666666
 41
0.1666666666666666
  0
VERTEX
  5
8001
  8
0
  6
BYBLOCK
 62
     0
 10
-0.0833333333333286
 20
-0.0000000000000284
 30
0.0
 42
1.0
  0
VERTEX
  5
8002
  8
0
  6
BYBLOCK
 62
     0
 10
0.0833333333333286
 20
-0.0000000000000284
 30
0.0
 42
1.0
  0
SEQEND
  5
8003
  8
0
  6
BYBLOCK
 62
     0
  0
ENDBLK
  5
7EAC
  8
0
  0
BLOCK
  8
0
  2
*D20
 70
     1
 10
0.0
 20
0.0
 30
0.0
  3
*D20
  1

  0
LINE
  5
8004
  8
3
 62
     0
 10
1056.5644890000001
 20
2777.0535540000001
 30
0.0
 11
1056.5644890000001
 21
3148.4819422521591
 31
0.0
  0
LINE
  5
8005
  8
3
 62
     0
 10
2096.564488999999
 20
2167.0535540000001
 30
0.0
 11
2096.564488999999
 21
3148.4819422521591
 31
0.0
  0
LINE
  5
8006
  8
3
 62
     0
 10
1096.5644890000001
 20
3128.4819422521591
 30
0.0
 11
2056.564488999999
 21
3128.4819422521591
 31
0.0
  0
INSERT
  5
8007
  8
3
 62
     0
  2
_OPEN
 10
1056.5644890000001
 20
3128.4819422521591
 30
0.0
 41
40.0
 42
40.0
 43
40.0
 50
180.0
  0
INSERT
  5
8008
  8
3
 62
     0
  2
_OPEN
 10
2096.564488999999
 20
3128.4819422521591
 30
0.0
 41
40.0
 42
40.0
 43
40.0
  0
TEXT
  8
3
  40
60
  5
801E
  62
0
  72
0
  71
0
 10
1475.61
 20
3072.28
 30
0.000000
  1
1040
  0
POINT
  5
800A
  8
DEFPOINTS
 62
     0
 10
1056.5644890000001
 20
2767.0535540000001
 30
0.0
  0
POINT
  5
800B
  8
DEFPOINTS
 62
     0
 10
2096.564488999999
 20
2157.0535540000001
 30
0.0
  0
POINT
  5
800C
  8
DEFPOINTS
 62
     0
 10
2096.564488999999
 20
3128.4819422521591
 30
0.0
  0
ENDBLK
  5
7F4E
  8
0
  0
ENDSEC
  0
SECTION
  2
ENTITIES
  0
LINE
  5
7ACE
  8
1
  6
CONTINUOUS
 10
1096.5644890000001
 20
1990.0535540000001
 30
0.0
 11
2096.564488999999
 21
1990.0535540000001
 31
0.0
  0
LINE
  5
7ACF
  8
1
  6
CONTINUOUS
 10
1096.5644890000001
 20
2055.0535540000001
 30
0.0
 11
2096.564488999999
 21
2055.0535540000001
 31
0.0
  0
LINE
  5
7AD0
  8
1
  6
CONTINUOUS
 10
1325.644489
 20
2401.9535539999988
 30
0.0
 11
1869.874489
 21
2224.9935540000001
 31
0.0
  0
LINE
  5
7AD1
  8
1
  6
CONTINUOUS
 10
1914.7444889999999
 20
2335.9735540000001
 30
0.0
 11
1400.414489
 21
2586.923554
 31
0.0
  0
LINE
  5
7AD2
  8
1
  6
CONTINUOUS
 10
1370.5644890000001
 20
3667.8235540000001
 30
0.0
 11
1874.434489
 21
3667.8235540000001
 31
0.0
  0
LINE
  5
7AD3
  8
1
  6
CONTINUOUS
 10
1096.5644890000001
 20
2077.0535540000001
 30
0.0
 11
2096.564488999999
 21
2077.0535540000001
 31
0.0
  0
LINE
  5
7AD4
  8
2
  6
CENTER
 10
1948.434489
 20
2282.0535540000001
 30
0.0
 11
1828.434489
 21
2282.0535540000001
 31
0.0
  0
ARC
  5
7AD5
  8
1
  6
CONTINUOUS
 10
1888.434489
 20
2282.0535540000001
 30
0.0
 40
101.0
 50
322.88
 51
217.12
  0
CIRCLE
  5
7AD6
  8
1
  6
CONTINUOUS
 10
1888.434489
 20
2282.0535540000001
 30
0.0
 40
60.0
  0
LINE
  5
7AD7
  8
1
  6
CONTINUOUS
 10
1371.0644890000001
 20
2812.0535540000001
 30
0.0
 11
2051.064488999999
 21
2407.0535540000001
 31
0.0
  0
LINE
  5
7AD8
  8
1
  6
CONTINUOUS
 10
1787.4344889999991
 20
3941.2235540000001
 30
0.0
 11
1989.4344889999991
 21
3941.2235540000001
 31
0.0
  0
LINE
  5
7AD9
  8
1
  6
CONTINUOUS
 10
1787.4344889999991
 20
3698.5435539999999
 30
0.0
 11
1989.4344889999991
 21
3698.5435539999999
 31
0.0
  0
LINE
  5
7ADA
  8
1
  6
CONTINUOUS
 10
1096.5644890000001
 20
4055.8235539999991
 30
0.0
 11
2096.564488999999
 21
4055.8235539999991
 31
0.0
  0
LINE
  5
7ADB
  8
1
  6
CONTINUOUS
 10
2051.064488999999
 20
3531.8235540000001
 30
0.0
 11
1181.0644890000001
 21
3531.8235540000001
 31
0.0
  0
LINE
  5
7ADC
  8
1
  6
CONTINUOUS
 10
2051.064488999999
 20
3631.8235540000001
 30
0.0
 11
1181.0644890000001
 21
3631.8235540000001
 31
0.0
  0
LINE
  5
7ADD
  8
1
  6
CONTINUOUS
 10
1948.434489
 20
3556.8235540000001
 30
0.0
 11
1828.434489
 21
3556.8235540000001
 31
0.0
  0
LINE
  5
7ADE
  8
1
  6
CONTINUOUS
 10
1948.434489
 20
3606.8235540000001
 30
0.0
 11
1828.434489
 21
3606.8235540000001
 31
0.0
  0
LINE
  5
7ADF
  8
1
  6
CONTINUOUS
 10
2096.564488999999
 20
2157.0535540000001
 30
0.0
 11
1056.5644890000001
 21
2157.0535540000001
 31
0.0
  0
CIRCLE
  5
7AE0
  8
1
  6
CONTINUOUS
 10
1356.5644890000001
 20
2497.0535540000001
 30
0.0
 40
240.0
  0
LINE
  5
7AE1
  8
1
  6
CONTINUOUS
 10
1181.0644890000001
 20
2697.0535540000001
 30
0.0
 11
1371.0644890000001
 21
2812.0535540000001
 31
0.0
  0
LINE
  5
7AE2
  8
1
  6
CONTINUOUS
 10
1656.5644890000001
 20
2767.0535540000001
 30
0.0
 11
1056.5644890000001
 21
2767.0535540000001
 31
0.0
  0
ARC
  5
7AE3
  8
1
  6
CONTINUOUS
 10
1339.5644890000001
 20
2480.0535540000001
 30
0.0
 40
271.43999999999988
 50
88.939999999999998
 51
172.69
  0
ARC
  5
7AE4
  8
1
  6
CONTINUOUS
 10
1378.5644890000001
 20
2475.0535540000001
 30
0.0
 40
310.75999999999999
 50
172.69
 51
264.17000000000002
  0
CIRCLE
  5
7AE5
  8
1
  6
CONTINUOUS
 10
1356.5644890000001
 20
2497.0535540000001
 30
0.0
 40
215.0
  0
LINE
  5
7AE6
  8
1
  6
CONTINUOUS
 10
1181.0644890000001
 20
2157.0535540000001
 30
0.0
 11
1181.0644890000001
 21
2697.0535540000001
 31
0.0
  0
LINE
  5
7AE7
  8
1
  6
CONTINUOUS
 10
1056.5644890000001
 20
2767.0535540000001
 30
0.0
 11
1056.5644890000001
 21
2157.0535540000001
 31
0.0
  0
LINE
  5
7AE8
  8
1
  6
CONTINUOUS
 10
1096.5644890000001
 20
2055.0535540000001
 30
0.0
 11
1096.5644890000001
 21
1950.0535539999989
 31
0.0
  0
LINE
  5
7AE9
  8
1
  6
CONTINUOUS
 10
1096.5644890000001
 20
2157.0535540000001
 30
0.0
 11
1096.5644890000001
 21
2077.0535540000001
 31
0.0
  0
LINE
  5
7AEA
  8
1
  6
CONTINUOUS
 10
1136.5644890000001
 20
1990.0535540000001
 30
0.0
 11
1136.5644890000001
 21
1950.0535539999989
 31
0.0
  0
LINE
  5
7AEB
  8
1
  6
CONTINUOUS
 10
1096.5644890000001
 20
1950.0535539999989
 30
0.0
 11
1136.5644890000001
 21
1950.0535539999989
 31
0.0
  0
LINE
  5
7AEC
  8
1
  6
CONTINUOUS
 10
1656.5644890000001
 20
2767.0535540000001
 30
0.0
 11
1656.5644890000001
 21
2157.0535540000001
 31
0.0
  0
ARC
  5
7AED
  8
1
  6
CONTINUOUS
 10
1383.5644890000001
 20
2524.0535539999992
 30
0.0
 40
360.00999999999988
 50
264.17000000000002
 51
355.69999999999987
  0
LINE
  5
7AEE
  8
1
  6
CONTINUOUS
 10
1788.434489
 20
2157.0535540000001
 30
0.0
 11
1788.434489
 21
2194.0535540000001
 31
0.0
  0
LINE
  5
7AEF
  8
1
  6
CONTINUOUS
 10
1788.434489
 20
2194.0535540000001
 30
0.0
 11
1807.8944889999991
 21
2221.093554
 31
0.0
  0
LINE
  5
7AF0
  8
1
  6
CONTINUOUS
 10
1344.5644890000001
 20
2777.0535540000001
 30
0.0
 11
1744.434489
 21
2777.0535540000001
 31
0.0
  0
LINE
  5
7AF1
  8
1
  6
CONTINUOUS
 10
1317.5644890000001
 20
2797.0535540000001
 30
0.0
 11
1771.5644890000001
 21
2797.0535540000001
 31
0.0
  0
LINE
  5
7AF2
  8
1
  6
CONTINUOUS
 10
1344.5644890000001
 20
2751.4435539999999
 30
0.0
 11
1344.5644890000001
 21
2797.0535540000001
 31
0.0
  0
CIRCLE
  5
7AF3
  8
1
  6
CONTINUOUS
 10
1356.5644890000001
 20
2497.0535540000001
 30
0.0
 40
100.0
  0
LINE
  5
7AF4
  8
2
  6
CENTER
 10
3373.4406509999999
 20
2497.0535540000001
 30
0.0
 11
2752.18914
 21
2497.0535540000001
 31
0.0
  0
LINE
  5
7AF5
  8
2
  6
CENTER
 10
1356.5644890000001
 20
4110.0818295565941
 30
0.0
 11
1356.5644890000001
 21
3496.689149011725
 31
0.0
  0
LINE
  5
7AF6
  8
1
  6
CONTINUOUS
 10
1744.5644890000001
 20
2797.0535540000001
 30
0.0
 11
1742.5644890000001
 21
2497.0535540000001
 31
0.0
  0
LINE
  5
7AF7
  8
1
  6
CONTINUOUS
 10
1745.634489
 20
3711.8235540000001
 30
0.0
 11
1056.5644890000001
 21
3711.8235540000001
 31
0.0
  0
LINE
  5
7AF8
  8
1
  6
CONTINUOUS
 10
1745.634489
 20
4011.8235540000001
 30
0.0
 11
1056.5644890000001
 21
4011.8235540000001
 31
0.0
  0
LINE
  5
7AF9
  8
1
  6
CONTINUOUS
 10
1096.5644890000001
 20
3667.8235540000001
 30
0.0
 11
1342.5644890000001
 21
3667.8235540000001
 31
0.0
  0
LINE
  5
7AFA
  8
1
  6
CONTINUOUS
 10
1096.5644890000001
 20
4135.8235539999987
 30
0.0
 11
1096.5644890000001
 21
4011.8235540000001
 31
0.0
  0
LINE
  5
7AFB
  8
1
  6
CONTINUOUS
 10
1136.5644890000001
 20
4135.8235539999987
 30
0.0
 11
1136.5644890000001
 21
4055.8235539999991
 31
0.0
  0
LINE
  5
7AFC
  8
1
  6
CONTINUOUS
 10
1096.5644890000001
 20
3711.8235540000001
 30
0.0
 11
1096.5644890000001
 21
3525.8235540000001
 31
0.0
  0
LINE
  5
7AFD
  8
1
  6
CONTINUOUS
 10
1136.5644890000001
 20
3667.8235540000001
 30
0.0
 11
1136.5644890000001
 21
3525.8235540000001
 31
0.0
  0
LINE
  5
7AFE
  8
1
  6
CONTINUOUS
 10
1181.0644890000001
 20
3531.8235540000001
 30
0.0
 11
1181.0644890000001
 21
3631.8235540000001
 31
0.0
  0
LINE
  5
7AFF
  8
1
  6
CONTINUOUS
 10
1136.5644890000001
 20
3525.8235540000001
 30
0.0
 11
1096.5644890000001
 21
3525.8235540000001
 31
0.0
  0
LINE
  5
7B00
  8
1
  6
CONTINUOUS
 10
1056.5644890000001
 20
3711.8235540000001
 30
0.0
 11
1056.5644890000001
 21
4011.8235540000001
 31
0.0
  0
LINE
  5
7B01
  8
1
  6
CONTINUOUS
 10
1136.5644890000001
 20
4135.8235539999987
 30
0.0
 11
1096.5644890000001
 21
4135.8235539999987
 31
0.0
  0
LINE
  5
7B02
  8
1
  6
CONTINUOUS
 10
1345.634489
 20
3711.8235540000001
 30
0.0
 11
1745.634489
 21
4011.8235540000001
 31
0.0
  0
LINE
  5
7B03
  8
1
  6
CONTINUOUS
 10
1745.634489
 20
3711.8235540000001
 30
0.0
 11
1345.634489
 21
4011.8235540000001
 31
0.0
  0
LINE
  5
7B04
  8
1
  6
CONTINUOUS
 10
1368.7944890000001
 20
3606.8235540000001
 30
0.0
 11
1368.7944890000001
 21
3711.8235540000001
 31
0.0
  0
LINE
  5
7B05
  8
1
  6
CONTINUOUS
 10
1340.7944890000001
 20
3606.8235540000001
 30
0.0
 11
1340.7944890000001
 21
3711.8235540000001
 31
0.0
  0
LINE
  5
7B06
  8
1
  6
CONTINUOUS
 10
1458.3244890000001
 20
3556.8235540000001
 30
0.0
 11
1254.8044890000001
 21
3556.8235540000001
 31
0.0
  0
LINE
  5
7B07
  8
1
  6
CONTINUOUS
 10
1458.3244890000001
 20
3606.8235540000001
 30
0.0
 11
1254.8044890000001
 21
3606.8235540000001
 31
0.0
  0
LINE
  5
7B08
  8
1
  6
CONTINUOUS
 10
1254.8044890000001
 20
3556.8235540000001
 30
0.0
 11
1254.8044890000001
 21
3606.8235540000001
 31
0.0
  0
LINE
  5
7B09
  8
1
  6
CONTINUOUS
 10
1458.3244890000001
 20
3556.8235540000001
 30
0.0
 11
1458.3244890000001
 21
3606.8235540000001
 31
0.0
  0
LINE
  5
7B0A
  8
1
  6
CONTINUOUS
 10
1345.634489
 20
3711.8235540000001
 30
0.0
 11
1345.634489
 21
4011.8235540000001
 31
0.0
  0
LINE
  5
7B0B
  8
1
  6
CONTINUOUS
 10
1828.434489
 20
3556.8235540000001
 30
0.0
 11
1828.434489
 21
3606.8235540000001
 31
0.0
  0
LINE
  5
7B0C
  8
1
  6
CONTINUOUS
 10
1745.634489
 20
3711.8235540000001
 30
0.0
 11
1745.634489
 21
4011.8235540000001
 31
0.0
  0
LINE
  5
7B0D
  8
1
  6
CONTINUOUS
 10
1787.4344889999991
 20
3698.5435539999999
 30
0.0
 11
1787.4344889999991
 21
3941.2235540000001
 31
0.0
  0
LINE
  5
7B0E
  8
1
  6
CONTINUOUS
 10
2984.6875909999999
 20
2055.0535540000001
 30
0.0
 11
3372.6875909999999
 21
2055.0535540000001
 31
0.0
  0
LINE
  5
7B0F
  8
1
  6
CONTINUOUS
 10
2842.6875909999999
 20
1990.0535540000001
 30
0.0
 11
3452.687590999999
 21
1990.0535540000001
 31
0.0
  0
LINE
  5
7B10
  8
1
  6
CONTINUOUS
 10
3328.6875909999999
 20
2777.0535540000001
 30
0.0
 11
3028.6875909999999
 21
2777.0535540000001
 31
0.0
  0
LINE
  5
7B11
  8
1
  6
CONTINUOUS
 10
3328.6875909999999
 20
2157.0535540000001
 30
0.0
 11
3028.6875909999999
 21
2157.0535540000001
 31
0.0
  0
LINE
  5
7B12
  8
1
  6
CONTINUOUS
 10
3355.687590999999
 20
2797.0535540000001
 30
0.0
 11
3001.6875909999999
 21
2797.0535540000001
 31
0.0
  0
LINE
  5
7B13
  8
1
  6
CONTINUOUS
 10
3372.6875909999999
 20
2157.0535540000001
 30
0.0
 11
2848.6875909999999
 21
2157.0535540000001
 31
0.0
  0
LINE
  5
7B14
  8
1
  6
CONTINUOUS
 10
3372.6875909999999
 20
2077.0535540000001
 30
0.0
 11
2984.6875909999999
 21
2077.0535540000001
 31
0.0
  0
LINE
  5
7B15
  8
1
  6
CONTINUOUS
 10
3452.687590999999
 20
1950.0535539999989
 30
0.0
 11
2842.6875909999999
 21
1950.0535539999989
 31
0.0
  0
LINE
  5
7B20
  8
2
  6
CENTER
 10
1888.434489
 20
2222.0535539999992
 30
0.0
 11
1888.434489
 21
2342.0535540000001
 31
0.0
  0
LINE
  5
7B21
  8
1
  6
CONTINUOUS
 10
2051.064488999999
 20
2157.0535540000001
 30
0.0
 11
2051.064488999999
 21
2407.0535540000001
 31
0.0
  0
LINE
  5
7B22
  8
1
  6
CONTINUOUS
 10
1988.434489
 20
2194.0535540000001
 30
0.0
 11
1968.964489
 21
2221.093554
 31
0.0
  0
LINE
  5
7B23
  8
1
  6
CONTINUOUS
 10
1988.434489
 20
2157.0535540000001
 30
0.0
 11
1988.434489
 21
2194.0535540000001
 31
0.0
  0
LINE
  5
7B24
  8
1
  6
CONTINUOUS
 10
2096.564488999999
 20
2055.0535540000001
 30
0.0
 11
2096.564488999999
 21
1950.0535539999989
 31
0.0
  0
LINE
  5
7B25
  8
1
  6
CONTINUOUS
 10
2096.564488999999
 20
2157.0535540000001
 30
0.0
 11
2096.564488999999
 21
2077.0535540000001
 31
0.0
  0
LINE
  5
7B26
  8
1
  6
CONTINUOUS
 10
2096.564488999999
 20
1950.0535539999989
 30
0.0
 11
2056.564488999999
 21
1950.0535539999989
 31
0.0
  0
LINE
  5
7B27
  8
1
  6
CONTINUOUS
 10
2056.564488999999
 20
1990.0535540000001
 30
0.0
 11
2056.564488999999
 21
1950.0535539999989
 31
0.0
  0
LINE
  5
7B44
  8
1
  6
CONTINUOUS
 10
3028.6875909999999
 20
2157.0535540000001
 30
0.0
 11
3028.6875909999999
 21
2797.0535540000001
 31
0.0
  0
LINE
  5
7B45
  8
1
  6
CONTINUOUS
 10
2873.687590999999
 20
2222.0535539999992
 30
0.0
 11
2873.687590999999
 21
2342.0535540000001
 31
0.0
  0
LINE
  5
7B46
  8
1
  6
CONTINUOUS
 10
2923.6875909999999
 20
2222.0535539999992
 30
0.0
 11
2923.6875909999999
 21
2342.0535540000001
 31
0.0
  0
LINE
  5
7B47
  8
1
  6
CONTINUOUS
 10
2948.6875909999999
 20
2157.0535540000001
 30
0.0
 11
2948.6875909999999
 21
2812.0535540000001
 31
0.0
  0
LINE
  5
7B48
  8
1
  6
CONTINUOUS
 10
2848.6875909999999
 20
2157.0535540000001
 30
0.0
 11
2848.6875909999999
 21
2812.0535540000001
 31
0.0
  0
LINE
  5
7B50
  8
1
  6
CONTINUOUS
 10
2923.6875909999999
 20
2268.0535540000001
 30
0.0
 11
3028.6875909999999
 21
2268.0535540000001
 31
0.0
  0
LINE
  5
7B51
  8
1
  6
CONTINUOUS
 10
2923.6875909999999
 20
2296.0535540000001
 30
0.0
 11
3028.6875909999999
 21
2296.0535540000001
 31
0.0
  0
LINE
  5
7B52
  8
1
  6
CONTINUOUS
 10
2873.687590999999
 20
2222.0535539999992
 30
0.0
 11
2923.6875909999999
 21
2222.0535539999992
 31
0.0
  0
LINE
  5
7B53
  8
1
  6
CONTINUOUS
 10
2842.6875909999999
 20
1990.0535540000001
 30
0.0
 11
2842.6875909999999
 21
1950.0535539999989
 31
0.0
  0
LINE
  5
7B54
  8
1
  6
CONTINUOUS
 10
2984.6875909999999
 20
2055.0535540000001
 30
0.0
 11
2984.6875909999999
 21
1990.0535540000001
 31
0.0
  0
LINE
  5
7B55
  8
1
  6
CONTINUOUS
 10
2984.6875909999999
 20
2157.0535540000001
 30
0.0
 11
2984.6875909999999
 21
2077.0535540000001
 31
0.0
  0
LINE
  5
7B56
  8
1
  6
CONTINUOUS
 10
2923.6875909999999
 20
2484.8135539999998
 30
0.0
 11
3028.6875909999999
 21
2484.8135539999998
 31
0.0
  0
LINE
  5
7B57
  8
1
  6
CONTINUOUS
 10
2923.6875909999999
 20
2512.8135539999998
 30
0.0
 11
3028.6875909999999
 21
2512.8135539999998
 31
0.0
  0
LINE
  5
7B58
  8
1
  6
CONTINUOUS
 10
2873.687590999999
 20
2395.2835540000001
 30
0.0
 11
2923.6875909999999
 21
2395.2835540000001
 31
0.0
  0
LINE
  5
7B59
  8
1
  6
CONTINUOUS
 10
2873.687590999999
 20
2598.8135539999989
 30
0.0
 11
2923.6875909999999
 21
2598.8135539999989
 31
0.0
  0
LINE
  5
7B5A
  8
1
  6
CONTINUOUS
 10
2873.687590999999
 20
2395.2835540000001
 30
0.0
 11
2873.687590999999
 21
2598.8135539999989
 31
0.0
  0
LINE
  5
7B5B
  8
1
  6
CONTINUOUS
 10
2923.6875909999999
 20
2395.2835540000001
 30
0.0
 11
2923.6875909999999
 21
2598.8135539999989
 31
0.0
  0
LINE
  5
7B5C
  8
1
  6
CONTINUOUS
 10
2873.687590999999
 20
2342.0535540000001
 30
0.0
 11
2923.6875909999999
 21
2342.0535540000001
 31
0.0
  0
LINE
  5
7B5D
  8
1
  6
CONTINUOUS
 10
2848.6875909999999
 20
2812.0535540000001
 30
0.0
 11
2948.6875909999999
 21
2812.0535540000001
 31
0.0
  0
LINE
  5
7B66
  8
1
  6
CONTINUOUS
 10
2096.564488999999
 20
4135.8235539999987
 30
0.0
 11
2096.564488999999
 21
3525.8235540000001
 31
0.0
  0
LINE
  5
7B67
  8
1
  6
CONTINUOUS
 10
2056.564488999999
 20
4135.8235539999987
 30
0.0
 11
2056.564488999999
 21
4055.8235539999991
 31
0.0
  0
LINE
  5
7B68
  8
1
  6
CONTINUOUS
 10
1902.434489
 20
3606.8235540000001
 30
0.0
 11
1902.434489
 21
3698.5435539999999
 31
0.0
  0
LINE
  5
7B69
  8
1
  6
CONTINUOUS
 10
1874.434489
 20
3606.8235540000001
 30
0.0
 11
1874.434489
 21
3698.5435539999999
 31
0.0
  0
LINE
  5
7B6A
  8
1
  6
CONTINUOUS
 10
2056.564488999999
 20
3667.8235540000001
 30
0.0
 11
2056.564488999999
 21
3525.8235540000001
 31
0.0
  0
LINE
  5
7B6B
  8
1
  6
CONTINUOUS
 10
1948.434489
 20
3556.8235540000001
 30
0.0
 11
1948.434489
 21
3606.8235540000001
 31
0.0
  0
LINE
  5
7B6C
  8
1
  6
CONTINUOUS
 10
2051.064488999999
 20
3531.8235540000001
 30
0.0
 11
2051.064488999999
 21
3631.8235540000001
 31
0.0
  0
LINE
  5
7B6D
  8
1
  6
CONTINUOUS
 10
2056.564488999999
 20
3525.8235540000001
 30
0.0
 11
2096.564488999999
 21
3525.8235540000001
 31
0.0
  0
LINE
  5
7B6E
  8
1
  6
CONTINUOUS
 10
1902.434489
 20
3667.8235540000001
 30
0.0
 11
2096.564488999999
 21
3667.8235540000001
 31
0.0
  0
LINE
  5
7B6F
  8
1
  6
CONTINUOUS
 10
1989.4344889999991
 20
3698.5435539999999
 30
0.0
 11
1989.4344889999991
 21
3941.2235540000001
 31
0.0
  0
LINE
  5
7B70
  8
1
  6
CONTINUOUS
 10
2056.564488999999
 20
4135.8235539999987
 30
0.0
 11
2096.564488999999
 21
4135.8235539999987
 31
0.0
  0
LINE
  5
7B93
  8
1
  6
CONTINUOUS
 10
3328.6875909999999
 20
2157.0535540000001
 30
0.0
 11
3328.6875909999999
 21
2797.0535540000001
 31
0.0
  0
LINE
  5
7B94
  8
1
  6
CONTINUOUS
 10
3372.6875909999999
 20
2055.0535540000001
 30
0.0
 11
3372.6875909999999
 21
1990.0535540000001
 31
0.0
  0
LINE
  5
7B95
  8
1
  6
CONTINUOUS
 10
3372.6875909999999
 20
2157.0535540000001
 30
0.0
 11
3372.6875909999999
 21
2077.0535540000001
 31
0.0
  0
LINE
  5
7B96
  8
1
  6
CONTINUOUS
 10
3452.687590999999
 20
1990.0535540000001
 30
0.0
 11
3452.687590999999
 21
1950.0535539999989
 31
0.0
  0
LINE
  5
7B97
  8
2
  6
CENTER
 10
2137.4743203750259
 20
3861.8235540000001
 30
0.0
 11
1009.90419870404
 21
3861.8235540000001
 31
0.0
  0
LINE
  5
7B98
  8
2
  6
CENTER
 10
3178.6875909999999
 20
2866.75982343545
 30
0.0
 11
3178.6875909999999
 21
1828.2079238934441
 31
0.0
  0
LINE
  5
7B99
  8
2
  6
CENTER
 10
1356.5644890000001
 20
2957.4707228020261
 30
0.0
 11
1356.5644890000001
 21
1876.867662056791
 31
0.0
  0
LINE
  5
7B9A
  8
2
  6
CENTER
 10
1993.3959054693109
 20
2497.0535540000001
 30
0.0
 11
971.71669359685666
 21
2497.0535540000001
 31
0.0
  0
LINE
  5
7B9B
  8
4
  6
CONTINUOUS
 10
3700.0
 20
1000.0
 30
0.0
 11
3700.0
 21
600.0
 31
0.0
  0
LINE
  5
7B9C
  8
4
  6
CONTINUOUS
 10
2300.0
 20
1000.0
 30
0.0
 11
2300.0
 21
600.0
 31
0.0
  0
LINE
  5
7B9D
  8
4
  6
CONTINUOUS
 10
1300.0
 20
1000.0
 30
0.0
 11
1300.0
 21
600.0
 31
0.0
  0
LINE
  5
7BA0
  8
4
  6
CONTINUOUS
 10
1300.0
 20
600.0
 30
0.0
 11
3700.0
 21
600.0
 31
0.0
  0
LINE
  5
7BA1
  8
4
  6
CONTINUOUS
 10
1300.0
 20
800.0
 30
0.0
 11
3700.0
 21
800.0
 31
0.0
  0
TEXT
  5
7BA2
  8
4
  6
CONTINUOUS
 10
1377.004162
 20
863.086052
 30
0.0
 40
100.0
  1
機器名称
  0
TEXT
  5
7BA3
  8
4
  6
CONTINUOUS
 10
1372.516212
 20
643.29031299999986
 30
0.0
 40
100.0
  1
機器型番
  0
TEXT
  5
7BA4
  8
4
  6
CONTINUOUS
 10
2355.3574910000002
 20
845.14353800000015
 30
0.0
 40
100.0
  1
ミツヤ多翼送風機
  0
TEXT
  5
7BA5
  8
4
  6
CONTINUOUS
 10
2373.3089909999999
 20
634.31916899999999
 30
0.0
 40
100.0
  1
MF#2 1/2-4
  0
TEXT
  5
7BA7
  8
4
  6
CONTINUOUS
 10
1455.0908420000001
 20
4766.8576830000002
 30
0.0
 40
108.0
  1
天井吊防振ベット
  0
TEXT
  5
7BA8
  8
4
  6
CONTINUOUS
 10
632.33518700000002
 20
5067.7619520000007
 30
0.0
 40
144.0
  1
ベルト駆動式片吸込両持多翼ファン
  0
LINE
  5
7BA9
  8
4
  6
CONTINUOUS
 10
500.0
 20
4938.8175090000004
 30
0.0
 11
3700.0
 21
4938.8175090000004
 31
0.0
  0
LINE
  5
7BAA
  8
4
  6
CONTINUOUS
 10
500.0
 20
5338.8175090000004
 30
0.0
 11
3700.0
 21
5338.8175090000004
 31
0.0
  0
LINE
  5
7BAB
  8
4
  6
CONTINUOUS
 10
1300.0
 20
1000.0
 30
0.0
 11
3700.0
 21
1000.0
 31
0.0
  0
LINE
  5
7BAC
  8
4
  6
CONTINUOUS
 10
500.0
 20
5338.8175090000004
 30
0.0
 11
500.0
 21
4938.8175090000004
 31
0.0
  0
TEXT
  5
7BAD
  8
4
  6
CONTINUOUS
 10
660.91582000000005
 20
4764.6389549999994
 30
0.0
 40
108.0
  1
左回転上向
  0
TEXT
  5
7BAE
  8
4
  6
CONTINUOUS
 10
2937.9391179999998
 20
5412.122163
 30
0.0
 40
112.0
  1
No.
  0
TEXT
  5
7BAF
  8
4
  6
CONTINUOUS
 10
2622.5921250000001
 20
4766.8576830000002
 30
0.0
 40
108.0
  1
縮尺：1/20
  0
LINE
  5
7BB0
  8
4
  6
CONTINUOUS
 10
3700.0
 20
5338.8175090000004
 30
0.0
 11
3700.0
 21
4938.8175090000004
 31
0.0
  0
LINE
  5
7BB2
  8
4
  6
CONTINUOUS
 10
2881.234845
 20
5362.5271659999999
 30
0.0
 11
2881.234845
 21
5573.3045229999998
 31
0.0
  0
LINE
  5
7BB3
  8
4
  6
CONTINUOUS
 10
2881.234845
 20
5573.3045229999998
 30
0.0
 11
3700.0
 21
5573.3045229999998
 31
0.0
  0
LINE
  5
7BB4
  8
4
  6
CONTINUOUS
 10
3700.0
 20
5573.3045229999998
 30
0.0
 11
3700.0
 21
5362.5271659999999
 31
0.0
  0
LINE
  5
7BB5
  8
4
  6
CONTINUOUS
 10
3700.0
 20
5362.5271659999999
 30
0.0
 11
2881.234845
 21
5362.5271659999999
 31
0.0
  0
DIMENSION
  5
7BCD
  8
3
  6
CONTINUOUS
  2
*D1
 10
1344.5644890000001
 20
2900.8377850000002
 30
0.0
 11
1527.3992290000001
 21
2900.8377850000002
 31
0.0
 70
   128
 13
1744.5644890000001
 23
2797.0535540000001
 33
0.0
 14
1344.5644890000001
 24
2797.0535540000001
 34
0.0
1001
ACAD
1000
DSTYLE
1002
{
1070
   287
1070
     3
1070
    40
1040
20.0
1070
   143
1040
0.039
1070
   172
1070
     1
1070
   271
1070
     0
1070
   279
1070
     0
1070
   288
1070
     1
1002
}
  0
DIMENSION
  5
7BDA
  8
3
  6
CONTINUOUS
  2
*D2
 10
1356.5644890000001
 20
3003.3982129999999
 30
0.0
 11
1519.5827650000001
 21
3003.3982129999999
 31
0.0
 70
   128
 13
1744.5644890000001
 23
2900.8377850000002
 33
0.0
 14
1356.5644890000001
 24
2957.4707228020261
 34
0.0
1001
ACAD
1000
DSTYLE
1002
{
1070
   287
1070
     3
1070
    40
1040
20.0
1070
   143
1040
0.039
1070
   172
1070
     1
1070
   271
1070
     0
1070
   279
1070
     0
1070
   288
1070
     1
1002
}
  0
DIMENSION
  5
7BE6
  8
3
  6
CONTINUOUS
  2
*D3
 10
1056.5644890000001
 20
3003.3982129999999
 30
0.0
 11
1206.5644890000001
 21
3053.398212999999
 31
0.0
 70
     0
 13
1356.5644890000001
 23
2957.4707228020261
 33
0.0
 14
1056.5644890000001
 24
2767.0535540000001
 34
0.0
1001
ACAD
1000
DSTYLE
1002
{
1070
   287
1070
     4
1070
    40
1040
20.0
1070
    75
1070
     1
1070
   143
1040
0.039
1070
   172
1070
     1
1070
   271
1070
     0
1070
   279
1070
     1
1070
   288
1070
     1
1002
}
  0
DIMENSION
  5
7C01
  8
3
  6
CONTINUOUS
  2
*D4
 10
924.65902500000004
 20
2077.0535540000001
 30
0.0
 11
874.6590249999997
 21
2287.0535540000001
 31
0.0
 70
     0
 13
971.71669359685666
 23
2497.0535540000001
 33
0.0
 14
1096.5644890000001
 24
2077.0535540000001
 34
0.0
 50
90.0
1001
ACAD
1000
DSTYLE
1002
{
1070
   287
1070
     4
1070
    40
1040
20.0
1070
    75
1070
     1
1070
   143
1040
0.039
1070
   172
1070
     1
1070
   271
1070
     0
1070
   279
1070
     1
1070
   288
1070
     1
1002
}
  0
DIMENSION
  5
7C2B
  8
3
  6
CONTINUOUS
  2
*D5
 10
1356.5644890000001
 20
1851.376064
 30
0.0
 11
1226.5644890000001
 21
1902.826152802623
 31
0.0
 70
   128
 13
1096.5644890000001
 23
1950.0535539999989
 33
0.0
 14
1356.5644890000001
 24
1873.419601232835
 34
0.0
1001
ACAD
1000
DSTYLE
1002
{
1070
   288
1070
     1
1070
   172
1070
     1
1070
    40
1040
20.0
1070
   271
1070
     0
1070
   143
1040
0.039
1002
}
  0
DIMENSION
  5
7C37
  8
3
  6
CONTINUOUS
  2
*D6
 10
2096.564488999999
 20
1851.376064
 30
0.0
 11
1726.5644890000001
 21
1901.376064
 31
0.0
 70
     0
 13
1356.5644890000001
 23
1873.419601232835
 33
0.0
 14
2096.564488999999
 24
1950.0535539999989
 34
0.0
1001
ACAD
1000
DSTYLE
1002
{
1070
   287
1070
     4
1070
    40
1040
20.0
1070
    75
1070
     1
1070
   143
1040
0.039
1070
   172
1070
     1
1070
   271
1070
     0
1070
   279
1070
     1
1070
   288
1070
     1
1002
}
  0
DIMENSION
  5
7C44
  8
3
  6
CONTINUOUS
  2
*D7
 10
3178.6875909999999
 20
1787.9884139999999
 30
0.0
 11
3011.7980600000001
 21
1787.9884139999999
 31
0.0
 70
   128
 13
2842.6875909999999
 23
1950.0535539999989
 33
0.0
 14
3178.6875909999999
 24
1816.763222413585
 34
0.0
1001
ACAD
1000
DSTYLE
1002
{
1070
   287
1070
     3
1070
    40
1040
20.0
1070
   143
1040
0.039
1070
   172
1070
     1
1070
   271
1070
     0
1070
   279
1070
     0
1070
   288
1070
     1
1002
}
  0
DIMENSION
  5
7C52
  8
3
  6
CONTINUOUS
  2
*D8
 10
3452.687590999999
 20
1787.9884139999999
 30
0.0
 11
3316.843288999999
 21
1787.290322999999
 31
0.0
 70
   128
 13
3178.6875909999999
 23
1828.2079238934441
 33
0.0
 14
3452.687590999999
 24
1950.0535539999989
 34
0.0
1001
ACAD
1000
DSTYLE
1002
{
1070
   287
1070
     4
1070
    40
1040
20.0
1070
    75
1070
     1
1070
   143
1040
0.039
1070
   172
1070
     1
1070
   271
1070
     0
1070
   279
1070
     1
1070
   288
1070
     1
1002
}
  0
DIMENSION
  5
7C5F
  8
3
  6
CONTINUOUS
  2
*D9
 10
3028.6875909999999
 20
2889.1216920000002
 30
0.0
 11
3165.8304480000002
 21
2889.1216920000002
 31
0.0
 70
   128
 13
3328.6875909999999
 23
2797.0535540000001
 33
0.0
 14
3028.6875909999999
 24
2797.0535540000001
 34
0.0
1001
ACAD
1000
DSTYLE
1002
{
1070
   287
1070
     3
1070
    40
1040
20.0
1070
   143
1040
0.039
1070
   172
1070
     1
1070
   271
1070
     0
1070
   279
1070
     0
1070
   288
1070
     1
1002
}
  0
DIMENSION
  5
7C79
  8
3
  6
CONTINUOUS
  2
*D10
 10
2848.6875909999999
 20
3019.079256
 30
0.0
 11
3013.6875909999999
 21
3119.079256
 31
0.0
 70
     0
  1
MAX\P380
 13
3178.6875909999999
 23
2998.2199000000001
 33
0.0
 14
2848.6875909999999
 24
2812.0535540000001
 34
0.0
1001
ACAD
1000
DSTYLE
1002
{
1070
   287
1070
     4
1070
    40
1040
20.0
1070
    75
1070
     1
1070
   143
1040
0.039
1070
   172
1070
     1
1070
   271
1070
     0
1070
   279
1070
     1
1070
   288
1070
     1
1002
}
  0
DIMENSION
  5
7C88
  8
3
  6
CONTINUOUS
  2
*D11
 10
3516.665176
 20
2282.0535540000001
 30
0.0
 11
3516.665176
 21
2499.6661359999998
 31
0.0
 70
   128
 13
3328.6875909999999
 23
2712.0535540000001
 33
0.0
 14
3328.6875909999999
 24
2282.0535540000001
 34
0.0
 50
90.0
1001
ACAD
1000
DSTYLE
1002
{
1070
   287
1070
     3
1070
     3
1000
φ<>
1070
    40
1040
20.0
1070
   143
1040
0.039
1070
   172
1070
     1
1070
   271
1070
     0
1070
   279
1070
     0
1070
   288
1070
     1
1002
}
  0
DIMENSION
  5
7C95
  8
3
  6
CONTINUOUS
  2
*D12
 10
1096.5644890000001
 20
4231.0868680000012
 30
0.0
 11
1605.563627999999
 21
4231.0868680000012
 31
0.0
 70
   128
 13
2096.564488999999
 23
4135.8235539999987
 33
0.0
 14
1096.5644890000001
 24
4135.8235539999987
 34
0.0
1001
ACAD
1000
DSTYLE
1002
{
1070
   287
1070
     3
1070
    40
1040
20.0
1070
   143
1040
0.039
1070
   172
1070
     1
1070
   271
1070
     0
1070
   279
1070
     0
1070
   288
1070
     1
1002
}
  0
DIMENSION
  5
7CA2
  8
3
  6
CONTINUOUS
  2
*D13
 10
928.81184500000063
 20
3525.8235540000001
 30
0.0
 11
928.81184499999983
 21
3880.2042070000002
 31
0.0
 70
   128
 13
1096.5644890000001
 23
4135.8235539999987
 33
0.0
 14
1096.5644890000001
 24
3525.8235540000001
 34
0.0
 50
90.0
1001
ACAD
1000
DSTYLE
1002
{
1070
   287
1070
     3
1070
    40
1040
20.0
1070
   143
1040
0.039
1070
   172
1070
     1
1070
   271
1070
     0
1070
   279
1070
     0
1070
   288
1070
     1
1002
}
  0
DIMENSION
  5
7CB8
  8
3
  6
CONTINUOUS
  2
*D14
 10
924.65902500000004
 20
1990.0535540000001
 30
0.0
 11
913.13828299999989
 21
2052.866497999999
 31
0.0
 70
   128
 13
1096.5644890000001
 23
2077.0535540000001
 33
0.0
 14
1096.5644890000001
 24
1990.0535540000001
 34
0.0
 50
90.0
1001
ACAD
1000
DSTYLE
1002
{
1070
   287
1070
     4
1070
    40
1040
20.0
1070
    75
1070
     1
1070
   143
1040
0.039
1070
   172
1070
     1
1070
   271
1070
     0
1070
   279
1070
     1
1070
   288
1070
     1
1070
     7
1000
DOT
1002
}
  0
DIMENSION
  5
7D30
  8
3
  6
CONTINUOUS
  2
*D15
 10
924.65902400000027
 20
1950.0535539999989
 30
0.0
 11
924.65902400000004
 21
1801.482125428571
 31
0.0
 70
   128
 13
1096.5644890000001
 23
1990.0535540000001
 33
0.0
 14
1096.5644890000001
 24
1950.0535539999989
 34
0.0
 50
90.0
1001
ACAD
1000
DSTYLE
1002
{
1070
   287
1070
     3
1070
    40
1040
20.0
1070
   143
1040
0.039
1070
   172
1070
     1
1070
   271
1070
     0
1070
   279
1070
     0
1070
   288
1070
     1
1070
     6
1000
DOT
1002
}
  0
DIMENSION
  5
7D57
  8
3
  6
CONTINUOUS
  2
*D16
 10
799.02157900000032
 20
1950.0535539999989
 30
0.0
 11
799.02157899999986
 21
2403.7531730000001
 31
0.0
 70
   128
 13
1317.5644890000001
 23
2797.0535540000001
 33
0.0
 14
1096.5644890000001
 24
1950.0535539999989
 34
0.0
 50
90.0
1001
ACAD
1000
DSTYLE
1002
{
1070
   287
1070
     3
1070
    40
1040
20.0
1070
   143
1040
0.039
1070
   172
1070
     1
1070
   271
1070
     0
1070
   279
1070
     0
1070
   288
1070
     1
1002
}
  0
DIMENSION
  5
7D8D
  8
3
  6
CONTINUOUS
  2
*D17
 10
924.65902500000004
 20
2797.0535540000001
 30
0.0
 11
874.65902499999947
 21
2647.0535540000001
 31
0.0
 70
     0
 13
971.71669359685666
 23
2497.0535540000001
 33
0.0
 14
1317.5644890000001
 24
2797.0535540000001
 34
0.0
 50
90.0
1001
ACAD
1000
DSTYLE
1002
{
1070
   287
1070
     3
1070
    40
1040
20.0
1070
   143
1040
0.039
1070
   172
1070
     1
1070
   271
1070
     0
1070
   279
1070
     0
1070
   288
1070
     1
1002
}
  0
LINE
  5
7DDB
  8
1
  6
CONTINUOUS
 10
3329.687590999999
 20
2282.0535540000001
 30
0.0
 11
3329.687590999999
 21
2712.0535540000001
 31
0.0
  0
DIMENSION
  5
7DEB
  8
3
  6
CONTINUOUS
  2
*D18
 10
3329.687590999999
 20
3019.079256
 30
0.0
 11
3245.825345591958
 21
3079.4090351874329
 31
0.0
 70
   128
 13
3178.6875909999999
 23
2979.734537076019
 33
0.0
 14
3329.687590999999
 24
2712.0535540000001
 34
0.0
1001
ACAD
1000
DSTYLE
1002
{
1070
   288
1070
     1
1070
   172
1070
     1
1070
    40
1040
20.0
1070
   271
1070
     0
1070
   143
1040
0.039
1002
}
  0
DIMENSION
  5
7F43
  8
3
  2
*D20
 10
2096.564488999999
 20
3128.4819422521591
 30
0.0
 11
1595.614222040243
 21
3128.4819422521591
 31
0.0
 70
   128
 13
1056.5644890000001
 23
2767.0535540000001
 33
0.0
 14
2096.564488999999
 24
2157.0535540000001
 34
0.0
1001
ACAD
1000
DSTYLE
1002
{
1070
   287
1070
     3
1070
    40
1040
20.0
1070
   143
1040
0.039
1070
   172
1070
     1
1070
   271
1070
     0
1070
   279
1070
     0
1070
   288
1070
     1
1002
}
  0
ENDSEC
  0
EOF
