  0
SECTION
  2
HEADER
  9
$ACADVER
  1
AC1009
  9
$INSBASE
 10
0.0
 20
0.0
 30
0.0
  9
$EXTMIN
 10
500.0
 20
600.0
 30
0.0
  9
$EXTMAX
 10
3700.0
 20
5573.3045229999998
 30
0.0
  9
$LIMMIN
 10
0.0
 20
0.0
  9
$LIMMAX
 10
297.0
 20
210.0
  9
$ORTHOMODE
 70
     0
  9
$REGENMODE
 70
     1
  9
$FILLMODE
 70
     0
  9
$QTEXTMODE
 70
     0
  9
$MIRRTEXT
 70
     1
  9
$DRAGMODE
 70
     2
  9
$LTSCALE
 40
100.0
  9
$OSMODE
 70
    37
  9
$ATTMODE
 70
     1
  9
$TEXTSIZE
 40
180.0
  9
$TRACEWID
 40
0.05
  9
$TEXTSTYLE
  7
STANDARD
  9
$CLAYER
  8
3
  9
$CELTYPE
  6
BYLAYER
  9
$CECOLOR
 62
   256
  9
$DIMSCALE
 40
20.0
  9
$DIMASZ
 40
2.0
  9
$DIMEXO
 40
0.5
  9
$DIMDLI
 40
10.0
  9
$DIMRND
 40
0.0
  9
$DIMDLE
 40
0.0
  9
$DIMEXE
 40
1.0
  9
$DIMTP
 40
1.0
  9
$DIMTM
 40
1.0
  9
$DIMTXT
 40
3.0
  9
$DIMCEN
 40
0.0
  9
$DIMTSZ
 40
0.0
  9
$DIMTOL
 70
     0
  9
$DIMLIM
 70
     0
  9
$DIMTIH
 70
     0
  9
$DIMTOH
 70
     0
  9
$DIMSE1
 70
     0
  9
$DIMSE2
 70
     0
  9
$DIMTAD
 70
     1
  9
$DIMZIN
 70
     8
  9
$DIMBLK
  1

  9
$DIMASO
 70
     1
  9
$DIMSHO
 70
     1
  9
$DIMPOST
  1

  9
$DIMAPOST
  1

  9
$DIMALT
 70
     0
  9
$DIMALTD
 70
     2
  9
$DIMALTF
 40
0.039
  9
$DIMLFAC
 40
1.0
  9
$DIMTOFL
 70
     1
  9
$DIMTVP
 40
0.0
  9
$DIMTIX
 70
     0
  9
$DIMSOXD
 70
     0
  9
$DIMSAH
 70
     1
  9
$DIMBLK1
  1
OPEN
  9
$DIMBLK2
  1
OPEN
  9
$DIMSTYLE
  2
IGA
  9
$DIMCLRD
 70
     0
  9
$DIMCLRE
 70
     0
  9
$DIMCLRT
 70
     0
  9
$DIMTFAC
 40
10.0
  9
$DIMGAP
 40
1.0
  9
$LUNITS
 70
     2
  9
$LUPREC
 70
     3
  9
$SKETCHINC
 40
0.1
  9
$FILLETRAD
 40
50.0
  9
$AUNITS
 70
     0
  9
$AUPREC
 70
     0
  9
$MENU
  1
acad
  9
$ELEVATION
 40
0.0
  9
$PELEVATION
 40
0.0
  9
$THICKNESS
 40
0.0
  9
$LIMCHECK
 70
     0
  9
$BLIPMODE
 70
     0
  9
$CHAMFERA
 40
0.5
  9
$CHAMFERB
 40
0.5
  9
$SKPOLY
 70
     0
  9
$TDCREATE
 40
2450725.592466088
  9
$TDUPDATE
 40
2454953.7650793861
  9
$TDINDWG
 40
0.0048769792
  9
$TDUSRTIMER
 40
0.0048769792
  9
$USRTIMER
 70
     1
  9
$ANGBASE
 50
0.0
  9
$ANGDIR
 70
     0
  9
$PDMODE
 70
     0
  9
$PDSIZE
 40
0.0
  9
$PLINEWID
 40
0.0
  9
$COORDS
 70
     1
  9
$SPLFRAME
 70
     0
  9
$SPLINETYPE
 70
     6
  9
$SPLINESEGS
 70
     8
  9
$ATTDIA
 70
     0
  9
$ATTREQ
 70
     1
  9
$HANDLING
 70
 10241
  9
$HANDSEED
  5
7F30
  9
$SURFTAB1
 70
     6
  9
$SURFTAB2
 70
     6
  9
$SURFTYPE
 70
     6
  9
$SURFU
 70
     6
  9
$SURFV
 70
     6
  9
$UCSNAME
  2

  9
$UCSORG
 10
0.0
 20
0.0
 30
0.0
  9
$UCSXDIR
 10
1.0
 20
0.0
 30
0.0
  9
$UCSYDIR
 10
0.0
 20
1.0
 30
0.0
  9
$PUCSNAME
  2

  9
$PUCSORG
 10
0.0
 20
0.0
 30
0.0
  9
$PUCSXDIR
 10
1.0
 20
0.0
 30
0.0
  9
$PUCSYDIR
 10
0.0
 20
1.0
 30
0.0
  9
$USERI1
 70
     0
  9
$USERI2
 70
     0
  9
$USERI3
 70
     0
  9
$USERI4
 70
     0
  9
$USERI5
 70
     0
  9
$USERR1
 40
0.0
  9
$USERR2
 40
0.0
  9
$USERR3
 40
0.0
  9
$USERR4
 40
0.0
  9
$USERR5
 40
0.0
  9
$WORLDVIEW
 70
     1
  9
$SHADEDGE
 70
     3
  9
$SHADEDIF
 70
    70
  9
$TILEMODE
 70
     1
  9
$MAXACTVP
 70
    16
  9
$PLIMCHECK
 70
     0
  9
$PEXTMIN
 10
1.0000000000000000E+020
 20
1.0000000000000000E+020
 30
1.0000000000000000E+020
  9
$PEXTMAX
 10
-1.0000000000000000E+020
 20
-1.0000000000000000E+020
 30
-1.0000000000000000E+020
  9
$PLIMMIN
 10
0.0
 20
0.0
  9
$PLIMMAX
 10
12.0
 20
9.0
  9
$UNITMODE
 70
     0
  9
$VISRETAIN
 70
     0
  9
$PLINEGEN
 70
     0
  9
$PSLTSCALE
 70
     1
  0
ENDSEC
  0
SECTION
  2
TABLES
  0
TABLE
  2
VPORT
 70
     2
  0
VPORT
  2
*ACTIVE
 70
     0
 10
0.0
 20
0.0
 11
1.0
 21
1.0
 12
6292.1124769529506
 22
3086.6374998146398
 13
0.0
 23
0.0
 14
10.0
 24
10.0
 15
10.0
 25
10.0
 16
0.0
 26
0.0
 36
1.0
 17
0.0
 27
0.0
 37
0.0
 40
5011.4968576296578
 41
3.1666666666666661
 42
50.0
 43
0.0
 44
0.0
 50
0.0
 51
0.0
 71
     0
 72
   100
 73
     1
 74
     0
 75
     0
 76
     0
 77
     0
 78
     0
  0
ENDTAB
  0
TABLE
  2
LTYPE
 70
     2
  0
LTYPE
  2
CONTINUOUS
 70
     0
  3
Solid line
 72
    65
 73
     0
 40
0.0
  0
LTYPE
  2
CENTER
 70
     0
  3
____ _ ____ _ ____ _ ____ _ ____ _ ____ _ ____ 
 72
    65
 73
     4
 40
2.0
 49
1.25
 49
-0.25
 49
0.25
 49
-0.25
  0
ENDTAB
  0
TABLE
  2
LAYER
 70
     6
  0
LAYER
  2
0
 70
     0
 62
     7
  6
CONTINUOUS
  0
LAYER
  2
3
 70
     0
 62
     2
  6
CONTINUOUS
  0
LAYER
  2
2
 70
     0
 62
     3
  6
CENTER
  0
LAYER
  2
1
 70
     0
 62
     4
  6
CONTINUOUS
  0
LAYER
  2
4
 70
     0
 62
     7
  6
CONTINUOUS
  0
LAYER
  2
DEFPOINTS
 70
     0
 62
     7
  6
CONTINUOUS
  0
ENDTAB
  0
TABLE
  2
STYLE
 70
     1
  0
STYLE
  2
STANDARD
 70
     0
 40
0.0
 41
1.0
 50
0.0
 71
     0
 42
180.0
  3
simplex.shx
  4
extfont.shx
  0
ENDTAB
  0
TABLE
  2
VIEW
 70
     0
  0
ENDTAB
  0
TABLE
  2
UCS
 70
     0
  0
ENDTAB
  0
TABLE
  2
APPID
 70
     1
  0
APPID
  2
ACAD
 70
     0
  0
ENDTAB
  0
TABLE
  2
DIMSTYLE
 70
     1
  0
DIMSTYLE
  2
IGA
 70
     0
  3

  4

  5

  6
OPEN
  7
OPEN
 40
2.0
 41
2.0
 42
0.5
 43
10.0
 44
1.0
 45
0.0
 46
0.0
 47
1.0
 48
1.0
140
3.0
141
0.0
142
0.0
143
0.03937
144
1.0
145
0.0
146
10.0
147
1.0
 71
     0
 72
     0
 73
     0
 74
     0
 75
     0
 76
     0
 77
     1
 78
     8
170
     0
171
     2
172
     0
173
     1
174
     0
175
     0
176
     0
177
     0
178
     0
  0
ENDTAB
  0
ENDSEC
  0
SECTION
  2
BLOCKS
  0
BLOCK
  8
0
  2
$MODEL_SPACE
 70
     0
 10
0.0
 20
0.0
 30
0.0
  3
$MODEL_SPACE
  1

  0
ENDBLK
  5
1B
  8
0
  0
BLOCK
 67
     1
  8
0
  2
$PAPER_SPACE
 70
     0
 10
0.0
 20
0.0
 30
0.0
  3
$PAPER_SPACE
  1

  0
ENDBLK
  5
18
 67
     1
  8
0
  0
BLOCK
  8
0
  2
_OPEN
 70
     0
 10
0.0
 20
0.0
 30
0.0
  3
_OPEN
  1

  0
LINE
  5
7B98
  8
0
  6
BYBLOCK
 62
     0
 10
-1.0
 20
0.166667
 30
0.0
 11
0.0
 21
0.0
 31
0.0
  0
LINE
  5
7B99
  8
0
  6
BYBLOCK
 62
     0
 10
0.0
 20
0.0
 30
0.0
 11
-1.0
 21
-0.166667
 31
0.0
  0
LINE
  5
7B9A
  8
0
  6
BYBLOCK
 62
     0
 10
0.0
 20
0.0
 30
0.0
 11
-1.0
 21
0.0
 31
0.0
  0
ENDBLK
  5
7B9B
  8
0
  0
BLOCK
  8
0
  2
*D1
 70
     1
 10
0.0
 20
0.0
 30
0.0
  3
*D1
  1

  0
LINE
  5
7E82
  8
3
  6
CONTINUOUS
 62
     0
 10
1168.412223999999
 20
2223.5367539999988
 30
0.0
 11
1095.14698
 21
2223.5367539999988
 31
0.0
  0
LINE
  5
7E83
  8
3
  6
CONTINUOUS
 62
     0
 10
1168.412223999999
 20
1823.536754
 30
0.0
 11
1095.14698
 21
1823.536754
 31
0.0
  0
LINE
  5
7E84
  8
3
  6
CONTINUOUS
 62
     0
 10
1115.14698
 20
2183.5367539999988
 30
0.0
 11
1115.14698
 21
1863.536754
 31
0.0
  0
INSERT
  5
7E85
  8
3
  6
CONTINUOUS
 62
     0
  2
_OPEN
 10
1115.14698
 20
2223.5367539999988
 30
0.0
 41
40.0
 42
40.0
 43
40.0
 50
90.0
  0
INSERT
  5
7E86
  8
3
  6
CONTINUOUS
 62
     0
  2
_OPEN
 10
1115.14698
 20
1823.536754
 30
0.0
 41
40.0
 42
40.0
 43
40.0
 50
270.0
  0
TEXT
  8
3
  40
60
  5
7F1E
  62
0
  72
0
  71
0
 10
945.147
 20
1898.72
 30
0.000000
  1
400
  0
POINT
  5
7E88
  8
DEFPOINTS
  6
CONTINUOUS
 62
     0
 10
1178.4122239999999
 20
2223.5367539999988
 30
0.0
  0
POINT
  5
7E89
  8
DEFPOINTS
  6
CONTINUOUS
 62
     0
 10
1178.4122239999999
 20
1823.536754
 30
0.0
  0
POINT
  5
7E8A
  8
DEFPOINTS
  6
CONTINUOUS
 62
     0
 10
1115.14698
 20
1823.536754
 30
0.0
  0
ENDBLK
  5
7CE3
  8
0
  0
BLOCK
  8
0
  2
*D2
 70
     1
 10
0.0
 20
0.0
 30
0.0
  3
*D2
  1

  0
LINE
  5
7E8B
  8
3
  6
CONTINUOUS
 62
     0
 10
1105.14698
 20
1823.536754
 30
0.0
 11
982.34635100000025
 21
1823.536754
 31
0.0
  0
LINE
  5
7E8C
  8
3
  6
CONTINUOUS
 62
     0
 10
1009.287271
 20
2211.5367539999988
 30
0.0
 11
1022.346351
 21
2211.5367539999988
 31
0.0
  0
LINE
  5
7E8D
  8
3
  6
CONTINUOUS
 62
     0
 10
1002.346351
 20
1863.536754
 30
0.0
 11
1002.346351
 21
2171.5367539999988
 31
0.0
  0
INSERT
  5
7E8E
  8
3
  6
CONTINUOUS
 62
     0
  2
_OPEN
 10
1002.346351
 20
1823.536754
 30
0.0
 41
40.0
 42
40.0
 43
40.0
 50
270.0
  0
INSERT
  5
7E8F
  8
3
  6
CONTINUOUS
 62
     0
  2
_OPEN
 10
1002.346351
 20
2211.5367539999988
 30
0.0
 41
40.0
 42
40.0
 43
40.0
 50
90.0
  0
TEXT
  8
3
  40
60
  5
7F1F
  62
0
  72
0
  71
0
 10
832.346
 20
1895.23
 30
0.000000
  1
388
  0
POINT
  5
7E91
  8
DEFPOINTS
  6
CONTINUOUS
 62
     0
 10
1115.14698
 20
1823.536754
 30
0.0
  0
POINT
  5
7E92
  8
DEFPOINTS
  6
CONTINUOUS
 62
     0
 10
999.28727100000015
 20
2211.5367539999988
 30
0.0
  0
POINT
  5
7E93
  8
DEFPOINTS
  6
CONTINUOUS
 62
     0
 10
1002.346351
 20
2211.5367539999988
 30
0.0
  0
ENDBLK
  5
7CEE
  8
0
  0
BLOCK
  8
0
  2
*D3
 70
     1
 10
0.0
 20
0.0
 30
0.0
  3
*D3
  1

  0
LINE
  5
7E94
  8
3
  6
CONTINUOUS
 62
     0
 10
1198.412223999999
 20
2511.5367539999988
 30
0.0
 11
880.70264600000041
 21
2511.5367540000002
 31
0.0
  0
LINE
  5
7E95
  8
3
  6
CONTINUOUS
 62
     0
 10
1012.346351
 20
2211.5367539999988
 30
0.0
 11
880.70264600000041
 21
2211.5367539999988
 31
0.0
  0
LINE
  5
7E96
  8
3
  6
CONTINUOUS
 62
     0
 10
900.70264600000053
 20
2551.5367540000002
 30
0.0
 11
900.70264600000053
 21
2591.5367540000002
 31
0.0
  0
LINE
  5
7E97
  8
3
  6
CONTINUOUS
 62
     0
 10
900.70264600000041
 20
2171.5367539999988
 30
0.0
 11
900.70264600000041
 21
2131.5367539999988
 31
0.0
  0
LINE
  5
7E98
  8
3
  6
CONTINUOUS
 62
     0
 10
900.70264600000053
 20
2511.5367540000002
 30
0.0
 11
900.70264600000041
 21
2211.5367539999988
 31
0.0
  0
INSERT
  5
7E99
  8
3
  6
CONTINUOUS
 62
     0
  2
_OPEN
 10
900.70264600000053
 20
2511.5367540000002
 30
0.0
 41
40.0
 42
40.0
 43
40.0
 50
270.0
  0
INSERT
  5
7E9A
  8
3
  6
CONTINUOUS
 62
     0
  2
_OPEN
 10
900.70264600000041
 20
2211.5367539999988
 30
0.0
 41
40.0
 42
40.0
 43
40.0
 50
90.0
  0
TEXT
  8
3
  40
60
  5
7F20
  62
0
  72
0
  71
0
 10
730.703
 20
2268.19
 30
0.000000
  1
300
  0
POINT
  5
7E9C
  8
DEFPOINTS
  6
CONTINUOUS
 62
     0
 10
1208.412223999999
 20
2511.5367539999988
 30
0.0
  0
POINT
  5
7E9D
  8
DEFPOINTS
  6
CONTINUOUS
 62
     0
 10
1022.346351
 20
2211.5367539999988
 30
0.0
  0
POINT
  5
7E9E
  8
DEFPOINTS
  6
CONTINUOUS
 62
     0
 10
900.70264600000041
 20
2211.5367539999988
 30
0.0
  0
ENDBLK
  5
7CCD
  8
0
  0
BLOCK
  8
0
  2
*D4
 70
     1
 10
0.0
 20
0.0
 30
0.0
  3
*D4
  1

  0
LINE
  5
7E9F
  8
3
  6
CONTINUOUS
 62
     0
 10
1208.412223999999
 20
1696.536754
 30
0.0
 11
880.70264600000007
 21
1696.536754
 31
0.0
  0
LINE
  5
7EA0
  8
3
  6
CONTINUOUS
 62
     0
 10
900.70264600000019
 20
2171.5367539999988
 30
0.0
 11
900.70264599999996
 21
1736.536754
 31
0.0
  0
INSERT
  5
7EA1
  8
3
  6
CONTINUOUS
 62
     0
  2
_OPEN
 10
900.70264600000019
 20
2211.5367539999988
 30
0.0
 41
40.0
 42
40.0
 43
40.0
 50
90.0
  0
INSERT
  5
7EA2
  8
3
  6
CONTINUOUS
 62
     0
  2
_OPEN
 10
900.70264599999996
 20
1696.536754
 30
0.0
 41
40.0
 42
40.0
 43
40.0
 50
270.0
  0
TEXT
  8
3
  40
60
  5
7F21
  62
0
  72
0
  71
0
 10
730.703
 20
1847.84
 30
0.000000
  1
515
  0
POINT
  5
7EA4
  8
DEFPOINTS
  6
CONTINUOUS
 62
     0
 10
1022.346351
 20
2211.5367539999988
 30
0.0
  0
POINT
  5
7EA5
  8
DEFPOINTS
  6
CONTINUOUS
 62
     0
 10
1218.412223999999
 20
1696.536754
 30
0.0
  0
POINT
  5
7EA6
  8
DEFPOINTS
  6
CONTINUOUS
 62
     0
 10
900.70264599999996
 20
1696.536754
 30
0.0
  0
ENDBLK
  5
7CC2
  8
0
  0
BLOCK
  8
0
  2
*D5
 70
     1
 10
0.0
 20
0.0
 30
0.0
  3
*D5
  1

  0
LINE
  5
7EA7
  8
3
  6
CONTINUOUS
 62
     0
 10
1208.412223999999
 20
1696.536754
 30
0.0
 11
880.27883900000029
 21
1696.536754
 31
0.0
  0
LINE
  5
7EA8
  8
3
  6
CONTINUOUS
 62
     0
 10
1208.412223999999
 20
1656.536754
 30
0.0
 11
880.27883900000029
 21
1656.536754
 31
0.0
  0
LINE
  5
7EA9
  8
3
  6
CONTINUOUS
 62
     0
 10
900.27883900000018
 20
1736.536754
 30
0.0
 11
900.27883900000018
 21
1776.536754
 31
0.0
  0
LINE
  5
7EAA
  8
3
  6
CONTINUOUS
 62
     0
 10
900.27883900000018
 20
1616.536754
 30
0.0
 11
900.27883900000018
 21
1439.3938968571431
 31
0.0
  0
LINE
  5
7EAB
  8
3
  6
CONTINUOUS
 62
     0
 10
900.27883900000018
 20
1696.536754
 30
0.0
 11
900.27883900000018
 21
1656.536754
 31
0.0
  0
INSERT
  5
7EAC
  8
3
  6
CONTINUOUS
 62
     0
  2
_OPEN
 10
900.27883900000018
 20
1696.536754
 30
0.0
 41
40.0
 42
40.0
 43
40.0
 50
270.0
  0
INSERT
  5
7EAD
  8
3
  6
CONTINUOUS
 62
     0
  2
_OPEN
 10
900.27883900000018
 20
1656.536754
 30
0.0
 41
40.0
 42
40.0
 43
40.0
 50
90.0
  0
TEXT
  8
3
  40
60
  5
7F22
  62
0
  72
0
  71
0
 10
730.279
 20
1401.77
 30
0.000000
  1
40
  0
POINT
  5
7EAF
  8
DEFPOINTS
  6
CONTINUOUS
 62
     0
 10
1218.412223999999
 20
1696.536754
 30
0.0
  0
POINT
  5
7EB0
  8
DEFPOINTS
  6
CONTINUOUS
 62
     0
 10
1218.412223999999
 20
1656.536754
 30
0.0
  0
POINT
  5
7EB1
  8
DEFPOINTS
  6
CONTINUOUS
 62
     0
 10
900.27883900000018
 20
1656.536754
 30
0.0
  0
ENDBLK
  5
7DD1
  8
0
  0
BLOCK
  8
0
  2
*D6
 70
     1
 10
0.0
 20
0.0
 30
0.0
  3
*D6
  1

  0
LINE
  5
7EB2
  8
3
  6
CONTINUOUS
 62
     0
 10
1198.412223999999
 20
2511.5367539999988
 30
0.0
 11
759.41569400000037
 21
2511.5367540000002
 31
0.0
  0
LINE
  5
7EB3
  8
3
  6
CONTINUOUS
 62
     0
 10
1208.412223999999
 20
1656.536754
 30
0.0
 11
759.41569400000026
 21
1656.536754
 31
0.0
  0
LINE
  5
7EB4
  8
3
  6
CONTINUOUS
 62
     0
 10
779.41569400000049
 20
2471.5367540000002
 30
0.0
 11
779.41569400000014
 21
1696.536754
 31
0.0
  0
INSERT
  5
7EB5
  8
3
  6
CONTINUOUS
 62
     0
  2
_OPEN
 10
779.41569400000049
 20
2511.5367540000002
 30
0.0
 41
40.0
 42
40.0
 43
40.0
 50
90.0
  0
INSERT
  5
7EB6
  8
3
  6
CONTINUOUS
 62
     0
  2
_OPEN
 10
779.41569400000014
 20
1656.536754
 30
0.0
 41
40.0
 42
40.0
 43
40.0
 50
270.0
  0
TEXT
  8
3
  40
60
  5
7F23
  62
0
  72
0
  71
0
 10
609.416
 20
1996.45
 30
0.000000
  1
855
  0
POINT
  5
7EB8
  8
DEFPOINTS
  6
CONTINUOUS
 62
     0
 10
1208.412223999999
 20
2511.5367539999988
 30
0.0
  0
POINT
  5
7EB9
  8
DEFPOINTS
  6
CONTINUOUS
 62
     0
 10
1218.412223999999
 20
1656.536754
 30
0.0
  0
POINT
  5
7EBA
  8
DEFPOINTS
  6
CONTINUOUS
 62
     0
 10
779.41569400000014
 20
1656.536754
 30
0.0
  0
ENDBLK
  5
7BEB
  8
0
  0
BLOCK
  8
0
  2
*D7
 70
     1
 10
0.0
 20
0.0
 30
0.0
  3
*D7
  1

  0
LINE
  5
7E4B
  8
0
  6
BYBLOCK
 62
     0
 10
1218.412223999999
 20
1646.5367539999991
 30
0.0
 11
1218.412223999999
 21
1518.8634355219251
 31
0.0
  0
LINE
  5
7E4C
  8
0
  6
BYBLOCK
 62
     0
 10
1478.4122239999999
 20
1545.033468521925
 30
0.0
 11
1478.4122239999999
 21
1518.8634355219251
 31
0.0
  0
LINE
  5
7E4D
  8
0
  6
BYBLOCK
 62
     0
 10
1258.412223999999
 20
1538.8634355219251
 30
0.0
 11
1438.4122239999999
 21
1538.8634355219251
 31
0.0
  0
TEXT
  5
7E4E
  8
3
 62
     0
 10
1271.269366857143
 20
1556.569894542532
 30
0.0
 40
60.0
  1
260
  0
INSERT
  5
7E4F
  8
0
  6
BYBLOCK
 62
     0
  2
_OPEN
 10
1218.412223999999
 20
1538.8634355219251
 30
0.0
 41
40.0
 42
40.0
 43
40.0
 50
180.0
  0
INSERT
  5
7E50
  8
0
  6
BYBLOCK
 62
     0
  2
_OPEN
 10
1478.4122239999999
 20
1538.8634355219251
 30
0.0
 41
40.0
 42
40.0
 43
40.0
  0
POINT
  5
7E51
  8
DEFPOINTS
  6
BYBLOCK
 62
     0
 10
1218.412223999999
 20
1656.536754
 30
0.0
  0
POINT
  5
7E52
  8
DEFPOINTS
  6
BYBLOCK
 62
     0
 10
1478.4122239999999
 20
1555.033468521925
 30
0.0
  0
POINT
  5
7E53
  8
DEFPOINTS
  6
BYBLOCK
 62
     0
 10
1478.4122239999999
 20
1538.8634355219251
 30
0.0
  0
ENDBLK
  5
7E54
  8
0
  0
BLOCK
  8
0
  2
*D8
 70
     1
 10
0.0
 20
0.0
 30
0.0
  3
*D8
  1

  0
LINE
  5
7EBB
  8
3
  6
CONTINUOUS
 62
     0
 10
2218.4122239999988
 20
1646.5367539999991
 30
0.0
 11
2218.4122239999988
 21
1518.8634355219251
 31
0.0
  0
LINE
  5
7EBC
  8
3
  6
CONTINUOUS
 62
     0
 10
1518.412223999999
 20
1538.8634355219251
 30
0.0
 11
2178.4122240000002
 21
1538.8634355219251
 31
0.0
  0
INSERT
  5
7EBD
  8
3
  6
CONTINUOUS
 62
     0
  2
_OPEN
 10
1478.4122239999999
 20
1538.8634355219251
 30
0.0
 41
40.0
 42
40.0
 43
40.0
 50
180.0
  0
INSERT
  5
7EBE
  8
3
  6
CONTINUOUS
 62
     0
  2
_OPEN
 10
2218.4122239999988
 20
1538.8634355219251
 30
0.0
 41
40.0
 42
40.0
 43
40.0
  0
TEXT
  8
3
  40
60
  5
7F24
  62
0
  72
0
  71
0
 10
1728.41
 20
1482.66
 30
0.000000
  1
740
  0
POINT
  5
7EC0
  8
DEFPOINTS
  6
CONTINUOUS
 62
     0
 10
1478.4122239999999
 20
1555.033468521925
 30
0.0
  0
POINT
  5
7EC1
  8
DEFPOINTS
  6
CONTINUOUS
 62
     0
 10
2218.4122239999988
 20
1656.536754
 30
0.0
  0
POINT
  5
7EC2
  8
DEFPOINTS
  6
CONTINUOUS
 62
     0
 10
2218.4122239999988
 20
1538.8634355219251
 30
0.0
  0
ENDBLK
  5
7E49
  8
0
  0
BLOCK
  8
0
  2
*D9
 70
     1
 10
0.0
 20
0.0
 30
0.0
  3
*D9
  1

  0
LINE
  5
7EC3
  8
3
  6
CONTINUOUS
 62
     0
 10
2860.4037600000001
 20
1646.5367539999991
 30
0.0
 11
2860.4037600000001
 21
1500.398384334989
 31
0.0
  0
LINE
  5
7EC4
  8
3
  6
CONTINUOUS
 62
     0
 10
3196.4037600000001
 20
1540.728337334989
 30
0.0
 11
3196.4037600000001
 21
1500.398384334989
 31
0.0
  0
LINE
  5
7EC5
  8
3
  6
CONTINUOUS
 62
     0
 10
2900.4037600000001
 20
1520.398384334989
 30
0.0
 11
3156.4037600000001
 21
1520.398384334989
 31
0.0
  0
INSERT
  5
7EC6
  8
3
  6
CONTINUOUS
 62
     0
  2
_OPEN
 10
2860.4037600000001
 20
1520.398384334989
 30
0.0
 41
40.0
 42
40.0
 43
40.0
 50
180.0
  0
INSERT
  5
7EC7
  8
3
  6
CONTINUOUS
 62
     0
  2
_OPEN
 10
3196.4037600000001
 20
1520.398384334989
 30
0.0
 41
40.0
 42
40.0
 43
40.0
  0
TEXT
  8
3
  40
60
  5
7F25
  62
0
  72
0
  71
0
 10
2909.39
 20
1464.20
 30
0.000000
  1
336
  0
POINT
  5
7EC9
  8
DEFPOINTS
  6
CONTINUOUS
 62
     0
 10
2860.4037600000001
 20
1656.536754
 30
0.0
  0
POINT
  5
7ECA
  8
DEFPOINTS
  6
CONTINUOUS
 62
     0
 10
3196.4037600000001
 20
1550.728337334989
 30
0.0
  0
POINT
  5
7ECB
  8
DEFPOINTS
  6
CONTINUOUS
 62
     0
 10
3196.4037600000001
 20
1520.398384334989
 30
0.0
  0
ENDBLK
  5
7DFF
  8
0
  0
BLOCK
  8
0
  2
*D10
 70
     1
 10
0.0
 20
0.0
 30
0.0
  3
*D10
  1

  0
LINE
  5
7ECC
  8
3
  6
CONTINUOUS
 62
     0
 10
3470.4037599999988
 20
1646.5367539999991
 30
0.0
 11
3470.4037599999988
 21
1500.398384334989
 31
0.0
  0
LINE
  5
7ECD
  8
3
  6
CONTINUOUS
 62
     0
 10
3236.4037600000001
 20
1520.398384334989
 30
0.0
 11
3430.4037600000001
 21
1520.398384334989
 31
0.0
  0
TEXT
  8
3
  40
60
  5
7F26
  62
0
  72
0
  71
0
 10
3210.92
 20
1463.09
 30
0.000000
  1
274
  0
INSERT
  5
7ECF
  8
3
  6
CONTINUOUS
 62
     0
  2
_OPEN
 10
3196.4037600000001
 20
1520.398384334989
 30
0.0
 41
40.0
 42
40.0
 43
40.0
 50
180.0
  0
INSERT
  5
7ED0
  8
3
  6
CONTINUOUS
 62
     0
  2
_OPEN
 10
3470.4037599999988
 20
1520.398384334989
 30
0.0
 41
40.0
 42
40.0
 43
40.0
  0
POINT
  5
7ED1
  8
DEFPOINTS
  6
CONTINUOUS
 62
     0
 10
3196.4037600000001
 20
1550.728337334989
 30
0.0
  0
POINT
  5
7ED2
  8
DEFPOINTS
  6
CONTINUOUS
 62
     0
 10
3470.4037599999988
 20
1656.536754
 30
0.0
  0
POINT
  5
7ED3
  8
DEFPOINTS
  6
CONTINUOUS
 62
     0
 10
3470.4037599999988
 20
1520.398384334989
 30
0.0
  0
ENDBLK
  5
7E09
  8
0
  0
BLOCK
  8
0
  2
*D11
 70
     1
 10
0.0
 20
0.0
 30
0.0
  3
*D11
  1

  0
LINE
  5
7ED4
  8
3
  6
CONTINUOUS
 62
     0
 10
3346.4037600000001
 20
2521.5367539999988
 30
0.0
 11
3346.4037600000001
 21
2591.360475
 31
0.0
  0
LINE
  5
7ED5
  8
3
  6
CONTINUOUS
 62
     0
 10
3046.4037600000001
 20
2521.5367539999988
 30
0.0
 11
3046.4037600000001
 21
2591.360475
 31
0.0
  0
LINE
  5
7ED6
  8
3
  6
CONTINUOUS
 62
     0
 10
3386.4037600000001
 20
2571.360475
 30
0.0
 11
3426.4037600000001
 21
2571.360475
 31
0.0
  0
LINE
  5
7ED7
  8
3
  6
CONTINUOUS
 62
     0
 10
3006.4037600000001
 20
2571.360475
 30
0.0
 11
2966.4037600000001
 21
2571.360475
 31
0.0
  0
LINE
  5
7ED8
  8
3
  6
CONTINUOUS
 62
     0
 10
3346.4037600000001
 20
2571.360475
 30
0.0
 11
3046.4037600000001
 21
2571.360475
 31
0.0
  0
INSERT
  5
7ED9
  8
3
  6
CONTINUOUS
 62
     0
  2
_OPEN
 10
3346.4037600000001
 20
2571.360475
 30
0.0
 41
40.0
 42
40.0
 43
40.0
 50
180.0
  0
INSERT
  5
7EDA
  8
3
  6
CONTINUOUS
 62
     0
  2
_OPEN
 10
3046.4037600000001
 20
2571.360475
 30
0.0
 41
40.0
 42
40.0
 43
40.0
  0
TEXT
  8
3
  40
60
  5
7F27
  62
0
  72
0
  71
0
 10
3063.55
 20
2515.16
 30
0.000000
  1
300
  0
POINT
  5
7EDC
  8
DEFPOINTS
  6
CONTINUOUS
 62
     0
 10
3346.4037600000001
 20
2511.5367539999988
 30
0.0
  0
POINT
  5
7EDD
  8
DEFPOINTS
  6
CONTINUOUS
 62
     0
 10
3046.4037600000001
 20
2511.5367539999988
 30
0.0
  0
POINT
  5
7EDE
  8
DEFPOINTS
  6
CONTINUOUS
 62
     0
 10
3046.4037600000001
 20
2571.360475
 30
0.0
  0
ENDBLK
  5
7D7D
  8
0
  0
BLOCK
  8
0
  2
*D12
 70
     1
 10
0.0
 20
0.0
 30
0.0
  3
*D12
  1

  0
LINE
  5
7EDF
  8
3
  6
CONTINUOUS
 62
     0
 10
2866.4037600000001
 20
2441.5367539999988
 30
0.0
 11
2866.4037600000001
 21
2733.4329050000001
 31
0.0
  0
LINE
  5
7EE0
  8
3
  6
CONTINUOUS
 62
     0
 10
3156.4037600000001
 20
2713.4329050000001
 30
0.0
 11
2906.4037600000001
 21
2713.4329050000001
 31
0.0
  0
INSERT
  5
7EE1
  8
3
  6
CONTINUOUS
 62
     0
  2
_OPEN
 10
3196.4037600000001
 20
2713.4329050000001
 30
0.0
 41
40.0
 42
40.0
 43
40.0
  0
INSERT
  5
7EE2
  8
3
  6
CONTINUOUS
 62
     0
  2
_OPEN
 10
2866.4037600000001
 20
2713.4329050000001
 30
0.0
 41
40.0
 42
40.0
 43
40.0
 50
180.0
  0
TEXT
  8
3
  40
60
  5
7F28
  62
0
  72
0
  71
0
 10
2911.40
 20
2707.23
 30
0.000000
  1
MAX
  0
TEXT
  8
3
  40
60
  5
7F29
  62
0
  72
0
  71
0
 10
2911.40
 20
2629.23
 30
0.000000
  1
380
  0
POINT
  5
7EE4
  8
DEFPOINTS
  6
CONTINUOUS
 62
     0
 10
3196.4037600000001
 20
2656.666303805092
 30
0.0
  0
POINT
  5
7EE5
  8
DEFPOINTS
  6
CONTINUOUS
 62
     0
 10
2866.4037600000001
 20
2431.5367539999988
 30
0.0
  0
POINT
  5
7EE6
  8
DEFPOINTS
  6
CONTINUOUS
 62
     0
 10
2866.4037600000001
 20
2713.4329050000001
 30
0.0
  0
ENDBLK
  5
7E5F
  8
0
  0
BLOCK
  8
0
  2
*D13
 70
     1
 10
0.0
 20
0.0
 30
0.0
  3
*D13
  1

  0
LINE
  5
7EE7
  8
3
  6
CONTINUOUS
 62
     0
 10
3356.4037600000001
 20
2426.5367540000002
 30
0.0
 11
3520.9508409999999
 21
2426.5367540000002
 31
0.0
  0
LINE
  5
7EE8
  8
3
  6
CONTINUOUS
 62
     0
 10
3356.4037600000001
 20
1996.536754
 30
0.0
 11
3520.9508409999999
 21
1996.536754
 31
0.0
  0
LINE
  5
7EE9
  8
3
  6
CONTINUOUS
 62
     0
 10
3500.9508409999999
 20
2386.5367539999988
 30
0.0
 11
3500.9508409999999
 21
2036.536754
 31
0.0
  0
INSERT
  5
7EEA
  8
3
  6
CONTINUOUS
 62
     0
  2
_OPEN
 10
3500.9508409999999
 20
2426.5367540000002
 30
0.0
 41
40.0
 42
40.0
 43
40.0
 50
90.0
  0
INSERT
  5
7EEB
  8
3
  6
CONTINUOUS
 62
     0
  2
_OPEN
 10
3500.9508409999999
 20
1996.536754
 30
0.0
 41
40.0
 42
40.0
 43
40.0
 50
270.0
  0
TEXT
  8
3
  40
60
  5
7F2A
  62
0
  72
0
  71
0
 10
3330.95
 20
2104.64
 30
0.000000
  1
φ430
  0
POINT
  5
7EED
  8
DEFPOINTS
  6
CONTINUOUS
 62
     0
 10
3346.4037600000001
 20
2426.5367540000002
 30
0.0
  0
POINT
  5
7EEE
  8
DEFPOINTS
  6
CONTINUOUS
 62
     0
 10
3346.4037600000001
 20
1996.536754
 30
0.0
  0
POINT
  5
7EEF
  8
DEFPOINTS
  6
CONTINUOUS
 62
     0
 10
3500.9508409999999
 20
1996.536754
 30
0.0
  0
ENDBLK
  5
7DF4
  8
0
  0
BLOCK
  8
0
  2
*D14
 70
     1
 10
0.0
 20
0.0
 30
0.0
  3
*D14
  1

  0
LINE
  5
7EF0
  8
3
  6
CONTINUOUS
 62
     0
 10
1218.412223999999
 20
3876.519996
 30
0.0
 11
1218.412223999999
 21
4006.7925759999998
 31
0.0
  0
LINE
  5
7EF1
  8
3
  6
CONTINUOUS
 62
     0
 10
2218.4122239999988
 20
3876.519996
 30
0.0
 11
2218.4122239999988
 21
4006.7925759999998
 31
0.0
  0
LINE
  5
7EF2
  8
3
  6
CONTINUOUS
 62
     0
 10
1258.412223999999
 20
3986.7925759999998
 30
0.0
 11
2178.4122240000002
 21
3986.7925759999998
 31
0.0
  0
INSERT
  5
7EF3
  8
3
  6
CONTINUOUS
 62
     0
  2
_OPEN
 10
1218.412223999999
 20
3986.7925759999998
 30
0.0
 41
40.0
 42
40.0
 43
40.0
 50
180.0
  0
INSERT
  5
7EF4
  8
3
  6
CONTINUOUS
 62
     0
  2
_OPEN
 10
2218.4122239999988
 20
3986.7925759999998
 30
0.0
 41
40.0
 42
40.0
 43
40.0
  0
TEXT
  8
3
  40
60
  5
7F2B
  62
0
  72
0
  71
0
 10
1557.47
 20
3930.59
 30
0.000000
  1
1000
  0
POINT
  5
7EF6
  8
DEFPOINTS
  6
CONTINUOUS
 62
     0
 10
1218.412223999999
 20
3866.519996
 30
0.0
  0
POINT
  5
7EF7
  8
DEFPOINTS
  6
CONTINUOUS
 62
     0
 10
2218.4122239999988
 20
3866.519996
 30
0.0
  0
POINT
  5
7EF8
  8
DEFPOINTS
  6
CONTINUOUS
 62
     0
 10
2218.4122239999988
 20
3986.7925759999998
 30
0.0
  0
ENDBLK
  5
7D45
  8
0
  0
BLOCK
  8
0
  2
*D15
 70
     1
 10
0.0
 20
0.0
 30
0.0
  3
*D15
  1

  0
LINE
  5
7EF9
  8
3
  6
CONTINUOUS
 62
     0
 10
2228.4122239999988
 20
3866.519996
 30
0.0
 11
2427.6557410000009
 21
3866.519996
 31
0.0
  0
LINE
  5
7EFA
  8
3
  6
CONTINUOUS
 62
     0
 10
2228.4122239999988
 20
3256.519996
 30
0.0
 11
2427.6557410000009
 21
3256.519996
 31
0.0
  0
LINE
  5
7EFB
  8
3
  6
CONTINUOUS
 62
     0
 10
2407.6557410000009
 20
3826.519996
 30
0.0
 11
2407.6557410000009
 21
3296.519996
 31
0.0
  0
INSERT
  5
7EFC
  8
3
  6
CONTINUOUS
 62
     0
  2
_OPEN
 10
2407.6557410000009
 20
3866.519996
 30
0.0
 41
40.0
 42
40.0
 43
40.0
 50
90.0
  0
INSERT
  5
7EFD
  8
3
  6
CONTINUOUS
 62
     0
  2
_OPEN
 10
2407.6557410000009
 20
3256.519996
 30
0.0
 41
40.0
 42
40.0
 43
40.0
 50
270.0
  0
TEXT
  8
3
  40
60
  5
7F2C
  62
0
  72
0
  71
0
 10
2237.66
 20
3470.24
 30
0.000000
  1
610
  0
POINT
  5
7EFF
  8
DEFPOINTS
  6
CONTINUOUS
 62
     0
 10
2218.4122239999988
 20
3866.519996
 30
0.0
  0
POINT
  5
7F00
  8
DEFPOINTS
  6
CONTINUOUS
 62
     0
 10
2218.4122239999988
 20
3256.519996
 30
0.0
  0
POINT
  5
7F01
  8
DEFPOINTS
  6
CONTINUOUS
 62
     0
 10
2407.6557410000009
 20
3256.519996
 30
0.0
  0
ENDBLK
  5
7D3A
  8
0
  0
BLOCK
  8
0
  2
*D16
 70
     1
 10
0.0
 20
0.0
 30
0.0
  3
*D16
  1

  0
LINE
  5
7F02
  8
3
  6
CONTINUOUS
 62
     0
 10
1178.4122239999999
 20
2260.5367539999988
 30
0.0
 11
1178.4122239999999
 21
2630.906567
 31
0.0
  0
LINE
  5
7F03
  8
3
  6
CONTINUOUS
 62
     0
 10
1478.4122239999999
 20
2521.5367539999988
 30
0.0
 11
1478.4122239999999
 21
2630.906567
 31
0.0
  0
LINE
  5
7F04
  8
3
  6
CONTINUOUS
 62
     0
 10
1138.4122239999999
 20
2610.906567
 30
0.0
 11
1098.4122239999999
 21
2610.906567
 31
0.0
  0
LINE
  5
7F05
  8
3
  6
CONTINUOUS
 62
     0
 10
1518.412223999999
 20
2610.906567
 30
0.0
 11
1558.4122239999999
 21
2610.906567
 31
0.0
  0
LINE
  5
7F06
  8
3
  6
CONTINUOUS
 62
     0
 10
1178.4122239999999
 20
2610.906567
 30
0.0
 11
1478.4122239999999
 21
2610.906567
 31
0.0
  0
INSERT
  5
7F07
  8
3
  6
CONTINUOUS
 62
     0
  2
_OPEN
 10
1178.4122239999999
 20
2610.906567
 30
0.0
 41
40.0
 42
40.0
 43
40.0
  0
INSERT
  5
7F08
  8
3
  6
CONTINUOUS
 62
     0
  2
_OPEN
 10
1478.4122239999999
 20
2610.906567
 30
0.0
 41
40.0
 42
40.0
 43
40.0
 50
180.0
  0
TEXT
  8
3
  40
60
  5
7F2D
  62
0
  72
0
  71
0
 10
1195.56
 20
2554.71
 30
0.000000
  1
300
  0
POINT
  5
7F0A
  8
DEFPOINTS
  6
CONTINUOUS
 62
     0
 10
1178.4122239999999
 20
2250.5367540000002
 30
0.0
  0
POINT
  5
7F0B
  8
DEFPOINTS
  6
CONTINUOUS
 62
     0
 10
1478.4122239999999
 20
2511.5367539999988
 30
0.0
  0
POINT
  5
7F0C
  8
DEFPOINTS
  6
CONTINUOUS
 62
     0
 10
1478.4122239999999
 20
2610.906567
 30
0.0
  0
ENDBLK
  5
7D22
  8
0
  0
BLOCK
  8
0
  2
*D17
 70
     1
 10
0.0
 20
0.0
 30
0.0
  3
*D17
  1

  0
LINE
  5
7F0D
  8
3
  6
CONTINUOUS
 62
     0
 10
1810.4083239999991
 20
2221.5367540000002
 30
0.0
 11
1810.4083239999991
 21
2630.906567
 31
0.0
  0
LINE
  5
7F0E
  8
3
  6
CONTINUOUS
 62
     0
 10
1518.412223999999
 20
2610.906567
 30
0.0
 11
1770.4083239999991
 21
2610.906567
 31
0.0
  0
INSERT
  5
7F0F
  8
3
  6
CONTINUOUS
 62
     0
  2
_OPEN
 10
1478.4122239999999
 20
2610.906567
 30
0.0
 41
40.0
 42
40.0
 43
40.0
 50
180.0
  0
INSERT
  5
7F10
  8
3
  6
CONTINUOUS
 62
     0
  2
_OPEN
 10
1810.4083239999991
 20
2610.906567
 30
0.0
 41
40.0
 42
40.0
 43
40.0
  0
TEXT
  8
3
  40
60
  5
7F2E
  62
0
  72
0
  71
0
 10
1524.41
 20
2554.71
 30
0.000000
  1
332
  0
POINT
  5
7F12
  8
DEFPOINTS
  6
CONTINUOUS
 62
     0
 10
1478.4122239999999
 20
2511.5367539999988
 30
0.0
  0
POINT
  5
7F13
  8
DEFPOINTS
  6
CONTINUOUS
 62
     0
 10
1810.4083239999991
 20
2211.5367539999988
 30
0.0
  0
POINT
  5
7F14
  8
DEFPOINTS
  6
CONTINUOUS
 62
     0
 10
1810.4083239999991
 20
2610.906567
 30
0.0
  0
ENDBLK
  5
7D2E
  8
0
  0
BLOCK
  8
0
  2
*D18
 70
     1
 10
0.0
 20
0.0
 30
0.0
  3
*D18
  1

  0
LINE
  5
7E36
  8
0
  6
BYBLOCK
 62
     0
 10
3196.4037600000001
 20
2669.0359844013292
 30
0.0
 11
3196.4037600000001
 21
2733.4329050000001
 31
0.0
  0
LINE
  5
7E37
  8
0
  6
BYBLOCK
 62
     0
 10
3347.4037600000001
 20
2436.5367540000002
 30
0.0
 11
3347.4037600000001
 21
2733.4329050000001
 31
0.0
  0
LINE
  5
7E38
  8
0
  6
BYBLOCK
 62
     0
 10
3236.4037600000001
 20
2713.4329050000001
 30
0.0
 11
3307.4037600000001
 21
2713.4329050000001
 31
0.0
  0
TEXT
  5
7E39
  8
3
 62
     0
 10
3208.7473068898062
 20
2730.9321536792049
 30
0.0
 40
60.0
  1
151
  0
INSERT
  5
7E3A
  8
0
  6
BYBLOCK
 62
     0
  2
_OPEN
 10
3196.4037600000001
 20
2713.4329050000001
 30
0.0
 41
40.0
 42
40.0
 43
40.0
 50
180.0
  0
INSERT
  5
7E3B
  8
0
  6
BYBLOCK
 62
     0
  2
_OPEN
 10
3347.4037600000001
 20
2713.4329050000001
 30
0.0
 41
40.0
 42
40.0
 43
40.0
  0
POINT
  5
7E3C
  8
DEFPOINTS
  6
BYBLOCK
 62
     0
 10
3196.4037600000001
 20
2659.0359844013292
 30
0.0
  0
POINT
  5
7E3D
  8
DEFPOINTS
  6
BYBLOCK
 62
     0
 10
3347.4037600000001
 20
2426.5367540000002
 30
0.0
  0
POINT
  5
7E3E
  8
DEFPOINTS
  6
BYBLOCK
 62
     0
 10
3347.4037600000001
 20
2713.4329050000001
 30
0.0
  0
ENDBLK
  5
7E3F
  8
0
  0
BLOCK
  8
0
  2
*D19
 70
     1
 10
0.0
 20
0.0
 30
0.0
  3
*D19
  1

  0
LINE
  5
7F15
  8
3
 62
     0
 10
1178.4122239999999
 20
2260.5367539999988
 30
0.0
 11
1178.4122239999999
 21
2751.3872889354179
 31
0.0
  0
LINE
  5
7F16
  8
3
 62
     0
 10
2218.4122239999988
 20
1786.536754
 30
0.0
 11
2218.4122239999988
 21
2751.3872889354179
 31
0.0
  0
LINE
  5
7F17
  8
3
 62
     0
 10
1218.412223999999
 20
2731.3872889354188
 30
0.0
 11
2178.4122240000002
 21
2731.3872889354188
 31
0.0
  0
INSERT
  5
7F18
  8
3
 62
     0
  2
_OPEN
 10
1178.4122239999999
 20
2731.3872889354188
 30
0.0
 41
40.0
 42
40.0
 43
40.0
 50
180.0
  0
INSERT
  5
7F19
  8
3
 62
     0
  2
_OPEN
 10
2218.4122239999988
 20
2731.3872889354188
 30
0.0
 41
40.0
 42
40.0
 43
40.0
  0
TEXT
  8
3
  40
60
  5
7F2F
  62
0
  72
0
  71
0
 10
1615.98
 20
2675.19
 30
0.000000
  1
1040
  0
POINT
  5
7F1B
  8
DEFPOINTS
 62
     0
 10
1178.4122239999999
 20
2250.5367540000002
 30
0.0
  0
POINT
  5
7F1C
  8
DEFPOINTS
 62
     0
 10
2218.4122239999988
 20
1776.536754
 30
0.0
  0
POINT
  5
7F1D
  8
DEFPOINTS
 62
     0
 10
2218.4122239999988
 20
2731.3872889354188
 30
0.0
  0
ENDBLK
  5
7DE9
  8
0
  0
ENDSEC
  0
SECTION
  2
ENTITIES
  0
CIRCLE
  5
7ABC
  8
1
  6
CONTINUOUS
 10
1478.4122239999999
 20
2211.5367539999988
 30
0.0
 40
240.0
  0
LINE
  5
7ABD
  8
1
  6
CONTINUOUS
 10
1208.412223999999
 20
2511.5367539999988
 30
0.0
 11
1748.4122239999999
 21
2511.5367539999988
 31
0.0
  0
ARC
  5
7ABE
  8
1
  6
CONTINUOUS
 10
1500.412223999999
 20
2189.5367540000002
 30
0.0
 40
310.75999999999999
 50
5.8300000000000001
 51
97.310000000000016
  0
ARC
  5
7ABF
  8
1
  6
CONTINUOUS
 10
1451.4122239999999
 20
2184.5367539999988
 30
0.0
 40
360.00999999999988
 50
274.30000000000001
 51
5.8300000000000001
  0
LINE
  5
7AC0
  8
1
  6
CONTINUOUS
 10
1208.412223999999
 20
1776.536754
 30
0.0
 11
2218.4122239999988
 21
1776.536754
 31
0.0
  0
LINE
  5
7AC1
  8
1
  6
CONTINUOUS
 10
1492.9122239999999
 20
2431.5367539999988
 30
0.0
 11
2172.9122240000002
 21
2026.5367539999991
 31
0.0
  0
LINE
  5
7AC2
  8
1
  6
CONTINUOUS
 10
1218.412223999999
 20
1696.536754
 30
0.0
 11
2218.4122239999988
 21
1696.536754
 31
0.0
  0
LINE
  5
7AC3
  8
1
  6
CONTINUOUS
 10
2043.792224
 20
1951.306754
 30
0.0
 11
1534.2722240000001
 21
2294.4767539999989
 31
0.0
  0
LINE
  5
7AC4
  8
1
  6
CONTINUOUS
 10
1433.7722240000001
 20
2122.046754
 30
0.0
 11
1983.5022239999989
 21
1847.8467539999999
 31
0.0
  0
LINE
  5
7AC5
  8
1
  6
CONTINUOUS
 10
1198.412223999999
 20
2223.5367539999988
 30
0.0
 11
1198.412223999999
 21
1823.6667539999989
 31
0.0
  0
LINE
  5
7AC6
  8
1
  6
CONTINUOUS
 10
1208.412223999999
 20
1776.536754
 30
0.0
 11
1208.412223999999
 21
2511.5367539999988
 31
0.0
  0
LINE
  5
7AC7
  8
1
  6
CONTINUOUS
 10
1178.4122239999999
 20
2250.5367540000002
 30
0.0
 11
1178.4122239999999
 21
1796.5367539999991
 31
0.0
  0
LINE
  5
7AC8
  8
1
  6
CONTINUOUS
 10
1302.912223999999
 20
1776.536754
 30
0.0
 11
1302.912223999999
 21
2316.5367539999988
 31
0.0
  0
CIRCLE
  5
7AC9
  8
1
  6
CONTINUOUS
 10
1478.4122239999999
 20
2211.5367539999988
 30
0.0
 40
215.0
  0
LINE
  5
7ACA
  8
1
  6
CONTINUOUS
 10
1178.4122239999999
 20
1823.536754
 30
0.0
 11
1478.4122239999999
 21
1825.536754
 31
0.0
  0
LINE
  5
7ACB
  8
1
  6
CONTINUOUS
 10
1218.412223999999
 20
1656.536754
 30
0.0
 11
1258.412223999999
 21
1656.536754
 31
0.0
  0
LINE
  5
7ACC
  8
1
  6
CONTINUOUS
 10
1218.412223999999
 20
1776.536754
 30
0.0
 11
1218.412223999999
 21
1656.536754
 31
0.0
  0
LINE
  5
7ACD
  8
1
  6
CONTINUOUS
 10
1258.412223999999
 20
1696.536754
 30
0.0
 11
1258.412223999999
 21
1656.536754
 31
0.0
  0
ARC
  5
7ACE
  8
1
  6
CONTINUOUS
 10
1495.4122239999999
 20
2228.5367539999988
 30
0.0
 40
271.43999999999988
 50
97.310000000000016
 51
181.06
  0
LINE
  5
7ACF
  8
2
  6
CENTER
 10
1027.3172877070169
 20
2211.5367539999988
 30
0.0
 11
1964.068627104607
 21
2211.5367539999988
 31
0.0
  0
CIRCLE
  5
7AD0
  8
1
  6
CONTINUOUS
 10
1478.4122239999999
 20
2211.5367539999988
 30
0.0
 40
100.0
  0
LINE
  5
7AD1
  8
1
  6
CONTINUOUS
 10
1302.912223999999
 20
2316.5367539999988
 30
0.0
 11
1492.9122239999999
 21
2431.5367539999988
 31
0.0
  0
LINE
  5
7AD2
  8
1
  6
CONTINUOUS
 10
1224.0122240000001
 20
2223.5367539999988
 30
0.0
 11
1178.4122239999999
 21
2223.5367539999988
 31
0.0
  0
LINE
  5
7AD3
  8
2
  6
CENTER
 10
1478.4122239999999
 20
1555.033468521925
 30
0.0
 11
1478.4122239999999
 21
2530.1297564050019
 31
0.0
  0
LINE
  5
7AD4
  8
1
  6
CONTINUOUS
 10
2172.9122240000002
 20
1776.536754
 30
0.0
 11
2172.9122240000002
 21
2026.5367539999991
 31
0.0
  0
LINE
  5
7AD5
  8
1
  6
CONTINUOUS
 10
1748.4122239999999
 20
1776.536754
 30
0.0
 11
1748.4122239999999
 21
2511.5367539999988
 31
0.0
  0
CIRCLE
  5
7AD6
  8
1
  6
CONTINUOUS
 10
2010.282224
 20
1901.536754
 30
0.0
 40
60.0
  0
ARC
  5
7AD7
  8
1
  6
CONTINUOUS
 10
2010.282224
 20
1901.536754
 30
0.0
 40
101.0
 50
322.88
 51
217.12
  0
LINE
  5
7AD8
  8
2
  6
CENTER
 10
2070.282224
 20
1901.536754
 30
0.0
 11
1950.2822239999989
 21
1901.536754
 31
0.0
  0
LINE
  5
7AD9
  8
1
  6
CONTINUOUS
 10
1910.2822239999989
 20
1813.536754
 30
0.0
 11
1929.7422239999989
 21
1840.5867539999999
 31
0.0
  0
LINE
  5
7ADA
  8
1
  6
CONTINUOUS
 10
1910.2822239999989
 20
1776.536754
 30
0.0
 11
1910.2822239999989
 21
1813.536754
 31
0.0
  0
LINE
  5
7ADB
  8
1
  6
CONTINUOUS
 10
2110.282224
 20
1776.536754
 30
0.0
 11
2110.282224
 21
1813.536754
 31
0.0
  0
LINE
  5
7ADC
  8
1
  6
CONTINUOUS
 10
2110.282224
 20
1813.536754
 30
0.0
 11
2090.8122239999989
 21
1840.5867539999999
 31
0.0
  0
LINE
  5
7ADD
  8
2
  6
CENTER
 10
2010.282224
 20
1841.536754
 30
0.0
 11
2010.282224
 21
1961.536754
 31
0.0
  0
LINE
  5
7ADE
  8
1
  6
CONTINUOUS
 10
2218.4122239999988
 20
1776.536754
 30
0.0
 11
2218.4122239999988
 21
1656.536754
 31
0.0
  0
LINE
  5
7ADF
  8
1
  6
CONTINUOUS
 10
2178.4122240000002
 20
1696.536754
 30
0.0
 11
2178.4122240000002
 21
1656.536754
 31
0.0
  0
LINE
  5
7AE0
  8
1
  6
CONTINUOUS
 10
2218.4122239999988
 20
1656.536754
 30
0.0
 11
2178.4122240000002
 21
1656.536754
 31
0.0
  0
LINE
  5
7AE1
  8
1
  6
CONTINUOUS
 10
3470.4037599999988
 20
1696.536754
 30
0.0
 11
2860.4037600000001
 21
1696.536754
 31
0.0
  0
LINE
  5
7AE2
  8
1
  6
CONTINUOUS
 10
3470.4037599999988
 20
1656.536754
 30
0.0
 11
2860.4037600000001
 21
1656.536754
 31
0.0
  0
LINE
  5
7B08
  8
1
  6
CONTINUOUS
 10
3046.4037600000001
 20
1823.536754
 30
0.0
 11
3346.4037600000001
 21
2223.5367539999988
 31
0.0
  0
LINE
  5
7B09
  8
1
  6
CONTINUOUS
 10
3346.4037600000001
 20
1823.536754
 30
0.0
 11
3046.4037600000001
 21
2223.5367539999988
 31
0.0
  0
LINE
  5
7B0A
  8
1
  6
CONTINUOUS
 10
3046.4037600000001
 20
2511.5367539999988
 30
0.0
 11
3046.4037600000001
 21
1776.536754
 31
0.0
  0
LINE
  5
7B0B
  8
1
  6
CONTINUOUS
 10
3346.4037600000001
 20
2511.5367539999988
 30
0.0
 11
3346.4037600000001
 21
1776.536754
 31
0.0
  0
LINE
  5
7B0C
  8
1
  6
CONTINUOUS
 10
2866.4037600000001
 20
1776.536754
 30
0.0
 11
2866.4037600000001
 21
2431.5367539999988
 31
0.0
  0
LINE
  5
7B0D
  8
1
  6
CONTINUOUS
 10
2966.4037600000001
 20
1776.536754
 30
0.0
 11
2966.4037600000001
 21
2431.5367539999988
 31
0.0
  0
LINE
  5
7B0E
  8
1
  6
CONTINUOUS
 10
3046.4037600000001
 20
1823.536754
 30
0.0
 11
3346.4037600000001
 21
1823.536754
 31
0.0
  0
LINE
  5
7B0F
  8
1
  6
CONTINUOUS
 10
3390.4037600000001
 20
1776.536754
 30
0.0
 11
2866.4037600000001
 21
1776.536754
 31
0.0
  0
LINE
  5
7B10
  8
1
  6
CONTINUOUS
 10
2941.4037600000001
 20
1915.536754
 30
0.0
 11
3046.4037600000001
 21
1915.536754
 31
0.0
  0
LINE
  5
7B11
  8
1
  6
CONTINUOUS
 10
2941.4037600000001
 20
1887.536754
 30
0.0
 11
3046.4037600000001
 21
1887.536754
 31
0.0
  0
LINE
  5
7B12
  8
1
  6
CONTINUOUS
 10
3002.4037600000001
 20
1776.536754
 30
0.0
 11
3002.4037600000001
 21
1696.536754
 31
0.0
  0
LINE
  5
7B13
  8
1
  6
CONTINUOUS
 10
2941.4037600000001
 20
1841.536754
 30
0.0
 11
2941.4037600000001
 21
1961.536754
 31
0.0
  0
LINE
  5
7B14
  8
1
  6
CONTINUOUS
 10
2891.4037600000001
 20
1841.536754
 30
0.0
 11
2891.4037600000001
 21
1961.536754
 31
0.0
  0
LINE
  5
7B15
  8
1
  6
CONTINUOUS
 10
2891.4037600000001
 20
1961.536754
 30
0.0
 11
2941.4037600000001
 21
1961.536754
 31
0.0
  0
LINE
  5
7B16
  8
1
  6
CONTINUOUS
 10
2891.4037600000001
 20
1841.536754
 30
0.0
 11
2941.4037600000001
 21
1841.536754
 31
0.0
  0
LINE
  5
7B17
  8
1
  6
CONTINUOUS
 10
2860.4037600000001
 20
1696.536754
 30
0.0
 11
2860.4037600000001
 21
1656.536754
 31
0.0
  0
LINE
  5
7B18
  8
1
  6
CONTINUOUS
 10
3390.4037600000001
 20
1776.536754
 30
0.0
 11
3390.4037600000001
 21
1696.536754
 31
0.0
  0
LINE
  5
7B19
  8
1
  6
CONTINUOUS
 10
3046.4037600000001
 20
2223.5367539999988
 30
0.0
 11
3346.4037600000001
 21
2223.5367539999988
 31
0.0
  0
LINE
  5
7B1A
  8
1
  6
CONTINUOUS
 10
3046.4037600000001
 20
2511.5367539999988
 30
0.0
 11
3346.4037600000001
 21
2511.5367539999988
 31
0.0
  0
LINE
  5
7B1B
  8
1
  6
CONTINUOUS
 10
2941.4037600000001
 20
2227.296754
 30
0.0
 11
3046.4037600000001
 21
2227.296754
 31
0.0
  0
LINE
  5
7B1C
  8
1
  6
CONTINUOUS
 10
2941.4037600000001
 20
2199.296754
 30
0.0
 11
3046.4037600000001
 21
2199.296754
 31
0.0
  0
LINE
  5
7B1D
  8
1
  6
CONTINUOUS
 10
2866.4037600000001
 20
2431.5367539999988
 30
0.0
 11
2966.4037600000001
 21
2431.5367539999988
 31
0.0
  0
LINE
  5
7B1E
  8
1
  6
CONTINUOUS
 10
2941.4037600000001
 20
2109.7667540000002
 30
0.0
 11
2941.4037600000001
 21
2313.296754
 31
0.0
  0
LINE
  5
7B1F
  8
1
  6
CONTINUOUS
 10
2891.4037600000001
 20
2109.7667540000002
 30
0.0
 11
2891.4037600000001
 21
2313.296754
 31
0.0
  0
LINE
  5
7B20
  8
1
  6
CONTINUOUS
 10
2891.4037600000001
 20
2313.296754
 30
0.0
 11
2941.4037600000001
 21
2313.296754
 31
0.0
  0
LINE
  5
7B21
  8
1
  6
CONTINUOUS
 10
2891.4037600000001
 20
2109.7667540000002
 30
0.0
 11
2941.4037600000001
 21
2109.7667540000002
 31
0.0
  0
LINE
  5
7B22
  8
1
  6
CONTINUOUS
 10
3470.4037599999988
 20
1696.536754
 30
0.0
 11
3470.4037599999988
 21
1656.536754
 31
0.0
  0
LINE
  5
7B23
  8
1
  6
CONTINUOUS
 10
2172.9122240000002
 20
3362.519996
 30
0.0
 11
1302.912223999999
 21
3362.519996
 31
0.0
  0
LINE
  5
7B24
  8
1
  6
CONTINUOUS
 10
2172.9122240000002
 20
3262.519996
 30
0.0
 11
1302.912223999999
 21
3262.519996
 31
0.0
  0
LINE
  5
7B25
  8
1
  6
CONTINUOUS
 10
1818.4122239999999
 20
3742.519996
 30
0.0
 11
1178.4122239999999
 21
3742.519996
 31
0.0
  0
LINE
  5
7B26
  8
1
  6
CONTINUOUS
 10
1818.4122239999999
 20
3442.519996
 30
0.0
 11
1178.4122239999999
 21
3442.519996
 31
0.0
  0
LINE
  5
7B27
  8
1
  6
CONTINUOUS
 10
1218.412223999999
 20
3786.5199959999991
 30
0.0
 11
2218.4122239999988
 21
3786.5199959999991
 31
0.0
  0
LINE
  5
7B28
  8
1
  6
CONTINUOUS
 10
1492.412223999999
 20
3398.519996
 30
0.0
 11
1996.2822239999989
 21
3398.519996
 31
0.0
  0
LINE
  5
7B29
  8
1
  6
CONTINUOUS
 10
1581.9422239999999
 20
3337.519996
 30
0.0
 11
1378.4122239999999
 21
3337.519996
 31
0.0
  0
LINE
  5
7B2A
  8
1
  6
CONTINUOUS
 10
1581.9422239999999
 20
3287.519996
 30
0.0
 11
1378.4122239999999
 21
3287.519996
 31
0.0
  0
LINE
  5
7B2B
  8
1
  6
CONTINUOUS
 10
1218.412223999999
 20
3398.519996
 30
0.0
 11
1464.4122239999999
 21
3398.519996
 31
0.0
  0
LINE
  5
7B2C
  8
1
  6
CONTINUOUS
 10
1198.412223999999
 20
3442.519996
 30
0.0
 11
1198.412223999999
 21
3742.519996
 31
0.0
  0
LINE
  5
7B2D
  8
1
  6
CONTINUOUS
 10
1178.4122239999999
 20
3415.519996
 30
0.0
 11
1178.4122239999999
 21
3769.519996
 31
0.0
  0
LINE
  5
7B2E
  8
1
  6
CONTINUOUS
 10
1258.412223999999
 20
3256.519996
 30
0.0
 11
1218.412223999999
 21
3256.519996
 31
0.0
  0
LINE
  5
7B2F
  8
1
  6
CONTINUOUS
 10
1218.412223999999
 20
3442.519996
 30
0.0
 11
1218.412223999999
 21
3256.519996
 31
0.0
  0
LINE
  5
7B30
  8
1
  6
CONTINUOUS
 10
1378.4122239999999
 20
3287.519996
 30
0.0
 11
1378.4122239999999
 21
3337.519996
 31
0.0
  0
LINE
  5
7B31
  8
1
  6
CONTINUOUS
 10
1302.912223999999
 20
3262.519996
 30
0.0
 11
1302.912223999999
 21
3362.519996
 31
0.0
  0
LINE
  5
7B32
  8
1
  6
CONTINUOUS
 10
1258.412223999999
 20
3398.519996
 30
0.0
 11
1258.412223999999
 21
3256.519996
 31
0.0
  0
LINE
  5
7B33
  8
1
  6
CONTINUOUS
 10
1258.412223999999
 20
3866.519996
 30
0.0
 11
1218.412223999999
 21
3866.519996
 31
0.0
  0
LINE
  5
7B34
  8
1
  6
CONTINUOUS
 10
1218.412223999999
 20
3866.519996
 30
0.0
 11
1218.412223999999
 21
3742.519996
 31
0.0
  0
LINE
  5
7B35
  8
1
  6
CONTINUOUS
 10
1258.412223999999
 20
3866.519996
 30
0.0
 11
1258.412223999999
 21
3786.5199959999991
 31
0.0
  0
LINE
  5
7B36
  8
1
  6
CONTINUOUS
 10
1464.4122239999999
 20
3337.519996
 30
0.0
 11
1464.4122239999999
 21
3442.519996
 31
0.0
  0
LINE
  5
7B37
  8
1
  6
CONTINUOUS
 10
1492.412223999999
 20
3337.519996
 30
0.0
 11
1492.412223999999
 21
3442.519996
 31
0.0
  0
LINE
  5
7B38
  8
1
  6
CONTINUOUS
 10
1581.9422239999999
 20
3287.519996
 30
0.0
 11
1581.9422239999999
 21
3337.519996
 31
0.0
  0
LINE
  5
7B39
  8
1
  6
CONTINUOUS
 10
2070.282224
 20
3337.519996
 30
0.0
 11
1950.2822239999989
 21
3337.519996
 31
0.0
  0
LINE
  5
7B3A
  8
1
  6
CONTINUOUS
 10
2070.282224
 20
3287.519996
 30
0.0
 11
1950.2822239999989
 21
3287.519996
 31
0.0
  0
LINE
  5
7B3B
  8
1
  6
CONTINUOUS
 10
1909.282224
 20
3430.0499960000002
 30
0.0
 11
2111.2822239999991
 21
3430.0499960000002
 31
0.0
  0
LINE
  5
7B3C
  8
1
  6
CONTINUOUS
 10
1909.282224
 20
3672.729996
 30
0.0
 11
2111.2822239999991
 21
3672.729996
 31
0.0
  0
LINE
  5
7B3D
  8
1
  6
CONTINUOUS
 10
1818.4122239999999
 20
3442.519996
 30
0.0
 11
1818.4122239999999
 21
3742.519996
 31
0.0
  0
LINE
  5
7B3E
  8
1
  6
CONTINUOUS
 10
1909.282224
 20
3430.0499960000002
 30
0.0
 11
1909.282224
 21
3672.729996
 31
0.0
  0
LINE
  5
7B3F
  8
1
  6
CONTINUOUS
 10
1950.2822239999989
 20
3287.519996
 30
0.0
 11
1950.2822239999989
 21
3337.519996
 31
0.0
  0
LINE
  5
7B40
  8
1
  6
CONTINUOUS
 10
1996.2822239999989
 20
3337.519996
 30
0.0
 11
1996.2822239999989
 21
3430.0499960000002
 31
0.0
  0
LINE
  5
7B41
  8
1
  6
CONTINUOUS
 10
2218.4122239999988
 20
3866.519996
 30
0.0
 11
2218.4122239999988
 21
3256.519996
 31
0.0
  0
LINE
  5
7B42
  8
1
  6
CONTINUOUS
 10
2111.2822239999991
 20
3430.0499960000002
 30
0.0
 11
2111.2822239999991
 21
3672.729996
 31
0.0
  0
LINE
  5
7B43
  8
1
  6
CONTINUOUS
 10
2024.2822239999989
 20
3398.519996
 30
0.0
 11
2218.4122239999988
 21
3398.519996
 31
0.0
  0
LINE
  5
7B44
  8
1
  6
CONTINUOUS
 10
2070.282224
 20
3287.519996
 30
0.0
 11
2070.282224
 21
3337.519996
 31
0.0
  0
LINE
  5
7B45
  8
1
  6
CONTINUOUS
 10
2024.2822239999989
 20
3337.519996
 30
0.0
 11
2024.2822239999989
 21
3430.0499960000002
 31
0.0
  0
LINE
  5
7B46
  8
1
  6
CONTINUOUS
 10
2172.9122240000002
 20
3262.519996
 30
0.0
 11
2172.9122240000002
 21
3362.519996
 31
0.0
  0
LINE
  5
7B47
  8
1
  6
CONTINUOUS
 10
2178.4122240000002
 20
3398.519996
 30
0.0
 11
2178.4122240000002
 21
3256.519996
 31
0.0
  0
LINE
  5
7B48
  8
1
  6
CONTINUOUS
 10
2178.4122240000002
 20
3256.519996
 30
0.0
 11
2218.4122239999988
 21
3256.519996
 31
0.0
  0
LINE
  5
7B49
  8
1
  6
CONTINUOUS
 10
2178.4122240000002
 20
3866.519996
 30
0.0
 11
2218.4122239999988
 21
3866.519996
 31
0.0
  0
LINE
  5
7B4A
  8
1
  6
CONTINUOUS
 10
2178.4122240000002
 20
3866.519996
 30
0.0
 11
2178.4122240000002
 21
3786.5199959999991
 31
0.0
  0
LINE
  5
7B73
  8
2
  6
CENTER
 10
3196.4037600000001
 20
2561.879164270887
 30
0.0
 11
3196.4037600000001
 21
1550.728337334989
 31
0.0
  0
LINE
  5
7B74
  8
2
  6
CENTER
 10
2256.4150592353471
 20
3592.519996
 30
0.0
 11
1123.4064692605709
 21
3592.519996
 31
0.0
  0
LINE
  5
7B75
  8
2
  6
CENTER
 10
1478.4122239999999
 20
3164.4164390000001
 30
0.0
 11
1478.4122239999999
 21
3832.6282042439389
 31
0.0
  0
LINE
  5
7B76
  8
2
  6
CENTER
 10
2824.5004890139971
 20
2211.5367539999988
 30
0.0
 11
3376.1598611615891
 21
2211.5367539999988
 31
0.0
  0
LINE
  5
7B77
  8
4
  6
CONTINUOUS
 10
3700.0
 20
1000.0
 30
0.0
 11
3700.0
 21
600.0
 31
0.0
  0
LINE
  5
7B78
  8
4
  6
CONTINUOUS
 10
2300.0
 20
1000.0
 30
0.0
 11
2300.0
 21
600.0
 31
0.0
  0
LINE
  5
7B79
  8
4
  6
CONTINUOUS
 10
1300.0
 20
1000.0
 30
0.0
 11
1300.0
 21
600.0
 31
0.0
  0
LINE
  5
7B7C
  8
4
  6
CONTINUOUS
 10
1300.0
 20
600.0
 30
0.0
 11
3700.0
 21
600.0
 31
0.0
  0
LINE
  5
7B7D
  8
4
  6
CONTINUOUS
 10
1300.0
 20
800.0
 30
0.0
 11
3700.0
 21
800.0
 31
0.0
  0
TEXT
  5
7B7E
  8
4
  6
CONTINUOUS
 10
1377.004162
 20
863.086052
 30
0.0
 40
100.0
  1
機器名称
  0
TEXT
  5
7B7F
  8
4
  6
CONTINUOUS
 10
1372.516212
 20
643.29031299999986
 30
0.0
 40
100.0
  1
機器型番
  0
TEXT
  5
7B80
  8
4
  6
CONTINUOUS
 10
2355.3574910000002
 20
845.14353800000015
 30
0.0
 40
100.0
  1
ミツヤ多翼送風機
  0
TEXT
  5
7B81
  8
4
  6
CONTINUOUS
 10
2373.3089909999999
 20
634.31916899999999
 30
0.0
 40
100.0
  1
MF#2 1/2-4
  0
TEXT
  5
7B83
  8
4
  6
CONTINUOUS
 10
1669.810843999999
 20
4766.8576830000002
 30
0.0
 40
108.0
  1
天井吊ベット
  0
TEXT
  5
7B84
  8
4
  6
CONTINUOUS
 10
632.33518700000002
 20
5067.7619520000007
 30
0.0
 40
144.0
  1
ベルト駆動式片吸込両持多翼ファン
  0
LINE
  5
7B85
  8
4
  6
CONTINUOUS
 10
500.0
 20
4938.8175090000004
 30
0.0
 11
3700.0
 21
4938.8175090000004
 31
0.0
  0
LINE
  5
7B86
  8
4
  6
CONTINUOUS
 10
500.0
 20
5338.8175090000004
 30
0.0
 11
3700.0
 21
5338.8175090000004
 31
0.0
  0
LINE
  5
7B87
  8
4
  6
CONTINUOUS
 10
1300.0
 20
1000.0
 30
0.0
 11
3700.0
 21
1000.0
 31
0.0
  0
LINE
  5
7B88
  8
4
  6
CONTINUOUS
 10
500.0
 20
5338.8175090000004
 30
0.0
 11
500.0
 21
4938.8175090000004
 31
0.0
  0
TEXT
  5
7B89
  8
4
  6
CONTINUOUS
 10
658.33244699999989
 20
4764.6389549999994
 30
0.0
 40
108.0
  1
右回転左横向
  0
TEXT
  5
7B8A
  8
4
  6
CONTINUOUS
 10
2937.9391179999998
 20
5412.122163
 30
0.0
 40
112.0
  1
No.
  0
TEXT
  5
7B8B
  8
4
  6
CONTINUOUS
 10
2622.5921250000001
 20
4766.8576830000002
 30
0.0
 40
108.0
  1
縮尺：1/20
  0
LINE
  5
7B8C
  8
4
  6
CONTINUOUS
 10
3700.0
 20
5338.8175090000004
 30
0.0
 11
3700.0
 21
4938.8175090000004
 31
0.0
  0
LINE
  5
7B8E
  8
4
  6
CONTINUOUS
 10
2881.234845
 20
5362.5271659999999
 30
0.0
 11
2881.234845
 21
5573.3045229999998
 31
0.0
  0
LINE
  5
7B8F
  8
4
  6
CONTINUOUS
 10
2881.234845
 20
5573.3045229999998
 30
0.0
 11
3700.0
 21
5573.3045229999998
 31
0.0
  0
LINE
  5
7B90
  8
4
  6
CONTINUOUS
 10
3700.0
 20
5573.3045229999998
 30
0.0
 11
3700.0
 21
5362.5271659999999
 31
0.0
  0
LINE
  5
7B91
  8
4
  6
CONTINUOUS
 10
3700.0
 20
5362.5271659999999
 30
0.0
 11
2881.234845
 21
5362.5271659999999
 31
0.0
  0
DIMENSION
  5
7BA9
  8
3
  6
CONTINUOUS
  2
*D1
 10
1115.14698
 20
1823.536754
 30
0.0
 11
1115.14698
 21
2004.919087
 31
0.0
 70
   128
 13
1178.4122239999999
 23
2223.5367539999988
 33
0.0
 14
1178.4122239999999
 24
1823.536754
 34
0.0
 50
90.0
1001
ACAD
1000
DSTYLE
1002
{
1070
   287
1070
     3
1070
    40
1040
20.0
1070
   143
1040
0.039
1070
   172
1070
     1
1070
   271
1070
     0
1070
   279
1070
     0
1070
   288
1070
     1
1002
}
  0
DIMENSION
  5
7BB6
  8
3
  6
CONTINUOUS
  2
*D2
 10
1002.346351
 20
2211.5367539999988
 30
0.0
 11
1002.346351
 21
2001.428864
 31
0.0
 70
   128
 13
1115.14698
 23
1823.536754
 33
0.0
 14
999.28727100000015
 24
2211.5367539999988
 34
0.0
 50
90.0
1001
ACAD
1000
DSTYLE
1002
{
1070
   287
1070
     3
1070
    40
1040
20.0
1070
   143
1040
0.039
1070
   172
1070
     1
1070
   271
1070
     0
1070
   279
1070
     0
1070
   288
1070
     1
1002
}
  0
DIMENSION
  5
7BC3
  8
3
  6
CONTINUOUS
  2
*D3
 10
900.70264600000041
 20
2211.5367539999988
 30
0.0
 11
900.70264599999996
 21
2374.3938969999999
 31
0.0
 70
   128
 13
1208.412223999999
 23
2511.5367539999988
 33
0.0
 14
1022.346351
 24
2211.5367539999988
 34
0.0
 50
90.0
1001
ACAD
1000
DSTYLE
1002
{
1070
   287
1070
     3
1070
    40
1040
20.0
1070
   143
1040
0.039
1070
   172
1070
     1
1070
   271
1070
     0
1070
   279
1070
     0
1070
   288
1070
     1
1002
}
  0
DIMENSION
  5
7BCF
  8
3
  6
CONTINUOUS
  2
*D4
 10
900.70264599999996
 20
1696.536754
 30
0.0
 11
850.70264599999985
 21
1954.036754
 31
0.0
 70
     0
 13
1022.346351
 23
2211.5367539999988
 33
0.0
 14
1218.412223999999
 24
1696.536754
 34
0.0
 50
90.0
1001
ACAD
1000
DSTYLE
1002
{
1070
   287
1070
     4
1070
    40
1040
20.0
1070
    75
1070
     1
1070
   143
1040
0.039
1070
   172
1070
     1
1070
   271
1070
     0
1070
   279
1070
     1
1070
   288
1070
     1
1002
}
  0
DIMENSION
  5
7BDF
  8
3
  6
CONTINUOUS
  2
*D5
 10
900.27883900000018
 20
1656.536754
 30
0.0
 11
900.27883899999995
 21
1507.9653254285711
 31
0.0
 70
   128
 13
1218.412223999999
 23
1696.536754
 33
0.0
 14
1218.412223999999
 24
1656.536754
 34
0.0
 50
90.0
1001
ACAD
1000
DSTYLE
1002
{
1070
   287
1070
     3
1070
    40
1040
20.0
1070
   143
1040
0.039
1070
   172
1070
     1
1070
   271
1070
     0
1070
   279
1070
     0
1070
   288
1070
     1
1002
}
  0
DIMENSION
  5
7BEC
  8
3
  6
CONTINUOUS
  2
*D6
 10
779.41569400000014
 20
1656.536754
 30
0.0
 11
779.41569400000003
 21
2102.645129999999
 31
0.0
 70
   128
 13
1208.412223999999
 23
2511.5367539999988
 33
0.0
 14
1218.412223999999
 24
1656.536754
 34
0.0
 50
90.0
1001
ACAD
1000
DSTYLE
1002
{
1070
   287
1070
     3
1070
    40
1040
20.0
1070
   143
1040
0.039
1070
   172
1070
     1
1070
   271
1070
     0
1070
   279
1070
     0
1070
   288
1070
     1
1002
}
  0
DIMENSION
  5
7C16
  8
3
  6
CONTINUOUS
  2
*D7
 10
1478.4122239999999
 20
1538.8634355219251
 30
0.0
 11
1348.4122239999999
 21
1586.569894542532
 31
0.0
 70
   128
 13
1218.412223999999
 23
1656.536754
 33
0.0
 14
1478.4122239999999
 24
1555.033468521925
 34
0.0
1001
ACAD
1000
DSTYLE
1002
{
1070
   288
1070
     1
1070
   172
1070
     1
1070
    40
1040
20.0
1070
   271
1070
     0
1070
   143
1040
0.039
1002
}
  0
DIMENSION
  5
7C22
  8
3
  6
CONTINUOUS
  2
*D8
 10
2218.4122239999988
 20
1538.8634355219251
 30
0.0
 11
1848.412223999999
 21
1588.8634355219251
 31
0.0
 70
     0
 13
1478.4122239999999
 23
1555.033468521925
 33
0.0
 14
2218.4122239999988
 24
1656.536754
 34
0.0
1001
ACAD
1000
DSTYLE
1002
{
1070
   287
1070
     4
1070
    40
1040
20.0
1070
    75
1070
     1
1070
   143
1040
0.039
1070
   172
1070
     1
1070
   271
1070
     0
1070
   279
1070
     1
1070
   288
1070
     1
1002
}
  0
DIMENSION
  5
7C2F
  8
3
  6
CONTINUOUS
  2
*D9
 10
3196.4037600000001
 20
1520.398384334989
 30
0.0
 11
3029.3929079999998
 21
1520.398384334989
 31
0.0
 70
   128
 13
2860.4037600000001
 23
1656.536754
 33
0.0
 14
3196.4037600000001
 24
1550.728337334989
 34
0.0
1001
ACAD
1000
DSTYLE
1002
{
1070
   287
1070
     3
1070
    40
1040
20.0
1070
   143
1040
0.039
1070
   172
1070
     1
1070
   271
1070
     0
1070
   279
1070
     0
1070
   288
1070
     1
1002
}
  0
DIMENSION
  5
7C3D
  8
3
  6
CONTINUOUS
  2
*D10
 10
3470.4037599999988
 20
1520.398384334989
 30
0.0
 11
3330.9161589999999
 21
1519.288739334989
 31
0.0
 70
   128
 13
3196.4037600000001
 23
1550.728337334989
 33
0.0
 14
3470.4037599999988
 24
1656.536754
 34
0.0
1001
ACAD
1000
DSTYLE
1002
{
1070
   287
1070
     4
1070
    40
1040
20.0
1070
    75
1070
     1
1070
   143
1040
0.039
1070
   172
1070
     1
1070
   271
1070
     0
1070
   279
1070
     1
1070
   288
1070
     1
1002
}
  0
DIMENSION
  5
7C4A
  8
3
  6
CONTINUOUS
  2
*D11
 10
3046.4037600000001
 20
2571.360475
 30
0.0
 11
3183.546617
 21
2571.360475
 31
0.0
 70
   128
 13
3346.4037600000001
 23
2511.5367539999988
 33
0.0
 14
3046.4037600000001
 24
2511.5367539999988
 34
0.0
1001
ACAD
1000
DSTYLE
1002
{
1070
   287
1070
     3
1070
    40
1040
20.0
1070
   143
1040
0.039
1070
   172
1070
     1
1070
   271
1070
     0
1070
   279
1070
     0
1070
   288
1070
     1
1002
}
  0
DIMENSION
  5
7C64
  8
3
  6
CONTINUOUS
  2
*D12
 10
2866.4037600000001
 20
2713.4329050000001
 30
0.0
 11
3031.4037600000001
 21
2813.4329050000001
 31
0.0
 70
     0
  1
MAX\P380
 13
3196.4037600000001
 23
2656.666303805092
 33
0.0
 14
2866.4037600000001
 24
2431.5367539999988
 34
0.0
1001
ACAD
1000
DSTYLE
1002
{
1070
   287
1070
     4
1070
    40
1040
20.0
1070
    75
1070
     1
1070
   143
1040
0.039
1070
   172
1070
     1
1070
   271
1070
     0
1070
   279
1070
     1
1070
   288
1070
     1
1002
}
  0
DIMENSION
  5
7C73
  8
3
  6
CONTINUOUS
  2
*D13
 10
3500.9508409999999
 20
1996.536754
 30
0.0
 11
3500.9508409999999
 21
2210.8418280000001
 31
0.0
 70
   128
 13
3346.4037600000001
 23
2426.5367540000002
 33
0.0
 14
3346.4037600000001
 24
1996.536754
 34
0.0
 50
90.0
1001
ACAD
1000
DSTYLE
1002
{
1070
   287
1070
     3
1070
     3
1000
φ<>
1070
    40
1040
20.0
1070
   143
1040
0.039
1070
   172
1070
     1
1070
   271
1070
     0
1070
   279
1070
     0
1070
   288
1070
     1
1002
}
  0
DIMENSION
  5
7C80
  8
3
  6
CONTINUOUS
  2
*D14
 10
2218.4122239999988
 20
3986.7925759999998
 30
0.0
 11
1677.4683869999999
 21
3986.7925759999998
 31
0.0
 70
   128
 13
1218.412223999999
 23
3866.519996
 33
0.0
 14
2218.4122239999988
 24
3866.519996
 34
0.0
1001
ACAD
1000
DSTYLE
1002
{
1070
   287
1070
     3
1070
    40
1040
20.0
1070
   143
1040
0.039
1070
   172
1070
     1
1070
   271
1070
     0
1070
   279
1070
     0
1070
   288
1070
     1
1002
}
  0
DIMENSION
  5
7C8D
  8
3
  6
CONTINUOUS
  2
*D15
 10
2407.6557410000009
 20
3256.519996
 30
0.0
 11
2407.655741
 21
3576.4359049999989
 31
0.0
 70
   128
 13
2218.4122239999988
 23
3866.519996
 33
0.0
 14
2218.4122239999988
 24
3256.519996
 34
0.0
 50
90.0
1001
ACAD
1000
DSTYLE
1002
{
1070
   287
1070
     3
1070
    40
1040
20.0
1070
   143
1040
0.039
1070
   172
1070
     1
1070
   271
1070
     0
1070
   279
1070
     0
1070
   288
1070
     1
1002
}
  0
DIMENSION
  5
7D23
  8
3
  6
CONTINUOUS
  2
*D16
 10
1478.4122239999999
 20
2610.906567
 30
0.0
 11
1315.555081
 21
2610.906567
 31
0.0
 70
   128
 13
1178.4122239999999
 23
2250.5367540000002
 33
0.0
 14
1478.4122239999999
 24
2511.5367539999988
 34
0.0
1001
ACAD
1000
DSTYLE
1002
{
1070
   287
1070
     3
1070
    40
1040
20.0
1070
   143
1040
0.039
1070
   172
1070
     1
1070
   271
1070
     0
1070
   279
1070
     0
1070
   288
1070
     1
1002
}
  0
DIMENSION
  5
7D2F
  8
3
  6
CONTINUOUS
  2
*D17
 10
1810.4083239999991
 20
2610.906567
 30
0.0
 11
1644.4102739999989
 21
2660.906567
 31
0.0
 70
     0
 13
1478.4122239999999
 23
2511.5367539999988
 33
0.0
 14
1810.4083239999991
 24
2211.5367539999988
 34
0.0
1001
ACAD
1000
DSTYLE
1002
{
1070
   287
1070
     4
1070
    40
1040
20.0
1070
    75
1070
     1
1070
   143
1040
0.039
1070
   172
1070
     1
1070
   271
1070
     0
1070
   279
1070
     1
1070
   288
1070
     1
1002
}
  0
LINE
  5
7D7E
  8
1
  6
CONTINUOUS
 10
3347.4037600000001
 20
2426.5367540000002
 30
0.0
 11
3347.4037600000001
 21
1996.536754
 31
0.0
  0
DIMENSION
  5
7D8E
  8
3
  6
CONTINUOUS
  2
*D18
 10
3347.4037600000001
 20
2713.4329050000001
 30
0.0
 11
3267.3187354612342
 21
2760.932153679204
 31
0.0
 70
   128
 13
3196.4037600000001
 23
2659.0359844013292
 33
0.0
 14
3347.4037600000001
 24
2426.5367540000002
 34
0.0
1001
ACAD
1000
DSTYLE
1002
{
1070
   288
1070
     1
1070
   172
1070
     1
1070
    40
1040
20.0
1070
   271
1070
     0
1070
   143
1040
0.039
1002
}
  0
DIMENSION
  5
7DDE
  8
3
  2
*D19
 10
2218.4122239999988
 20
2731.3872889354188
 30
0.0
 11
1735.9763840468511
 21
2731.3872889354188
 31
0.0
 70
   128
 13
1178.4122239999999
 23
2250.5367540000002
 33
0.0
 14
2218.4122239999988
 24
1776.536754
 34
0.0
1001
ACAD
1000
DSTYLE
1002
{
1070
   287
1070
     3
1070
    40
1040
20.0
1070
   143
1040
0.039
1070
   172
1070
     1
1070
   271
1070
     0
1070
   279
1070
     0
1070
   288
1070
     1
1002
}
  0
ENDSEC
  0
EOF
