  0
SECTION
  2
HEADER
  9
$ACADVER
  1
AC1009
  9
$INSBASE
 10
0.0
 20
0.0
 30
0.0
  9
$EXTMIN
 10
500.0
 20
600.0
 30
0.0
  9
$EXTMAX
 10
3700.0
 20
5573.3045229999998
 30
0.0
  9
$LIMMIN
 10
0.0
 20
0.0
  9
$LIMMAX
 10
297.0
 20
210.0
  9
$ORTHOMODE
 70
     0
  9
$REGENMODE
 70
     1
  9
$FILLMODE
 70
     0
  9
$QTEXTMODE
 70
     0
  9
$MIRRTEXT
 70
     1
  9
$DRAGMODE
 70
     2
  9
$LTSCALE
 40
100.0
  9
$OSMODE
 70
    37
  9
$ATTMODE
 70
     1
  9
$TEXTSIZE
 40
180.0
  9
$TRACEWID
 40
0.05
  9
$TEXTSTYLE
  7
STANDARD
  9
$CLAYER
  8
3
  9
$CELTYPE
  6
BYLAYER
  9
$CECOLOR
 62
   256
  9
$DIMSCALE
 40
20.0
  9
$DIMASZ
 40
2.0
  9
$DIMEXO
 40
0.5
  9
$DIMDLI
 40
10.0
  9
$DIMRND
 40
0.0
  9
$DIMDLE
 40
0.0
  9
$DIMEXE
 40
1.0
  9
$DIMTP
 40
1.0
  9
$DIMTM
 40
1.0
  9
$DIMTXT
 40
3.0
  9
$DIMCEN
 40
0.0
  9
$DIMTSZ
 40
0.0
  9
$DIMTOL
 70
     0
  9
$DIMLIM
 70
     0
  9
$DIMTIH
 70
     0
  9
$DIMTOH
 70
     0
  9
$DIMSE1
 70
     0
  9
$DIMSE2
 70
     0
  9
$DIMTAD
 70
     1
  9
$DIMZIN
 70
     8
  9
$DIMBLK
  1

  9
$DIMASO
 70
     1
  9
$DIMSHO
 70
     1
  9
$DIMPOST
  1

  9
$DIMAPOST
  1

  9
$DIMALT
 70
     0
  9
$DIMALTD
 70
     2
  9
$DIMALTF
 40
0.039
  9
$DIMLFAC
 40
1.0
  9
$DIMTOFL
 70
     1
  9
$DIMTVP
 40
0.0
  9
$DIMTIX
 70
     0
  9
$DIMSOXD
 70
     0
  9
$DIMSAH
 70
     1
  9
$DIMBLK1
  1
OPEN
  9
$DIMBLK2
  1
OPEN
  9
$DIMSTYLE
  2
IGA
  9
$DIMCLRD
 70
     0
  9
$DIMCLRE
 70
     0
  9
$DIMCLRT
 70
     0
  9
$DIMTFAC
 40
10.0
  9
$DIMGAP
 40
1.0
  9
$LUNITS
 70
     2
  9
$LUPREC
 70
     3
  9
$SKETCHINC
 40
0.1
  9
$FILLETRAD
 40
50.0
  9
$AUNITS
 70
     0
  9
$AUPREC
 70
     0
  9
$MENU
  1
acad
  9
$ELEVATION
 40
0.0
  9
$PELEVATION
 40
0.0
  9
$THICKNESS
 40
0.0
  9
$LIMCHECK
 70
     0
  9
$BLIPMODE
 70
     0
  9
$CHAMFERA
 40
0.5
  9
$CHAMFERB
 40
0.5
  9
$SKPOLY
 70
     0
  9
$TDCREATE
 40
2450725.5704513891
  9
$TDUPDATE
 40
2454953.7650285652
  9
$TDINDWG
 40
0.0071168056
  9
$TDUSRTIMER
 40
0.0071168056
  9
$USRTIMER
 70
     1
  9
$ANGBASE
 50
0.0
  9
$ANGDIR
 70
     0
  9
$PDMODE
 70
     0
  9
$PDSIZE
 40
0.0
  9
$PLINEWID
 40
0.0
  9
$COORDS
 70
     1
  9
$SPLFRAME
 70
     0
  9
$SPLINETYPE
 70
     6
  9
$SPLINESEGS
 70
     8
  9
$ATTDIA
 70
     0
  9
$ATTREQ
 70
     1
  9
$HANDLING
 70
 10241
  9
$HANDSEED
  5
7EE9
  9
$SURFTAB1
 70
     6
  9
$SURFTAB2
 70
     6
  9
$SURFTYPE
 70
     6
  9
$SURFU
 70
     6
  9
$SURFV
 70
     6
  9
$UCSNAME
  2

  9
$UCSORG
 10
0.0
 20
0.0
 30
0.0
  9
$UCSXDIR
 10
1.0
 20
0.0
 30
0.0
  9
$UCSYDIR
 10
0.0
 20
1.0
 30
0.0
  9
$PUCSNAME
  2

  9
$PUCSORG
 10
0.0
 20
0.0
 30
0.0
  9
$PUCSXDIR
 10
1.0
 20
0.0
 30
0.0
  9
$PUCSYDIR
 10
0.0
 20
1.0
 30
0.0
  9
$USERI1
 70
     0
  9
$USERI2
 70
     0
  9
$USERI3
 70
     0
  9
$USERI4
 70
     0
  9
$USERI5
 70
     0
  9
$USERR1
 40
0.0
  9
$USERR2
 40
0.0
  9
$USERR3
 40
0.0
  9
$USERR4
 40
0.0
  9
$USERR5
 40
0.0
  9
$WORLDVIEW
 70
     1
  9
$SHADEDGE
 70
     3
  9
$SHADEDIF
 70
    70
  9
$TILEMODE
 70
     1
  9
$MAXACTVP
 70
    16
  9
$PLIMCHECK
 70
     0
  9
$PEXTMIN
 10
1.0000000000000000E+020
 20
1.0000000000000000E+020
 30
1.0000000000000000E+020
  9
$PEXTMAX
 10
-1.0000000000000000E+020
 20
-1.0000000000000000E+020
 30
-1.0000000000000000E+020
  9
$PLIMMIN
 10
0.0
 20
0.0
  9
$PLIMMAX
 10
12.0
 20
9.0
  9
$UNITMODE
 70
     0
  9
$VISRETAIN
 70
     0
  9
$PLINEGEN
 70
     0
  9
$PSLTSCALE
 70
     1
  0
ENDSEC
  0
SECTION
  2
TABLES
  0
TABLE
  2
VPORT
 70
     2
  0
VPORT
  2
*ACTIVE
 70
     0
 10
0.0
 20
0.0
 11
1.0
 21
1.0
 12
6292.1124769529506
 22
3086.6374998146398
 13
0.0
 23
0.0
 14
10.0
 24
10.0
 15
10.0
 25
10.0
 16
0.0
 26
0.0
 36
1.0
 17
0.0
 27
0.0
 37
0.0
 40
5011.4968576296578
 41
3.1666666666666661
 42
50.0
 43
0.0
 44
0.0
 50
0.0
 51
0.0
 71
     0
 72
   100
 73
     1
 74
     0
 75
     0
 76
     0
 77
     0
 78
     0
  0
ENDTAB
  0
TABLE
  2
LTYPE
 70
     2
  0
LTYPE
  2
CONTINUOUS
 70
     0
  3
Solid line
 72
    65
 73
     0
 40
0.0
  0
LTYPE
  2
CENTER
 70
     0
  3
____ _ ____ _ ____ _ ____ _ ____ _ ____ _ ____ 
 72
    65
 73
     4
 40
2.0
 49
1.25
 49
-0.25
 49
0.25
 49
-0.25
  0
ENDTAB
  0
TABLE
  2
LAYER
 70
     6
  0
LAYER
  2
0
 70
     0
 62
     7
  6
CONTINUOUS
  0
LAYER
  2
3
 70
     0
 62
     2
  6
CONTINUOUS
  0
LAYER
  2
2
 70
     0
 62
     3
  6
CENTER
  0
LAYER
  2
1
 70
     0
 62
     4
  6
CONTINUOUS
  0
LAYER
  2
4
 70
     0
 62
     7
  6
CONTINUOUS
  0
LAYER
  2
DEFPOINTS
 70
     0
 62
     7
  6
CONTINUOUS
  0
ENDTAB
  0
TABLE
  2
STYLE
 70
     1
  0
STYLE
  2
STANDARD
 70
     0
 40
0.0
 41
1.0
 50
0.0
 71
     0
 42
180.0
  3
simplex.shx
  4
extfont.shx
  0
ENDTAB
  0
TABLE
  2
VIEW
 70
     0
  0
ENDTAB
  0
TABLE
  2
UCS
 70
     0
  0
ENDTAB
  0
TABLE
  2
APPID
 70
     1
  0
APPID
  2
ACAD
 70
     0
  0
ENDTAB
  0
TABLE
  2
DIMSTYLE
 70
     1
  0
DIMSTYLE
  2
IGA
 70
     0
  3

  4

  5

  6
OPEN
  7
OPEN
 40
2.0
 41
2.0
 42
0.5
 43
10.0
 44
1.0
 45
0.0
 46
0.0
 47
1.0
 48
1.0
140
3.0
141
0.0
142
0.0
143
0.03937
144
1.0
145
0.0
146
10.0
147
1.0
 71
     0
 72
     0
 73
     0
 74
     0
 75
     0
 76
     0
 77
     1
 78
     8
170
     0
171
     2
172
     0
173
     1
174
     0
175
     0
176
     0
177
     0
178
     0
  0
ENDTAB
  0
ENDSEC
  0
SECTION
  2
BLOCKS
  0
BLOCK
  8
0
  2
$MODEL_SPACE
 70
     0
 10
0.0
 20
0.0
 30
0.0
  3
$MODEL_SPACE
  1

  0
ENDBLK
  5
1B
  8
0
  0
BLOCK
 67
     1
  8
0
  2
$PAPER_SPACE
 70
     0
 10
0.0
 20
0.0
 30
0.0
  3
$PAPER_SPACE
  1

  0
ENDBLK
  5
18
 67
     1
  8
0
  0
BLOCK
  8
0
  2
_OPEN
 70
     0
 10
0.0
 20
0.0
 30
0.0
  3
_OPEN
  1

  0
LINE
  5
7AFE
  8
0
  6
BYBLOCK
 62
     0
 10
-1.0
 20
0.166667
 30
0.0
 11
0.0
 21
0.0
 31
0.0
  0
LINE
  5
7AFF
  8
0
  6
BYBLOCK
 62
     0
 10
0.0
 20
0.0
 30
0.0
 11
-1.0
 21
-0.166667
 31
0.0
  0
LINE
  5
7B00
  8
0
  6
BYBLOCK
 62
     0
 10
0.0
 20
0.0
 30
0.0
 11
-1.0
 21
0.0
 31
0.0
  0
ENDBLK
  5
7B01
  8
0
  0
BLOCK
  8
0
  2
*D1
 70
     1
 10
0.0
 20
0.0
 30
0.0
  3
*D1
  1

  0
LINE
  5
7E35
  8
3
  6
CONTINUOUS
 62
     0
 10
1298.5340510000001
 20
2747.1812920000002
 30
0.0
 11
1298.5340510000001
 21
2850.2818859999988
 31
0.0
  0
LINE
  5
7E36
  8
3
  6
CONTINUOUS
 62
     0
 10
1698.5340510000001
 20
2747.1812920000002
 30
0.0
 11
1698.5340510000001
 21
2850.2818859999988
 31
0.0
  0
LINE
  5
7E37
  8
3
  6
CONTINUOUS
 62
     0
 10
1338.5340510000001
 20
2830.2818859999988
 30
0.0
 11
1658.5340510000001
 21
2830.2818859999988
 31
0.0
  0
INSERT
  5
7E38
  8
3
  6
CONTINUOUS
 62
     0
  2
_OPEN
 10
1298.5340510000001
 20
2830.2818859999988
 30
0.0
 41
40.0
 42
40.0
 43
40.0
 50
180.0
  0
INSERT
  5
7E39
  8
3
  6
CONTINUOUS
 62
     0
  2
_OPEN
 10
1698.5340510000001
 20
2830.2818859999988
 30
0.0
 41
40.0
 42
40.0
 43
40.0
  0
TEXT
  8
3
  40
60
  5
7ED6
  62
0
  72
0
  71
0
 10
1365.09
 20
2774.08
 30
0.000000
  1
400
  0
POINT
  5
7E3B
  8
DEFPOINTS
  6
CONTINUOUS
 62
     0
 10
1298.5340510000001
 20
2737.1812920000002
 30
0.0
  0
POINT
  5
7E3C
  8
DEFPOINTS
  6
CONTINUOUS
 62
     0
 10
1698.5340510000001
 20
2737.1812920000002
 30
0.0
  0
POINT
  5
7E3D
  8
DEFPOINTS
  6
CONTINUOUS
 62
     0
 10
1698.5340510000001
 20
2830.2818859999988
 30
0.0
  0
ENDBLK
  5
7C89
  8
0
  0
BLOCK
  8
0
  2
*D2
 70
     1
 10
0.0
 20
0.0
 30
0.0
  3
*D2
  1

  0
LINE
  5
7E3E
  8
3
  6
CONTINUOUS
 62
     0
 10
1298.5340510000001
 20
2747.1812920000002
 30
0.0
 11
1298.5340510000001
 21
2954.9810889999999
 31
0.0
  0
LINE
  5
7E3F
  8
3
  6
CONTINUOUS
 62
     0
 10
1686.5340510000001
 20
2882.5780370000002
 30
0.0
 11
1686.5340510000001
 21
2954.9810889999999
 31
0.0
  0
LINE
  5
7E40
  8
3
  6
CONTINUOUS
 62
     0
 10
1338.5340510000001
 20
2934.9810889999999
 30
0.0
 11
1646.5340510000001
 21
2934.9810889999999
 31
0.0
  0
INSERT
  5
7E41
  8
3
  6
CONTINUOUS
 62
     0
  2
_OPEN
 10
1298.5340510000001
 20
2934.9810889999999
 30
0.0
 41
40.0
 42
40.0
 43
40.0
 50
180.0
  0
INSERT
  5
7E42
  8
3
  6
CONTINUOUS
 62
     0
  2
_OPEN
 10
1686.5340510000001
 20
2934.9810889999999
 30
0.0
 41
40.0
 42
40.0
 43
40.0
  0
TEXT
  8
3
  40
60
  5
7ED7
  62
0
  72
0
  71
0
 10
1361.60
 20
2878.78
 30
0.000000
  1
388
  0
POINT
  5
7E44
  8
DEFPOINTS
  6
CONTINUOUS
 62
     0
 10
1298.5340510000001
 20
2737.1812920000002
 30
0.0
  0
POINT
  5
7E45
  8
DEFPOINTS
  6
CONTINUOUS
 62
     0
 10
1686.5340510000001
 20
2872.5780370000002
 30
0.0
  0
POINT
  5
7E46
  8
DEFPOINTS
  6
CONTINUOUS
 62
     0
 10
1686.5340510000001
 20
2934.9810889999999
 30
0.0
  0
ENDBLK
  5
7C7E
  8
0
  0
BLOCK
  8
0
  2
*D3
 70
     1
 10
0.0
 20
0.0
 30
0.0
  3
*D3
  1

  0
LINE
  5
7E47
  8
3
  6
CONTINUOUS
 62
     0
 10
1986.5340510000001
 20
2717.1812920000002
 30
0.0
 11
1986.5340510000001
 21
2954.9810889999999
 31
0.0
  0
LINE
  5
7E48
  8
3
  6
CONTINUOUS
 62
     0
 10
1726.5340510000001
 20
2934.9810889999999
 30
0.0
 11
1946.5340510000001
 21
2934.9810889999999
 31
0.0
  0
INSERT
  5
7E49
  8
3
  6
CONTINUOUS
 62
     0
  2
_OPEN
 10
1686.5340510000001
 20
2934.9810889999999
 30
0.0
 41
40.0
 42
40.0
 43
40.0
 50
180.0
  0
INSERT
  5
7E4A
  8
3
  6
CONTINUOUS
 62
     0
  2
_OPEN
 10
1986.5340510000001
 20
2934.9810889999999
 30
0.0
 41
40.0
 42
40.0
 43
40.0
  0
TEXT
  8
3
  40
60
  5
7ED8
  62
0
  72
0
  71
0
 10
1716.53
 20
2878.78
 30
0.000000
  1
300
  0
POINT
  5
7E4C
  8
DEFPOINTS
  6
CONTINUOUS
 62
     0
 10
1686.5340510000001
 20
2872.5780370000002
 30
0.0
  0
POINT
  5
7E4D
  8
DEFPOINTS
  6
CONTINUOUS
 62
     0
 10
1986.5340510000001
 20
2707.1812920000002
 30
0.0
  0
POINT
  5
7E4E
  8
DEFPOINTS
  6
CONTINUOUS
 62
     0
 10
1986.5340510000001
 20
2934.9810889999999
 30
0.0
  0
ENDBLK
  5
7C73
  8
0
  0
BLOCK
  8
0
  2
*D4
 70
     1
 10
0.0
 20
0.0
 30
0.0
  3
*D4
  1

  0
LINE
  5
7E4F
  8
3
  6
CONTINUOUS
 62
     0
 10
1735.5340510000001
 20
2737.1812920000002
 30
0.0
 11
2174.677459
 21
2737.1812920000002
 31
0.0
  0
LINE
  5
7E50
  8
3
  6
CONTINUOUS
 62
     0
 10
2126.8535658019641
 20
2437.1812920000002
 30
0.0
 11
2174.677459
 21
2437.1812920000002
 31
0.0
  0
LINE
  5
7E51
  8
3
  6
CONTINUOUS
 62
     0
 10
2154.677459
 20
2697.1812920000002
 30
0.0
 11
2154.677459
 21
2477.1812920000002
 31
0.0
  0
INSERT
  5
7E52
  8
3
  6
CONTINUOUS
 62
     0
  2
_OPEN
 10
2154.677459
 20
2737.1812920000002
 30
0.0
 41
40.0
 42
40.0
 43
40.0
 50
90.0
  0
INSERT
  5
7E53
  8
3
  6
CONTINUOUS
 62
     0
  2
_OPEN
 10
2154.677459
 20
2437.1812920000002
 30
0.0
 41
40.0
 42
40.0
 43
40.0
 50
270.0
  0
TEXT
  8
3
  40
60
  5
7ED9
  62
0
  72
0
  71
0
 10
1984.68
 20
2493.84
 30
0.000000
  1
300
  0
POINT
  5
7E55
  8
DEFPOINTS
  6
CONTINUOUS
 62
     0
 10
1725.5340510000001
 20
2737.1812920000002
 30
0.0
  0
POINT
  5
7E56
  8
DEFPOINTS
  6
CONTINUOUS
 62
     0
 10
2116.8535658019641
 20
2437.1812920000002
 30
0.0
  0
POINT
  5
7E57
  8
DEFPOINTS
  6
CONTINUOUS
 62
     0
 10
2154.677459
 20
2437.1812920000002
 30
0.0
  0
ENDBLK
  5
7DE8
  8
0
  0
BLOCK
  8
0
  2
*D5
 70
     1
 10
0.0
 20
0.0
 30
0.0
  3
*D5
  1

  0
LINE
  5
7E58
  8
3
  6
CONTINUOUS
 62
     0
 10
1956.5340510000001
 20
2017.181292
 30
0.0
 11
2174.677459
 21
2017.181292
 31
0.0
  0
LINE
  5
7E59
  8
3
  6
CONTINUOUS
 62
     0
 10
2154.677459
 20
2397.1812920000002
 30
0.0
 11
2154.677459
 21
2057.1812920000002
 31
0.0
  0
INSERT
  5
7E5A
  8
3
  6
CONTINUOUS
 62
     0
  2
_OPEN
 10
2154.677459
 20
2437.1812920000002
 30
0.0
 41
40.0
 42
40.0
 43
40.0
 50
90.0
  0
INSERT
  5
7E5B
  8
3
  6
CONTINUOUS
 62
     0
  2
_OPEN
 10
2154.677459
 20
2017.181292
 30
0.0
 41
40.0
 42
40.0
 43
40.0
 50
270.0
  0
TEXT
  8
3
  40
60
  5
7EDA
  62
0
  72
0
  71
0
 10
1984.68
 20
2120.98
 30
0.000000
  1
420
  0
POINT
  5
7E5D
  8
DEFPOINTS
  6
CONTINUOUS
 62
     0
 10
2152.2759279999991
 20
2437.1812920000002
 30
0.0
  0
POINT
  5
7E5E
  8
DEFPOINTS
  6
CONTINUOUS
 62
     0
 10
1946.5340510000001
 20
2017.181292
 30
0.0
  0
POINT
  5
7E5F
  8
DEFPOINTS
  6
CONTINUOUS
 62
     0
 10
2154.677459
 20
2017.181292
 30
0.0
  0
ENDBLK
  5
7C69
  8
0
  0
BLOCK
  8
0
  2
*D6
 70
     1
 10
0.0
 20
0.0
 30
0.0
  3
*D6
  1

  0
LINE
  5
7E60
  8
3
  6
CONTINUOUS
 62
     0
 10
1956.5340510000001
 20
2017.181292
 30
0.0
 11
2174.2515350000008
 21
2017.181292
 31
0.0
  0
LINE
  5
7E61
  8
3
  6
CONTINUOUS
 62
     0
 10
1956.5340510000001
 20
1977.181292
 30
0.0
 11
2174.2515350000008
 21
1977.181292
 31
0.0
  0
LINE
  5
7E62
  8
3
  6
CONTINUOUS
 62
     0
 10
2154.2515350000008
 20
2057.1812920000002
 30
0.0
 11
2154.2515350000008
 21
2097.1812920000002
 31
0.0
  0
LINE
  5
7E63
  8
3
  6
CONTINUOUS
 62
     0
 10
2154.2515350000008
 20
1937.181292
 30
0.0
 11
2154.2515350000008
 21
1760.0384348571431
 31
0.0
  0
LINE
  5
7E64
  8
3
  6
CONTINUOUS
 62
     0
 10
2154.2515350000008
 20
2017.181292
 30
0.0
 11
2154.2515350000008
 21
1977.181292
 31
0.0
  0
INSERT
  5
7E65
  8
3
  6
CONTINUOUS
 62
     0
  2
_OPEN
 10
2154.2515350000008
 20
2017.181292
 30
0.0
 41
40.0
 42
40.0
 43
40.0
 50
270.0
  0
INSERT
  5
7E66
  8
3
  6
CONTINUOUS
 62
     0
  2
_OPEN
 10
2154.2515350000008
 20
1977.181292
 30
0.0
 41
40.0
 42
40.0
 43
40.0
 50
90.0
  0
TEXT
  8
3
  40
60
  5
7EDB
  62
0
  72
0
  71
0
 10
1984.25
 20
1722.41
 30
0.000000
  1
40
  0
POINT
  5
7E68
  8
DEFPOINTS
  6
CONTINUOUS
 62
     0
 10
1946.5340510000001
 20
2017.181292
 30
0.0
  0
POINT
  5
7E69
  8
DEFPOINTS
  6
CONTINUOUS
 62
     0
 10
1946.5340510000001
 20
1977.181292
 30
0.0
  0
POINT
  5
7E6A
  8
DEFPOINTS
  6
CONTINUOUS
 62
     0
 10
2154.2515350000008
 20
1977.181292
 30
0.0
  0
ENDBLK
  5
7D5C
  8
0
  0
BLOCK
  8
0
  2
*D7
 70
     1
 10
0.0
 20
0.0
 30
0.0
  3
*D7
  1

  0
LINE
  5
7E6B
  8
3
  6
CONTINUOUS
 62
     0
 10
1745.5340510000001
 20
2737.1812920000002
 30
0.0
 11
2294.4552309999999
 21
2737.1812920000002
 31
0.0
  0
LINE
  5
7E6C
  8
3
  6
CONTINUOUS
 62
     0
 10
1956.5340510000001
 20
1977.181292
 30
0.0
 11
2294.4552309999999
 21
1977.181292
 31
0.0
  0
LINE
  5
7E6D
  8
3
  6
CONTINUOUS
 62
     0
 10
2274.4552309999999
 20
2697.1812920000002
 30
0.0
 11
2274.4552309999999
 21
2017.181292
 31
0.0
  0
INSERT
  5
7E6E
  8
3
  6
CONTINUOUS
 62
     0
  2
_OPEN
 10
2274.4552309999999
 20
2737.1812920000002
 30
0.0
 41
40.0
 42
40.0
 43
40.0
 50
90.0
  0
INSERT
  5
7E6F
  8
3
  6
CONTINUOUS
 62
     0
  2
_OPEN
 10
2274.4552309999999
 20
1977.181292
 30
0.0
 41
40.0
 42
40.0
 43
40.0
 50
270.0
  0
TEXT
  8
3
  40
60
  5
7EDC
  62
0
  72
0
  71
0
 10
2104.46
 20
2315.03
 30
0.000000
  1
760
  0
POINT
  5
7E71
  8
DEFPOINTS
  6
CONTINUOUS
 62
     0
 10
1735.5340510000001
 20
2737.1812920000002
 30
0.0
  0
POINT
  5
7E72
  8
DEFPOINTS
  6
CONTINUOUS
 62
     0
 10
1946.5340510000001
 20
1977.181292
 30
0.0
  0
POINT
  5
7E73
  8
DEFPOINTS
  6
CONTINUOUS
 62
     0
 10
2274.4552309999999
 20
1977.181292
 30
0.0
  0
ENDBLK
  5
7B6C
  8
0
  0
BLOCK
  8
0
  2
*D8
 70
     1
 10
0.0
 20
0.0
 30
0.0
  3
*D8
  1

  0
LINE
  5
7E74
  8
3
  6
CONTINUOUS
 62
     0
 10
946.53405099999998
 20
1967.181292
 30
0.0
 11
946.53405099999998
 21
1806.474727
 31
0.0
  0
LINE
  5
7E75
  8
3
  6
CONTINUOUS
 62
     0
 10
1686.5340510000001
 20
1878.330358823765
 30
0.0
 11
1686.5340510000001
 21
1806.474727
 31
0.0
  0
LINE
  5
7E76
  8
3
  6
CONTINUOUS
 62
     0
 10
986.53405099999986
 20
1826.474727
 30
0.0
 11
1646.5340510000001
 21
1826.474727
 31
0.0
  0
INSERT
  5
7E77
  8
3
  6
CONTINUOUS
 62
     0
  2
_OPEN
 10
946.53405099999998
 20
1826.474727
 30
0.0
 41
40.0
 42
40.0
 43
40.0
 50
180.0
  0
INSERT
  5
7E78
  8
3
  6
CONTINUOUS
 62
     0
  2
_OPEN
 10
1686.5340510000001
 20
1826.474727
 30
0.0
 41
40.0
 42
40.0
 43
40.0
  0
TEXT
  8
3
  40
60
  5
7EDD
  62
0
  72
0
  71
0
 10
1200.93
 20
1770.27
 30
0.000000
  1
740
  0
POINT
  5
7E7A
  8
DEFPOINTS
  6
CONTINUOUS
 62
     0
 10
946.53405099999998
 20
1977.181292
 30
0.0
  0
POINT
  5
7E7B
  8
DEFPOINTS
  6
CONTINUOUS
 62
     0
 10
1686.5340510000001
 20
1888.330358823765
 30
0.0
  0
POINT
  5
7E7C
  8
DEFPOINTS
  6
CONTINUOUS
 62
     0
 10
1686.5340510000001
 20
1826.474727
 30
0.0
  0
ENDBLK
  5
7E12
  8
0
  0
BLOCK
  8
0
  2
*D9
 70
     1
 10
0.0
 20
0.0
 30
0.0
  3
*D9
  1

  0
LINE
  5
7E7D
  8
3
  6
CONTINUOUS
 62
     0
 10
1946.5340510000001
 20
1967.181292
 30
0.0
 11
1946.5340510000001
 21
1806.474727
 31
0.0
  0
LINE
  5
7E7E
  8
3
  6
CONTINUOUS
 62
     0
 10
1726.5340510000001
 20
1826.474727
 30
0.0
 11
1906.5340510000001
 21
1826.474727
 31
0.0
  0
TEXT
  8
3
  40
60
  5
7EDE
  62
0
  72
0
  71
0
 10
1712.65
 20
1769.25
 30
0.000000
  1
260
  0
INSERT
  5
7E80
  8
3
  6
CONTINUOUS
 62
     0
  2
_OPEN
 10
1686.5340510000001
 20
1826.474727
 30
0.0
 41
40.0
 42
40.0
 43
40.0
 50
180.0
  0
INSERT
  5
7E81
  8
3
  6
CONTINUOUS
 62
     0
  2
_OPEN
 10
1946.5340510000001
 20
1826.474727
 30
0.0
 41
40.0
 42
40.0
 43
40.0
  0
POINT
  5
7E82
  8
DEFPOINTS
  6
CONTINUOUS
 62
     0
 10
1686.5340510000001
 20
1884.504481285639
 30
0.0
  0
POINT
  5
7E83
  8
DEFPOINTS
  6
CONTINUOUS
 62
     0
 10
1946.5340510000001
 20
1977.181292
 30
0.0
  0
POINT
  5
7E84
  8
DEFPOINTS
  6
CONTINUOUS
 62
     0
 10
1946.5340510000001
 20
1826.474727
 30
0.0
  0
ENDBLK
  5
7DFD
  8
0
  0
BLOCK
  8
0
  2
*D10
 70
     1
 10
0.0
 20
0.0
 30
0.0
  3
*D10
  1

  0
LINE
  5
7E85
  8
3
  6
CONTINUOUS
 62
     0
 10
2816.2473140000002
 20
1967.181292
 30
0.0
 11
2816.2473140000002
 21
1812.6507640559209
 31
0.0
  0
LINE
  5
7E86
  8
3
  6
CONTINUOUS
 62
     0
 10
3152.2473140000002
 20
1870.7951033572749
 30
0.0
 11
3152.2473140000002
 21
1812.6507640559209
 31
0.0
  0
LINE
  5
7E87
  8
3
  6
CONTINUOUS
 62
     0
 10
2856.2473140000002
 20
1832.6507640559209
 30
0.0
 11
3112.2473140000002
 21
1832.6507640559209
 31
0.0
  0
INSERT
  5
7E88
  8
3
  6
CONTINUOUS
 62
     0
  2
_OPEN
 10
2816.2473140000002
 20
1832.6507640559209
 30
0.0
 41
40.0
 42
40.0
 43
40.0
 50
180.0
  0
INSERT
  5
7E89
  8
3
  6
CONTINUOUS
 62
     0
  2
_OPEN
 10
3152.2473140000002
 20
1832.6507640559209
 30
0.0
 41
40.0
 42
40.0
 43
40.0
  0
TEXT
  8
3
  40
60
  5
7EDF
  62
0
  72
0
  71
0
 10
2865.18
 20
1776.45
 30
0.000000
  1
336
  0
POINT
  5
7E8B
  8
DEFPOINTS
  6
CONTINUOUS
 62
     0
 10
2816.2473140000002
 20
1977.181292
 30
0.0
  0
POINT
  5
7E8C
  8
DEFPOINTS
  6
CONTINUOUS
 62
     0
 10
3152.2473140000002
 20
1880.7951033572749
 30
0.0
  0
POINT
  5
7E8D
  8
DEFPOINTS
  6
CONTINUOUS
 62
     0
 10
3152.2473140000002
 20
1832.6507640559209
 30
0.0
  0
ENDBLK
  5
7D94
  8
0
  0
BLOCK
  8
0
  2
*D11
 70
     1
 10
0.0
 20
0.0
 30
0.0
  3
*D11
  1

  0
LINE
  5
7E8E
  8
3
  6
CONTINUOUS
 62
     0
 10
3426.2473140000002
 20
1967.181292
 30
0.0
 11
3426.2473140000002
 21
1812.6507640559209
 31
0.0
  0
LINE
  5
7E8F
  8
3
  6
CONTINUOUS
 62
     0
 10
3192.2473140000002
 20
1832.6507640559209
 30
0.0
 11
3386.2473140000002
 21
1832.6507640559209
 31
0.0
  0
TEXT
  8
3
  40
60
  5
7EE0
  62
0
  72
0
  71
0
 10
3179.27
 20
1775.79
 30
0.000000
  1
274
  0
INSERT
  5
7E91
  8
3
  6
CONTINUOUS
 62
     0
  2
_OPEN
 10
3152.2473140000002
 20
1832.6507640559209
 30
0.0
 41
40.0
 42
40.0
 43
40.0
 50
180.0
  0
INSERT
  5
7E92
  8
3
  6
CONTINUOUS
 62
     0
  2
_OPEN
 10
3426.2473140000002
 20
1832.6507640559209
 30
0.0
 41
40.0
 42
40.0
 43
40.0
  0
POINT
  5
7E93
  8
DEFPOINTS
  6
CONTINUOUS
 62
     0
 10
3152.2473140000002
 20
1879.373596125487
 30
0.0
  0
POINT
  5
7E94
  8
DEFPOINTS
  6
CONTINUOUS
 62
     0
 10
3426.2473140000002
 20
1977.181292
 30
0.0
  0
POINT
  5
7E95
  8
DEFPOINTS
  6
CONTINUOUS
 62
     0
 10
3426.2473140000002
 20
1832.6507640559209
 30
0.0
  0
ENDBLK
  5
7D9E
  8
0
  0
BLOCK
  8
0
  2
*D12
 70
     1
 10
0.0
 20
0.0
 30
0.0
  3
*D12
  1

  0
LINE
  5
7E96
  8
3
  6
CONTINUOUS
 62
     0
 10
3312.2473140000002
 20
2652.1812920000002
 30
0.0
 11
3498.1463429999999
 21
2652.1812920000002
 31
0.0
  0
LINE
  5
7E97
  8
3
  6
CONTINUOUS
 62
     0
 10
3312.2473140000002
 20
2222.1812920000002
 30
0.0
 11
3498.1463429999999
 21
2222.1812920000002
 31
0.0
  0
LINE
  5
7E98
  8
3
  6
CONTINUOUS
 62
     0
 10
3478.1463429999999
 20
2612.1812920000002
 30
0.0
 11
3478.1463429999999
 21
2262.1812920000002
 31
0.0
  0
INSERT
  5
7E99
  8
3
  6
CONTINUOUS
 62
     0
  2
_OPEN
 10
3478.1463429999999
 20
2652.1812920000002
 30
0.0
 41
40.0
 42
40.0
 43
40.0
 50
90.0
  0
INSERT
  5
7E9A
  8
3
  6
CONTINUOUS
 62
     0
  2
_OPEN
 10
3478.1463429999999
 20
2222.1812920000002
 30
0.0
 41
40.0
 42
40.0
 43
40.0
 50
270.0
  0
TEXT
  8
3
  40
60
  5
7EE1
  62
0
  72
0
  71
0
 10
3308.15
 20
2342.95
 30
0.000000
  1
φ430
  0
POINT
  5
7E9C
  8
DEFPOINTS
  6
CONTINUOUS
 62
     0
 10
3302.2473140000002
 20
2652.1812920000002
 30
0.0
  0
POINT
  5
7E9D
  8
DEFPOINTS
  6
CONTINUOUS
 62
     0
 10
3302.2473140000002
 20
2222.1812920000002
 30
0.0
  0
POINT
  5
7E9E
  8
DEFPOINTS
  6
CONTINUOUS
 62
     0
 10
3478.1463429999999
 20
2222.1812920000002
 30
0.0
  0
ENDBLK
  5
7D74
  8
0
  0
BLOCK
  8
0
  2
*D13
 70
     1
 10
0.0
 20
0.0
 30
0.0
  3
*D13
  1

  0
LINE
  5
7E9F
  8
3
  6
CONTINUOUS
 62
     0
 10
1956.5340510000001
 20
4075.9512920000002
 30
0.0
 11
2202.7664829999999
 21
4075.9512920000002
 31
0.0
  0
LINE
  5
7EA0
  8
3
  6
CONTINUOUS
 62
     0
 10
1956.5340510000001
 20
3465.9512920000002
 30
0.0
 11
2202.7664829999999
 21
3465.9512920000002
 31
0.0
  0
LINE
  5
7EA1
  8
3
  6
CONTINUOUS
 62
     0
 10
2182.7664829999999
 20
4035.9512920000002
 30
0.0
 11
2182.7664829999999
 21
3505.9512920000002
 31
0.0
  0
INSERT
  5
7EA2
  8
3
  6
CONTINUOUS
 62
     0
  2
_OPEN
 10
2182.7664829999999
 20
4075.9512920000002
 30
0.0
 41
40.0
 42
40.0
 43
40.0
 50
90.0
  0
INSERT
  5
7EA3
  8
3
  6
CONTINUOUS
 62
     0
  2
_OPEN
 10
2182.7664829999999
 20
3465.9512920000002
 30
0.0
 41
40.0
 42
40.0
 43
40.0
 50
270.0
  0
TEXT
  8
3
  40
60
  5
7EE2
  62
0
  72
0
  71
0
 10
2012.77
 20
3674.37
 30
0.000000
  1
610
  0
POINT
  5
7EA5
  8
DEFPOINTS
  6
CONTINUOUS
 62
     0
 10
1946.5340510000001
 20
4075.9512920000002
 30
0.0
  0
POINT
  5
7EA6
  8
DEFPOINTS
  6
CONTINUOUS
 62
     0
 10
1946.5340510000001
 20
3465.9512920000002
 30
0.0
  0
POINT
  5
7EA7
  8
DEFPOINTS
  6
CONTINUOUS
 62
     0
 10
2182.7664829999999
 20
3465.9512920000002
 30
0.0
  0
ENDBLK
  5
7CC7
  8
0
  0
BLOCK
  8
0
  2
*D14
 70
     1
 10
0.0
 20
0.0
 30
0.0
  3
*D14
  1

  0
LINE
  5
7EA8
  8
3
  6
CONTINUOUS
 62
     0
 10
946.53405099999998
 20
4085.9512919999988
 30
0.0
 11
946.53405099999998
 21
4188.5950489999996
 31
0.0
  0
LINE
  5
7EA9
  8
3
  6
CONTINUOUS
 62
     0
 10
1946.5340510000001
 20
4085.9512919999988
 30
0.0
 11
1946.5340510000001
 21
4188.5950489999996
 31
0.0
  0
LINE
  5
7EAA
  8
3
  6
CONTINUOUS
 62
     0
 10
986.53405099999986
 20
4168.5950489999996
 30
0.0
 11
1906.5340510000001
 21
4168.5950489999996
 31
0.0
  0
INSERT
  5
7EAB
  8
3
  6
CONTINUOUS
 62
     0
  2
_OPEN
 10
946.53405099999998
 20
4168.5950489999996
 30
0.0
 41
40.0
 42
40.0
 43
40.0
 50
180.0
  0
INSERT
  5
7EAC
  8
3
  6
CONTINUOUS
 62
     0
  2
_OPEN
 10
1946.5340510000001
 20
4168.5950489999996
 30
0.0
 41
40.0
 42
40.0
 43
40.0
  0
TEXT
  8
3
  40
60
  5
7EE3
  62
0
  72
0
  71
0
 10
1288.25
 20
4112.40
 30
0.000000
  1
1000
  0
POINT
  5
7EAE
  8
DEFPOINTS
  6
CONTINUOUS
 62
     0
 10
946.53405099999998
 20
4075.9512920000002
 30
0.0
  0
POINT
  5
7EAF
  8
DEFPOINTS
  6
CONTINUOUS
 62
     0
 10
1946.5340510000001
 20
4075.9512920000002
 30
0.0
  0
POINT
  5
7EB0
  8
DEFPOINTS
  6
CONTINUOUS
 62
     0
 10
1946.5340510000001
 20
4168.5950489999996
 30
0.0
  0
ENDBLK
  5
7CBC
  8
0
  0
BLOCK
  8
0
  2
*D15
 70
     1
 10
0.0
 20
0.0
 30
0.0
  3
*D15
  1

  0
LINE
  5
7EB1
  8
3
  6
CONTINUOUS
 62
     0
 10
3002.2473140000002
 20
2747.1812920000002
 30
0.0
 11
3002.2473140000002
 21
2847.678625
 31
0.0
  0
LINE
  5
7EB2
  8
3
  6
CONTINUOUS
 62
     0
 10
3302.2473140000002
 20
2747.1812920000002
 30
0.0
 11
3302.2473140000002
 21
2847.678625
 31
0.0
  0
LINE
  5
7EB3
  8
3
  6
CONTINUOUS
 62
     0
 10
2962.2473140000002
 20
2827.678625
 30
0.0
 11
2922.2473140000002
 21
2827.678625
 31
0.0
  0
LINE
  5
7EB4
  8
3
  6
CONTINUOUS
 62
     0
 10
3342.2473140000002
 20
2827.678625
 30
0.0
 11
3382.2473140000002
 21
2827.678625
 31
0.0
  0
LINE
  5
7EB5
  8
3
  6
CONTINUOUS
 62
     0
 10
3002.2473140000002
 20
2827.678625
 30
0.0
 11
3302.2473140000002
 21
2827.678625
 31
0.0
  0
INSERT
  5
7EB6
  8
3
  6
CONTINUOUS
 62
     0
  2
_OPEN
 10
3002.2473140000002
 20
2827.678625
 30
0.0
 41
40.0
 42
40.0
 43
40.0
  0
INSERT
  5
7EB7
  8
3
  6
CONTINUOUS
 62
     0
  2
_OPEN
 10
3302.2473140000002
 20
2827.678625
 30
0.0
 41
40.0
 42
40.0
 43
40.0
 50
180.0
  0
TEXT
  8
3
  40
60
  5
7EE4
  62
0
  72
0
  71
0
 10
3019.39
 20
2771.48
 30
0.000000
  1
300
  0
POINT
  5
7EB9
  8
DEFPOINTS
  6
CONTINUOUS
 62
     0
 10
3002.2473140000002
 20
2737.1812920000002
 30
0.0
  0
POINT
  5
7EBA
  8
DEFPOINTS
  6
CONTINUOUS
 62
     0
 10
3302.2473140000002
 20
2737.1812920000002
 30
0.0
  0
POINT
  5
7EBB
  8
DEFPOINTS
  6
CONTINUOUS
 62
     0
 10
3302.2473140000002
 20
2827.678625
 30
0.0
  0
ENDBLK
  5
7D0D
  8
0
  0
BLOCK
  8
0
  2
*D16
 70
     1
 10
0.0
 20
0.0
 30
0.0
  3
*D16
  1

  0
LINE
  5
7EBC
  8
3
  6
CONTINUOUS
 62
     0
 10
2822.2473140000002
 20
2762.1812920000002
 30
0.0
 11
2822.2473140000002
 21
2981.9068200392371
 31
0.0
  0
LINE
  5
7EBD
  8
3
  6
CONTINUOUS
 62
     0
 10
3152.2473140000002
 20
2926.7854809791529
 30
0.0
 11
3152.2473140000002
 21
2981.9068200392371
 31
0.0
  0
LINE
  5
7EBE
  8
3
  6
CONTINUOUS
 62
     0
 10
2862.2473140000002
 20
2961.9068200392371
 30
0.0
 11
3112.2473140000002
 21
2961.9068200392371
 31
0.0
  0
INSERT
  5
7EBF
  8
3
  6
CONTINUOUS
 62
     0
  2
_OPEN
 10
2822.2473140000002
 20
2961.9068200392371
 30
0.0
 41
40.0
 42
40.0
 43
40.0
 50
180.0
  0
INSERT
  5
7EC0
  8
3
  6
CONTINUOUS
 62
     0
  2
_OPEN
 10
3152.2473140000002
 20
2961.9068200392371
 30
0.0
 41
40.0
 42
40.0
 43
40.0
  0
TEXT
  8
3
  40
60
  5
7EE5
  62
0
  72
0
  71
0
 10
2847.96
 20
2955.71
 30
0.000000
  1
MAX
  0
TEXT
  8
3
  40
60
  5
7EE6
  62
0
  72
0
  71
0
 10
2847.96
 20
2877.71
 30
0.000000
  1
380
  0
POINT
  5
7EC2
  8
DEFPOINTS
  6
CONTINUOUS
 62
     0
 10
2822.2473140000002
 20
2752.1812920000002
 30
0.0
  0
POINT
  5
7EC3
  8
DEFPOINTS
  6
CONTINUOUS
 62
     0
 10
3152.2473140000002
 20
2916.7854809791529
 30
0.0
  0
POINT
  5
7EC4
  8
DEFPOINTS
  6
CONTINUOUS
 62
     0
 10
3152.2473140000002
 20
2961.9068200392371
 30
0.0
  0
ENDBLK
  5
7DF3
  8
0
  0
BLOCK
  8
0
  2
*D17
 70
     1
 10
0.0
 20
0.0
 30
0.0
  3
*D17
  1

  0
LINE
  5
7EC5
  8
3
  6
CONTINUOUS
 62
     0
 10
3303.2473140000002
 20
2662.1812920000002
 30
0.0
 11
3303.2473140000002
 21
2981.9068200392371
 31
0.0
  0
LINE
  5
7EC6
  8
3
  6
CONTINUOUS
 62
     0
 10
3192.2473140000002
 20
2961.9068200392371
 30
0.0
 11
3263.2473140000002
 21
2961.9068200392371
 31
0.0
  0
TEXT
  8
3
  40
60
  5
7EE7
  62
0
  72
0
  71
0
 10
3099.67
 20
2905.51
 30
0.000000
  1
151
  0
INSERT
  5
7EC8
  8
3
  6
CONTINUOUS
 62
     0
  2
_OPEN
 10
3152.2473140000002
 20
2961.9068200392371
 30
0.0
 41
40.0
 42
40.0
 43
40.0
 50
180.0
  0
INSERT
  5
7EC9
  8
3
  6
CONTINUOUS
 62
     0
  2
_OPEN
 10
3303.2473140000002
 20
2961.9068200392371
 30
0.0
 41
40.0
 42
40.0
 43
40.0
  0
POINT
  5
7ECA
  8
DEFPOINTS
  6
CONTINUOUS
 62
     0
 10
3152.2473140000002
 20
2916.7854809791529
 30
0.0
  0
POINT
  5
7ECB
  8
DEFPOINTS
  6
CONTINUOUS
 62
     0
 10
3303.2473140000002
 20
2652.1812920000002
 30
0.0
  0
POINT
  5
7ECC
  8
DEFPOINTS
  6
CONTINUOUS
 62
     0
 10
3303.2473140000002
 20
2961.9068200392371
 30
0.0
  0
ENDBLK
  5
7DDD
  8
0
  0
BLOCK
  8
0
  2
*D18
 70
     1
 10
0.0
 20
0.0
 30
0.0
  3
*D18
  1

  0
LINE
  5
7ECD
  8
3
 62
     0
 10
1986.5340510000001
 20
2717.1812920000002
 30
0.0
 11
1986.5340510000001
 21
3073.8118955885111
 31
0.0
  0
LINE
  5
7ECE
  8
3
 62
     0
 10
946.53405099999998
 20
2107.1812920000002
 30
0.0
 11
946.53405099999998
 21
3073.8118955885111
 31
0.0
  0
LINE
  5
7ECF
  8
3
 62
     0
 10
1946.5340510000001
 20
3053.8118955885111
 30
0.0
 11
986.53405100000009
 21
3053.8118955885111
 31
0.0
  0
INSERT
  5
7ED0
  8
3
 62
     0
  2
_OPEN
 10
1986.5340510000001
 20
3053.8118955885111
 30
0.0
 41
40.0
 42
40.0
 43
40.0
  0
INSERT
  5
7ED1
  8
3
 62
     0
  2
_OPEN
 10
946.53405099999998
 20
3053.8118955885111
 30
0.0
 41
40.0
 42
40.0
 43
40.0
 50
180.0
  0
TEXT
  8
3
  40
60
  5
7EE8
  62
0
  72
0
  71
0
 10
1372.49
 20
2997.61
 30
0.000000
  1
1040
  0
POINT
  5
7ED3
  8
DEFPOINTS
 62
     0
 10
1986.5340510000001
 20
2707.1812920000002
 30
0.0
  0
POINT
  5
7ED4
  8
DEFPOINTS
 62
     0
 10
946.53405099999998
 20
2097.1812920000002
 30
0.0
  0
POINT
  5
7ED5
  8
DEFPOINTS
 62
     0
 10
946.53405099999998
 20
3053.8118955885111
 30
0.0
  0
ENDBLK
  5
7D68
  8
0
  0
ENDSEC
  0
SECTION
  2
ENTITIES
  0
LINE
  5
7A6F
  8
1
  6
CONTINUOUS
 10
3426.2473140000002
 20
2017.181292
 30
0.0
 11
2816.2473140000002
 21
2017.181292
 31
0.0
  0
LINE
  5
7A70
  8
1
  6
CONTINUOUS
 10
3346.2473140000002
 20
2097.1812920000002
 30
0.0
 11
2822.2473140000002
 21
2097.1812920000002
 31
0.0
  0
LINE
  5
7A71
  8
1
  6
CONTINUOUS
 10
3329.2473140000002
 20
2737.1812920000002
 30
0.0
 11
2975.2473140000002
 21
2737.1812920000002
 31
0.0
  0
LINE
  5
7A72
  8
1
  6
CONTINUOUS
 10
3302.2473140000002
 20
2097.1812920000002
 30
0.0
 11
3002.2473140000002
 21
2097.1812920000002
 31
0.0
  0
LINE
  5
7A73
  8
1
  6
CONTINUOUS
 10
3302.2473140000002
 20
2717.1812920000002
 30
0.0
 11
3002.2473140000002
 21
2717.1812920000002
 31
0.0
  0
LINE
  5
7A74
  8
1
  6
CONTINUOUS
 10
3426.2473140000002
 20
1977.181292
 30
0.0
 11
2816.2473140000002
 21
1977.181292
 31
0.0
  0
LINE
  5
7A75
  8
1
  6
CONTINUOUS
 10
1717.4540509999999
 20
2342.0812919999998
 30
0.0
 11
1173.224050999999
 21
2165.1212919999998
 31
0.0
  0
LINE
  5
7A76
  8
1
  6
CONTINUOUS
 10
1128.354051
 20
2276.1012919999998
 30
0.0
 11
1642.684050999999
 21
2527.0512920000001
 31
0.0
  0
LINE
  5
7A77
  8
1
  6
CONTINUOUS
 10
1946.5340510000001
 20
2017.181292
 30
0.0
 11
946.53405099999998
 21
2017.181292
 31
0.0
  0
LINE
  5
7A78
  8
1
  6
CONTINUOUS
 10
1672.034050999999
 20
2752.1812920000002
 30
0.0
 11
992.03405099999998
 21
2347.1812920000002
 31
0.0
  0
LINE
  5
7A79
  8
1
  6
CONTINUOUS
 10
1698.5340510000001
 20
2717.1812920000002
 30
0.0
 11
1298.664051
 21
2717.1812920000002
 31
0.0
  0
LINE
  5
7A7A
  8
1
  6
CONTINUOUS
 10
946.53405099999998
 20
2097.1812920000002
 30
0.0
 11
1986.5340510000001
 21
2097.1812920000002
 31
0.0
  0
ARC
  5
7A7B
  8
1
  6
CONTINUOUS
 10
1659.5340510000001
 20
2464.1812920000002
 30
0.0
 40
360.00999999999988
 50
184.2999999999999
 51
275.82999999999993
  0
LINE
  5
7A7C
  8
1
  6
CONTINUOUS
 10
1725.5340510000001
 20
2737.1812920000002
 30
0.0
 11
1271.5340510000001
 21
2737.1812920000002
 31
0.0
  0
LINE
  5
7A7D
  8
1
  6
CONTINUOUS
 10
992.03405099999998
 20
2097.1812920000002
 30
0.0
 11
992.03405099999998
 21
2347.1812920000002
 31
0.0
  0
LINE
  5
7A7E
  8
1
  6
CONTINUOUS
 10
946.53405099999998
 20
1977.181292
 30
0.0
 11
986.53405099999986
 21
1977.181292
 31
0.0
  0
LINE
  5
7A7F
  8
1
  6
CONTINUOUS
 10
986.53405099999986
 20
2017.181292
 30
0.0
 11
986.53405099999986
 21
1977.181292
 31
0.0
  0
LINE
  5
7A80
  8
1
  6
CONTINUOUS
 10
946.53405099999998
 20
2097.1812920000002
 30
0.0
 11
946.53405099999998
 21
1977.181292
 31
0.0
  0
LINE
  5
7A81
  8
2
  6
CENTER
 10
1094.664051
 20
2222.1812920000002
 30
0.0
 11
1214.6640509999991
 21
2222.1812920000002
 31
0.0
  0
ARC
  5
7A82
  8
1
  6
CONTINUOUS
 10
1154.6640509999991
 20
2222.1812920000002
 30
0.0
 40
101.0
 50
322.88
 51
217.12
  0
CIRCLE
  5
7A83
  8
1
  6
CONTINUOUS
 10
1154.6640509999991
 20
2222.1812920000002
 30
0.0
 40
60.0
  0
LINE
  5
7A84
  8
2
  6
CENTER
 10
1154.6640509999991
 20
2162.1812920000002
 30
0.0
 11
1154.6640509999991
 21
2282.1812920000002
 31
0.0
  0
LINE
  5
7A85
  8
1
  6
CONTINUOUS
 10
1054.664051
 20
2134.1812920000002
 30
0.0
 11
1074.134051
 21
2161.2212920000002
 31
0.0
  0
LINE
  5
7A86
  8
1
  6
CONTINUOUS
 10
1054.664051
 20
2097.1812920000002
 30
0.0
 11
1054.664051
 21
2134.1812920000002
 31
0.0
  0
LINE
  5
7A87
  8
1
  6
CONTINUOUS
 10
1254.664051
 20
2097.1812920000002
 30
0.0
 11
1254.664051
 21
2134.1812920000002
 31
0.0
  0
LINE
  5
7A88
  8
1
  6
CONTINUOUS
 10
1254.664051
 20
2134.1812920000002
 30
0.0
 11
1235.2040509999999
 21
2161.2212920000002
 31
0.0
  0
LINE
  5
7A89
  8
1
  6
CONTINUOUS
 10
1298.5340510000001
 20
2737.1812920000002
 30
0.0
 11
1300.5340510000001
 21
2437.1812920000002
 31
0.0
  0
CIRCLE
  5
7A8A
  8
1
  6
CONTINUOUS
 10
1686.5340510000001
 20
2437.1812920000002
 30
0.0
 40
240.0
  0
LINE
  5
7A8B
  8
1
  6
CONTINUOUS
 10
1946.5340510000001
 20
1977.181292
 30
0.0
 11
1906.5340510000001
 21
1977.181292
 31
0.0
  0
LINE
  5
7A8C
  8
1
  6
CONTINUOUS
 10
1386.5340510000001
 20
2707.1812920000002
 30
0.0
 11
1986.5340510000001
 21
2707.1812920000002
 31
0.0
  0
ARC
  5
7A8D
  8
1
  6
CONTINUOUS
 10
1703.5340510000001
 20
2420.1812920000002
 30
0.0
 40
271.43999999999988
 50
7.3099999999999996
 51
91.060000000000016
  0
ARC
  5
7A8E
  8
1
  6
CONTINUOUS
 10
1664.5340510000001
 20
2415.1812920000002
 30
0.0
 40
310.75999999999999
 50
275.82999999999993
 51
7.3099999999999996
  0
LINE
  5
7A8F
  8
1
  6
CONTINUOUS
 10
1862.0340510000001
 20
2097.1812920000002
 30
0.0
 11
1862.0340510000001
 21
2637.1812920000002
 31
0.0
  0
CIRCLE
  5
7A90
  8
1
  6
CONTINUOUS
 10
1686.5340510000001
 20
2437.1812920000002
 30
0.0
 40
100.0
  0
LINE
  5
7A91
  8
1
  6
CONTINUOUS
 10
1386.5340510000001
 20
2707.1812920000002
 30
0.0
 11
1386.5340510000001
 21
2097.1812920000002
 31
0.0
  0
LINE
  5
7A92
  8
2
  6
CENTER
 10
1686.5340510000001
 20
4039.5712477648572
 30
0.0
 11
1686.5340510000001
 21
3370.5555810000001
 31
0.0
  0
CIRCLE
  5
7A93
  8
1
  6
CONTINUOUS
 10
1686.5340510000001
 20
2437.1812920000002
 30
0.0
 40
215.0
  0
LINE
  5
7A94
  8
1
  6
CONTINUOUS
 10
1906.5340510000001
 20
2017.181292
 30
0.0
 11
1906.5340510000001
 21
1977.181292
 31
0.0
  0
LINE
  5
7A95
  8
2
  6
CENTER
 10
1027.8409776420081
 20
2437.1812920000002
 30
0.0
 11
2128.5166068328622
 21
2437.1812920000002
 31
0.0
  0
LINE
  5
7A96
  8
1
  6
CONTINUOUS
 10
1862.0340510000001
 20
2637.1812920000002
 30
0.0
 11
1672.034050999999
 21
2752.1812920000002
 31
0.0
  0
LINE
  5
7A97
  8
1
  6
CONTINUOUS
 10
1698.5340510000001
 20
2691.5712920000001
 30
0.0
 11
1698.5340510000001
 21
2737.1812920000002
 31
0.0
  0
LINE
  5
7A98
  8
1
  6
CONTINUOUS
 10
2822.2473140000002
 20
2097.1812920000002
 30
0.0
 11
2822.2473140000002
 21
2752.1812920000002
 31
0.0
  0
LINE
  5
7A99
  8
1
  6
CONTINUOUS
 10
2922.2473140000002
 20
2097.1812920000002
 30
0.0
 11
2922.2473140000002
 21
2752.1812920000002
 31
0.0
  0
LINE
  5
7A9A
  8
1
  6
CONTINUOUS
 10
2897.2473140000002
 20
2335.4112919999998
 30
0.0
 11
2897.2473140000002
 21
2538.941292
 31
0.0
  0
LINE
  5
7A9B
  8
1
  6
CONTINUOUS
 10
2847.2473140000002
 20
2335.4112919999998
 30
0.0
 11
2847.2473140000002
 21
2538.941292
 31
0.0
  0
LINE
  5
7A9C
  8
1
  6
CONTINUOUS
 10
3002.2473140000002
 20
2097.1812920000002
 30
0.0
 11
3002.2473140000002
 21
2737.1812920000002
 31
0.0
  0
LINE
  5
7A9D
  8
1
  6
CONTINUOUS
 10
1986.5340510000001
 20
2707.1812920000002
 30
0.0
 11
1986.5340510000001
 21
2097.1812920000002
 31
0.0
  0
LINE
  5
7A9E
  8
1
  6
CONTINUOUS
 10
1946.5340510000001
 20
2097.1812920000002
 30
0.0
 11
1946.5340510000001
 21
1977.181292
 31
0.0
  0
LINE
  5
7A9F
  8
1
  6
CONTINUOUS
 10
2897.2473140000002
 20
2236.1812920000002
 30
0.0
 11
3002.2473140000002
 21
2236.1812920000002
 31
0.0
  0
LINE
  5
7AA0
  8
1
  6
CONTINUOUS
 10
2897.2473140000002
 20
2208.1812920000002
 30
0.0
 11
3002.2473140000002
 21
2208.1812920000002
 31
0.0
  0
LINE
  5
7AA1
  8
1
  6
CONTINUOUS
 10
2897.2473140000002
 20
2162.1812920000002
 30
0.0
 11
2897.2473140000002
 21
2282.1812920000002
 31
0.0
  0
LINE
  5
7AA2
  8
1
  6
CONTINUOUS
 10
2847.2473140000002
 20
2162.1812920000002
 30
0.0
 11
2847.2473140000002
 21
2282.1812920000002
 31
0.0
  0
LINE
  5
7AA3
  8
1
  6
CONTINUOUS
 10
2847.2473140000002
 20
2282.1812920000002
 30
0.0
 11
2897.2473140000002
 21
2282.1812920000002
 31
0.0
  0
LINE
  5
7AA4
  8
1
  6
CONTINUOUS
 10
2847.2473140000002
 20
2162.1812920000002
 30
0.0
 11
2897.2473140000002
 21
2162.1812920000002
 31
0.0
  0
LINE
  5
7AA5
  8
1
  6
CONTINUOUS
 10
2847.2473140000002
 20
2335.4112919999998
 30
0.0
 11
2897.2473140000002
 21
2335.4112919999998
 31
0.0
  0
LINE
  5
7AA6
  8
1
  6
CONTINUOUS
 10
2816.2473140000002
 20
2017.181292
 30
0.0
 11
2816.2473140000002
 21
1977.181292
 31
0.0
  0
LINE
  5
7AA7
  8
1
  6
CONTINUOUS
 10
2958.2473140000002
 20
2097.1812920000002
 30
0.0
 11
2958.2473140000002
 21
2017.181292
 31
0.0
  0
LINE
  5
7AA8
  8
1
  6
CONTINUOUS
 10
2822.2473140000002
 20
2752.1812920000002
 30
0.0
 11
2922.2473140000002
 21
2752.1812920000002
 31
0.0
  0
LINE
  5
7AA9
  8
1
  6
CONTINUOUS
 10
2897.2473140000002
 20
2452.941292
 30
0.0
 11
3002.2473140000002
 21
2452.941292
 31
0.0
  0
LINE
  5
7AAA
  8
1
  6
CONTINUOUS
 10
2897.2473140000002
 20
2424.941292
 30
0.0
 11
3002.2473140000002
 21
2424.941292
 31
0.0
  0
LINE
  5
7AAB
  8
1
  6
CONTINUOUS
 10
2847.2473140000002
 20
2538.941292
 30
0.0
 11
2897.2473140000002
 21
2538.941292
 31
0.0
  0
LINE
  5
7AAC
  8
1
  6
CONTINUOUS
 10
3302.2473140000002
 20
2097.1812920000002
 30
0.0
 11
3302.2473140000002
 21
2737.1812920000002
 31
0.0
  0
LINE
  5
7AAD
  8
1
  6
CONTINUOUS
 10
3346.2473140000002
 20
2097.1812920000002
 30
0.0
 11
3346.2473140000002
 21
2017.181292
 31
0.0
  0
LINE
  5
7AAE
  8
1
  6
CONTINUOUS
 10
3426.2473140000002
 20
2017.181292
 30
0.0
 11
3426.2473140000002
 21
1977.181292
 31
0.0
  0
LINE
  5
7AAF
  8
1
  6
CONTINUOUS
 10
1672.5340510000001
 20
3607.9512920000002
 30
0.0
 11
1168.664051
 21
3607.9512920000002
 31
0.0
  0
LINE
  5
7AB0
  8
1
  6
CONTINUOUS
 10
1297.4640509999999
 20
3651.9512920000002
 30
0.0
 11
1986.5340510000001
 21
3651.9512920000002
 31
0.0
  0
LINE
  5
7AB1
  8
1
  6
CONTINUOUS
 10
1297.4640509999999
 20
3951.9512920000002
 30
0.0
 11
1986.5340510000001
 21
3951.9512920000002
 31
0.0
  0
LINE
  5
7AB2
  8
1
  6
CONTINUOUS
 10
1946.5340510000001
 20
3995.9512920000002
 30
0.0
 11
946.53405099999998
 21
3995.9512920000002
 31
0.0
  0
LINE
  5
7AB3
  8
1
  6
CONTINUOUS
 10
992.03405099999998
 20
3471.9512919999988
 30
0.0
 11
1862.0340510000001
 21
3471.9512919999988
 31
0.0
  0
LINE
  5
7AB4
  8
1
  6
CONTINUOUS
 10
992.03405099999998
 20
3571.9512920000002
 30
0.0
 11
1862.0340510000001
 21
3571.9512920000002
 31
0.0
  0
LINE
  5
7AB5
  8
1
  6
CONTINUOUS
 10
1697.4640509999999
 20
3651.9512920000002
 30
0.0
 11
1297.4640509999999
 21
3951.9512920000002
 31
0.0
  0
LINE
  5
7AB6
  8
1
  6
CONTINUOUS
 10
1297.4640509999999
 20
3651.9512920000002
 30
0.0
 11
1697.4640509999999
 21
3951.9512920000002
 31
0.0
  0
LINE
  5
7AB7
  8
1
  6
CONTINUOUS
 10
1140.664051
 20
3607.9512920000002
 30
0.0
 11
946.53405099999998
 21
3607.9512920000002
 31
0.0
  0
LINE
  5
7AB8
  8
1
  6
CONTINUOUS
 10
946.53405099999998
 20
4075.9512920000002
 30
0.0
 11
946.53405099999998
 21
3465.9512920000002
 31
0.0
  0
LINE
  5
7AB9
  8
1
  6
CONTINUOUS
 10
986.53405099999986
 20
3607.9512920000002
 30
0.0
 11
986.53405099999986
 21
3465.9512920000002
 31
0.0
  0
LINE
  5
7ABA
  8
1
  6
CONTINUOUS
 10
986.53405099999986
 20
3465.9512920000002
 30
0.0
 11
946.53405099999998
 21
3465.9512920000002
 31
0.0
  0
LINE
  5
7ABB
  8
1
  6
CONTINUOUS
 10
992.03405099999998
 20
3471.9512919999988
 30
0.0
 11
992.03405099999998
 21
3571.9512920000002
 31
0.0
  0
LINE
  5
7ABC
  8
1
  6
CONTINUOUS
 10
986.53405099999986
 20
4075.9512920000002
 30
0.0
 11
986.53405099999986
 21
3995.9512920000002
 31
0.0
  0
LINE
  5
7ABD
  8
1
  6
CONTINUOUS
 10
986.53405099999986
 20
4075.9512920000002
 30
0.0
 11
946.53405099999998
 21
4075.9512920000002
 31
0.0
  0
LINE
  5
7ABE
  8
1
  6
CONTINUOUS
 10
1297.4640509999999
 20
3651.9512920000002
 30
0.0
 11
1297.4640509999999
 21
3951.9512920000002
 31
0.0
  0
LINE
  5
7ABF
  8
1
  6
CONTINUOUS
 10
1255.664051
 20
3638.671292
 30
0.0
 11
1255.664051
 21
3881.3512919999998
 31
0.0
  0
LINE
  5
7AC0
  8
1
  6
CONTINUOUS
 10
1053.6640509999991
 20
3638.671292
 30
0.0
 11
1053.6640509999991
 21
3881.3512919999998
 31
0.0
  0
LINE
  5
7AC1
  8
1
  6
CONTINUOUS
 10
1255.664051
 20
3638.671292
 30
0.0
 11
1053.6640509999991
 21
3638.671292
 31
0.0
  0
LINE
  5
7AC2
  8
1
  6
CONTINUOUS
 10
1094.664051
 20
3496.9512920000002
 30
0.0
 11
1214.6640509999991
 21
3496.9512920000002
 31
0.0
  0
LINE
  5
7AC3
  8
1
  6
CONTINUOUS
 10
1094.664051
 20
3546.9512920000002
 30
0.0
 11
1214.6640509999991
 21
3546.9512920000002
 31
0.0
  0
LINE
  5
7AC4
  8
1
  6
CONTINUOUS
 10
1140.664051
 20
3546.9512920000002
 30
0.0
 11
1140.664051
 21
3638.671292
 31
0.0
  0
LINE
  5
7AC5
  8
1
  6
CONTINUOUS
 10
1094.664051
 20
3496.9512920000002
 30
0.0
 11
1094.664051
 21
3546.9512920000002
 31
0.0
  0
LINE
  5
7AC6
  8
1
  6
CONTINUOUS
 10
1168.664051
 20
3546.9512920000002
 30
0.0
 11
1168.664051
 21
3638.671292
 31
0.0
  0
LINE
  5
7AC7
  8
1
  6
CONTINUOUS
 10
1214.6640509999991
 20
3496.9512920000002
 30
0.0
 11
1214.6640509999991
 21
3546.9512920000002
 31
0.0
  0
LINE
  5
7AC8
  8
1
  6
CONTINUOUS
 10
1255.664051
 20
3881.3512919999998
 30
0.0
 11
1053.6640509999991
 21
3881.3512919999998
 31
0.0
  0
LINE
  5
7AC9
  8
1
  6
CONTINUOUS
 10
1906.5340510000001
 20
3465.9512920000002
 30
0.0
 11
1946.5340510000001
 21
3465.9512920000002
 31
0.0
  0
LINE
  5
7ACA
  8
1
  6
CONTINUOUS
 10
1906.5340510000001
 20
4075.9512920000002
 30
0.0
 11
1946.5340510000001
 21
4075.9512920000002
 31
0.0
  0
LINE
  5
7ACB
  8
1
  6
CONTINUOUS
 10
1946.5340510000001
 20
3607.9512920000002
 30
0.0
 11
1700.534050999999
 21
3607.9512920000002
 31
0.0
  0
LINE
  5
7ACC
  8
1
  6
CONTINUOUS
 10
1584.7740510000001
 20
3496.9512920000002
 30
0.0
 11
1788.2940510000001
 21
3496.9512920000002
 31
0.0
  0
LINE
  5
7ACD
  8
1
  6
CONTINUOUS
 10
1584.7740510000001
 20
3546.9512920000002
 30
0.0
 11
1788.2940510000001
 21
3546.9512920000002
 31
0.0
  0
LINE
  5
7ACE
  8
1
  6
CONTINUOUS
 10
1584.7740510000001
 20
3496.9512920000002
 30
0.0
 11
1584.7740510000001
 21
3546.9512920000002
 31
0.0
  0
LINE
  5
7ACF
  8
1
  6
CONTINUOUS
 10
1697.4640509999999
 20
3651.9512920000002
 30
0.0
 11
1697.4640509999999
 21
3951.9512920000002
 31
0.0
  0
LINE
  5
7AD0
  8
1
  6
CONTINUOUS
 10
1674.3040510000001
 20
3546.9512920000002
 30
0.0
 11
1674.3040510000001
 21
3651.9512920000002
 31
0.0
  0
LINE
  5
7AD1
  8
1
  6
CONTINUOUS
 10
1702.3040510000001
 20
3546.9512920000002
 30
0.0
 11
1702.3040510000001
 21
3651.9512920000002
 31
0.0
  0
LINE
  5
7AD2
  8
1
  6
CONTINUOUS
 10
1906.5340510000001
 20
3607.9512920000002
 30
0.0
 11
1906.5340510000001
 21
3465.9512920000002
 31
0.0
  0
LINE
  5
7AD3
  8
1
  6
CONTINUOUS
 10
1862.0340510000001
 20
3471.9512919999988
 30
0.0
 11
1862.0340510000001
 21
3571.9512920000002
 31
0.0
  0
LINE
  5
7AD4
  8
1
  6
CONTINUOUS
 10
1788.2940510000001
 20
3496.9512920000002
 30
0.0
 11
1788.2940510000001
 21
3546.9512920000002
 31
0.0
  0
LINE
  5
7AD5
  8
1
  6
CONTINUOUS
 10
1906.5340510000001
 20
4075.9512920000002
 30
0.0
 11
1906.5340510000001
 21
3995.9512920000002
 31
0.0
  0
LINE
  5
7AD6
  8
1
  6
CONTINUOUS
 10
1986.5340510000001
 20
3651.9512920000002
 30
0.0
 11
1986.5340510000001
 21
3951.9512920000002
 31
0.0
  0
LINE
  5
7AD7
  8
1
  6
CONTINUOUS
 10
1946.5340510000001
 20
3651.9512920000002
 30
0.0
 11
1946.5340510000001
 21
3465.9512920000002
 31
0.0
  0
LINE
  5
7AD8
  8
1
  6
CONTINUOUS
 10
1946.5340510000001
 20
4075.9512920000002
 30
0.0
 11
1946.5340510000001
 21
3951.9512920000002
 31
0.0
  0
LINE
  5
7AD9
  8
2
  6
CENTER
 10
3152.2473140000002
 20
2792.591214
 30
0.0
 11
3152.2473140000002
 21
1879.373596125487
 31
0.0
  0
LINE
  5
7ADA
  8
2
  6
CENTER
 10
868.71621591152882
 20
3801.9512920000002
 30
0.0
 11
2033.5094527255601
 21
3801.9512920000002
 31
0.0
  0
LINE
  5
7ADB
  8
2
  6
CENTER
 10
2778.2133152575589
 20
2437.1812920000002
 30
0.0
 11
3331.9674885648019
 21
2437.1812920000002
 31
0.0
  0
LINE
  5
7ADC
  8
2
  6
CENTER
 10
1686.5340510000001
 20
2872.5780370000002
 30
0.0
 11
1686.5340510000001
 21
1886.034839527912
 31
0.0
  0
LINE
  5
7ADD
  8
4
  6
CONTINUOUS
 10
3700.0
 20
1000.0
 30
0.0
 11
3700.0
 21
600.0
 31
0.0
  0
LINE
  5
7ADE
  8
4
  6
CONTINUOUS
 10
2300.0
 20
1000.0
 30
0.0
 11
2300.0
 21
600.0
 31
0.0
  0
LINE
  5
7ADF
  8
4
  6
CONTINUOUS
 10
1300.0
 20
1000.0
 30
0.0
 11
1300.0
 21
600.0
 31
0.0
  0
LINE
  5
7AE2
  8
4
  6
CONTINUOUS
 10
1300.0
 20
600.0
 30
0.0
 11
3700.0
 21
600.0
 31
0.0
  0
LINE
  5
7AE3
  8
4
  6
CONTINUOUS
 10
1300.0
 20
800.0
 30
0.0
 11
3700.0
 21
800.0
 31
0.0
  0
TEXT
  5
7AE4
  8
4
  6
CONTINUOUS
 10
1377.004162
 20
863.086052
 30
0.0
 40
100.0
  1
機器名称
  0
TEXT
  5
7AE5
  8
4
  6
CONTINUOUS
 10
1372.516212
 20
643.29031299999986
 30
0.0
 40
100.0
  1
機器型番
  0
TEXT
  5
7AE6
  8
4
  6
CONTINUOUS
 10
2355.3574910000002
 20
845.14353800000015
 30
0.0
 40
100.0
  1
ミツヤ多翼送風機
  0
TEXT
  5
7AE7
  8
4
  6
CONTINUOUS
 10
2373.3089909999999
 20
634.31916899999999
 30
0.0
 40
100.0
  1
MF#2 1/2-4
  0
TEXT
  5
7AE9
  8
4
  6
CONTINUOUS
 10
1583.8045320000001
 20
4766.8576830000002
 30
0.0
 40
108.0
  1
天井吊ベット
  0
TEXT
  5
7AEA
  8
4
  6
CONTINUOUS
 10
632.33518700000002
 20
5067.7619520000007
 30
0.0
 40
144.0
  1
ベルト駆動式片吸込両持多翼ファン
  0
LINE
  5
7AEB
  8
4
  6
CONTINUOUS
 10
500.0
 20
4938.8175090000004
 30
0.0
 11
3700.0
 21
4938.8175090000004
 31
0.0
  0
LINE
  5
7AEC
  8
4
  6
CONTINUOUS
 10
500.0
 20
5338.8175090000004
 30
0.0
 11
3700.0
 21
5338.8175090000004
 31
0.0
  0
LINE
  5
7AED
  8
4
  6
CONTINUOUS
 10
1300.0
 20
1000.0
 30
0.0
 11
3700.0
 21
1000.0
 31
0.0
  0
LINE
  5
7AEE
  8
4
  6
CONTINUOUS
 10
500.0
 20
5338.8175090000004
 30
0.0
 11
500.0
 21
4938.8175090000004
 31
0.0
  0
TEXT
  5
7AEF
  8
4
  6
CONTINUOUS
 10
744.33930199999998
 20
4764.6389549999994
 30
0.0
 40
108.0
  1
右回転上向
  0
TEXT
  5
7AF0
  8
4
  6
CONTINUOUS
 10
2937.9391179999998
 20
5412.122163
 30
0.0
 40
112.0
  1
No.
  0
TEXT
  5
7AF1
  8
4
  6
CONTINUOUS
 10
2622.5921250000001
 20
4766.8576830000002
 30
0.0
 40
108.0
  1
縮尺：1/20
  0
LINE
  5
7AF2
  8
4
  6
CONTINUOUS
 10
3700.0
 20
5338.8175090000004
 30
0.0
 11
3700.0
 21
4938.8175090000004
 31
0.0
  0
LINE
  5
7AF4
  8
4
  6
CONTINUOUS
 10
2881.234845
 20
5362.5271659999999
 30
0.0
 11
2881.234845
 21
5573.3045229999998
 31
0.0
  0
LINE
  5
7AF5
  8
4
  6
CONTINUOUS
 10
2881.234845
 20
5573.3045229999998
 30
0.0
 11
3700.0
 21
5573.3045229999998
 31
0.0
  0
LINE
  5
7AF6
  8
4
  6
CONTINUOUS
 10
3700.0
 20
5573.3045229999998
 30
0.0
 11
3700.0
 21
5362.5271659999999
 31
0.0
  0
LINE
  5
7AF7
  8
4
  6
CONTINUOUS
 10
3700.0
 20
5362.5271659999999
 30
0.0
 11
2881.234845
 21
5362.5271659999999
 31
0.0
  0
DIMENSION
  5
7B0F
  8
3
  6
CONTINUOUS
  2
*D1
 10
1698.5340510000001
 20
2830.2818859999988
 30
0.0
 11
1485.088189999999
 21
2830.2818859999988
 31
0.0
 70
   128
 13
1298.5340510000001
 23
2737.1812920000002
 33
0.0
 14
1698.5340510000001
 24
2737.1812920000002
 34
0.0
1001
ACAD
1000
DSTYLE
1002
{
1070
   287
1070
     3
1070
    40
1040
20.0
1070
   143
1040
0.039
1070
   172
1070
     1
1070
   271
1070
     0
1070
   279
1070
     0
1070
   288
1070
     1
1002
}
  0
DIMENSION
  5
7B1C
  8
3
  6
CONTINUOUS
  2
*D2
 10
1686.5340510000001
 20
2934.9810889999999
 30
0.0
 11
1481.595417999999
 21
2934.9810889999999
 31
0.0
 70
   128
 13
1298.5340510000001
 23
2737.1812920000002
 33
0.0
 14
1686.5340510000001
 24
2872.5780370000002
 34
0.0
1001
ACAD
1000
DSTYLE
1002
{
1070
   287
1070
     3
1070
    40
1040
20.0
1070
   143
1040
0.039
1070
   172
1070
     1
1070
   271
1070
     0
1070
   279
1070
     0
1070
   288
1070
     1
1002
}
  0
DIMENSION
  5
7B28
  8
3
  6
CONTINUOUS
  2
*D3
 10
1986.5340510000001
 20
2934.9810889999999
 30
0.0
 11
1836.5340510000001
 21
2984.9810889999999
 31
0.0
 70
     0
 13
1686.5340510000001
 23
2872.5780370000002
 33
0.0
 14
1986.5340510000001
 24
2707.1812920000002
 34
0.0
1001
ACAD
1000
DSTYLE
1002
{
1070
   287
1070
     4
1070
    40
1040
20.0
1070
    75
1070
     1
1070
   143
1040
0.039
1070
   172
1070
     1
1070
   271
1070
     0
1070
   279
1070
     1
1070
   288
1070
     1
1002
}
  0
DIMENSION
  5
7B44
  8
3
  6
CONTINUOUS
  2
*D4
 10
2154.677459
 20
2437.1812920000002
 30
0.0
 11
2154.677459
 21
2600.0384348571429
 31
0.0
 70
   128
 13
1725.5340510000001
 23
2737.1812920000002
 33
0.0
 14
2116.8535658019641
 24
2437.1812920000002
 34
0.0
 50
90.0
1001
ACAD
1000
DSTYLE
1002
{
1070
   287
1070
     3
1070
    40
1040
20.0
1070
   143
1040
0.039
1070
   172
1070
     1
1070
   271
1070
     0
1070
   279
1070
     0
1070
   288
1070
     1
1002
}
  0
DIMENSION
  5
7B50
  8
3
  6
CONTINUOUS
  2
*D5
 10
2154.677459
 20
2017.181292
 30
0.0
 11
2104.6774589999991
 21
2227.1812920000002
 31
0.0
 70
     0
 13
2152.2759279999991
 23
2437.1812920000002
 33
0.0
 14
1946.5340510000001
 24
2017.181292
 34
0.0
 50
90.0
1001
ACAD
1000
DSTYLE
1002
{
1070
   287
1070
     4
1070
    40
1040
20.0
1070
    75
1070
     1
1070
   143
1040
0.039
1070
   172
1070
     1
1070
   271
1070
     0
1070
   279
1070
     1
1070
   288
1070
     1
1002
}
  0
DIMENSION
  5
7B60
  8
3
  6
CONTINUOUS
  2
*D6
 10
2154.2515350000008
 20
1977.181292
 30
0.0
 11
2154.2515349999999
 21
1828.609863428572
 31
0.0
 70
   128
 13
1946.5340510000001
 23
2017.181292
 33
0.0
 14
1946.5340510000001
 24
1977.181292
 34
0.0
 50
90.0
1001
ACAD
1000
DSTYLE
1002
{
1070
   287
1070
     3
1070
    40
1040
20.0
1070
   143
1040
0.039
1070
   172
1070
     1
1070
   271
1070
     0
1070
   279
1070
     0
1070
   288
1070
     1
1002
}
  0
DIMENSION
  5
7B6D
  8
3
  6
CONTINUOUS
  2
*D7
 10
2274.4552309999999
 20
1977.181292
 30
0.0
 11
2274.4552309999999
 21
2421.2267299999999
 31
0.0
 70
   128
 13
1735.5340510000001
 23
2737.1812920000002
 33
0.0
 14
1946.5340510000001
 24
1977.181292
 34
0.0
 50
90.0
1001
ACAD
1000
DSTYLE
1002
{
1070
   287
1070
     3
1070
    40
1040
20.0
1070
   143
1040
0.039
1070
   172
1070
     1
1070
   271
1070
     0
1070
   279
1070
     0
1070
   288
1070
     1
1002
}
  0
DIMENSION
  5
7B7A
  8
3
  6
CONTINUOUS
  2
*D8
 10
1686.5340510000001
 20
1826.474727
 30
0.0
 11
1320.9277959999999
 21
1826.474727
 31
0.0
 70
   128
 13
946.53405099999998
 23
1977.181292
 33
0.0
 14
1686.5340510000001
 24
1888.330358823765
 34
0.0
1001
ACAD
1000
DSTYLE
1002
{
1070
   287
1070
     3
1070
    40
1040
20.0
1070
   143
1040
0.039
1070
   172
1070
     1
1070
   271
1070
     0
1070
   279
1070
     0
1070
   288
1070
     1
1002
}
  0
DIMENSION
  5
7B94
  8
3
  6
CONTINUOUS
  2
*D9
 10
1946.5340510000001
 20
1826.474727
 30
0.0
 11
1832.6498859999999
 21
1825.4480639999999
 31
0.0
 70
   128
 13
1686.5340510000001
 23
1884.504481285639
 33
0.0
 14
1946.5340510000001
 24
1977.181292
 34
0.0
1001
ACAD
1000
DSTYLE
1002
{
1070
   287
1070
     4
1070
    40
1040
20.0
1070
    75
1070
     1
1070
   143
1040
0.039
1070
   172
1070
     1
1070
   271
1070
     0
1070
   279
1070
     1
1070
   288
1070
     1
1002
}
  0
DIMENSION
  5
7BA1
  8
3
  6
CONTINUOUS
  2
*D10
 10
3152.2473140000002
 20
1832.6507640559209
 30
0.0
 11
2985.1833430000001
 21
1832.6507640559209
 31
0.0
 70
   128
 13
2816.2473140000002
 23
1977.181292
 33
0.0
 14
3152.2473140000002
 24
1880.7951033572749
 34
0.0
1001
ACAD
1000
DSTYLE
1002
{
1070
   287
1070
     3
1070
    40
1040
20.0
1070
   143
1040
0.039
1070
   172
1070
     1
1070
   271
1070
     0
1070
   279
1070
     0
1070
   288
1070
     1
1002
}
  0
DIMENSION
  5
7BAF
  8
3
  6
CONTINUOUS
  2
*D11
 10
3426.2473140000002
 20
1832.6507640559209
 30
0.0
 11
3299.2726429999998
 21
1831.993940055921
 31
0.0
 70
   128
 13
3152.2473140000002
 23
1879.373596125487
 33
0.0
 14
3426.2473140000002
 24
1977.181292
 34
0.0
1001
ACAD
1000
DSTYLE
1002
{
1070
   287
1070
     4
1070
    40
1040
20.0
1070
    75
1070
     1
1070
   143
1040
0.039
1070
   172
1070
     1
1070
   271
1070
     0
1070
   279
1070
     1
1070
   288
1070
     1
1002
}
  0
DIMENSION
  5
7BE5
  8
3
  6
CONTINUOUS
  2
*D12
 10
3478.1463429999999
 20
2222.1812920000002
 30
0.0
 11
3478.1463429999999
 21
2449.1465250000001
 31
0.0
 70
   128
 13
3302.2473140000002
 23
2652.1812920000002
 33
0.0
 14
3302.2473140000002
 24
2222.1812920000002
 34
0.0
 50
90.0
1001
ACAD
1000
DSTYLE
1002
{
1070
   287
1070
     3
1070
     3
1000
φ<>
1070
    40
1040
20.0
1070
   143
1040
0.039
1070
   172
1070
     1
1070
   271
1070
     0
1070
   279
1070
     0
1070
   288
1070
     1
1002
}
  0
DIMENSION
  5
7BF2
  8
3
  6
CONTINUOUS
  2
*D13
 10
2182.7664829999999
 20
3465.9512920000002
 30
0.0
 11
2182.766482999999
 21
3780.5679449999998
 31
0.0
 70
   128
 13
1946.5340510000001
 23
4075.9512920000002
 33
0.0
 14
1946.5340510000001
 24
3465.9512920000002
 34
0.0
 50
90.0
1001
ACAD
1000
DSTYLE
1002
{
1070
   287
1070
     3
1070
    40
1040
20.0
1070
   143
1040
0.039
1070
   172
1070
     1
1070
   271
1070
     0
1070
   279
1070
     0
1070
   288
1070
     1
1002
}
  0
DIMENSION
  5
7C0C
  8
3
  6
CONTINUOUS
  2
*D14
 10
1946.5340510000001
 20
4168.5950489999996
 30
0.0
 11
1408.247151999999
 21
4168.5950489999996
 31
0.0
 70
   128
 13
946.53405099999998
 23
4075.9512920000002
 33
0.0
 14
1946.5340510000001
 24
4075.9512920000002
 34
0.0
1001
ACAD
1000
DSTYLE
1002
{
1070
   287
1070
     3
1070
    40
1040
20.0
1070
   143
1040
0.039
1070
   172
1070
     1
1070
   271
1070
     0
1070
   279
1070
     0
1070
   288
1070
     1
1002
}
  0
LINE
  5
7CF3
  8
1
  6
CONTINUOUS
 10
3303.2473140000002
 20
2222.1812920000002
 30
0.0
 11
3303.2473140000002
 21
2652.1812920000002
 31
0.0
  0
DIMENSION
  5
7D0E
  8
3
  6
CONTINUOUS
  2
*D15
 10
3302.2473140000002
 20
2827.678625
 30
0.0
 11
3139.390171
 21
2827.678625
 31
0.0
 70
   128
 13
3002.2473140000002
 23
2737.1812920000002
 33
0.0
 14
3302.2473140000002
 24
2737.1812920000002
 34
0.0
1001
ACAD
1000
DSTYLE
1002
{
1070
   287
1070
     3
1070
    40
1040
20.0
1070
   143
1040
0.039
1070
   172
1070
     1
1070
   271
1070
     0
1070
   279
1070
     0
1070
   288
1070
     1
1002
}
  0
DIMENSION
  5
7D1B
  8
3
  6
CONTINUOUS
  2
*D16
 10
3152.2473140000002
 20
2961.9068200392371
 30
0.0
 11
2967.961599714286
 21
2961.9068200392371
 31
0.0
 70
   128
  1
MAX\P380
 13
2822.2473140000002
 23
2752.1812920000002
 33
0.0
 14
3152.2473140000002
 24
2916.7854809791529
 34
0.0
1001
ACAD
1000
DSTYLE
1002
{
1070
   287
1070
     3
1070
    40
1040
20.0
1070
   143
1040
0.039
1070
   172
1070
     1
1070
   271
1070
     0
1070
   279
1070
     0
1070
   288
1070
     1
1002
}
  0
DIMENSION
  5
7D29
  8
3
  6
CONTINUOUS
  2
*D17
 10
3303.2473140000002
 20
2961.9068200392371
 30
0.0
 11
3219.6678729999999
 21
2961.7102400392359
 31
0.0
 70
   128
 13
3152.2473140000002
 23
2916.7854809791529
 33
0.0
 14
3303.2473140000002
 24
2652.1812920000002
 34
0.0
1001
ACAD
1000
DSTYLE
1002
{
1070
   287
1070
     4
1070
    40
1040
20.0
1070
    75
1070
     1
1070
   143
1040
0.039
1070
   172
1070
     1
1070
   271
1070
     0
1070
   279
1070
     1
1070
   288
1070
     1
1002
}
  0
DIMENSION
  5
7D69
  8
3
  2
*D18
 10
946.53405099999998
 20
3053.8118955885111
 30
0.0
 11
1492.4852711258791
 21
3053.8118955885111
 31
0.0
 70
   128
 13
1986.5340510000001
 23
2707.1812920000002
 33
0.0
 14
946.53405099999998
 24
2097.1812920000002
 34
0.0
1001
ACAD
1000
DSTYLE
1002
{
1070
   287
1070
     3
1070
    40
1040
20.0
1070
   143
1040
0.039
1070
   172
1070
     1
1070
   271
1070
     0
1070
   279
1070
     0
1070
   288
1070
     1
1002
}
  0
ENDSEC
  0
EOF
