  0
SECTION
  2
HEADER
  9
$ACADVER
  1
AC1009
  9
$INSBASE
 10
0.0
 20
0.0
 30
0.0
  9
$EXTMIN
 10
500.0
 20
600.0
 30
0.0
  9
$EXTMAX
 10
3700.0
 20
5573.3045229999998
 30
0.0
  9
$LIMMIN
 10
0.0
 20
0.0
  9
$LIMMAX
 10
297.0
 20
210.0
  9
$ORTHOMODE
 70
     0
  9
$REGENMODE
 70
     1
  9
$FILLMODE
 70
     0
  9
$QTEXTMODE
 70
     0
  9
$MIRRTEXT
 70
     1
  9
$DRAGMODE
 70
     2
  9
$LTSCALE
 40
100.0
  9
$OSMODE
 70
    37
  9
$ATTMODE
 70
     1
  9
$TEXTSIZE
 40
180.0
  9
$TRACEWID
 40
0.05
  9
$TEXTSTYLE
  7
STANDARD
  9
$CLAYER
  8
3
  9
$CELTYPE
  6
BYLAYER
  9
$CECOLOR
 62
   256
  9
$DIMSCALE
 40
20.0
  9
$DIMASZ
 40
2.0
  9
$DIMEXO
 40
0.5
  9
$DIMDLI
 40
10.0
  9
$DIMRND
 40
0.0
  9
$DIMDLE
 40
0.0
  9
$DIMEXE
 40
1.0
  9
$DIMTP
 40
1.0
  9
$DIMTM
 40
1.0
  9
$DIMTXT
 40
3.0
  9
$DIMCEN
 40
0.0
  9
$DIMTSZ
 40
0.0
  9
$DIMTOL
 70
     0
  9
$DIMLIM
 70
     0
  9
$DIMTIH
 70
     0
  9
$DIMTOH
 70
     0
  9
$DIMSE1
 70
     0
  9
$DIMSE2
 70
     0
  9
$DIMTAD
 70
     1
  9
$DIMZIN
 70
     8
  9
$DIMBLK
  1

  9
$DIMASO
 70
     1
  9
$DIMSHO
 70
     1
  9
$DIMPOST
  1

  9
$DIMAPOST
  1

  9
$DIMALT
 70
     0
  9
$DIMALTD
 70
     2
  9
$DIMALTF
 40
0.039
  9
$DIMLFAC
 40
1.0
  9
$DIMTOFL
 70
     1
  9
$DIMTVP
 40
0.0
  9
$DIMTIX
 70
     0
  9
$DIMSOXD
 70
     0
  9
$DIMSAH
 70
     1
  9
$DIMBLK1
  1
OPEN
  9
$DIMBLK2
  1
OPEN
  9
$DIMSTYLE
  2
IGA
  9
$DIMCLRD
 70
     0
  9
$DIMCLRE
 70
     0
  9
$DIMCLRT
 70
     0
  9
$DIMTFAC
 40
10.0
  9
$DIMGAP
 40
1.0
  9
$LUNITS
 70
     2
  9
$LUPREC
 70
     3
  9
$SKETCHINC
 40
0.1
  9
$FILLETRAD
 40
50.0
  9
$AUNITS
 70
     0
  9
$AUPREC
 70
     0
  9
$MENU
  1
acad
  9
$ELEVATION
 40
0.0
  9
$PELEVATION
 40
0.0
  9
$THICKNESS
 40
0.0
  9
$LIMCHECK
 70
     0
  9
$BLIPMODE
 70
     0
  9
$CHAMFERA
 40
0.5
  9
$CHAMFERB
 40
0.5
  9
$SKPOLY
 70
     0
  9
$TDCREATE
 40
2450725.4893866898
  9
$TDUPDATE
 40
2454953.7649795599
  9
$TDINDWG
 40
0.0297553472
  9
$TDUSRTIMER
 40
0.0297553472
  9
$USRTIMER
 70
     1
  9
$ANGBASE
 50
0.0
  9
$ANGDIR
 70
     0
  9
$PDMODE
 70
     0
  9
$PDSIZE
 40
0.0
  9
$PLINEWID
 40
0.0
  9
$COORDS
 70
     1
  9
$SPLFRAME
 70
     0
  9
$SPLINETYPE
 70
     6
  9
$SPLINESEGS
 70
     8
  9
$ATTDIA
 70
     0
  9
$ATTREQ
 70
     1
  9
$HANDLING
 70
 10241
  9
$HANDSEED
  5
7E15
  9
$SURFTAB1
 70
     6
  9
$SURFTAB2
 70
     6
  9
$SURFTYPE
 70
     6
  9
$SURFU
 70
     6
  9
$SURFV
 70
     6
  9
$UCSNAME
  2

  9
$UCSORG
 10
0.0
 20
0.0
 30
0.0
  9
$UCSXDIR
 10
1.0
 20
0.0
 30
0.0
  9
$UCSYDIR
 10
0.0
 20
1.0
 30
0.0
  9
$PUCSNAME
  2

  9
$PUCSORG
 10
0.0
 20
0.0
 30
0.0
  9
$PUCSXDIR
 10
1.0
 20
0.0
 30
0.0
  9
$PUCSYDIR
 10
0.0
 20
1.0
 30
0.0
  9
$USERI1
 70
     0
  9
$USERI2
 70
     0
  9
$USERI3
 70
     0
  9
$USERI4
 70
     0
  9
$USERI5
 70
     0
  9
$USERR1
 40
0.0
  9
$USERR2
 40
0.0
  9
$USERR3
 40
0.0
  9
$USERR4
 40
0.0
  9
$USERR5
 40
0.0
  9
$WORLDVIEW
 70
     1
  9
$SHADEDGE
 70
     3
  9
$SHADEDIF
 70
    70
  9
$TILEMODE
 70
     1
  9
$MAXACTVP
 70
    16
  9
$PLIMCHECK
 70
     0
  9
$PEXTMIN
 10
1.0000000000000000E+020
 20
1.0000000000000000E+020
 30
1.0000000000000000E+020
  9
$PEXTMAX
 10
-1.0000000000000000E+020
 20
-1.0000000000000000E+020
 30
-1.0000000000000000E+020
  9
$PLIMMIN
 10
0.0
 20
0.0
  9
$PLIMMAX
 10
12.0
 20
9.0
  9
$UNITMODE
 70
     0
  9
$VISRETAIN
 70
     0
  9
$PLINEGEN
 70
     0
  9
$PSLTSCALE
 70
     1
  0
ENDSEC
  0
SECTION
  2
TABLES
  0
TABLE
  2
VPORT
 70
     2
  0
VPORT
  2
*ACTIVE
 70
     0
 10
0.0
 20
0.0
 11
1.0
 21
1.0
 12
6292.1124769529506
 22
3086.6374998146398
 13
0.0
 23
0.0
 14
10.0
 24
10.0
 15
10.0
 25
10.0
 16
0.0
 26
0.0
 36
1.0
 17
0.0
 27
0.0
 37
0.0
 40
5011.4968576296578
 41
3.1666666666666661
 42
50.0
 43
0.0
 44
0.0
 50
0.0
 51
0.0
 71
     0
 72
   100
 73
     1
 74
     0
 75
     0
 76
     0
 77
     0
 78
     0
  0
ENDTAB
  0
TABLE
  2
LTYPE
 70
     2
  0
LTYPE
  2
CONTINUOUS
 70
     0
  3
Solid line
 72
    65
 73
     0
 40
0.0
  0
LTYPE
  2
CENTER
 70
     0
  3
____ _ ____ _ ____ _ ____ _ ____ _ ____ _ ____ 
 72
    65
 73
     4
 40
2.0
 49
1.25
 49
-0.25
 49
0.25
 49
-0.25
  0
ENDTAB
  0
TABLE
  2
LAYER
 70
     6
  0
LAYER
  2
0
 70
     0
 62
     7
  6
CONTINUOUS
  0
LAYER
  2
3
 70
     0
 62
     2
  6
CONTINUOUS
  0
LAYER
  2
2
 70
     0
 62
     3
  6
CENTER
  0
LAYER
  2
1
 70
     0
 62
     4
  6
CONTINUOUS
  0
LAYER
  2
4
 70
     0
 62
     7
  6
CONTINUOUS
  0
LAYER
  2
DEFPOINTS
 70
     0
 62
     7
  6
CONTINUOUS
  0
ENDTAB
  0
TABLE
  2
STYLE
 70
     1
  0
STYLE
  2
STANDARD
 70
     0
 40
0.0
 41
1.0
 50
0.0
 71
     0
 42
180.0
  3
simplex.shx
  4
extfont.shx
  0
ENDTAB
  0
TABLE
  2
VIEW
 70
     0
  0
ENDTAB
  0
TABLE
  2
UCS
 70
     0
  0
ENDTAB
  0
TABLE
  2
APPID
 70
     1
  0
APPID
  2
ACAD
 70
     0
  0
ENDTAB
  0
TABLE
  2
DIMSTYLE
 70
     1
  0
DIMSTYLE
  2
IGA
 70
     0
  3

  4

  5

  6
OPEN
  7
OPEN
 40
2.0
 41
2.0
 42
0.5
 43
10.0
 44
1.0
 45
0.0
 46
0.0
 47
1.0
 48
1.0
140
3.0
141
0.0
142
0.0
143
0.03937
144
1.0
145
0.0
146
10.0
147
1.0
 71
     0
 72
     0
 73
     0
 74
     0
 75
     0
 76
     0
 77
     1
 78
     8
170
     0
171
     2
172
     0
173
     1
174
     0
175
     0
176
     0
177
     0
178
     0
  0
ENDTAB
  0
ENDSEC
  0
SECTION
  2
BLOCKS
  0
BLOCK
  8
0
  2
$MODEL_SPACE
 70
     0
 10
0.0
 20
0.0
 30
0.0
  3
$MODEL_SPACE
  1

  0
ENDBLK
  5
1B
  8
0
  0
BLOCK
 67
     1
  8
0
  2
$PAPER_SPACE
 70
     0
 10
0.0
 20
0.0
 30
0.0
  3
$PAPER_SPACE
  1

  0
ENDBLK
  5
18
 67
     1
  8
0
  0
BLOCK
  8
0
  2
_OPEN
 70
     0
 10
0.0
 20
0.0
 30
0.0
  3
_OPEN
  1

  0
LINE
  5
7AFC
  8
0
  6
BYBLOCK
 62
     0
 10
-1.0
 20
0.166667
 30
0.0
 11
0.0
 21
0.0
 31
0.0
  0
LINE
  5
7AFD
  8
0
  6
BYBLOCK
 62
     0
 10
0.0
 20
0.0
 30
0.0
 11
-1.0
 21
-0.166667
 31
0.0
  0
LINE
  5
7AFE
  8
0
  6
BYBLOCK
 62
     0
 10
0.0
 20
0.0
 30
0.0
 11
-1.0
 21
0.0
 31
0.0
  0
ENDBLK
  5
7AFF
  8
0
  0
BLOCK
  8
0
  2
*D1
 70
     1
 10
0.0
 20
0.0
 30
0.0
  3
*D1
  1

  0
LINE
  5
7D75
  8
3
  6
CONTINUOUS
 62
     0
 10
2037.2408800000001
 20
2714.3997629999999
 30
0.0
 11
2157.1595790000001
 21
2714.3997629999999
 31
0.0
  0
LINE
  5
7D76
  8
3
  6
CONTINUOUS
 62
     0
 10
2037.2408800000001
 20
2314.399762999999
 30
0.0
 11
2157.1595790000001
 21
2314.399762999999
 31
0.0
  0
LINE
  5
7D77
  8
3
  6
CONTINUOUS
 62
     0
 10
2137.1595790000001
 20
2674.3997629999999
 30
0.0
 11
2137.1595790000001
 21
2354.399762999999
 31
0.0
  0
INSERT
  5
7D78
  8
3
  6
CONTINUOUS
 62
     0
  2
_OPEN
 10
2137.1595790000001
 20
2714.3997629999999
 30
0.0
 41
40.0
 42
40.0
 43
40.0
 50
90.0
  0
INSERT
  5
7D79
  8
3
  6
CONTINUOUS
 62
     0
  2
_OPEN
 10
2137.1595790000001
 20
2314.399762999999
 30
0.0
 41
40.0
 42
40.0
 43
40.0
 50
270.0
  0
TEXT
  8
3
  40
60
  5
7E04
  62
0
  72
0
  71
0
 10
1967.16
 20
2387.12
 30
0.000000
  1
400
  0
POINT
  5
7D7B
  8
DEFPOINTS
  6
CONTINUOUS
 62
     0
 10
2027.2408800000001
 20
2714.3997629999999
 30
0.0
  0
POINT
  5
7D7C
  8
DEFPOINTS
  6
CONTINUOUS
 62
     0
 10
2027.2408800000001
 20
2314.399762999999
 30
0.0
  0
POINT
  5
7D7D
  8
DEFPOINTS
  6
CONTINUOUS
 62
     0
 10
2137.1595790000001
 20
2314.399762999999
 30
0.0
  0
ENDBLK
  5
7B0C
  8
0
  0
BLOCK
  8
0
  2
*D2
 70
     1
 10
0.0
 20
0.0
 30
0.0
  3
*D2
  1

  0
LINE
  5
7D7E
  8
3
  6
CONTINUOUS
 62
     0
 10
2037.2408800000001
 20
2714.3997629999999
 30
0.0
 11
2256.9763710000002
 21
2714.3997629999999
 31
0.0
  0
LINE
  5
7D7F
  8
3
  6
CONTINUOUS
 62
     0
 10
2143.779505
 20
2326.399762999999
 30
0.0
 11
2256.9763710000002
 21
2326.399762999999
 31
0.0
  0
LINE
  5
7D80
  8
3
  6
CONTINUOUS
 62
     0
 10
2236.9763710000002
 20
2674.3997629999999
 30
0.0
 11
2236.9763710000002
 21
2366.399762999999
 31
0.0
  0
INSERT
  5
7D81
  8
3
  6
CONTINUOUS
 62
     0
  2
_OPEN
 10
2236.9763710000002
 20
2714.3997629999999
 30
0.0
 41
40.0
 42
40.0
 43
40.0
 50
90.0
  0
INSERT
  5
7D82
  8
3
  6
CONTINUOUS
 62
     0
  2
_OPEN
 10
2236.9763710000002
 20
2326.399762999999
 30
0.0
 41
40.0
 42
40.0
 43
40.0
 50
270.0
  0
TEXT
  8
3
  40
60
  5
7E05
  62
0
  72
0
  71
0
 10
2066.98
 20
2383.56
 30
0.000000
  1
388
  0
POINT
  5
7D84
  8
DEFPOINTS
  6
CONTINUOUS
 62
     0
 10
2027.2408800000001
 20
2714.3997629999999
 30
0.0
  0
POINT
  5
7D85
  8
DEFPOINTS
  6
CONTINUOUS
 62
     0
 10
2133.779505
 20
2326.399762999999
 30
0.0
  0
POINT
  5
7D86
  8
DEFPOINTS
  6
CONTINUOUS
 62
     0
 10
2236.9763710000002
 20
2326.399762999999
 30
0.0
  0
ENDBLK
  5
7B19
  8
0
  0
BLOCK
  8
0
  2
*D3
 70
     1
 10
0.0
 20
0.0
 30
0.0
  3
*D3
  1

  0
LINE
  5
7D87
  8
3
  6
CONTINUOUS
 62
     0
 10
1997.2408800000001
 20
1946.399762999999
 30
0.0
 11
2256.9763710000002
 21
1946.399762999999
 31
0.0
  0
LINE
  5
7D88
  8
3
  6
CONTINUOUS
 62
     0
 10
2236.9763710000002
 20
2286.399762999999
 30
0.0
 11
2236.9763710000002
 21
1986.3997629999999
 31
0.0
  0
INSERT
  5
7D89
  8
3
  6
CONTINUOUS
 62
     0
  2
_OPEN
 10
2236.9763710000002
 20
2326.399762999999
 30
0.0
 41
40.0
 42
40.0
 43
40.0
 50
90.0
  0
INSERT
  5
7D8A
  8
3
  6
CONTINUOUS
 62
     0
  2
_OPEN
 10
2236.9763710000002
 20
1946.399762999999
 30
0.0
 41
40.0
 42
40.0
 43
40.0
 50
270.0
  0
TEXT
  8
3
  40
60
  5
7E06
  62
0
  72
0
  71
0
 10
2066.98
 20
2030.20
 30
0.000000
  1
380
  0
POINT
  5
7D8C
  8
DEFPOINTS
  6
CONTINUOUS
 62
     0
 10
2133.779505
 20
2326.399762999999
 30
0.0
  0
POINT
  5
7D8D
  8
DEFPOINTS
  6
CONTINUOUS
 62
     0
 10
1987.2408800000001
 20
1946.399762999999
 30
0.0
  0
POINT
  5
7D8E
  8
DEFPOINTS
  6
CONTINUOUS
 62
     0
 10
2236.9763710000002
 20
1946.399762999999
 30
0.0
  0
ENDBLK
  5
7B25
  8
0
  0
BLOCK
  8
0
  2
*D4
 70
     1
 10
0.0
 20
0.0
 30
0.0
  3
*D4
  1

  0
LINE
  5
7D8F
  8
3
  6
CONTINUOUS
 62
     0
 10
1997.2408800000001
 20
1946.399762999999
 30
0.0
 11
2256.078262
 21
1946.399762999999
 31
0.0
  0
LINE
  5
7D90
  8
3
  6
CONTINUOUS
 62
     0
 10
1997.2408800000001
 20
1906.399762999999
 30
0.0
 11
2256.078262
 21
1906.399762999999
 31
0.0
  0
LINE
  5
7D91
  8
3
  6
CONTINUOUS
 62
     0
 10
2236.078262
 20
1986.3997629999999
 30
0.0
 11
2236.078262
 21
2026.3997629999999
 31
0.0
  0
LINE
  5
7D92
  8
3
  6
CONTINUOUS
 62
     0
 10
2236.078262
 20
1866.3997629999999
 30
0.0
 11
2236.078262
 21
1689.256905857143
 31
0.0
  0
LINE
  5
7D93
  8
3
  6
CONTINUOUS
 62
     0
 10
2236.078262
 20
1946.399762999999
 30
0.0
 11
2236.078262
 21
1906.399762999999
 31
0.0
  0
INSERT
  5
7D94
  8
3
  6
CONTINUOUS
 62
     0
  2
_OPEN
 10
2236.078262
 20
1946.399762999999
 30
0.0
 41
40.0
 42
40.0
 43
40.0
 50
270.0
  0
INSERT
  5
7D95
  8
3
  6
CONTINUOUS
 62
     0
  2
_OPEN
 10
2236.078262
 20
1906.399762999999
 30
0.0
 41
40.0
 42
40.0
 43
40.0
 50
90.0
  0
TEXT
  8
3
  40
60
  5
7E07
  62
0
  72
0
  71
0
 10
2066.08
 20
1651.63
 30
0.000000
  1
40
  0
POINT
  5
7D97
  8
DEFPOINTS
  6
CONTINUOUS
 62
     0
 10
1987.2408800000001
 20
1946.399762999999
 30
0.0
  0
POINT
  5
7D98
  8
DEFPOINTS
  6
CONTINUOUS
 62
     0
 10
1987.2408800000001
 20
1906.399762999999
 30
0.0
  0
POINT
  5
7D99
  8
DEFPOINTS
  6
CONTINUOUS
 62
     0
 10
2236.078262
 20
1906.399762999999
 30
0.0
  0
ENDBLK
  5
7C8E
  8
0
  0
BLOCK
  8
0
  2
*D5
 70
     1
 10
0.0
 20
0.0
 30
0.0
  3
*D5
  1

  0
LINE
  5
7D9A
  8
3
  6
CONTINUOUS
 62
     0
 10
2037.2408800000001
 20
2741.3997629999999
 30
0.0
 11
2397.139795
 21
2741.3997629999999
 31
0.0
  0
LINE
  5
7D9B
  8
3
  6
CONTINUOUS
 62
     0
 10
1997.2408800000001
 20
1906.399762999999
 30
0.0
 11
2397.139795
 21
1906.399762999999
 31
0.0
  0
LINE
  5
7D9C
  8
3
  6
CONTINUOUS
 62
     0
 10
2377.139795
 20
2701.399762999999
 30
0.0
 11
2377.139795
 21
1946.399762999999
 31
0.0
  0
INSERT
  5
7D9D
  8
3
  6
CONTINUOUS
 62
     0
  2
_OPEN
 10
2377.139795
 20
2741.3997629999999
 30
0.0
 41
40.0
 42
40.0
 43
40.0
 50
90.0
  0
INSERT
  5
7D9E
  8
3
  6
CONTINUOUS
 62
     0
  2
_OPEN
 10
2377.139795
 20
1906.399762999999
 30
0.0
 41
40.0
 42
40.0
 43
40.0
 50
270.0
  0
TEXT
  8
3
  40
60
  5
7E08
  62
0
  72
0
  71
0
 10
2207.14
 20
2219.71
 30
0.000000
  1
835
  0
POINT
  5
7DA0
  8
DEFPOINTS
  6
CONTINUOUS
 62
     0
 10
2027.2408800000001
 20
2741.3997629999999
 30
0.0
  0
POINT
  5
7DA1
  8
DEFPOINTS
  6
CONTINUOUS
 62
     0
 10
1987.2408800000001
 20
1906.399762999999
 30
0.0
  0
POINT
  5
7DA2
  8
DEFPOINTS
  6
CONTINUOUS
 62
     0
 10
2377.139795
 20
1906.399762999999
 30
0.0
  0
ENDBLK
  5
7C60
  8
0
  0
BLOCK
  8
0
  2
*D6
 70
     1
 10
0.0
 20
0.0
 30
0.0
  3
*D6
  1

  0
LINE
  5
7DA3
  8
3
  6
CONTINUOUS
 62
     0
 10
2027.2408800000001
 20
2751.3997629999999
 30
0.0
 11
2027.2408800000001
 21
2823.2190559999999
 31
0.0
  0
LINE
  5
7DA4
  8
3
  6
CONTINUOUS
 62
     0
 10
1727.2408800000001
 20
2777.1166183333589
 30
0.0
 11
1727.2408800000001
 21
2823.2190559999999
 31
0.0
  0
LINE
  5
7DA5
  8
3
  6
CONTINUOUS
 62
     0
 10
1987.2408800000001
 20
2803.2190559999999
 30
0.0
 11
1767.2408800000001
 21
2803.2190559999999
 31
0.0
  0
INSERT
  5
7DA6
  8
3
  6
CONTINUOUS
 62
     0
  2
_OPEN
 10
2027.2408800000001
 20
2803.2190559999999
 30
0.0
 41
40.0
 42
40.0
 43
40.0
  0
INSERT
  5
7DA7
  8
3
  6
CONTINUOUS
 62
     0
  2
_OPEN
 10
1727.2408800000001
 20
2803.2190559999999
 30
0.0
 41
40.0
 42
40.0
 43
40.0
 50
180.0
  0
TEXT
  8
3
  40
60
  5
7E09
  62
0
  72
0
  71
0
 10
1744.38
 20
2747.02
 30
0.000000
  1
300
  0
POINT
  5
7DA9
  8
DEFPOINTS
  6
CONTINUOUS
 62
     0
 10
2027.2408800000001
 20
2741.3997629999999
 30
0.0
  0
POINT
  5
7DAA
  8
DEFPOINTS
  6
CONTINUOUS
 62
     0
 10
1727.2408800000001
 20
2767.1166183333589
 30
0.0
  0
POINT
  5
7DAB
  8
DEFPOINTS
  6
CONTINUOUS
 62
     0
 10
1727.2408800000001
 20
2803.2190559999999
 30
0.0
  0
ENDBLK
  5
7C77
  8
0
  0
BLOCK
  8
0
  2
*D7
 70
     1
 10
0.0
 20
0.0
 30
0.0
  3
*D7
  1

  0
LINE
  5
7DAC
  8
3
  6
CONTINUOUS
 62
     0
 10
1387.2408800000001
 20
2636.3997629999999
 30
0.0
 11
1387.2408800000001
 21
2823.2190559999999
 31
0.0
  0
LINE
  5
7DAD
  8
3
  6
CONTINUOUS
 62
     0
 10
1687.2408800000001
 20
2803.2190559999999
 30
0.0
 11
1427.2408800000001
 21
2803.2190559999999
 31
0.0
  0
INSERT
  5
7DAE
  8
3
  6
CONTINUOUS
 62
     0
  2
_OPEN
 10
1727.2408800000001
 20
2803.2190559999999
 30
0.0
 41
40.0
 42
40.0
 43
40.0
  0
INSERT
  5
7DAF
  8
3
  6
CONTINUOUS
 62
     0
  2
_OPEN
 10
1387.2408800000001
 20
2803.2190559999999
 30
0.0
 41
40.0
 42
40.0
 43
40.0
 50
180.0
  0
TEXT
  8
3
  40
60
  5
7E0A
  62
0
  72
0
  71
0
 10
1437.24
 20
2747.02
 30
0.000000
  1
340
  0
POINT
  5
7DB1
  8
DEFPOINTS
  6
CONTINUOUS
 62
     0
 10
1727.2408800000001
 20
2768.6139490808032
 30
0.0
  0
POINT
  5
7DB2
  8
DEFPOINTS
  6
CONTINUOUS
 62
     0
 10
1387.2408800000001
 20
2626.3997629999999
 30
0.0
  0
POINT
  5
7DB3
  8
DEFPOINTS
  6
CONTINUOUS
 62
     0
 10
1387.2408800000001
 20
2803.2190559999999
 30
0.0
  0
ENDBLK
  5
7C81
  8
0
  0
BLOCK
  8
0
  2
*D8
 70
     1
 10
0.0
 20
0.0
 30
0.0
  3
*D8
  1

  0
LINE
  5
7DB4
  8
3
  6
CONTINUOUS
 62
     0
 10
3457.4887819999999
 20
2724.3997629999999
 30
0.0
 11
3457.4887819999999
 21
2769.7885879999999
 31
0.0
  0
LINE
  5
7DB5
  8
3
  6
CONTINUOUS
 62
     0
 10
3157.4887819999999
 20
2724.3997629999999
 30
0.0
 11
3157.4887819999999
 21
2769.7885879999999
 31
0.0
  0
LINE
  5
7DB6
  8
3
  6
CONTINUOUS
 62
     0
 10
3497.4887819999999
 20
2749.788587999999
 30
0.0
 11
3537.4887819999999
 21
2749.788587999999
 31
0.0
  0
LINE
  5
7DB7
  8
3
  6
CONTINUOUS
 62
     0
 10
3117.4887819999999
 20
2749.788587999999
 30
0.0
 11
3077.4887819999999
 21
2749.788587999999
 31
0.0
  0
LINE
  5
7DB8
  8
3
  6
CONTINUOUS
 62
     0
 10
3457.4887819999999
 20
2749.788587999999
 30
0.0
 11
3157.4887819999999
 21
2749.788587999999
 31
0.0
  0
INSERT
  5
7DB9
  8
3
  6
CONTINUOUS
 62
     0
  2
_OPEN
 10
3457.4887819999999
 20
2749.788587999999
 30
0.0
 41
40.0
 42
40.0
 43
40.0
 50
180.0
  0
INSERT
  5
7DBA
  8
3
  6
CONTINUOUS
 62
     0
  2
_OPEN
 10
3157.4887819999999
 20
2749.788587999999
 30
0.0
 41
40.0
 42
40.0
 43
40.0
  0
TEXT
  8
3
  40
60
  5
7E0B
  62
0
  72
0
  71
0
 10
3174.63
 20
2693.59
 30
0.000000
  1
300
  0
POINT
  5
7DBC
  8
DEFPOINTS
  6
CONTINUOUS
 62
     0
 10
3457.4887819999999
 20
2714.3997629999999
 30
0.0
  0
POINT
  5
7DBD
  8
DEFPOINTS
  6
CONTINUOUS
 62
     0
 10
3157.4887819999999
 20
2714.3997629999999
 30
0.0
  0
POINT
  5
7DBE
  8
DEFPOINTS
  6
CONTINUOUS
 62
     0
 10
3157.4887819999999
 20
2749.788587999999
 30
0.0
  0
ENDBLK
  5
7B68
  8
0
  0
BLOCK
  8
0
  2
*D9
 70
     1
 10
0.0
 20
0.0
 30
0.0
  3
*D9
  1

  0
LINE
  5
7DBF
  8
3
  6
CONTINUOUS
 62
     0
 10
2977.4887819999999
 20
2691.3997629999999
 30
0.0
 11
2977.4887819999999
 21
2901.583756
 31
0.0
  0
LINE
  5
7DC0
  8
3
  6
CONTINUOUS
 62
     0
 10
3267.4887819999999
 20
2881.583756
 30
0.0
 11
3017.4887819999999
 21
2881.583756
 31
0.0
  0
INSERT
  5
7DC1
  8
3
  6
CONTINUOUS
 62
     0
  2
_OPEN
 10
3307.4887819999999
 20
2881.583756
 30
0.0
 41
40.0
 42
40.0
 43
40.0
  0
INSERT
  5
7DC2
  8
3
  6
CONTINUOUS
 62
     0
  2
_OPEN
 10
2977.4887819999999
 20
2881.583756
 30
0.0
 41
40.0
 42
40.0
 43
40.0
 50
180.0
  0
TEXT
  8
3
  40
60
  5
7E0C
  62
0
  72
0
  71
0
 10
3022.49
 20
2875.38
 30
0.000000
  1
MAX
  0
TEXT
  8
3
  40
60
  5
7E0D
  62
0
  72
0
  71
0
 10
3022.49
 20
2797.38
 30
0.000000
  1
380
  0
POINT
  5
7DC4
  8
DEFPOINTS
  6
CONTINUOUS
 62
     0
 10
3307.4887819999999
 20
2846.7311570000002
 30
0.0
  0
POINT
  5
7DC5
  8
DEFPOINTS
  6
CONTINUOUS
 62
     0
 10
2977.4887819999999
 20
2681.399762999999
 30
0.0
  0
POINT
  5
7DC6
  8
DEFPOINTS
  6
CONTINUOUS
 62
     0
 10
2977.4887819999999
 20
2881.583756
 30
0.0
  0
ENDBLK
  5
7CA5
  8
0
  0
BLOCK
  8
0
  2
*D10
 70
     1
 10
0.0
 20
0.0
 30
0.0
  3
*D10
  1

  0
LINE
  5
7D34
  8
0
  6
BYBLOCK
 62
     0
 10
3581.4887819999999
 20
1896.399762999999
 30
0.0
 11
3581.4887819999999
 21
1730.304756796495
 31
0.0
  0
LINE
  5
7D35
  8
0
  6
BYBLOCK
 62
     0
 10
3307.4887819999999
 20
1803.2678245893819
 30
0.0
 11
3307.4887819999999
 21
1730.304756796495
 31
0.0
  0
LINE
  5
7D36
  8
0
  6
BYBLOCK
 62
     0
 10
3541.4887819999999
 20
1750.304756796495
 30
0.0
 11
3347.4887819999999
 21
1750.304756796495
 31
0.0
  0
TEXT
  5
7D37
  8
3
 62
     0
 10
3365.917353428571
 20
1768.3732916649469
 30
0.0
 40
60.0
  1
274
  0
INSERT
  5
7D38
  8
0
  6
BYBLOCK
 62
     0
  2
_OPEN
 10
3581.4887819999999
 20
1750.304756796495
 30
0.0
 41
40.0
 42
40.0
 43
40.0
  0
INSERT
  5
7D39
  8
0
  6
BYBLOCK
 62
     0
  2
_OPEN
 10
3307.4887819999999
 20
1750.304756796495
 30
0.0
 41
40.0
 42
40.0
 43
40.0
 50
180.0
  0
POINT
  5
7D3A
  8
DEFPOINTS
  6
BYBLOCK
 62
     0
 10
3581.4887819999999
 20
1906.399762999999
 30
0.0
  0
POINT
  5
7D3B
  8
DEFPOINTS
  6
BYBLOCK
 62
     0
 10
3307.4887819999999
 20
1813.2678245893819
 30
0.0
  0
POINT
  5
7D3C
  8
DEFPOINTS
  6
BYBLOCK
 62
     0
 10
3307.4887819999999
 20
1750.304756796495
 30
0.0
  0
ENDBLK
  5
7D3D
  8
0
  0
BLOCK
  8
0
  2
*D11
 70
     1
 10
0.0
 20
0.0
 30
0.0
  3
*D11
  1

  0
LINE
  5
7DC7
  8
3
  6
CONTINUOUS
 62
     0
 10
2971.4887819999999
 20
1896.399762999999
 30
0.0
 11
2971.4887819999999
 21
1730.304756796495
 31
0.0
  0
LINE
  5
7DC8
  8
3
  6
CONTINUOUS
 62
     0
 10
3267.4887819999999
 20
1750.304756796495
 30
0.0
 11
3011.4887819999999
 21
1750.304756796495
 31
0.0
  0
INSERT
  5
7DC9
  8
3
  6
CONTINUOUS
 62
     0
  2
_OPEN
 10
3307.4887819999999
 20
1750.304756796495
 30
0.0
 41
40.0
 42
40.0
 43
40.0
  0
INSERT
  5
7DCA
  8
3
  6
CONTINUOUS
 62
     0
  2
_OPEN
 10
2971.4887819999999
 20
1750.304756796495
 30
0.0
 41
40.0
 42
40.0
 43
40.0
 50
180.0
  0
TEXT
  8
3
  40
60
  5
7E0E
  62
0
  72
0
  71
0
 10
3019.49
 20
1694.10
 30
0.000000
  1
336
  0
POINT
  5
7DCC
  8
DEFPOINTS
  6
CONTINUOUS
 62
     0
 10
3307.4887819999999
 20
1812.6603692213521
 30
0.0
  0
POINT
  5
7DCD
  8
DEFPOINTS
  6
CONTINUOUS
 62
     0
 10
2971.4887819999999
 20
1906.399762999999
 30
0.0
  0
POINT
  5
7DCE
  8
DEFPOINTS
  6
CONTINUOUS
 62
     0
 10
2971.4887819999999
 20
1750.304756796495
 30
0.0
  0
ENDBLK
  5
7D32
  8
0
  0
BLOCK
  8
0
  2
*D12
 70
     1
 10
0.0
 20
0.0
 30
0.0
  3
*D12
  1

  0
LINE
  5
7DCF
  8
3
  6
CONTINUOUS
 62
     0
 10
3467.4887819999999
 20
2541.3997629999999
 30
0.0
 11
3587.382161
 21
2541.3997629999999
 31
0.0
  0
LINE
  5
7DD0
  8
3
  6
CONTINUOUS
 62
     0
 10
3467.4887819999999
 20
2111.3997629999999
 30
0.0
 11
3587.382161
 21
2111.3997629999999
 31
0.0
  0
LINE
  5
7DD1
  8
3
  6
CONTINUOUS
 62
     0
 10
3567.382161
 20
2501.3997629999999
 30
0.0
 11
3567.382161
 21
2151.3997629999999
 31
0.0
  0
INSERT
  5
7DD2
  8
3
  6
CONTINUOUS
 62
     0
  2
_OPEN
 10
3567.382161
 20
2541.3997629999999
 30
0.0
 41
40.0
 42
40.0
 43
40.0
 50
90.0
  0
INSERT
  5
7DD3
  8
3
  6
CONTINUOUS
 62
     0
  2
_OPEN
 10
3567.382161
 20
2111.3997629999999
 30
0.0
 41
40.0
 42
40.0
 43
40.0
 50
270.0
  0
TEXT
  8
3
  40
60
  5
7E0F
  62
0
  72
0
  71
0
 10
3397.38
 20
2205.46
 30
0.000000
  1
φ430
  0
POINT
  5
7DD5
  8
DEFPOINTS
  6
CONTINUOUS
 62
     0
 10
3457.4887819999999
 20
2541.3997629999999
 30
0.0
  0
POINT
  5
7DD6
  8
DEFPOINTS
  6
CONTINUOUS
 62
     0
 10
3457.4887819999999
 20
2111.3997629999999
 30
0.0
  0
POINT
  5
7DD7
  8
DEFPOINTS
  6
CONTINUOUS
 62
     0
 10
3567.382161
 20
2111.3997629999999
 30
0.0
  0
ENDBLK
  5
7CB0
  8
0
  0
BLOCK
  8
0
  2
*D13
 70
     1
 10
0.0
 20
0.0
 30
0.0
  3
*D13
  1

  0
LINE
  5
7DD8
  8
3
  6
CONTINUOUS
 62
     0
 10
987.24087999999995
 20
4015.1697629999999
 30
0.0
 11
987.24087999999995
 21
4155.6545889999998
 31
0.0
  0
LINE
  5
7DD9
  8
3
  6
CONTINUOUS
 62
     0
 10
1987.2408800000001
 20
4015.1697629999999
 30
0.0
 11
1987.2408800000001
 21
4155.6545889999998
 31
0.0
  0
LINE
  5
7DDA
  8
3
  6
CONTINUOUS
 62
     0
 10
1027.2408800000001
 20
4135.6545889999998
 30
0.0
 11
1947.2408800000001
 21
4135.6545889999998
 31
0.0
  0
INSERT
  5
7DDB
  8
3
  6
CONTINUOUS
 62
     0
  2
_OPEN
 10
987.24087999999995
 20
4135.6545889999998
 30
0.0
 41
40.0
 42
40.0
 43
40.0
 50
180.0
  0
INSERT
  5
7DDC
  8
3
  6
CONTINUOUS
 62
     0
  2
_OPEN
 10
1987.2408800000001
 20
4135.6545889999998
 30
0.0
 41
40.0
 42
40.0
 43
40.0
  0
TEXT
  8
3
  40
60
  5
7E10
  62
0
  72
0
  71
0
 10
1375.48
 20
4079.45
 30
0.000000
  1
1000
  0
POINT
  5
7DDE
  8
DEFPOINTS
  6
CONTINUOUS
 62
     0
 10
987.24087999999995
 20
4005.1697629999999
 30
0.0
  0
POINT
  5
7DDF
  8
DEFPOINTS
  6
CONTINUOUS
 62
     0
 10
1987.2408800000001
 20
4005.1697629999999
 30
0.0
  0
POINT
  5
7DE0
  8
DEFPOINTS
  6
CONTINUOUS
 62
     0
 10
1987.2408800000001
 20
4135.6545889999998
 30
0.0
  0
ENDBLK
  5
7C14
  8
0
  0
BLOCK
  8
0
  2
*D14
 70
     1
 10
0.0
 20
0.0
 30
0.0
  3
*D14
  1

  0
LINE
  5
7DE1
  8
3
  6
CONTINUOUS
 62
     0
 10
977.24087999999995
 20
4005.1697629999999
 30
0.0
 11
811.46457200000066
 21
4005.1697629999999
 31
0.0
  0
LINE
  5
7DE2
  8
3
  6
CONTINUOUS
 62
     0
 10
977.24087999999995
 20
3395.1697629999999
 30
0.0
 11
811.46457200000054
 21
3395.1697629999999
 31
0.0
  0
LINE
  5
7DE3
  8
3
  6
CONTINUOUS
 62
     0
 10
831.46457200000054
 20
3965.1697629999999
 30
0.0
 11
831.46457200000054
 21
3435.1697629999999
 31
0.0
  0
INSERT
  5
7DE4
  8
3
  6
CONTINUOUS
 62
     0
  2
_OPEN
 10
831.46457200000054
 20
4005.1697629999999
 30
0.0
 41
40.0
 42
40.0
 43
40.0
 50
90.0
  0
INSERT
  5
7DE5
  8
3
  6
CONTINUOUS
 62
     0
  2
_OPEN
 10
831.46457200000054
 20
3395.1697629999999
 30
0.0
 41
40.0
 42
40.0
 43
40.0
 50
270.0
  0
TEXT
  8
3
  40
60
  5
7E11
  62
0
  72
0
  71
0
 10
661.465
 20
3614.24
 30
0.000000
  1
610
  0
POINT
  5
7DE7
  8
DEFPOINTS
  6
CONTINUOUS
 62
     0
 10
987.24087999999995
 20
4005.1697629999999
 30
0.0
  0
POINT
  5
7DE8
  8
DEFPOINTS
  6
CONTINUOUS
 62
     0
 10
987.24087999999995
 20
3395.1697629999999
 30
0.0
  0
POINT
  5
7DE9
  8
DEFPOINTS
  6
CONTINUOUS
 62
     0
 10
831.46457200000054
 20
3395.1697629999999
 30
0.0
  0
ENDBLK
  5
7C1F
  8
0
  0
BLOCK
  8
0
  2
*D15
 70
     1
 10
0.0
 20
0.0
 30
0.0
  3
*D15
  1

  0
LINE
  5
7DEA
  8
3
  6
CONTINUOUS
 62
     0
 10
987.24087999999995
 20
1896.399762999999
 30
0.0
 11
987.24087999999995
 21
1768.2230628098121
 31
0.0
  0
LINE
  5
7DEB
  8
3
  6
CONTINUOUS
 62
     0
 10
1727.2408800000001
 20
1832.9595188098119
 30
0.0
 11
1727.2408800000001
 21
1768.2230628098121
 31
0.0
  0
LINE
  5
7DEC
  8
3
  6
CONTINUOUS
 62
     0
 10
1027.2408800000001
 20
1788.2230628098121
 30
0.0
 11
1687.2408800000001
 21
1788.2230628098121
 31
0.0
  0
INSERT
  5
7DED
  8
3
  6
CONTINUOUS
 62
     0
  2
_OPEN
 10
987.24087999999995
 20
1788.2230628098121
 30
0.0
 41
40.0
 42
40.0
 43
40.0
 50
180.0
  0
INSERT
  5
7DEE
  8
3
  6
CONTINUOUS
 62
     0
  2
_OPEN
 10
1727.2408800000001
 20
1788.2230628098121
 30
0.0
 41
40.0
 42
40.0
 43
40.0
  0
TEXT
  8
3
  40
60
  5
7E12
  62
0
  72
0
  71
0
 10
1225.09
 20
1732.02
 30
0.000000
  1
740
  0
POINT
  5
7DF0
  8
DEFPOINTS
  6
CONTINUOUS
 62
     0
 10
987.24087999999995
 20
1906.399762999999
 30
0.0
  0
POINT
  5
7DF1
  8
DEFPOINTS
  6
CONTINUOUS
 62
     0
 10
1727.2408800000001
 20
1842.9595188098119
 30
0.0
  0
POINT
  5
7DF2
  8
DEFPOINTS
  6
CONTINUOUS
 62
     0
 10
1727.2408800000001
 20
1788.2230628098121
 30
0.0
  0
ENDBLK
  5
7D52
  8
0
  0
BLOCK
  8
0
  2
*D16
 70
     1
 10
0.0
 20
0.0
 30
0.0
  3
*D16
  1

  0
LINE
  5
7DF3
  8
3
  6
CONTINUOUS
 62
     0
 10
1987.2408800000001
 20
1896.399762999999
 30
0.0
 11
1987.2408800000001
 21
1768.2230628098121
 31
0.0
  0
LINE
  5
7DF4
  8
3
  6
CONTINUOUS
 62
     0
 10
1767.2408800000001
 20
1788.2230628098121
 30
0.0
 11
1947.2408800000001
 21
1788.2230628098121
 31
0.0
  0
TEXT
  8
3
  40
60
  5
7E13
  62
0
  72
0
  71
0
 10
1741.17
 20
1731.79
 30
0.000000
  1
260
  0
INSERT
  5
7DF6
  8
3
  6
CONTINUOUS
 62
     0
  2
_OPEN
 10
1727.2408800000001
 20
1788.2230628098121
 30
0.0
 41
40.0
 42
40.0
 43
40.0
 50
180.0
  0
INSERT
  5
7DF7
  8
3
  6
CONTINUOUS
 62
     0
  2
_OPEN
 10
1987.2408800000001
 20
1788.2230628098121
 30
0.0
 41
40.0
 42
40.0
 43
40.0
  0
POINT
  5
7DF8
  8
DEFPOINTS
  6
CONTINUOUS
 62
     0
 10
1727.2408800000001
 20
1842.9595188098119
 30
0.0
  0
POINT
  5
7DF9
  8
DEFPOINTS
  6
CONTINUOUS
 62
     0
 10
1987.2408800000001
 20
1906.399762999999
 30
0.0
  0
POINT
  5
7DFA
  8
DEFPOINTS
  6
CONTINUOUS
 62
     0
 10
1987.2408800000001
 20
1788.2230628098121
 30
0.0
  0
ENDBLK
  5
7D47
  8
0
  0
BLOCK
  8
0
  2
*D17
 70
     1
 10
0.0
 20
0.0
 30
0.0
  3
*D17
  1

  0
LINE
  5
7CF4
  8
0
  6
BYBLOCK
 62
     0
 10
3307.4887819999999
 20
2856.7311570000002
 30
0.0
 11
3307.4887819999999
 21
2901.583756
 31
0.0
  0
LINE
  5
7CF5
  8
0
  6
BYBLOCK
 62
     0
 10
3458.488781999999
 20
2551.3997629999999
 30
0.0
 11
3458.488781999999
 21
2901.583756
 31
0.0
  0
LINE
  5
7CF6
  8
0
  6
BYBLOCK
 62
     0
 10
3347.4887819999999
 20
2881.583756
 30
0.0
 11
3418.4887819999999
 21
2881.583756
 31
0.0
  0
TEXT
  5
7CF7
  8
3
 62
     0
 10
3314.7360651782028
 20
2900.8023401478999
 30
0.0
 40
60.0
  1
151
  0
INSERT
  5
7CF8
  8
0
  6
BYBLOCK
 62
     0
  2
_OPEN
 10
3307.4887819999999
 20
2881.583756
 30
0.0
 41
40.0
 42
40.0
 43
40.0
 50
180.0
  0
INSERT
  5
7CF9
  8
0
  6
BYBLOCK
 62
     0
  2
_OPEN
 10
3458.488781999999
 20
2881.583756
 30
0.0
 41
40.0
 42
40.0
 43
40.0
  0
POINT
  5
7CFA
  8
DEFPOINTS
  6
BYBLOCK
 62
     0
 10
3307.4887819999999
 20
2846.7311570000002
 30
0.0
  0
POINT
  5
7CFB
  8
DEFPOINTS
  6
BYBLOCK
 62
     0
 10
3458.488781999999
 20
2541.3997629999999
 30
0.0
  0
POINT
  5
7CFC
  8
DEFPOINTS
  6
BYBLOCK
 62
     0
 10
3458.488781999999
 20
2881.583756
 30
0.0
  0
ENDBLK
  5
7CFD
  8
0
  0
BLOCK
  8
0
  2
*D18
 70
     1
 10
0.0
 20
0.0
 30
0.0
  3
*D18
  1

  0
LINE
  5
7DFB
  8
3
 62
     0
 10
987.24087999999995
 20
2036.399762999999
 30
0.0
 11
987.24087999999995
 21
2952.6951215454851
 31
0.0
  0
LINE
  5
7DFC
  8
3
 62
     0
 10
2027.2408800000001
 20
2751.3997629999999
 30
0.0
 11
2027.2408800000001
 21
2952.6951215454851
 31
0.0
  0
LINE
  5
7DFD
  8
3
 62
     0
 10
1027.2408800000001
 20
2932.6951215454851
 30
0.0
 11
1987.2408800000001
 21
2932.6951215454851
 31
0.0
  0
INSERT
  5
7DFE
  8
3
 62
     0
  2
_OPEN
 10
987.24087999999995
 20
2932.6951215454851
 30
0.0
 41
40.0
 42
40.0
 43
40.0
 50
180.0
  0
INSERT
  5
7DFF
  8
3
 62
     0
  2
_OPEN
 10
2027.2408800000001
 20
2932.6951215454851
 30
0.0
 41
40.0
 42
40.0
 43
40.0
  0
TEXT
  8
3
  40
60
  5
7E14
  62
0
  72
0
  71
0
 10
1435.23
 20
2876.50
 30
0.000000
  1
1040
  0
POINT
  5
7E01
  8
DEFPOINTS
 62
     0
 10
987.24087999999995
 20
2026.3997629999999
 30
0.0
  0
POINT
  5
7E02
  8
DEFPOINTS
 62
     0
 10
2027.2408800000001
 20
2741.3997629999999
 30
0.0
  0
POINT
  5
7E03
  8
DEFPOINTS
 62
     0
 10
2027.2408800000001
 20
2932.6951215454851
 30
0.0
  0
ENDBLK
  5
7C9A
  8
0
  0
ENDSEC
  0
SECTION
  2
ENTITIES
  0
LINE
  5
7A6E
  8
1
  6
CONTINUOUS
 10
1987.2408800000001
 20
1946.399762999999
 30
0.0
 11
987.24087999999995
 21
1946.399762999999
 31
0.0
  0
LINE
  5
7A6F
  8
1
  6
CONTINUOUS
 10
1997.2408800000001
 20
2026.3997629999999
 30
0.0
 11
987.24087999999995
 21
2026.3997629999999
 31
0.0
  0
LINE
  5
7A70
  8
1
  6
CONTINUOUS
 10
987.24087999999995
 20
1906.399762999999
 30
0.0
 11
1027.2408800000001
 21
1906.399762999999
 31
0.0
  0
LINE
  5
7A71
  8
1
  6
CONTINUOUS
 10
987.24087999999995
 20
2026.3997629999999
 30
0.0
 11
987.24087999999995
 21
1906.399762999999
 31
0.0
  0
CIRCLE
  5
7A72
  8
1
  6
CONTINUOUS
 10
1727.2408800000001
 20
2326.399762999999
 30
0.0
 40
240.0
  0
LINE
  5
7A73
  8
1
  6
CONTINUOUS
 10
1751.6308799999999
 20
2229.4197629999999
 30
0.0
 11
1210.01088
 21
2093.2097629999989
 31
0.0
  0
LINE
  5
7A74
  8
1
  6
CONTINUOUS
 10
1172.60088
 20
2206.9097630000001
 30
0.0
 11
1689.28088
 21
2418.9097630000001
 31
0.0
  0
LINE
  5
7A75
  8
1
  6
CONTINUOUS
 10
1712.7408800000001
 20
2681.399762999999
 30
0.0
 11
1032.7408800000001
 21
2276.3997629999999
 31
0.0
  0
ARC
  5
7A76
  8
1
  6
CONTINUOUS
 10
1754.2408800000001
 20
2353.3997629999999
 30
0.0
 40
360.00999999999988
 50
94.299999999999969
 51
185.83000000000001
  0
ARC
  5
7A77
  8
1
  6
CONTINUOUS
 10
1705.2408800000001
 20
2348.3997629999999
 30
0.0
 40
310.75999999999999
 50
185.83000000000001
 51
277.30999999999989
  0
LINE
  5
7A78
  8
1
  6
CONTINUOUS
 10
1997.2408800000001
 20
2626.3997629999999
 30
0.0
 11
1387.2408800000001
 21
2626.3997629999999
 31
0.0
  0
CIRCLE
  5
7A79
  8
1
  6
CONTINUOUS
 10
1727.2408800000001
 20
2326.399762999999
 30
0.0
 40
215.0
  0
LINE
  5
7A7A
  8
1
  6
CONTINUOUS
 10
1032.7408800000001
 20
2026.3997629999999
 30
0.0
 11
1032.7408800000001
 21
2276.3997629999999
 31
0.0
  0
LINE
  5
7A7B
  8
1
  6
CONTINUOUS
 10
1387.2408800000001
 20
2626.3997629999999
 30
0.0
 11
1387.2408800000001
 21
2026.3997629999999
 31
0.0
  0
CIRCLE
  5
7A7C
  8
1
  6
CONTINUOUS
 10
1195.3708799999999
 20
2151.3997629999999
 30
0.0
 40
60.0
  0
ARC
  5
7A7D
  8
1
  6
CONTINUOUS
 10
1195.3708799999999
 20
2151.3997629999999
 30
0.0
 40
101.0
 50
322.88
 51
217.12
  0
LINE
  5
7A7E
  8
2
  6
CENTER
 10
1135.3708799999999
 20
2151.3997629999999
 30
0.0
 11
1255.3708799999999
 21
2151.3997629999999
 31
0.0
  0
LINE
  5
7A7F
  8
1
  6
CONTINUOUS
 10
1095.3708799999999
 20
2026.3997629999999
 30
0.0
 11
1095.3708799999999
 21
2063.3997629999999
 31
0.0
  0
LINE
  5
7A80
  8
1
  6
CONTINUOUS
 10
1095.3708799999999
 20
2063.3997629999999
 30
0.0
 11
1114.84088
 21
2090.4397629999999
 31
0.0
  0
LINE
  5
7A81
  8
1
  6
CONTINUOUS
 10
1027.2408800000001
 20
1946.399762999999
 30
0.0
 11
1027.2408800000001
 21
1906.399762999999
 31
0.0
  0
LINE
  5
7A82
  8
1
  6
CONTINUOUS
 10
1295.3708799999999
 20
2063.3997629999999
 30
0.0
 11
1275.9108799999999
 21
2090.4397629999999
 31
0.0
  0
LINE
  5
7A83
  8
1
  6
CONTINUOUS
 10
1295.3708799999999
 20
2026.3997629999999
 30
0.0
 11
1295.3708799999999
 21
2063.3997629999999
 31
0.0
  0
LINE
  5
7A84
  8
2
  6
CENTER
 10
1195.3708799999999
 20
2091.3997629999999
 30
0.0
 11
1195.3708799999999
 21
2211.3997629999999
 31
0.0
  0
LINE
  5
7A85
  8
1
  6
CONTINUOUS
 10
1902.7408799999989
 20
2026.3997629999999
 30
0.0
 11
1902.7408799999989
 21
2566.3997629999999
 31
0.0
  0
CIRCLE
  5
7A86
  8
1
  6
CONTINUOUS
 10
1727.2408800000001
 20
2326.399762999999
 30
0.0
 40
100.0
  0
LINE
  5
7A87
  8
2
  6
CENTER
 10
1727.2408800000001
 20
3958.5751711127341
 30
0.0
 11
1727.2408800000001
 21
3280.6032949999999
 31
0.0
  0
ARC
  5
7A88
  8
1
  6
CONTINUOUS
 10
1710.2408800000001
 20
2309.3997629999999
 30
0.0
 40
271.43999999999988
 50
277.30999999999989
 51
1.0600000000000001
  0
LINE
  5
7A89
  8
1
  6
CONTINUOUS
 10
1997.2408800000001
 20
2626.3997629999999
 30
0.0
 11
1997.2408800000001
 21
2026.3997629999999
 31
0.0
  0
LINE
  5
7A8A
  8
1
  6
CONTINUOUS
 10
1987.2408800000001
 20
2026.3997629999999
 30
0.0
 11
1987.2408800000001
 21
1906.399762999999
 31
0.0
  0
LINE
  5
7A8B
  8
1
  6
CONTINUOUS
 10
1987.2408800000001
 20
1906.399762999999
 30
0.0
 11
1947.2408800000001
 21
1906.399762999999
 31
0.0
  0
LINE
  5
7A8C
  8
1
  6
CONTINUOUS
 10
1947.2408800000001
 20
1946.399762999999
 30
0.0
 11
1947.2408800000001
 21
1906.399762999999
 31
0.0
  0
LINE
  5
7A8D
  8
1
  6
CONTINUOUS
 10
2027.2408800000001
 20
2714.3997629999999
 30
0.0
 11
1727.2408800000001
 21
2712.3997629999999
 31
0.0
  0
LINE
  5
7A8E
  8
1
  6
CONTINUOUS
 10
1902.7408799999989
 20
2566.3997629999999
 30
0.0
 11
1712.7408800000001
 21
2681.399762999999
 31
0.0
  0
LINE
  5
7A8F
  8
2
  6
CENTER
 10
3466.8613135397818
 20
2326.399762999999
 30
0.0
 11
2943.7587512690811
 21
2326.399762999999
 31
0.0
  0
LINE
  5
7A90
  8
1
  6
CONTINUOUS
 10
2027.2408800000001
 20
2287.399762999999
 30
0.0
 11
2027.2408800000001
 21
2741.3997629999999
 31
0.0
  0
LINE
  5
7A91
  8
1
  6
CONTINUOUS
 10
1981.6408799999999
 20
2314.399762999999
 30
0.0
 11
2027.2408800000001
 21
2314.399762999999
 31
0.0
  0
LINE
  5
7A92
  8
1
  6
CONTINUOUS
 10
2007.2408800000001
 20
2314.399762999999
 30
0.0
 11
2007.2408800000001
 21
2714.259763
 31
0.0
  0
LINE
  5
7A93
  8
1
  6
CONTINUOUS
 10
3501.4887819999999
 20
2026.3997629999999
 30
0.0
 11
2977.4887819999999
 21
2026.3997629999999
 31
0.0
  0
LINE
  5
7A94
  8
1
  6
CONTINUOUS
 10
3581.4887819999999
 20
1946.399762999999
 30
0.0
 11
2971.4887819999999
 21
1946.399762999999
 31
0.0
  0
LINE
  5
7A95
  8
1
  6
CONTINUOUS
 10
3581.4887819999999
 20
1906.399762999999
 30
0.0
 11
2971.4887819999999
 21
1906.399762999999
 31
0.0
  0
LINE
  5
7A96
  8
1
  6
CONTINUOUS
 10
3002.4887819999999
 20
2224.6297629999999
 30
0.0
 11
3002.4887819999999
 21
2428.1597630000001
 31
0.0
  0
LINE
  5
7A97
  8
1
  6
CONTINUOUS
 10
3052.4887819999999
 20
2224.6297629999999
 30
0.0
 11
3052.4887819999999
 21
2428.1597630000001
 31
0.0
  0
LINE
  5
7A98
  8
1
  6
CONTINUOUS
 10
3077.4887819999999
 20
2026.3997629999999
 30
0.0
 11
3077.4887819999999
 21
2681.399762999999
 31
0.0
  0
LINE
  5
7A99
  8
1
  6
CONTINUOUS
 10
2977.4887819999999
 20
2026.3997629999999
 30
0.0
 11
2977.4887819999999
 21
2681.399762999999
 31
0.0
  0
LINE
  5
7A9A
  8
1
  6
CONTINUOUS
 10
3457.4887819999999
 20
2714.3997629999999
 30
0.0
 11
3457.4887819999999
 21
2026.3997629999999
 31
0.0
  0
LINE
  5
7A9B
  8
1
  6
CONTINUOUS
 10
3157.4887819999999
 20
2714.3997629999999
 30
0.0
 11
3157.4887819999999
 21
2026.3997629999999
 31
0.0
  0
LINE
  5
7A9C
  8
1
  6
CONTINUOUS
 10
3002.4887819999999
 20
2224.6297629999999
 30
0.0
 11
3052.4887819999999
 21
2224.6297629999999
 31
0.0
  0
LINE
  5
7A9D
  8
1
  6
CONTINUOUS
 10
3002.4887819999999
 20
2091.3997629999999
 30
0.0
 11
3052.4887819999999
 21
2091.3997629999999
 31
0.0
  0
LINE
  5
7A9E
  8
1
  6
CONTINUOUS
 10
3002.4887819999999
 20
2211.3997629999999
 30
0.0
 11
3052.4887819999999
 21
2211.3997629999999
 31
0.0
  0
LINE
  5
7A9F
  8
1
  6
CONTINUOUS
 10
3002.4887819999999
 20
2091.3997629999999
 30
0.0
 11
3002.4887819999999
 21
2211.3997629999999
 31
0.0
  0
LINE
  5
7AA0
  8
1
  6
CONTINUOUS
 10
2971.4887819999999
 20
1946.399762999999
 30
0.0
 11
2971.4887819999999
 21
1906.399762999999
 31
0.0
  0
LINE
  5
7AA1
  8
1
  6
CONTINUOUS
 10
3052.4887819999999
 20
2137.399762999999
 30
0.0
 11
3157.4887819999999
 21
2137.399762999999
 31
0.0
  0
LINE
  5
7AA2
  8
1
  6
CONTINUOUS
 10
3052.4887819999999
 20
2165.399762999999
 30
0.0
 11
3157.4887819999999
 21
2165.399762999999
 31
0.0
  0
LINE
  5
7AA3
  8
1
  6
CONTINUOUS
 10
3052.4887819999999
 20
2091.3997629999999
 30
0.0
 11
3052.4887819999999
 21
2211.3997629999999
 31
0.0
  0
LINE
  5
7AA4
  8
1
  6
CONTINUOUS
 10
3113.4887819999999
 20
2026.3997629999999
 30
0.0
 11
3113.4887819999999
 21
1946.399762999999
 31
0.0
  0
LINE
  5
7AA5
  8
1
  6
CONTINUOUS
 10
3157.4887819999999
 20
2314.399762999999
 30
0.0
 11
3457.4887819999999
 21
2714.3997629999999
 31
0.0
  0
LINE
  5
7AA6
  8
1
  6
CONTINUOUS
 10
3457.4887819999999
 20
2314.399762999999
 30
0.0
 11
3157.4887819999999
 21
2714.3997629999999
 31
0.0
  0
LINE
  5
7AA7
  8
1
  6
CONTINUOUS
 10
3157.4887819999999
 20
2314.399762999999
 30
0.0
 11
3457.4887819999999
 21
2314.399762999999
 31
0.0
  0
LINE
  5
7AA8
  8
1
  6
CONTINUOUS
 10
3157.4887819999999
 20
2714.3997629999999
 30
0.0
 11
3457.4887819999999
 21
2714.3997629999999
 31
0.0
  0
LINE
  5
7AA9
  8
1
  6
CONTINUOUS
 10
3002.4887819999999
 20
2428.1597630000001
 30
0.0
 11
3052.4887819999999
 21
2428.1597630000001
 31
0.0
  0
LINE
  5
7AAA
  8
1
  6
CONTINUOUS
 10
2977.4887819999999
 20
2681.399762999999
 30
0.0
 11
3077.4887819999999
 21
2681.399762999999
 31
0.0
  0
LINE
  5
7AAB
  8
1
  6
CONTINUOUS
 10
3052.4887819999999
 20
2314.1597630000001
 30
0.0
 11
3158.2887820000001
 21
2314.1597630000001
 31
0.0
  0
LINE
  5
7AAC
  8
1
  6
CONTINUOUS
 10
3052.4887819999999
 20
2342.1597630000001
 30
0.0
 11
3158.2887820000001
 21
2342.1597630000001
 31
0.0
  0
LINE
  5
7AAD
  8
1
  6
CONTINUOUS
 10
3501.4887819999999
 20
2026.3997629999999
 30
0.0
 11
3501.4887819999999
 21
1946.399762999999
 31
0.0
  0
LINE
  5
7AAE
  8
1
  6
CONTINUOUS
 10
3581.4887819999999
 20
1946.399762999999
 30
0.0
 11
3581.4887819999999
 21
1906.399762999999
 31
0.0
  0
LINE
  5
7AAF
  8
1
  6
CONTINUOUS
 10
1181.3708799999999
 20
3537.1697629999999
 30
0.0
 11
987.24087999999995
 21
3537.1697629999999
 31
0.0
  0
LINE
  5
7AB0
  8
1
  6
CONTINUOUS
 10
1987.2408800000001
 20
3925.1697629999999
 30
0.0
 11
987.24087999999995
 21
3925.1697629999999
 31
0.0
  0
LINE
  5
7AB1
  8
1
  6
CONTINUOUS
 10
1027.2408800000001
 20
3395.1697629999999
 30
0.0
 11
987.24087999999995
 21
3395.1697629999999
 31
0.0
  0
LINE
  5
7AB2
  8
1
  6
CONTINUOUS
 10
1027.2408800000001
 20
4005.1697629999999
 30
0.0
 11
987.24087999999995
 21
4005.1697629999999
 31
0.0
  0
LINE
  5
7AB3
  8
1
  6
CONTINUOUS
 10
987.24087999999995
 20
4005.1697629999999
 30
0.0
 11
987.24087999999995
 21
3395.1697629999999
 31
0.0
  0
LINE
  5
7AB4
  8
1
  6
CONTINUOUS
 10
1713.2408800000001
 20
3537.1697629999999
 30
0.0
 11
1209.3708799999999
 21
3537.1697629999999
 31
0.0
  0
LINE
  5
7AB5
  8
1
  6
CONTINUOUS
 10
1032.7408800000001
 20
3501.1697629999999
 30
0.0
 11
1902.7408799999989
 21
3501.1697629999999
 31
0.0
  0
LINE
  5
7AB6
  8
1
  6
CONTINUOUS
 10
1032.7408800000001
 20
3401.1697629999999
 30
0.0
 11
1902.7408799999989
 21
3401.1697629999999
 31
0.0
  0
LINE
  5
7AB7
  8
1
  6
CONTINUOUS
 10
1387.2408800000001
 20
3881.1697629999999
 30
0.0
 11
2027.2408800000001
 21
3881.1697629999999
 31
0.0
  0
LINE
  5
7AB8
  8
1
  6
CONTINUOUS
 10
1387.2408800000001
 20
3581.1697629999999
 30
0.0
 11
2027.2408800000001
 21
3581.1697629999999
 31
0.0
  0
LINE
  5
7AB9
  8
1
  6
CONTINUOUS
 10
1094.3708799999999
 20
3568.6897629999999
 30
0.0
 11
1094.3708799999999
 21
3811.3697630000001
 31
0.0
  0
LINE
  5
7ABA
  8
1
  6
CONTINUOUS
 10
1296.3708799999999
 20
3568.6897629999999
 30
0.0
 11
1296.3708799999999
 21
3811.3697630000001
 31
0.0
  0
LINE
  5
7ABB
  8
1
  6
CONTINUOUS
 10
1135.3708799999999
 20
3476.1697630000008
 30
0.0
 11
1255.3708799999999
 21
3476.1697630000008
 31
0.0
  0
LINE
  5
7ABC
  8
1
  6
CONTINUOUS
 10
1135.3708799999999
 20
3426.1697629999999
 30
0.0
 11
1255.3708799999999
 21
3426.1697629999999
 31
0.0
  0
LINE
  5
7ABD
  8
1
  6
CONTINUOUS
 10
1296.3708799999999
 20
3568.6897629999999
 30
0.0
 11
1094.3708799999999
 21
3568.6897629999999
 31
0.0
  0
LINE
  5
7ABE
  8
1
  6
CONTINUOUS
 10
1135.3708799999999
 20
3426.1697629999999
 30
0.0
 11
1135.3708799999999
 21
3476.1697630000008
 31
0.0
  0
LINE
  5
7ABF
  8
1
  6
CONTINUOUS
 10
1032.7408800000001
 20
3401.1697629999999
 30
0.0
 11
1032.7408800000001
 21
3501.1697629999999
 31
0.0
  0
LINE
  5
7AC0
  8
1
  6
CONTINUOUS
 10
1027.2408800000001
 20
3537.1697629999999
 30
0.0
 11
1027.2408800000001
 21
3395.1697629999999
 31
0.0
  0
LINE
  5
7AC1
  8
1
  6
CONTINUOUS
 10
1255.3708799999999
 20
3426.1697629999999
 30
0.0
 11
1255.3708799999999
 21
3476.1697630000008
 31
0.0
  0
LINE
  5
7AC2
  8
1
  6
CONTINUOUS
 10
1209.3708799999999
 20
3476.1697630000008
 30
0.0
 11
1209.3708799999999
 21
3568.6897629999999
 31
0.0
  0
LINE
  5
7AC3
  8
1
  6
CONTINUOUS
 10
1181.3708799999999
 20
3476.1697630000008
 30
0.0
 11
1181.3708799999999
 21
3568.6897629999999
 31
0.0
  0
LINE
  5
7AC4
  8
1
  6
CONTINUOUS
 10
1296.3708799999999
 20
3811.3697630000001
 30
0.0
 11
1094.3708799999999
 21
3811.3697630000001
 31
0.0
  0
LINE
  5
7AC5
  8
1
  6
CONTINUOUS
 10
1027.2408800000001
 20
4005.1697629999999
 30
0.0
 11
1027.2408800000001
 21
3925.1697629999999
 31
0.0
  0
LINE
  5
7AC6
  8
1
  6
CONTINUOUS
 10
1387.2408800000001
 20
3581.1697629999999
 30
0.0
 11
1387.2408800000001
 21
3881.1697629999999
 31
0.0
  0
LINE
  5
7AC7
  8
1
  6
CONTINUOUS
 10
1987.2408800000001
 20
3537.1697629999999
 30
0.0
 11
1741.2408800000001
 21
3537.1697629999999
 31
0.0
  0
LINE
  5
7AC8
  8
1
  6
CONTINUOUS
 10
1623.7208800000001
 20
3476.1697630000008
 30
0.0
 11
1827.2408800000001
 21
3476.1697630000008
 31
0.0
  0
LINE
  5
7AC9
  8
1
  6
CONTINUOUS
 10
1623.7208800000001
 20
3426.1697629999999
 30
0.0
 11
1827.2408800000001
 21
3426.1697629999999
 31
0.0
  0
LINE
  5
7ACA
  8
1
  6
CONTINUOUS
 10
1741.2408800000001
 20
3476.1697630000008
 30
0.0
 11
1741.2408800000001
 21
3581.1697629999999
 31
0.0
  0
LINE
  5
7ACB
  8
1
  6
CONTINUOUS
 10
1713.2408800000001
 20
3476.1697630000008
 30
0.0
 11
1713.2408800000001
 21
3581.1697629999999
 31
0.0
  0
LINE
  5
7ACC
  8
1
  6
CONTINUOUS
 10
1623.7208800000001
 20
3426.1697629999999
 30
0.0
 11
1623.7208800000001
 21
3476.1697630000008
 31
0.0
  0
LINE
  5
7ACD
  8
1
  6
CONTINUOUS
 10
1827.2408800000001
 20
3426.1697629999999
 30
0.0
 11
1827.2408800000001
 21
3476.1697630000008
 31
0.0
  0
LINE
  5
7ACE
  8
1
  6
CONTINUOUS
 10
1902.7408799999989
 20
3401.1697629999999
 30
0.0
 11
1902.7408799999989
 21
3501.1697629999999
 31
0.0
  0
LINE
  5
7ACF
  8
1
  6
CONTINUOUS
 10
2007.2408800000001
 20
3581.1697629999999
 30
0.0
 11
2007.2408800000001
 21
3881.1697629999999
 31
0.0
  0
LINE
  5
7AD0
  8
1
  6
CONTINUOUS
 10
2027.2408800000001
 20
3554.1697629999999
 30
0.0
 11
2027.2408800000001
 21
3908.1697629999999
 31
0.0
  0
LINE
  5
7AD1
  8
1
  6
CONTINUOUS
 10
1987.2408800000001
 20
3581.1697629999999
 30
0.0
 11
1987.2408800000001
 21
3395.1697629999999
 31
0.0
  0
LINE
  5
7AD2
  8
1
  6
CONTINUOUS
 10
1947.2408800000001
 20
3395.1697629999999
 30
0.0
 11
1987.2408800000001
 21
3395.1697629999999
 31
0.0
  0
LINE
  5
7AD3
  8
1
  6
CONTINUOUS
 10
1947.2408800000001
 20
3537.1697629999999
 30
0.0
 11
1947.2408800000001
 21
3395.1697629999999
 31
0.0
  0
LINE
  5
7AD4
  8
1
  6
CONTINUOUS
 10
1987.2408800000001
 20
4005.1697629999999
 30
0.0
 11
1987.2408800000001
 21
3881.1697629999999
 31
0.0
  0
LINE
  5
7AD5
  8
1
  6
CONTINUOUS
 10
1947.2408800000001
 20
4005.1697629999999
 30
0.0
 11
1947.2408800000001
 21
3925.1697629999999
 31
0.0
  0
LINE
  5
7AD6
  8
1
  6
CONTINUOUS
 10
1947.2408800000001
 20
4005.1697629999999
 30
0.0
 11
1987.2408800000001
 21
4005.1697629999999
 31
0.0
  0
LINE
  5
7AD7
  8
2
  6
CENTER
 10
3307.4887819999999
 20
2887.841402999999
 30
0.0
 11
3307.4887819999999
 21
2863.4084720000001
 31
0.0
  0
LINE
  5
7AD8
  8
2
  6
CENTER
 10
946.01257694595915
 20
3731.1697629999999
 30
0.0
 11
2159.8326949999991
 21
3731.1697629999999
 31
0.0
  0
LINE
  5
7AD9
  8
2
  6
CENTER
 10
1727.2408800000001
 20
2767.1166183333589
 30
0.0
 11
1727.2408800000001
 21
1842.9595188098119
 31
0.0
  0
LINE
  5
7ADA
  8
2
  6
CENTER
 10
2133.779505
 20
2326.399762999999
 30
0.0
 11
993.2799819999999
 21
2326.399762999999
 31
0.0
  0
LINE
  5
7ADB
  8
4
  6
CONTINUOUS
 10
3700.0
 20
1000.0
 30
0.0
 11
3700.0
 21
600.0
 31
0.0
  0
LINE
  5
7ADC
  8
4
  6
CONTINUOUS
 10
2300.0
 20
1000.0
 30
0.0
 11
2300.0
 21
600.0
 31
0.0
  0
LINE
  5
7ADD
  8
4
  6
CONTINUOUS
 10
1300.0
 20
1000.0
 30
0.0
 11
1300.0
 21
600.0
 31
0.0
  0
LINE
  5
7AE0
  8
4
  6
CONTINUOUS
 10
1300.0
 20
600.0
 30
0.0
 11
3700.0
 21
600.0
 31
0.0
  0
LINE
  5
7AE1
  8
4
  6
CONTINUOUS
 10
1300.0
 20
800.0
 30
0.0
 11
3700.0
 21
800.0
 31
0.0
  0
TEXT
  5
7AE2
  8
4
  6
CONTINUOUS
 10
1377.004162
 20
863.086052
 30
0.0
 40
100.0
  1
機器名称
  0
TEXT
  5
7AE3
  8
4
  6
CONTINUOUS
 10
1372.516212
 20
643.29031299999986
 30
0.0
 40
100.0
  1
機器型番
  0
TEXT
  5
7AE4
  8
4
  6
CONTINUOUS
 10
2355.3574910000002
 20
845.14353800000015
 30
0.0
 40
100.0
  1
ミツヤ多翼送風機
  0
TEXT
  5
7AE5
  8
4
  6
CONTINUOUS
 10
2373.3089909999999
 20
634.31916899999999
 30
0.0
 40
100.0
  1
MF#2 1/2-4
  0
TEXT
  5
7AE7
  8
4
  6
CONTINUOUS
 10
1694.244823999999
 20
4766.8576830000002
 30
0.0
 40
108.0
  1
天井吊ベット
  0
TEXT
  5
7AE8
  8
4
  6
CONTINUOUS
 10
632.33518700000002
 20
5067.7619520000007
 30
0.0
 40
144.0
  1
ベルト駆動式片吸込両持多翼ファン
  0
LINE
  5
7AE9
  8
4
  6
CONTINUOUS
 10
500.0
 20
4938.8175090000004
 30
0.0
 11
3700.0
 21
4938.8175090000004
 31
0.0
  0
LINE
  5
7AEA
  8
4
  6
CONTINUOUS
 10
500.0
 20
5338.8175090000004
 30
0.0
 11
3700.0
 21
5338.8175090000004
 31
0.0
  0
LINE
  5
7AEB
  8
4
  6
CONTINUOUS
 10
1300.0
 20
1000.0
 30
0.0
 11
3700.0
 21
1000.0
 31
0.0
  0
LINE
  5
7AEC
  8
4
  6
CONTINUOUS
 10
500.0
 20
5338.8175090000004
 30
0.0
 11
500.0
 21
4938.8175090000004
 31
0.0
  0
TEXT
  5
7AED
  8
4
  6
CONTINUOUS
 10
730.26578899999981
 20
4764.6389549999994
 30
0.0
 40
108.0
  1
右回転右横向
  0
TEXT
  5
7AEE
  8
4
  6
CONTINUOUS
 10
2937.9391179999998
 20
5412.122163
 30
0.0
 40
112.0
  1
No.
  0
TEXT
  5
7AEF
  8
4
  6
CONTINUOUS
 10
2622.5921250000001
 20
4766.8576830000002
 30
0.0
 40
108.0
  1
縮尺：1/20
  0
LINE
  5
7AF0
  8
4
  6
CONTINUOUS
 10
3700.0
 20
5338.8175090000004
 30
0.0
 11
3700.0
 21
4938.8175090000004
 31
0.0
  0
LINE
  5
7AF2
  8
4
  6
CONTINUOUS
 10
2881.234845
 20
5362.5271659999999
 30
0.0
 11
2881.234845
 21
5573.3045229999998
 31
0.0
  0
LINE
  5
7AF3
  8
4
  6
CONTINUOUS
 10
2881.234845
 20
5573.3045229999998
 30
0.0
 11
3700.0
 21
5573.3045229999998
 31
0.0
  0
LINE
  5
7AF4
  8
4
  6
CONTINUOUS
 10
3700.0
 20
5573.3045229999998
 30
0.0
 11
3700.0
 21
5362.5271659999999
 31
0.0
  0
LINE
  5
7AF5
  8
4
  6
CONTINUOUS
 10
3700.0
 20
5362.5271659999999
 30
0.0
 11
2881.234845
 21
5362.5271659999999
 31
0.0
  0
DIMENSION
  5
7B0D
  8
3
  6
CONTINUOUS
  2
*D1
 10
2137.1595790000001
 20
2314.399762999999
 30
0.0
 11
2137.1595789999992
 21
2493.3223199999989
 31
0.0
 70
   128
 13
2027.2408800000001
 23
2714.3997629999999
 33
0.0
 14
2027.2408800000001
 24
2314.399762999999
 34
0.0
 50
90.0
1001
ACAD
1000
DSTYLE
1002
{
1070
   287
1070
     3
1070
    40
1040
20.0
1070
   143
1040
0.039
1070
   172
1070
     1
1070
   271
1070
     0
1070
   279
1070
     0
1070
   288
1070
     1
1002
}
  0
DIMENSION
  5
7B1A
  8
3
  6
CONTINUOUS
  2
*D2
 10
2236.9763710000002
 20
2326.399762999999
 30
0.0
 11
2236.9763710000002
 21
2489.7602870000001
 31
0.0
 70
   128
 13
2027.2408800000001
 23
2714.3997629999999
 33
0.0
 14
2133.779505
 24
2326.399762999999
 34
0.0
 50
90.0
1001
ACAD
1000
DSTYLE
1002
{
1070
   287
1070
     3
1070
    40
1040
20.0
1070
   143
1040
0.039
1070
   172
1070
     1
1070
   271
1070
     0
1070
   279
1070
     0
1070
   288
1070
     1
1002
}
  0
DIMENSION
  5
7B26
  8
3
  6
CONTINUOUS
  2
*D3
 10
2236.9763710000002
 20
1946.399762999999
 30
0.0
 11
2186.9763709999988
 21
2136.3997629999999
 31
0.0
 70
     0
 13
2133.779505
 23
2326.399762999999
 33
0.0
 14
1987.2408800000001
 24
1946.399762999999
 34
0.0
 50
90.0
1001
ACAD
1000
DSTYLE
1002
{
1070
   287
1070
     4
1070
    40
1040
20.0
1070
    75
1070
     1
1070
   143
1040
0.039
1070
   172
1070
     1
1070
   271
1070
     0
1070
   279
1070
     1
1070
   288
1070
     1
1002
}
  0
DIMENSION
  5
7B36
  8
3
  6
CONTINUOUS
  2
*D4
 10
2236.078262
 20
1906.399762999999
 30
0.0
 11
2236.078262
 21
1757.828334428571
 31
0.0
 70
   128
 13
1987.2408800000001
 23
1946.399762999999
 33
0.0
 14
1987.2408800000001
 24
1906.399762999999
 34
0.0
 50
90.0
1001
ACAD
1000
DSTYLE
1002
{
1070
   287
1070
     3
1070
    40
1040
20.0
1070
   143
1040
0.039
1070
   172
1070
     1
1070
   271
1070
     0
1070
   279
1070
     0
1070
   288
1070
     1
1002
}
  0
DIMENSION
  5
7B43
  8
3
  6
CONTINUOUS
  2
*D5
 10
2377.139795
 20
1906.399762999999
 30
0.0
 11
2377.139795
 21
2325.9068360000001
 31
0.0
 70
   128
 13
2027.2408800000001
 23
2741.3997629999999
 33
0.0
 14
1987.2408800000001
 24
1906.399762999999
 34
0.0
 50
90.0
1001
ACAD
1000
DSTYLE
1002
{
1070
   287
1070
     3
1070
    40
1040
20.0
1070
   143
1040
0.039
1070
   172
1070
     1
1070
   271
1070
     0
1070
   279
1070
     0
1070
   288
1070
     1
1002
}
  0
DIMENSION
  5
7B50
  8
3
  6
CONTINUOUS
  2
*D6
 10
1727.2408800000001
 20
2803.2190559999999
 30
0.0
 11
1864.3837371428569
 21
2803.2190559999999
 31
0.0
 70
   128
 13
2027.2408800000001
 23
2741.3997629999999
 33
0.0
 14
1727.2408800000001
 24
2767.1166183333589
 34
0.0
1001
ACAD
1000
DSTYLE
1002
{
1070
   287
1070
     3
1070
    40
1040
20.0
1070
   143
1040
0.039
1070
   172
1070
     1
1070
   271
1070
     0
1070
   279
1070
     0
1070
   288
1070
     1
1002
}
  0
DIMENSION
  5
7B5C
  8
3
  6
CONTINUOUS
  2
*D7
 10
1387.2408800000001
 20
2803.2190559999999
 30
0.0
 11
1557.2408800000001
 21
2853.2190559999999
 31
0.0
 70
     0
 13
1727.2408800000001
 23
2768.6139490808032
 33
0.0
 14
1387.2408800000001
 24
2626.3997629999999
 34
0.0
1001
ACAD
1000
DSTYLE
1002
{
1070
   287
1070
     4
1070
    40
1040
20.0
1070
    75
1070
     1
1070
   143
1040
0.039
1070
   172
1070
     1
1070
   271
1070
     0
1070
   279
1070
     1
1070
   288
1070
     1
1002
}
  0
DIMENSION
  5
7B69
  8
3
  6
CONTINUOUS
  2
*D8
 10
3157.4887819999999
 20
2749.788587999999
 30
0.0
 11
3294.6316390000002
 21
2749.788587999999
 31
0.0
 70
   128
 13
3457.4887819999999
 23
2714.3997629999999
 33
0.0
 14
3157.4887819999999
 24
2714.3997629999999
 34
0.0
1001
ACAD
1000
DSTYLE
1002
{
1070
   287
1070
     3
1070
    40
1040
20.0
1070
   143
1040
0.039
1070
   172
1070
     1
1070
   271
1070
     0
1070
   279
1070
     0
1070
   288
1070
     1
1002
}
  0
DIMENSION
  5
7B83
  8
3
  6
CONTINUOUS
  2
*D9
 10
2977.4887819999999
 20
2881.583756
 30
0.0
 11
3142.4887819999999
 21
2981.583756
 31
0.0
 70
     0
  1
MAX\P380
 13
3307.4887819999999
 23
2846.7311570000002
 33
0.0
 14
2977.4887819999999
 24
2681.399762999999
 34
0.0
1001
ACAD
1000
DSTYLE
1002
{
1070
   287
1070
     4
1070
    40
1040
20.0
1070
    75
1070
     1
1070
   143
1040
0.039
1070
   172
1070
     1
1070
   271
1070
     0
1070
   279
1070
     1
1070
   288
1070
     1
1002
}
  0
DIMENSION
  5
7B92
  8
3
  6
CONTINUOUS
  2
*D10
 10
3307.4887819999999
 20
1750.304756796495
 30
0.0
 11
3444.4887819999999
 21
1798.3732916649469
 31
0.0
 70
   128
 13
3581.4887819999999
 23
1906.399762999999
 33
0.0
 14
3307.4887819999999
 24
1813.2678245893819
 34
0.0
1001
ACAD
1000
DSTYLE
1002
{
1070
   288
1070
     1
1070
   172
1070
     1
1070
    40
1040
20.0
1070
   271
1070
     0
1070
   143
1040
0.039
1002
}
  0
DIMENSION
  5
7B9E
  8
3
  6
CONTINUOUS
  2
*D11
 10
2971.4887819999999
 20
1750.304756796495
 30
0.0
 11
3139.4887819999999
 21
1800.304756796495
 31
0.0
 70
     0
 13
3307.4887819999999
 23
1812.6603692213521
 33
0.0
 14
2971.4887819999999
 24
1906.399762999999
 34
0.0
1001
ACAD
1000
DSTYLE
1002
{
1070
   287
1070
     4
1070
    40
1040
20.0
1070
    75
1070
     1
1070
   143
1040
0.039
1070
   172
1070
     1
1070
   271
1070
     0
1070
   279
1070
     1
1070
   288
1070
     1
1002
}
  0
DIMENSION
  5
7BAD
  8
3
  6
CONTINUOUS
  2
*D12
 10
3567.382161
 20
2111.3997629999999
 30
0.0
 11
3567.3821609999991
 21
2311.6587169999998
 31
0.0
 70
   128
 13
3457.4887819999999
 23
2541.3997629999999
 33
0.0
 14
3457.4887819999999
 24
2111.3997629999999
 34
0.0
 50
90.0
1001
ACAD
1000
DSTYLE
1002
{
1070
   287
1070
     3
1070
     3
1000
φ<>
1070
    40
1040
20.0
1070
   143
1040
0.039
1070
   172
1070
     1
1070
   271
1070
     0
1070
   279
1070
     0
1070
   288
1070
     1
1002
}
  0
DIMENSION
  5
7BBA
  8
3
  6
CONTINUOUS
  2
*D13
 10
1987.2408800000001
 20
4135.6545889999998
 30
0.0
 11
1495.480139
 21
4135.6545889999998
 31
0.0
 70
   128
 13
987.24087999999995
 23
4005.1697629999999
 33
0.0
 14
1987.2408800000001
 24
4005.1697629999999
 34
0.0
1001
ACAD
1000
DSTYLE
1002
{
1070
   287
1070
     3
1070
    40
1040
20.0
1070
   143
1040
0.039
1070
   172
1070
     1
1070
   271
1070
     0
1070
   279
1070
     0
1070
   288
1070
     1
1002
}
  0
DIMENSION
  5
7BC7
  8
3
  6
CONTINUOUS
  2
*D14
 10
831.46457200000054
 20
3395.1697629999999
 30
0.0
 11
831.46457199999986
 21
3720.4386849999992
 31
0.0
 70
   128
 13
987.24087999999995
 23
4005.1697629999999
 33
0.0
 14
987.24087999999995
 24
3395.1697629999999
 34
0.0
 50
90.0
1001
ACAD
1000
DSTYLE
1002
{
1070
   287
1070
     3
1070
    40
1040
20.0
1070
   143
1040
0.039
1070
   172
1070
     1
1070
   271
1070
     0
1070
   279
1070
     0
1070
   288
1070
     1
1002
}
  0
DIMENSION
  5
7BD9
  8
3
  6
CONTINUOUS
  2
*D15
 10
1727.2408800000001
 20
1788.2230628098121
 30
0.0
 11
1345.0900549999999
 21
1788.2230628098121
 31
0.0
 70
   128
 13
987.24087999999995
 23
1906.399762999999
 33
0.0
 14
1727.2408800000001
 24
1842.9595188098119
 34
0.0
1001
ACAD
1000
DSTYLE
1002
{
1070
   287
1070
     3
1070
    40
1040
20.0
1070
   143
1040
0.039
1070
   172
1070
     1
1070
   271
1070
     0
1070
   279
1070
     0
1070
   288
1070
     1
1002
}
  0
DIMENSION
  5
7BE7
  8
3
  6
CONTINUOUS
  2
*D16
 10
1987.2408800000001
 20
1788.2230628098121
 30
0.0
 11
1861.168942
 21
1787.9930778098119
 31
0.0
 70
   128
 13
1727.2408800000001
 23
1842.9595188098119
 33
0.0
 14
1987.2408800000001
 24
1906.399762999999
 34
0.0
1001
ACAD
1000
DSTYLE
1002
{
1070
   287
1070
     4
1070
    40
1040
20.0
1070
    75
1070
     1
1070
   143
1040
0.039
1070
   172
1070
     1
1070
   271
1070
     0
1070
   279
1070
     1
1070
   288
1070
     1
1002
}
  0
LINE
  5
7C20
  8
1
  6
CONTINUOUS
 10
3458.488781999999
 20
2541.3997629999999
 30
0.0
 11
3458.488781999999
 21
2111.3997629999999
 31
0.0
  0
DIMENSION
  5
7C3E
  8
3
  6
CONTINUOUS
  2
*D17
 10
3458.488781999999
 20
2881.583756
 30
0.0
 11
3373.3074937496308
 21
2930.8023401478999
 31
0.0
 70
   128
 13
3307.4887819999999
 23
2846.7311570000002
 33
0.0
 14
3458.488781999999
 24
2541.3997629999999
 34
0.0
1001
ACAD
1000
DSTYLE
1002
{
1070
   288
1070
     1
1070
   172
1070
     1
1070
    40
1040
20.0
1070
   271
1070
     0
1070
   143
1040
0.039
1002
}
  0
LINE
  5
7C55
  8
2
  6
CENTER
 10
3307.4887819999999
 20
2732.736633
 30
0.0
 11
3307.4887819999999
 21
1813.875292002451
 31
0.0
  0
DIMENSION
  5
7C9B
  8
3
  2
*D18
 10
2027.2408800000001
 20
2932.6951215454851
 30
0.0
 11
1555.2287803116551
 21
2932.6951215454851
 31
0.0
 70
   128
 13
987.24087999999995
 23
2026.3997629999999
 33
0.0
 14
2027.2408800000001
 24
2741.3997629999999
 34
0.0
1001
ACAD
1000
DSTYLE
1002
{
1070
   287
1070
     3
1070
    40
1040
20.0
1070
   143
1040
0.039
1070
   172
1070
     1
1070
   271
1070
     0
1070
   279
1070
     0
1070
   288
1070
     1
1002
}
  0
ENDSEC
  0
EOF
