  0
SECTION
  2
HEADER
  9
$ACADVER
  1
AC1009
  9
$INSBASE
 10
0.0
 20
0.0
 30
0.0
  9
$EXTMIN
 10
500.0
 20
600.0
 30
0.0
  9
$EXTMAX
 10
3700.0
 20
5573.3045229999998
 30
0.0
  9
$LIMMIN
 10
0.0
 20
0.0
  9
$LIMMAX
 10
297.0
 20
210.0
  9
$ORTHOMODE
 70
     0
  9
$REGENMODE
 70
     1
  9
$FILLMODE
 70
     0
  9
$QTEXTMODE
 70
     0
  9
$MIRRTEXT
 70
     1
  9
$DRAGMODE
 70
     2
  9
$LTSCALE
 40
100.0
  9
$OSMODE
 70
    37
  9
$ATTMODE
 70
     1
  9
$TEXTSIZE
 40
180.0
  9
$TRACEWID
 40
0.05
  9
$TEXTSTYLE
  7
STANDARD
  9
$CLAYER
  8
3
  9
$CELTYPE
  6
BYLAYER
  9
$CECOLOR
 62
   256
  9
$DIMSCALE
 40
20.0
  9
$DIMASZ
 40
2.0
  9
$DIMEXO
 40
0.5
  9
$DIMDLI
 40
10.0
  9
$DIMRND
 40
0.0
  9
$DIMDLE
 40
0.0
  9
$DIMEXE
 40
1.0
  9
$DIMTP
 40
1.0
  9
$DIMTM
 40
1.0
  9
$DIMTXT
 40
3.0
  9
$DIMCEN
 40
0.0
  9
$DIMTSZ
 40
0.0
  9
$DIMTOL
 70
     0
  9
$DIMLIM
 70
     0
  9
$DIMTIH
 70
     0
  9
$DIMTOH
 70
     0
  9
$DIMSE1
 70
     0
  9
$DIMSE2
 70
     0
  9
$DIMTAD
 70
     1
  9
$DIMZIN
 70
     8
  9
$DIMBLK
  1

  9
$DIMASO
 70
     1
  9
$DIMSHO
 70
     1
  9
$DIMPOST
  1

  9
$DIMAPOST
  1

  9
$DIMALT
 70
     0
  9
$DIMALTD
 70
     2
  9
$DIMALTF
 40
0.039
  9
$DIMLFAC
 40
1.0
  9
$DIMTOFL
 70
     1
  9
$DIMTVP
 40
0.0
  9
$DIMTIX
 70
     0
  9
$DIMSOXD
 70
     0
  9
$DIMSAH
 70
     1
  9
$DIMBLK1
  1
OPEN
  9
$DIMBLK2
  1
OPEN
  9
$DIMSTYLE
  2
IGA
  9
$DIMCLRD
 70
     0
  9
$DIMCLRE
 70
     0
  9
$DIMCLRT
 70
     0
  9
$DIMTFAC
 40
10.0
  9
$DIMGAP
 40
1.0
  9
$LUNITS
 70
     2
  9
$LUPREC
 70
     3
  9
$SKETCHINC
 40
0.1
  9
$FILLETRAD
 40
50.0
  9
$AUNITS
 70
     0
  9
$AUPREC
 70
     0
  9
$MENU
  1
acad
  9
$ELEVATION
 40
0.0
  9
$PELEVATION
 40
0.0
  9
$THICKNESS
 40
0.0
  9
$LIMCHECK
 70
     0
  9
$BLIPMODE
 70
     0
  9
$CHAMFERA
 40
0.5
  9
$CHAMFERB
 40
0.5
  9
$SKPOLY
 70
     0
  9
$TDCREATE
 40
2450725.6133065969
  9
$TDUPDATE
 40
2454953.764923681
  9
$TDINDWG
 40
0.0050622801
  9
$TDUSRTIMER
 40
0.0050622801
  9
$USRTIMER
 70
     1
  9
$ANGBASE
 50
0.0
  9
$ANGDIR
 70
     0
  9
$PDMODE
 70
     0
  9
$PDSIZE
 40
0.0
  9
$PLINEWID
 40
0.0
  9
$COORDS
 70
     1
  9
$SPLFRAME
 70
     0
  9
$SPLINETYPE
 70
     6
  9
$SPLINESEGS
 70
     8
  9
$ATTDIA
 70
     0
  9
$ATTREQ
 70
     1
  9
$HANDLING
 70
 10241
  9
$HANDSEED
  5
7E93
  9
$SURFTAB1
 70
     6
  9
$SURFTAB2
 70
     6
  9
$SURFTYPE
 70
     6
  9
$SURFU
 70
     6
  9
$SURFV
 70
     6
  9
$UCSNAME
  2

  9
$UCSORG
 10
0.0
 20
0.0
 30
0.0
  9
$UCSXDIR
 10
1.0
 20
0.0
 30
0.0
  9
$UCSYDIR
 10
0.0
 20
1.0
 30
0.0
  9
$PUCSNAME
  2

  9
$PUCSORG
 10
0.0
 20
0.0
 30
0.0
  9
$PUCSXDIR
 10
1.0
 20
0.0
 30
0.0
  9
$PUCSYDIR
 10
0.0
 20
1.0
 30
0.0
  9
$USERI1
 70
     0
  9
$USERI2
 70
     0
  9
$USERI3
 70
     0
  9
$USERI4
 70
     0
  9
$USERI5
 70
     0
  9
$USERR1
 40
0.0
  9
$USERR2
 40
0.0
  9
$USERR3
 40
0.0
  9
$USERR4
 40
0.0
  9
$USERR5
 40
0.0
  9
$WORLDVIEW
 70
     1
  9
$SHADEDGE
 70
     3
  9
$SHADEDIF
 70
    70
  9
$TILEMODE
 70
     1
  9
$MAXACTVP
 70
    16
  9
$PLIMCHECK
 70
     0
  9
$PEXTMIN
 10
1.0000000000000000E+020
 20
1.0000000000000000E+020
 30
1.0000000000000000E+020
  9
$PEXTMAX
 10
-1.0000000000000000E+020
 20
-1.0000000000000000E+020
 30
-1.0000000000000000E+020
  9
$PLIMMIN
 10
0.0
 20
0.0
  9
$PLIMMAX
 10
12.0
 20
9.0
  9
$UNITMODE
 70
     0
  9
$VISRETAIN
 70
     0
  9
$PLINEGEN
 70
     0
  9
$PSLTSCALE
 70
     1
  0
ENDSEC
  0
SECTION
  2
TABLES
  0
TABLE
  2
VPORT
 70
     2
  0
VPORT
  2
*ACTIVE
 70
     0
 10
0.0
 20
0.0
 11
1.0
 21
1.0
 12
6292.1124769529506
 22
3086.6374998146398
 13
0.0
 23
0.0
 14
10.0
 24
10.0
 15
10.0
 25
10.0
 16
0.0
 26
0.0
 36
1.0
 17
0.0
 27
0.0
 37
0.0
 40
5011.4968576296578
 41
3.1666666666666661
 42
50.0
 43
0.0
 44
0.0
 50
0.0
 51
0.0
 71
     0
 72
   100
 73
     1
 74
     0
 75
     0
 76
     0
 77
     0
 78
     0
  0
ENDTAB
  0
TABLE
  2
LTYPE
 70
     2
  0
LTYPE
  2
CONTINUOUS
 70
     0
  3
Solid line
 72
    65
 73
     0
 40
0.0
  0
LTYPE
  2
CENTER
 70
     0
  3
____ _ ____ _ ____ _ ____ _ ____ _ ____ _ ____ 
 72
    65
 73
     4
 40
2.0
 49
1.25
 49
-0.25
 49
0.25
 49
-0.25
  0
ENDTAB
  0
TABLE
  2
LAYER
 70
     6
  0
LAYER
  2
0
 70
     0
 62
     7
  6
CONTINUOUS
  0
LAYER
  2
3
 70
     0
 62
     2
  6
CONTINUOUS
  0
LAYER
  2
2
 70
     0
 62
     3
  6
CENTER
  0
LAYER
  2
1
 70
     0
 62
     4
  6
CONTINUOUS
  0
LAYER
  2
4
 70
     0
 62
     7
  6
CONTINUOUS
  0
LAYER
  2
DEFPOINTS
 70
     0
 62
     7
  6
CONTINUOUS
  0
ENDTAB
  0
TABLE
  2
STYLE
 70
     1
  0
STYLE
  2
STANDARD
 70
     0
 40
0.0
 41
1.0
 50
0.0
 71
     0
 42
180.0
  3
simplex.shx
  4
extfont.shx
  0
ENDTAB
  0
TABLE
  2
VIEW
 70
     0
  0
ENDTAB
  0
TABLE
  2
UCS
 70
     0
  0
ENDTAB
  0
TABLE
  2
APPID
 70
     1
  0
APPID
  2
ACAD
 70
     0
  0
ENDTAB
  0
TABLE
  2
DIMSTYLE
 70
     1
  0
DIMSTYLE
  2
IGA
 70
     0
  3

  4

  5

  6
OPEN
  7
OPEN
 40
2.0
 41
2.0
 42
0.5
 43
10.0
 44
1.0
 45
0.0
 46
0.0
 47
1.0
 48
1.0
140
3.0
141
0.0
142
0.0
143
0.03937
144
1.0
145
0.0
146
10.0
147
1.0
 71
     0
 72
     0
 73
     0
 74
     0
 75
     0
 76
     0
 77
     1
 78
     8
170
     0
171
     2
172
     0
173
     1
174
     0
175
     0
176
     0
177
     0
178
     0
  0
ENDTAB
  0
ENDSEC
  0
SECTION
  2
BLOCKS
  0
BLOCK
  8
0
  2
$MODEL_SPACE
 70
     0
 10
0.0
 20
0.0
 30
0.0
  3
$MODEL_SPACE
  1

  0
ENDBLK
  5
1B
  8
0
  0
BLOCK
 67
     1
  8
0
  2
$PAPER_SPACE
 70
     0
 10
0.0
 20
0.0
 30
0.0
  3
$PAPER_SPACE
  1

  0
ENDBLK
  5
18
 67
     1
  8
0
  0
BLOCK
  8
0
  2
_OPEN
 70
     0
 10
0.0
 20
0.0
 30
0.0
  3
_OPEN
  1

  0
LINE
  5
7AFE
  8
0
  6
BYBLOCK
 62
     0
 10
-1.0
 20
0.166667
 30
0.0
 11
0.0
 21
0.0
 31
0.0
  0
LINE
  5
7AFF
  8
0
  6
BYBLOCK
 62
     0
 10
0.0
 20
0.0
 30
0.0
 11
-1.0
 21
-0.166667
 31
0.0
  0
LINE
  5
7B00
  8
0
  6
BYBLOCK
 62
     0
 10
0.0
 20
0.0
 30
0.0
 11
-1.0
 21
0.0
 31
0.0
  0
ENDBLK
  5
7B01
  8
0
  0
BLOCK
  8
0
  2
*D1
 70
     1
 10
0.0
 20
0.0
 30
0.0
  3
*D1
  1

  0
LINE
  5
7DDF
  8
3
  6
CONTINUOUS
 62
     0
 10
1921.341746999999
 20
2375.8074699999988
 30
0.0
 11
2107.563803
 21
2375.8074699999988
 31
0.0
  0
LINE
  5
7DE0
  8
3
  6
CONTINUOUS
 62
     0
 10
1921.341746999999
 20
1975.80747
 30
0.0
 11
2107.563803
 21
1975.80747
 31
0.0
  0
LINE
  5
7DE1
  8
3
  6
CONTINUOUS
 62
     0
 10
2087.563803
 20
2335.8074700000002
 30
0.0
 11
2087.563803
 21
2015.8074699999991
 31
0.0
  0
INSERT
  5
7DE2
  8
3
  6
CONTINUOUS
 62
     0
  2
_OPEN
 10
2087.563803
 20
2375.8074699999988
 30
0.0
 41
40.0
 42
40.0
 43
40.0
 50
90.0
  0
INSERT
  5
7DE3
  8
3
  6
CONTINUOUS
 62
     0
  2
_OPEN
 10
2087.563803
 20
1975.80747
 30
0.0
 41
40.0
 42
40.0
 43
40.0
 50
270.0
  0
TEXT
  8
3
  40
60
  5
7E80
  62
0
  72
0
  71
0
 10
1917.56
 20
2097.32
 30
0.000000
  1
400
  0
POINT
  5
7DE5
  8
DEFPOINTS
  6
CONTINUOUS
 62
     0
 10
1911.341746999999
 20
2375.8074699999988
 30
0.0
  0
POINT
  5
7DE6
  8
DEFPOINTS
  6
CONTINUOUS
 62
     0
 10
1911.341746999999
 20
1975.80747
 30
0.0
  0
POINT
  5
7DE7
  8
DEFPOINTS
  6
CONTINUOUS
 62
     0
 10
2087.563803
 20
1975.80747
 30
0.0
  0
ENDBLK
  5
7BFB
  8
0
  0
BLOCK
  8
0
  2
*D2
 70
     1
 10
0.0
 20
0.0
 30
0.0
  3
*D2
  1

  0
LINE
  5
7DE8
  8
3
  6
CONTINUOUS
 62
     0
 10
1921.341746999999
 20
1975.80747
 30
0.0
 11
2211.4775540000001
 21
1975.80747
 31
0.0
  0
LINE
  5
7DE9
  8
3
  6
CONTINUOUS
 62
     0
 10
2014.3957131172949
 20
2363.8074699999988
 30
0.0
 11
2211.4775540000001
 21
2363.8074699999988
 31
0.0
  0
LINE
  5
7DEA
  8
3
  6
CONTINUOUS
 62
     0
 10
2191.4775540000001
 20
2015.8074699999991
 30
0.0
 11
2191.4775540000001
 21
2323.8074699999988
 31
0.0
  0
INSERT
  5
7DEB
  8
3
  6
CONTINUOUS
 62
     0
  2
_OPEN
 10
2191.4775540000001
 20
1975.80747
 30
0.0
 41
40.0
 42
40.0
 43
40.0
 50
270.0
  0
INSERT
  5
7DEC
  8
3
  6
CONTINUOUS
 62
     0
  2
_OPEN
 10
2191.4775540000001
 20
2363.8074699999988
 30
0.0
 41
40.0
 42
40.0
 43
40.0
 50
90.0
  0
TEXT
  8
3
  40
60
  5
7E81
  62
0
  72
0
  71
0
 10
2021.48
 20
2093.86
 30
0.000000
  1
388
  0
POINT
  5
7DEE
  8
DEFPOINTS
  6
CONTINUOUS
 62
     0
 10
1911.341746999999
 20
1975.80747
 30
0.0
  0
POINT
  5
7DEF
  8
DEFPOINTS
  6
CONTINUOUS
 62
     0
 10
2004.3957131172949
 20
2363.8074699999988
 30
0.0
  0
POINT
  5
7DF0
  8
DEFPOINTS
  6
CONTINUOUS
 62
     0
 10
2191.4775540000001
 20
2363.8074699999988
 30
0.0
  0
ENDBLK
  5
7D43
  8
0
  0
BLOCK
  8
0
  2
*D3
 70
     1
 10
0.0
 20
0.0
 30
0.0
  3
*D3
  1

  0
LINE
  5
7DF1
  8
3
  6
CONTINUOUS
 62
     0
 10
1891.3417469999999
 20
2663.8074700000002
 30
0.0
 11
2332.710278
 21
2663.8074700000002
 31
0.0
  0
LINE
  5
7DF2
  8
3
  6
CONTINUOUS
 62
     0
 10
2014.3957131172949
 20
2363.8074699999988
 30
0.0
 11
2332.710278
 21
2363.8074699999988
 31
0.0
  0
LINE
  5
7DF3
  8
3
  6
CONTINUOUS
 62
     0
 10
2312.710278
 20
2623.8074700000002
 30
0.0
 11
2312.710278
 21
2403.8074700000002
 31
0.0
  0
INSERT
  5
7DF4
  8
3
  6
CONTINUOUS
 62
     0
  2
_OPEN
 10
2312.710278
 20
2663.8074700000002
 30
0.0
 41
40.0
 42
40.0
 43
40.0
 50
90.0
  0
INSERT
  5
7DF5
  8
3
  6
CONTINUOUS
 62
     0
  2
_OPEN
 10
2312.710278
 20
2363.8074699999988
 30
0.0
 41
40.0
 42
40.0
 43
40.0
 50
270.0
  0
TEXT
  8
3
  40
60
  5
7E82
  62
0
  72
0
  71
0
 10
2142.71
 20
2420.46
 30
0.000000
  1
300
  0
POINT
  5
7DF7
  8
DEFPOINTS
  6
CONTINUOUS
 62
     0
 10
1881.3417469999999
 20
2663.8074700000002
 30
0.0
  0
POINT
  5
7DF8
  8
DEFPOINTS
  6
CONTINUOUS
 62
     0
 10
2004.3957131172949
 20
2363.8074699999988
 30
0.0
  0
POINT
  5
7DF9
  8
DEFPOINTS
  6
CONTINUOUS
 62
     0
 10
2312.710278
 20
2363.8074699999988
 30
0.0
  0
ENDBLK
  5
7D38
  8
0
  0
BLOCK
  8
0
  2
*D4
 70
     1
 10
0.0
 20
0.0
 30
0.0
  3
*D4
  1

  0
LINE
  5
7DFA
  8
3
  6
CONTINUOUS
 62
     0
 10
1881.3417469999999
 20
1848.8074699999991
 30
0.0
 11
2332.7102779999991
 21
1848.8074699999991
 31
0.0
  0
LINE
  5
7DFB
  8
3
  6
CONTINUOUS
 62
     0
 10
2312.710278
 20
2323.8074699999988
 30
0.0
 11
2312.710278
 21
1888.80747
 31
0.0
  0
INSERT
  5
7DFC
  8
3
  6
CONTINUOUS
 62
     0
  2
_OPEN
 10
2312.710278
 20
2363.8074699999988
 30
0.0
 41
40.0
 42
40.0
 43
40.0
 50
90.0
  0
INSERT
  5
7DFD
  8
3
  6
CONTINUOUS
 62
     0
  2
_OPEN
 10
2312.710278
 20
1848.8074699999991
 30
0.0
 41
40.0
 42
40.0
 43
40.0
 50
270.0
  0
TEXT
  8
3
  40
60
  5
7E83
  62
0
  72
0
  71
0
 10
2142.71
 20
2000.11
 30
0.000000
  1
515
  0
POINT
  5
7DFF
  8
DEFPOINTS
  6
CONTINUOUS
 62
     0
 10
2004.3957131172949
 20
2363.8074699999988
 30
0.0
  0
POINT
  5
7E00
  8
DEFPOINTS
  6
CONTINUOUS
 62
     0
 10
1871.341746999999
 20
1848.8074699999991
 30
0.0
  0
POINT
  5
7E01
  8
DEFPOINTS
  6
CONTINUOUS
 62
     0
 10
2312.710278
 20
1848.8074699999991
 30
0.0
  0
ENDBLK
  5
7D2D
  8
0
  0
BLOCK
  8
0
  2
*D5
 70
     1
 10
0.0
 20
0.0
 30
0.0
  3
*D5
  1

  0
LINE
  5
7E02
  8
3
  6
CONTINUOUS
 62
     0
 10
1881.3417469999999
 20
1848.8074699999991
 30
0.0
 11
2332.4507490000001
 21
1848.8074699999991
 31
0.0
  0
LINE
  5
7E03
  8
3
  6
CONTINUOUS
 62
     0
 10
1881.3417469999999
 20
1808.8074699999991
 30
0.0
 11
2332.4507490000001
 21
1808.8074699999991
 31
0.0
  0
LINE
  5
7E04
  8
3
  6
CONTINUOUS
 62
     0
 10
2312.4507490000001
 20
1888.80747
 30
0.0
 11
2312.4507490000001
 21
1928.8074699999991
 31
0.0
  0
LINE
  5
7E05
  8
3
  6
CONTINUOUS
 62
     0
 10
2312.4507490000001
 20
1768.80747
 30
0.0
 11
2312.4507490000001
 21
1591.6646128571431
 31
0.0
  0
LINE
  5
7E06
  8
3
  6
CONTINUOUS
 62
     0
 10
2312.4507490000001
 20
1848.8074699999991
 30
0.0
 11
2312.4507490000001
 21
1808.8074699999991
 31
0.0
  0
INSERT
  5
7E07
  8
3
  6
CONTINUOUS
 62
     0
  2
_OPEN
 10
2312.4507490000001
 20
1848.8074699999991
 30
0.0
 41
40.0
 42
40.0
 43
40.0
 50
270.0
  0
INSERT
  5
7E08
  8
3
  6
CONTINUOUS
 62
     0
  2
_OPEN
 10
2312.4507490000001
 20
1808.8074699999991
 30
0.0
 41
40.0
 42
40.0
 43
40.0
 50
90.0
  0
TEXT
  8
3
  40
60
  5
7E84
  62
0
  72
0
  71
0
 10
2142.45
 20
1554.04
 30
0.000000
  1
40
  0
POINT
  5
7E0A
  8
DEFPOINTS
  6
CONTINUOUS
 62
     0
 10
1871.341746999999
 20
1848.8074699999991
 30
0.0
  0
POINT
  5
7E0B
  8
DEFPOINTS
  6
CONTINUOUS
 62
     0
 10
1871.341746999999
 20
1808.8074699999991
 30
0.0
  0
POINT
  5
7E0C
  8
DEFPOINTS
  6
CONTINUOUS
 62
     0
 10
2312.4507490000001
 20
1808.8074699999991
 30
0.0
  0
ENDBLK
  5
7D0E
  8
0
  0
BLOCK
  8
0
  2
*D6
 70
     1
 10
0.0
 20
0.0
 30
0.0
  3
*D6
  1

  0
LINE
  5
7E0D
  8
3
  6
CONTINUOUS
 62
     0
 10
1891.3417469999999
 20
2663.8074700000002
 30
0.0
 11
2453.5526810000001
 21
2663.8074700000002
 31
0.0
  0
LINE
  5
7E0E
  8
3
  6
CONTINUOUS
 62
     0
 10
1881.3417469999999
 20
1808.8074699999991
 30
0.0
 11
2453.5526810000001
 21
1808.8074699999991
 31
0.0
  0
LINE
  5
7E0F
  8
3
  6
CONTINUOUS
 62
     0
 10
2433.5526810000001
 20
2623.8074700000002
 30
0.0
 11
2433.5526810000001
 21
1848.8074699999991
 31
0.0
  0
INSERT
  5
7E10
  8
3
  6
CONTINUOUS
 62
     0
  2
_OPEN
 10
2433.5526810000001
 20
2663.8074700000002
 30
0.0
 41
40.0
 42
40.0
 43
40.0
 50
90.0
  0
INSERT
  5
7E11
  8
3
  6
CONTINUOUS
 62
     0
  2
_OPEN
 10
2433.5526810000001
 20
1808.8074699999991
 30
0.0
 41
40.0
 42
40.0
 43
40.0
 50
270.0
  0
TEXT
  8
3
  40
60
  5
7E85
  62
0
  72
0
  71
0
 10
2263.55
 20
2148.49
 30
0.000000
  1
855
  0
POINT
  5
7E13
  8
DEFPOINTS
  6
CONTINUOUS
 62
     0
 10
1881.3417469999999
 20
2663.8074700000002
 30
0.0
  0
POINT
  5
7E14
  8
DEFPOINTS
  6
CONTINUOUS
 62
     0
 10
1871.341746999999
 20
1808.8074699999991
 30
0.0
  0
POINT
  5
7E15
  8
DEFPOINTS
  6
CONTINUOUS
 62
     0
 10
2433.5526810000001
 20
1808.8074699999991
 30
0.0
  0
ENDBLK
  5
7B51
  8
0
  0
BLOCK
  8
0
  2
*D7
 70
     1
 10
0.0
 20
0.0
 30
0.0
  3
*D7
  1

  0
LINE
  5
7E16
  8
3
  6
CONTINUOUS
 62
     0
 10
3281.4277950000001
 20
2673.8074699999988
 30
0.0
 11
3281.4277950000001
 21
2750.2771050000001
 31
0.0
  0
LINE
  5
7E17
  8
3
  6
CONTINUOUS
 62
     0
 10
2981.4277950000001
 20
2673.8074699999988
 30
0.0
 11
2981.4277950000001
 21
2750.2771050000001
 31
0.0
  0
LINE
  5
7E18
  8
3
  6
CONTINUOUS
 62
     0
 10
3321.4277950000001
 20
2730.2771050000001
 30
0.0
 11
3361.4277950000001
 21
2730.2771050000001
 31
0.0
  0
LINE
  5
7E19
  8
3
  6
CONTINUOUS
 62
     0
 10
2941.4277950000001
 20
2730.2771050000001
 30
0.0
 11
2901.4277950000001
 21
2730.2771050000001
 31
0.0
  0
LINE
  5
7E1A
  8
3
  6
CONTINUOUS
 62
     0
 10
3281.4277950000001
 20
2730.2771050000001
 30
0.0
 11
2981.4277950000001
 21
2730.2771050000001
 31
0.0
  0
INSERT
  5
7E1B
  8
3
  6
CONTINUOUS
 62
     0
  2
_OPEN
 10
3281.4277950000001
 20
2730.2771050000001
 30
0.0
 41
40.0
 42
40.0
 43
40.0
 50
180.0
  0
INSERT
  5
7E1C
  8
3
  6
CONTINUOUS
 62
     0
  2
_OPEN
 10
2981.4277950000001
 20
2730.2771050000001
 30
0.0
 41
40.0
 42
40.0
 43
40.0
  0
TEXT
  8
3
  40
60
  5
7E86
  62
0
  72
0
  71
0
 10
2998.57
 20
2674.08
 30
0.000000
  1
300
  0
POINT
  5
7E1E
  8
DEFPOINTS
  6
CONTINUOUS
 62
     0
 10
3281.4277950000001
 20
2663.8074700000002
 30
0.0
  0
POINT
  5
7E1F
  8
DEFPOINTS
  6
CONTINUOUS
 62
     0
 10
2981.4277950000001
 20
2663.8074700000002
 30
0.0
  0
POINT
  5
7E20
  8
DEFPOINTS
  6
CONTINUOUS
 62
     0
 10
2981.4277950000001
 20
2730.2771050000001
 30
0.0
  0
ENDBLK
  5
7CEB
  8
0
  0
BLOCK
  8
0
  2
*D8
 70
     1
 10
0.0
 20
0.0
 30
0.0
  3
*D8
  1

  0
LINE
  5
7E21
  8
3
  6
CONTINUOUS
 62
     0
 10
2801.4277950000001
 20
2593.8074699999988
 30
0.0
 11
2801.4277950000001
 21
2888.8766199999991
 31
0.0
  0
LINE
  5
7E22
  8
3
  6
CONTINUOUS
 62
     0
 10
3091.4277950000001
 20
2868.8766199999991
 30
0.0
 11
2841.4277950000001
 21
2868.8766199999991
 31
0.0
  0
INSERT
  5
7E23
  8
3
  6
CONTINUOUS
 62
     0
  2
_OPEN
 10
3131.4277950000001
 20
2868.8766199999991
 30
0.0
 41
40.0
 42
40.0
 43
40.0
  0
INSERT
  5
7E24
  8
3
  6
CONTINUOUS
 62
     0
  2
_OPEN
 10
2801.4277950000001
 20
2868.8766199999991
 30
0.0
 41
40.0
 42
40.0
 43
40.0
 50
180.0
  0
TEXT
  8
3
  40
60
  5
7E87
  62
0
  72
0
  71
0
 10
2846.43
 20
2862.68
 30
0.000000
  1
MAX
  0
TEXT
  8
3
  40
60
  5
7E88
  62
0
  72
0
  71
0
 10
2846.43
 20
2784.68
 30
0.000000
  1
380
  0
POINT
  5
7E26
  8
DEFPOINTS
  6
CONTINUOUS
 62
     0
 10
3131.4277950000001
 20
2850.9967139999999
 30
0.0
  0
POINT
  5
7E27
  8
DEFPOINTS
  6
CONTINUOUS
 62
     0
 10
2801.4277950000001
 20
2583.8074699999988
 30
0.0
  0
POINT
  5
7E28
  8
DEFPOINTS
  6
CONTINUOUS
 62
     0
 10
2801.4277950000001
 20
2868.8766199999991
 30
0.0
  0
ENDBLK
  5
7DBC
  8
0
  0
BLOCK
  8
0
  2
*D9
 70
     1
 10
0.0
 20
0.0
 30
0.0
  3
*D9
  1

  0
LINE
  5
7E29
  8
3
  6
CONTINUOUS
 62
     0
 10
2795.4277950000001
 20
1798.8074699999991
 30
0.0
 11
2795.4277950000001
 21
1630.294766
 31
0.0
  0
LINE
  5
7E2A
  8
3
  6
CONTINUOUS
 62
     0
 10
3131.4277950000001
 20
1729.889530136669
 30
0.0
 11
3131.4277950000001
 21
1630.294766
 31
0.0
  0
LINE
  5
7E2B
  8
3
  6
CONTINUOUS
 62
     0
 10
2835.4277950000001
 20
1650.294766
 30
0.0
 11
3091.4277950000001
 21
1650.294766
 31
0.0
  0
INSERT
  5
7E2C
  8
3
  6
CONTINUOUS
 62
     0
  2
_OPEN
 10
2795.4277950000001
 20
1650.294766
 30
0.0
 41
40.0
 42
40.0
 43
40.0
 50
180.0
  0
INSERT
  5
7E2D
  8
3
  6
CONTINUOUS
 62
     0
  2
_OPEN
 10
3131.4277950000001
 20
1650.294766
 30
0.0
 41
40.0
 42
40.0
 43
40.0
  0
TEXT
  8
3
  40
60
  5
7E89
  62
0
  72
0
  71
0
 10
2839.94
 20
1594.09
 30
0.000000
  1
336
  0
POINT
  5
7E2F
  8
DEFPOINTS
  6
CONTINUOUS
 62
     0
 10
2795.4277950000001
 20
1808.8074699999991
 30
0.0
  0
POINT
  5
7E30
  8
DEFPOINTS
  6
CONTINUOUS
 62
     0
 10
3131.4277950000001
 20
1739.889530136669
 30
0.0
  0
POINT
  5
7E31
  8
DEFPOINTS
  6
CONTINUOUS
 62
     0
 10
3131.4277950000001
 20
1650.294766
 30
0.0
  0
ENDBLK
  5
7D63
  8
0
  0
BLOCK
  8
0
  2
*D10
 70
     1
 10
0.0
 20
0.0
 30
0.0
  3
*D10
  1

  0
LINE
  5
7E32
  8
3
  6
CONTINUOUS
 62
     0
 10
3405.4277950000001
 20
1798.8074699999991
 30
0.0
 11
3405.4277950000001
 21
1630.294766
 31
0.0
  0
LINE
  5
7E33
  8
3
  6
CONTINUOUS
 62
     0
 10
3171.4277950000001
 20
1650.294766
 30
0.0
 11
3365.4277950000001
 21
1650.294766
 31
0.0
  0
TEXT
  8
3
  40
60
  5
7E8A
  62
0
  72
0
  71
0
 10
3151.18
 20
1594.77
 30
0.000000
  1
274
  0
INSERT
  5
7E35
  8
3
  6
CONTINUOUS
 62
     0
  2
_OPEN
 10
3131.4277950000001
 20
1650.294766
 30
0.0
 41
40.0
 42
40.0
 43
40.0
 50
180.0
  0
INSERT
  5
7E36
  8
3
  6
CONTINUOUS
 62
     0
  2
_OPEN
 10
3405.4277950000001
 20
1650.294766
 30
0.0
 41
40.0
 42
40.0
 43
40.0
  0
POINT
  5
7E37
  8
DEFPOINTS
  6
CONTINUOUS
 62
     0
 10
3131.4277950000001
 20
1739.889530136669
 30
0.0
  0
POINT
  5
7E38
  8
DEFPOINTS
  6
CONTINUOUS
 62
     0
 10
3405.4277950000001
 20
1808.8074699999991
 30
0.0
  0
POINT
  5
7E39
  8
DEFPOINTS
  6
CONTINUOUS
 62
     0
 10
3405.4277950000001
 20
1650.294766
 30
0.0
  0
ENDBLK
  5
7D6D
  8
0
  0
BLOCK
  8
0
  2
*D11
 70
     1
 10
0.0
 20
0.0
 30
0.0
  3
*D11
  1

  0
LINE
  5
7E3A
  8
3
  6
CONTINUOUS
 62
     0
 10
3291.4277950000001
 20
2578.8074700000002
 30
0.0
 11
3456.777967
 21
2578.8074700000002
 31
0.0
  0
LINE
  5
7E3B
  8
3
  6
CONTINUOUS
 62
     0
 10
3291.4277950000001
 20
2148.8074699999988
 30
0.0
 11
3456.777967
 21
2148.8074699999988
 31
0.0
  0
LINE
  5
7E3C
  8
3
  6
CONTINUOUS
 62
     0
 10
3436.777967
 20
2538.8074700000002
 30
0.0
 11
3436.777967
 21
2188.8074699999988
 31
0.0
  0
INSERT
  5
7E3D
  8
3
  6
CONTINUOUS
 62
     0
  2
_OPEN
 10
3436.777967
 20
2578.8074700000002
 30
0.0
 41
40.0
 42
40.0
 43
40.0
 50
90.0
  0
INSERT
  5
7E3E
  8
3
  6
CONTINUOUS
 62
     0
  2
_OPEN
 10
3436.777967
 20
2148.8074699999988
 30
0.0
 41
40.0
 42
40.0
 43
40.0
 50
270.0
  0
TEXT
  8
3
  40
60
  5
7E8B
  62
0
  72
0
  71
0
 10
3266.78
 20
2251.07
 30
0.000000
  1
φ430
  0
POINT
  5
7E40
  8
DEFPOINTS
  6
CONTINUOUS
 62
     0
 10
3281.4277950000001
 20
2578.8074700000002
 30
0.0
  0
POINT
  5
7E41
  8
DEFPOINTS
  6
CONTINUOUS
 62
     0
 10
3281.4277950000001
 20
2148.8074699999988
 30
0.0
  0
POINT
  5
7E42
  8
DEFPOINTS
  6
CONTINUOUS
 62
     0
 10
3436.777967
 20
2148.8074699999988
 30
0.0
  0
ENDBLK
  5
7D9C
  8
0
  0
BLOCK
  8
0
  2
*D12
 70
     1
 10
0.0
 20
0.0
 30
0.0
  3
*D12
  1

  0
LINE
  5
7E43
  8
3
  6
CONTINUOUS
 62
     0
 10
871.34174700000005
 20
3917.5774700000002
 30
0.0
 11
871.34174700000005
 21
4002.446445999999
 31
0.0
  0
LINE
  5
7E44
  8
3
  6
CONTINUOUS
 62
     0
 10
1871.341746999999
 20
3917.5774700000002
 30
0.0
 11
1871.341746999999
 21
4002.446445999999
 31
0.0
  0
LINE
  5
7E45
  8
3
  6
CONTINUOUS
 62
     0
 10
911.34174699999994
 20
3982.4464459999999
 30
0.0
 11
1831.3417469999999
 21
3982.4464459999999
 31
0.0
  0
INSERT
  5
7E46
  8
3
  6
CONTINUOUS
 62
     0
  2
_OPEN
 10
871.34174700000005
 20
3982.4464459999999
 30
0.0
 41
40.0
 42
40.0
 43
40.0
 50
180.0
  0
INSERT
  5
7E47
  8
3
  6
CONTINUOUS
 62
     0
  2
_OPEN
 10
1871.341746999999
 20
3982.4464459999999
 30
0.0
 41
40.0
 42
40.0
 43
40.0
  0
TEXT
  8
3
  40
60
  5
7E8C
  62
0
  72
0
  71
0
 10
1253.66
 20
3926.25
 30
0.000000
  1
1000
  0
POINT
  5
7E49
  8
DEFPOINTS
  6
CONTINUOUS
 62
     0
 10
871.34174700000005
 20
3907.5774700000002
 30
0.0
  0
POINT
  5
7E4A
  8
DEFPOINTS
  6
CONTINUOUS
 62
     0
 10
1871.341746999999
 20
3907.5774700000002
 30
0.0
  0
POINT
  5
7E4B
  8
DEFPOINTS
  6
CONTINUOUS
 62
     0
 10
1871.341746999999
 20
3982.4464459999999
 30
0.0
  0
ENDBLK
  5
7C75
  8
0
  0
BLOCK
  8
0
  2
*D13
 70
     1
 10
0.0
 20
0.0
 30
0.0
  3
*D13
  1

  0
LINE
  5
7E4C
  8
3
  6
CONTINUOUS
 62
     0
 10
861.34174699999994
 20
3907.5774700000002
 30
0.0
 11
732.89522400000055
 21
3907.5774700000002
 31
0.0
  0
LINE
  5
7E4D
  8
3
  6
CONTINUOUS
 62
     0
 10
861.34174699999994
 20
3297.5774699999988
 30
0.0
 11
732.89522400000044
 21
3297.5774699999988
 31
0.0
  0
LINE
  5
7E4E
  8
3
  6
CONTINUOUS
 62
     0
 10
752.89522400000055
 20
3867.5774700000002
 30
0.0
 11
752.89522400000055
 21
3337.5774700000002
 31
0.0
  0
INSERT
  5
7E4F
  8
3
  6
CONTINUOUS
 62
     0
  2
_OPEN
 10
752.89522400000055
 20
3907.5774700000002
 30
0.0
 41
40.0
 42
40.0
 43
40.0
 50
90.0
  0
INSERT
  5
7E50
  8
3
  6
CONTINUOUS
 62
     0
  2
_OPEN
 10
752.89522400000044
 20
3297.5774699999988
 30
0.0
 41
40.0
 42
40.0
 43
40.0
 50
270.0
  0
TEXT
  8
3
  40
60
  5
7E8D
  62
0
  72
0
  71
0
 10
582.895
 20
3546.92
 30
0.000000
  1
610
  0
POINT
  5
7E52
  8
DEFPOINTS
  6
CONTINUOUS
 62
     0
 10
871.34174700000005
 20
3907.5774700000002
 30
0.0
  0
POINT
  5
7E53
  8
DEFPOINTS
  6
CONTINUOUS
 62
     0
 10
871.34174700000005
 20
3297.5774699999988
 30
0.0
  0
POINT
  5
7E54
  8
DEFPOINTS
  6
CONTINUOUS
 62
     0
 10
752.89522400000044
 20
3297.5774699999988
 30
0.0
  0
ENDBLK
  5
7C6A
  8
0
  0
BLOCK
  8
0
  2
*D14
 70
     1
 10
0.0
 20
0.0
 30
0.0
  3
*D14
  1

  0
LINE
  5
7E55
  8
3
  6
CONTINUOUS
 62
     0
 10
871.34174700000005
 20
1798.8074699999991
 30
0.0
 11
871.34174700000005
 21
1632.4955480000001
 31
0.0
  0
LINE
  5
7E56
  8
3
  6
CONTINUOUS
 62
     0
 10
1611.3417469999999
 20
1710.1973598865241
 30
0.0
 11
1611.3417469999999
 21
1632.4955480000001
 31
0.0
  0
LINE
  5
7E57
  8
3
  6
CONTINUOUS
 62
     0
 10
911.34174699999994
 20
1652.4955480000001
 30
0.0
 11
1571.3417469999999
 21
1652.4955480000001
 31
0.0
  0
INSERT
  5
7E58
  8
3
  6
CONTINUOUS
 62
     0
  2
_OPEN
 10
871.34174700000005
 20
1652.4955480000001
 30
0.0
 41
40.0
 42
40.0
 43
40.0
 50
180.0
  0
INSERT
  5
7E59
  8
3
  6
CONTINUOUS
 62
     0
  2
_OPEN
 10
1611.3417469999999
 20
1652.4955480000001
 30
0.0
 41
40.0
 42
40.0
 43
40.0
  0
TEXT
  8
3
  40
60
  5
7E8E
  62
0
  72
0
  71
0
 10
1126.67
 20
1596.30
 30
0.000000
  1
740
  0
POINT
  5
7E5B
  8
DEFPOINTS
  6
CONTINUOUS
 62
     0
 10
871.34174700000005
 20
1808.8074699999991
 30
0.0
  0
POINT
  5
7E5C
  8
DEFPOINTS
  6
CONTINUOUS
 62
     0
 10
1611.3417469999999
 20
1720.197359886525
 30
0.0
  0
POINT
  5
7E5D
  8
DEFPOINTS
  6
CONTINUOUS
 62
     0
 10
1611.3417469999999
 20
1652.4955480000001
 30
0.0
  0
ENDBLK
  5
7D58
  8
0
  0
BLOCK
  8
0
  2
*D15
 70
     1
 10
0.0
 20
0.0
 30
0.0
  3
*D15
  1

  0
LINE
  5
7E5E
  8
3
  6
CONTINUOUS
 62
     0
 10
1871.341746999999
 20
1798.8074699999991
 30
0.0
 11
1871.341746999999
 21
1632.4955480000001
 31
0.0
  0
LINE
  5
7E5F
  8
3
  6
CONTINUOUS
 62
     0
 10
1651.3417469999999
 20
1652.4955480000001
 30
0.0
 11
1831.3417469999999
 21
1652.4955480000001
 31
0.0
  0
TEXT
  8
3
  40
60
  5
7E8F
  62
0
  72
0
  71
0
 10
1614.72
 20
1596.30
 30
0.000000
  1
260
  0
INSERT
  5
7E61
  8
3
  6
CONTINUOUS
 62
     0
  2
_OPEN
 10
1611.3417469999999
 20
1652.4955480000001
 30
0.0
 41
40.0
 42
40.0
 43
40.0
 50
180.0
  0
INSERT
  5
7E62
  8
3
  6
CONTINUOUS
 62
     0
  2
_OPEN
 10
1871.341746999999
 20
1652.4955480000001
 30
0.0
 41
40.0
 42
40.0
 43
40.0
  0
POINT
  5
7E63
  8
DEFPOINTS
  6
CONTINUOUS
 62
     0
 10
1611.3417469999999
 20
1720.197359886525
 30
0.0
  0
POINT
  5
7E64
  8
DEFPOINTS
  6
CONTINUOUS
 62
     0
 10
1871.341746999999
 20
1808.8074699999991
 30
0.0
  0
POINT
  5
7E65
  8
DEFPOINTS
  6
CONTINUOUS
 62
     0
 10
1871.341746999999
 20
1652.4955480000001
 30
0.0
  0
ENDBLK
  5
7D4D
  8
0
  0
BLOCK
  8
0
  2
*D16
 70
     1
 10
0.0
 20
0.0
 30
0.0
  3
*D16
  1

  0
LINE
  5
7E66
  8
3
  6
CONTINUOUS
 62
     0
 10
1279.3456470000001
 20
2373.8074700000002
 30
0.0
 11
1279.3456470000001
 21
2782.3528899999992
 31
0.0
  0
LINE
  5
7E67
  8
3
  6
CONTINUOUS
 62
     0
 10
1611.3417469999999
 20
2740.0726452828112
 30
0.0
 11
1611.3417469999999
 21
2782.3528899999992
 31
0.0
  0
LINE
  5
7E68
  8
3
  6
CONTINUOUS
 62
     0
 10
1319.3456470000001
 20
2762.3528899999992
 30
0.0
 11
1571.3417469999999
 21
2762.3528899999992
 31
0.0
  0
INSERT
  5
7E69
  8
3
  6
CONTINUOUS
 62
     0
  2
_OPEN
 10
1279.3456470000001
 20
2762.3528899999992
 30
0.0
 41
40.0
 42
40.0
 43
40.0
 50
180.0
  0
INSERT
  5
7E6A
  8
3
  6
CONTINUOUS
 62
     0
  2
_OPEN
 10
1611.3417469999999
 20
2762.3528899999992
 30
0.0
 41
40.0
 42
40.0
 43
40.0
  0
TEXT
  8
3
  40
60
  5
7E90
  62
0
  72
0
  71
0
 10
1328.98
 20
2706.15
 30
0.000000
  1
332
  0
POINT
  5
7E6C
  8
DEFPOINTS
  6
CONTINUOUS
 62
     0
 10
1279.3456470000001
 20
2363.8074699999988
 30
0.0
  0
POINT
  5
7E6D
  8
DEFPOINTS
  6
CONTINUOUS
 62
     0
 10
1611.3417469999999
 20
2730.0726452828112
 30
0.0
  0
POINT
  5
7E6E
  8
DEFPOINTS
  6
CONTINUOUS
 62
     0
 10
1611.3417469999999
 20
2762.3528899999992
 30
0.0
  0
ENDBLK
  5
7D23
  8
0
  0
BLOCK
  8
0
  2
*D17
 70
     1
 10
0.0
 20
0.0
 30
0.0
  3
*D17
  1

  0
LINE
  5
7E6F
  8
3
  6
CONTINUOUS
 62
     0
 10
1911.341746999999
 20
2412.8074700000002
 30
0.0
 11
1911.341746999999
 21
2782.3528899999992
 31
0.0
  0
LINE
  5
7E70
  8
3
  6
CONTINUOUS
 62
     0
 10
1651.3417469999999
 20
2762.3528899999992
 30
0.0
 11
1871.341746999999
 21
2762.3528899999992
 31
0.0
  0
INSERT
  5
7E71
  8
3
  6
CONTINUOUS
 62
     0
  2
_OPEN
 10
1611.3417469999999
 20
2762.3528899999992
 30
0.0
 41
40.0
 42
40.0
 43
40.0
 50
180.0
  0
INSERT
  5
7E72
  8
3
  6
CONTINUOUS
 62
     0
  2
_OPEN
 10
1911.341746999999
 20
2762.3528899999992
 30
0.0
 41
40.0
 42
40.0
 43
40.0
  0
TEXT
  8
3
  40
60
  5
7E91
  62
0
  72
0
  71
0
 10
1641.34
 20
2706.15
 30
0.000000
  1
300
  0
POINT
  5
7E74
  8
DEFPOINTS
  6
CONTINUOUS
 62
     0
 10
1611.3417469999999
 20
2737.0057090629762
 30
0.0
  0
POINT
  5
7E75
  8
DEFPOINTS
  6
CONTINUOUS
 62
     0
 10
1911.341746999999
 20
2402.8074699999988
 30
0.0
  0
POINT
  5
7E76
  8
DEFPOINTS
  6
CONTINUOUS
 62
     0
 10
1911.341746999999
 20
2762.3528899999992
 30
0.0
  0
ENDBLK
  5
7D18
  8
0
  0
BLOCK
  8
0
  2
*D18
 70
     1
 10
0.0
 20
0.0
 30
0.0
  3
*D18
  1

  0
LINE
  5
7DA9
  8
0
  6
BYBLOCK
 62
     0
 10
3131.4277950000001
 20
2860.9967139999999
 30
0.0
 11
3131.4277950000001
 21
2888.8766199999991
 31
0.0
  0
LINE
  5
7DAA
  8
0
  6
BYBLOCK
 62
     0
 10
3282.4236940000001
 20
2588.8074699999988
 30
0.0
 11
3282.4236940000001
 21
2888.8766199999991
 31
0.0
  0
LINE
  5
7DAB
  8
0
  6
BYBLOCK
 62
     0
 10
3171.4277950000001
 20
2868.8766199999991
 30
0.0
 11
3242.4236940000001
 21
2868.8766199999991
 31
0.0
  0
TEXT
  5
7DAC
  8
3
 62
     0
 10
3144.6140219114341
 20
2890.7658361325848
 30
0.0
 40
60.0
  1
151
  0
INSERT
  5
7DAD
  8
0
  6
BYBLOCK
 62
     0
  2
_OPEN
 10
3131.4277950000001
 20
2868.8766199999991
 30
0.0
 41
40.0
 42
40.0
 43
40.0
 50
180.0
  0
INSERT
  5
7DAE
  8
0
  6
BYBLOCK
 62
     0
  2
_OPEN
 10
3282.4236940000001
 20
2868.8766199999991
 30
0.0
 41
40.0
 42
40.0
 43
40.0
  0
POINT
  5
7DAF
  8
DEFPOINTS
  6
BYBLOCK
 62
     0
 10
3131.4277950000001
 20
2850.9967139999999
 30
0.0
  0
POINT
  5
7DB0
  8
DEFPOINTS
  6
BYBLOCK
 62
     0
 10
3282.4236940000001
 20
2578.8074700000002
 30
0.0
  0
POINT
  5
7DB1
  8
DEFPOINTS
  6
BYBLOCK
 62
     0
 10
3282.4236940000001
 20
2868.8766199999991
 30
0.0
  0
ENDBLK
  5
7DB2
  8
0
  0
BLOCK
  8
0
  2
*D19
 70
     1
 10
0.0
 20
0.0
 30
0.0
  3
*D19
  1

  0
LINE
  5
7E77
  8
3
 62
     0
 10
1911.341746999999
 20
2412.8074700000002
 30
0.0
 11
1911.341746999999
 21
2911.0750698407128
 31
0.0
  0
LINE
  5
7E78
  8
3
 62
     0
 10
871.34174700000005
 20
1938.80747
 30
0.0
 11
871.34174700000005
 21
2911.0750698407128
 31
0.0
  0
LINE
  5
7E79
  8
3
 62
     0
 10
1871.341746999999
 20
2891.0750698407128
 30
0.0
 11
911.34174700000005
 21
2891.0750698407128
 31
0.0
  0
INSERT
  5
7E7A
  8
3
 62
     0
  2
_OPEN
 10
1911.341746999999
 20
2891.0750698407128
 30
0.0
 41
40.0
 42
40.0
 43
40.0
  0
INSERT
  5
7E7B
  8
3
 62
     0
  2
_OPEN
 10
871.34174700000005
 20
2891.0750698407128
 30
0.0
 41
40.0
 42
40.0
 43
40.0
 50
180.0
  0
TEXT
  8
3
  40
60
  5
7E92
  62
0
  72
0
  71
0
 10
1261.04
 20
2834.88
 30
0.000000
  1
1040
  0
POINT
  5
7E7D
  8
DEFPOINTS
 62
     0
 10
1911.341746999999
 20
2402.8074699999988
 30
0.0
  0
POINT
  5
7E7E
  8
DEFPOINTS
 62
     0
 10
871.34174700000005
 20
1928.8074699999991
 30
0.0
  0
POINT
  5
7E7F
  8
DEFPOINTS
 62
     0
 10
871.34174700000005
 20
2891.0750698407128
 30
0.0
  0
ENDBLK
  5
7D85
  8
0
  0
ENDSEC
  0
SECTION
  2
ENTITIES
  0
LINE
  5
7A6F
  8
1
  6
CONTINUOUS
 10
3405.4277950000001
 20
1848.8074699999991
 30
0.0
 11
2795.4277950000001
 21
1848.8074699999991
 31
0.0
  0
LINE
  5
7A70
  8
1
  6
CONTINUOUS
 10
3405.4277950000001
 20
1808.8074699999991
 30
0.0
 11
2795.4277950000001
 21
1808.8074699999991
 31
0.0
  0
CIRCLE
  5
7A71
  8
1
  6
CONTINUOUS
 10
1611.3417469999999
 20
2363.8074699999988
 30
0.0
 40
240.0
  0
LINE
  5
7A72
  8
1
  6
CONTINUOUS
 10
1655.981747
 20
2274.31747
 30
0.0
 11
1106.261747
 21
2000.1174699999999
 31
0.0
  0
LINE
  5
7A73
  8
1
  6
CONTINUOUS
 10
1871.341746999999
 20
1848.8074699999991
 30
0.0
 11
871.34174700000005
 21
1848.8074699999991
 31
0.0
  0
LINE
  5
7A74
  8
1
  6
CONTINUOUS
 10
1596.8417469999999
 20
2583.8074699999988
 30
0.0
 11
916.84174700000005
 21
2178.8074700000002
 31
0.0
  0
CIRCLE
  5
7A75
  8
1
  6
CONTINUOUS
 10
1611.3417469999999
 20
2363.8074699999988
 30
0.0
 40
100.0
  0
LINE
  5
7A76
  8
1
  6
CONTINUOUS
 10
1881.3417469999999
 20
1928.8074699999991
 30
0.0
 11
871.34174700000005
 21
1928.8074699999991
 31
0.0
  0
LINE
  5
7A77
  8
2
  6
CENTER
 10
3308.8489398932252
 20
2363.8074699999988
 30
0.0
 11
2758.4159221249752
 21
2363.8074699999988
 31
0.0
  0
ARC
  5
7A78
  8
1
  6
CONTINUOUS
 10
1638.3417469999999
 20
2336.8074699999988
 30
0.0
 40
360.00999999999988
 50
174.1699999999999
 51
265.69999999999999
  0
ARC
  5
7A79
  8
1
  6
CONTINUOUS
 10
1589.3417469999999
 20
2341.8074700000002
 30
0.0
 40
310.75999999999999
 50
82.689999999999998
 51
174.1699999999999
  0
LINE
  5
7A7A
  8
1
  6
CONTINUOUS
 10
1881.3417469999999
 20
2663.8074700000002
 30
0.0
 11
1341.3417469999999
 21
2663.8074700000002
 31
0.0
  0
CIRCLE
  5
7A7B
  8
1
  6
CONTINUOUS
 10
1611.3417469999999
 20
2363.8074699999988
 30
0.0
 40
215.0
  0
LINE
  5
7A7C
  8
1
  6
CONTINUOUS
 10
916.84174700000005
 20
1928.8074699999991
 30
0.0
 11
916.84174700000005
 21
2178.8074700000002
 31
0.0
  0
LINE
  5
7A7D
  8
1
  6
CONTINUOUS
 10
871.34174700000005
 20
1928.8074699999991
 30
0.0
 11
871.34174700000005
 21
1808.8074699999991
 31
0.0
  0
LINE
  5
7A7E
  8
1
  6
CONTINUOUS
 10
871.34174700000005
 20
1808.8074699999991
 30
0.0
 11
911.34174699999994
 21
1808.8074699999991
 31
0.0
  0
LINE
  5
7A7F
  8
1
  6
CONTINUOUS
 10
911.34174699999994
 20
1848.8074699999991
 30
0.0
 11
911.34174699999994
 21
1808.8074699999991
 31
0.0
  0
LINE
  5
7A80
  8
1
  6
CONTINUOUS
 10
1341.3417469999999
 20
1928.8074699999991
 30
0.0
 11
1341.3417469999999
 21
2663.8074700000002
 31
0.0
  0
LINE
  5
7A81
  8
1
  6
CONTINUOUS
 10
1045.9617470000001
 20
2103.5774699999988
 30
0.0
 11
1555.481747
 21
2446.7474699999998
 31
0.0
  0
LINE
  5
7A82
  8
2
  6
CENTER
 10
1019.4717470000001
 20
2053.8074700000002
 30
0.0
 11
1139.4717470000001
 21
2053.8074700000002
 31
0.0
  0
ARC
  5
7A83
  8
1
  6
CONTINUOUS
 10
1079.4717470000001
 20
2053.8074700000002
 30
0.0
 40
101.0
 50
322.88
 51
217.12
  0
CIRCLE
  5
7A84
  8
1
  6
CONTINUOUS
 10
1079.4717470000001
 20
2053.8074700000002
 30
0.0
 40
60.0
  0
LINE
  5
7A85
  8
2
  6
CENTER
 10
1079.4717470000001
 20
1993.80747
 30
0.0
 11
1079.4717470000001
 21
2113.8074699999988
 31
0.0
  0
LINE
  5
7A86
  8
1
  6
CONTINUOUS
 10
979.47174700000005
 20
1965.80747
 30
0.0
 11
998.94174700000008
 21
1992.857469999999
 31
0.0
  0
LINE
  5
7A87
  8
1
  6
CONTINUOUS
 10
979.47174700000005
 20
1928.8074699999991
 30
0.0
 11
979.47174700000005
 21
1965.80747
 31
0.0
  0
LINE
  5
7A88
  8
1
  6
CONTINUOUS
 10
1179.4717470000001
 20
1928.8074699999991
 30
0.0
 11
1179.4717470000001
 21
1965.80747
 31
0.0
  0
LINE
  5
7A89
  8
1
  6
CONTINUOUS
 10
1179.4717470000001
 20
1965.80747
 30
0.0
 11
1160.011747
 21
1992.857469999999
 31
0.0
  0
LINE
  5
7A8A
  8
1
  6
CONTINUOUS
 10
1786.8417469999999
 20
1928.8074699999991
 30
0.0
 11
1786.8417469999999
 21
2468.8074699999988
 31
0.0
  0
LINE
  5
7A8B
  8
1
  6
CONTINUOUS
 10
1911.341746999999
 20
2402.8074699999988
 30
0.0
 11
1911.341746999999
 21
1948.80747
 31
0.0
  0
LINE
  5
7A8C
  8
1
  6
CONTINUOUS
 10
1881.3417469999999
 20
1928.8074699999991
 30
0.0
 11
1881.3417469999999
 21
2663.8074700000002
 31
0.0
  0
LINE
  5
7A8D
  8
1
  6
CONTINUOUS
 10
1891.3417469999999
 20
2375.8074699999988
 30
0.0
 11
1891.3417469999999
 21
1975.9374699999989
 31
0.0
  0
LINE
  5
7A8E
  8
1
  6
CONTINUOUS
 10
1911.341746999999
 20
1975.80747
 30
0.0
 11
1611.3417469999999
 21
1977.80747
 31
0.0
  0
LINE
  5
7A8F
  8
1
  6
CONTINUOUS
 10
1871.341746999999
 20
1928.8074699999991
 30
0.0
 11
1871.341746999999
 21
1808.8074699999991
 31
0.0
  0
LINE
  5
7A90
  8
1
  6
CONTINUOUS
 10
1831.3417469999999
 20
1848.8074699999991
 30
0.0
 11
1831.3417469999999
 21
1808.8074699999991
 31
0.0
  0
LINE
  5
7A91
  8
1
  6
CONTINUOUS
 10
1871.341746999999
 20
1808.8074699999991
 30
0.0
 11
1831.3417469999999
 21
1808.8074699999991
 31
0.0
  0
LINE
  5
7A92
  8
1
  6
CONTINUOUS
 10
1865.7417469999989
 20
2375.8074699999988
 30
0.0
 11
1911.341746999999
 21
2375.8074699999988
 31
0.0
  0
ARC
  5
7A93
  8
1
  6
CONTINUOUS
 10
1594.3417469999999
 20
2380.8074700000002
 30
0.0
 40
271.43999999999988
 50
358.93999999999988
 51
82.689999999999998
  0
LINE
  5
7A94
  8
1
  6
CONTINUOUS
 10
1786.8417469999999
 20
2468.8074699999988
 30
0.0
 11
1596.8417469999999
 21
2583.8074699999988
 31
0.0
  0
LINE
  5
7A95
  8
2
  6
CENTER
 10
1611.3417469999999
 20
1720.197359886525
 30
0.0
 11
1611.3417469999999
 21
2725.450614807738
 31
0.0
  0
LINE
  5
7A96
  8
1
  6
CONTINUOUS
 10
2981.4277950000001
 20
1975.80747
 30
0.0
 11
3281.4277950000001
 21
2375.8074699999988
 31
0.0
  0
LINE
  5
7A97
  8
1
  6
CONTINUOUS
 10
3281.4277950000001
 20
1975.80747
 30
0.0
 11
2981.4277950000001
 21
2375.8074699999988
 31
0.0
  0
LINE
  5
7A98
  8
1
  6
CONTINUOUS
 10
2981.4277950000001
 20
2663.8074700000002
 30
0.0
 11
2981.4277950000001
 21
1928.8074699999991
 31
0.0
  0
LINE
  5
7A99
  8
1
  6
CONTINUOUS
 10
3281.4277950000001
 20
2663.8074700000002
 30
0.0
 11
3281.4277950000001
 21
1928.8074699999991
 31
0.0
  0
LINE
  5
7A9A
  8
1
  6
CONTINUOUS
 10
2801.4277950000001
 20
1928.8074699999991
 30
0.0
 11
2801.4277950000001
 21
2583.8074699999988
 31
0.0
  0
LINE
  5
7A9B
  8
1
  6
CONTINUOUS
 10
2901.4277950000001
 20
1928.8074699999991
 30
0.0
 11
2901.4277950000001
 21
2583.8074699999988
 31
0.0
  0
LINE
  5
7A9C
  8
1
  6
CONTINUOUS
 10
2981.4277950000001
 20
1975.80747
 30
0.0
 11
3281.4277950000001
 21
1975.80747
 31
0.0
  0
LINE
  5
7A9D
  8
1
  6
CONTINUOUS
 10
3325.4277950000001
 20
1928.8074699999991
 30
0.0
 11
2801.4277950000001
 21
1928.8074699999991
 31
0.0
  0
LINE
  5
7A9E
  8
1
  6
CONTINUOUS
 10
2876.4277950000001
 20
2067.8074699999988
 30
0.0
 11
2981.4277950000001
 21
2067.8074699999988
 31
0.0
  0
LINE
  5
7A9F
  8
1
  6
CONTINUOUS
 10
2876.4277950000001
 20
2039.8074699999991
 30
0.0
 11
2981.4277950000001
 21
2039.8074699999991
 31
0.0
  0
LINE
  5
7AA0
  8
1
  6
CONTINUOUS
 10
2937.4277949999992
 20
1928.8074699999991
 30
0.0
 11
2937.4277949999992
 21
1848.8074699999991
 31
0.0
  0
LINE
  5
7AA1
  8
1
  6
CONTINUOUS
 10
2876.4277950000001
 20
1993.80747
 30
0.0
 11
2876.4277950000001
 21
2113.8074699999988
 31
0.0
  0
LINE
  5
7AA2
  8
1
  6
CONTINUOUS
 10
2826.4277950000001
 20
1993.80747
 30
0.0
 11
2826.4277950000001
 21
2113.8074699999988
 31
0.0
  0
LINE
  5
7AA3
  8
1
  6
CONTINUOUS
 10
2826.4277950000001
 20
2113.8074699999988
 30
0.0
 11
2876.4277950000001
 21
2113.8074699999988
 31
0.0
  0
LINE
  5
7AA4
  8
1
  6
CONTINUOUS
 10
2826.4277950000001
 20
1993.80747
 30
0.0
 11
2876.4277950000001
 21
1993.80747
 31
0.0
  0
LINE
  5
7AA5
  8
1
  6
CONTINUOUS
 10
2795.4277950000001
 20
1848.8074699999991
 30
0.0
 11
2795.4277950000001
 21
1808.8074699999991
 31
0.0
  0
LINE
  5
7AA6
  8
1
  6
CONTINUOUS
 10
3325.4277950000001
 20
1928.8074699999991
 30
0.0
 11
3325.4277950000001
 21
1848.8074699999991
 31
0.0
  0
LINE
  5
7AA7
  8
1
  6
CONTINUOUS
 10
2981.4277950000001
 20
2375.8074699999988
 30
0.0
 11
3281.4277950000001
 21
2375.8074699999988
 31
0.0
  0
LINE
  5
7AA8
  8
1
  6
CONTINUOUS
 10
2981.4277950000001
 20
2663.8074700000002
 30
0.0
 11
3281.4277950000001
 21
2663.8074700000002
 31
0.0
  0
LINE
  5
7AA9
  8
1
  6
CONTINUOUS
 10
2876.4277950000001
 20
2379.56747
 30
0.0
 11
2981.4277950000001
 21
2379.56747
 31
0.0
  0
LINE
  5
7AAA
  8
1
  6
CONTINUOUS
 10
2876.4277950000001
 20
2351.56747
 30
0.0
 11
2981.4277950000001
 21
2351.56747
 31
0.0
  0
LINE
  5
7AAB
  8
1
  6
CONTINUOUS
 10
2801.4277950000001
 20
2583.8074699999988
 30
0.0
 11
2901.4277950000001
 21
2583.8074699999988
 31
0.0
  0
LINE
  5
7AAC
  8
1
  6
CONTINUOUS
 10
2876.4277950000001
 20
2262.0374700000002
 30
0.0
 11
2876.4277950000001
 21
2465.567469999999
 31
0.0
  0
LINE
  5
7AAD
  8
1
  6
CONTINUOUS
 10
2826.4277950000001
 20
2262.0374700000002
 30
0.0
 11
2826.4277950000001
 21
2465.567469999999
 31
0.0
  0
LINE
  5
7AAE
  8
1
  6
CONTINUOUS
 10
2826.4277950000001
 20
2465.567469999999
 30
0.0
 11
2876.4277950000001
 21
2465.567469999999
 31
0.0
  0
LINE
  5
7AAF
  8
1
  6
CONTINUOUS
 10
2826.4277950000001
 20
2262.0374700000002
 30
0.0
 11
2876.4277950000001
 21
2262.0374700000002
 31
0.0
  0
LINE
  5
7AB0
  8
1
  6
CONTINUOUS
 10
3405.4277950000001
 20
1848.8074699999991
 30
0.0
 11
3405.4277950000001
 21
1808.8074699999991
 31
0.0
  0
LINE
  5
7AB1
  8
1
  6
CONTINUOUS
 10
1597.3417469999999
 20
3439.5774700000002
 30
0.0
 11
1093.4717470000001
 21
3439.5774700000002
 31
0.0
  0
LINE
  5
7AB2
  8
1
  6
CONTINUOUS
 10
1871.341746999999
 20
3827.5774699999988
 30
0.0
 11
871.34174700000005
 21
3827.5774699999988
 31
0.0
  0
LINE
  5
7AB3
  8
1
  6
CONTINUOUS
 10
1271.3417469999999
 20
3483.5774700000002
 30
0.0
 11
1911.341746999999
 21
3483.5774700000002
 31
0.0
  0
LINE
  5
7AB4
  8
1
  6
CONTINUOUS
 10
1271.3417469999999
 20
3783.5774700000002
 30
0.0
 11
1911.341746999999
 21
3783.5774700000002
 31
0.0
  0
LINE
  5
7AB5
  8
1
  6
CONTINUOUS
 10
916.84174700000005
 20
3303.5774700000002
 30
0.0
 11
1786.8417469999999
 21
3303.5774700000002
 31
0.0
  0
LINE
  5
7AB6
  8
1
  6
CONTINUOUS
 10
916.84174700000005
 20
3403.5774700000002
 30
0.0
 11
1786.8417469999999
 21
3403.5774700000002
 31
0.0
  0
LINE
  5
7AB7
  8
1
  6
CONTINUOUS
 10
1507.821747
 20
3328.5774699999988
 30
0.0
 11
1711.341746999999
 21
3328.5774699999988
 31
0.0
  0
LINE
  5
7AB8
  8
1
  6
CONTINUOUS
 10
1507.821747
 20
3378.5774700000002
 30
0.0
 11
1711.341746999999
 21
3378.5774700000002
 31
0.0
  0
LINE
  5
7AB9
  8
1
  6
CONTINUOUS
 10
1065.4717470000001
 20
3439.5774700000002
 30
0.0
 11
871.34174700000005
 21
3439.5774700000002
 31
0.0
  0
LINE
  5
7ABA
  8
1
  6
CONTINUOUS
 10
871.34174700000005
 20
3907.5774700000002
 30
0.0
 11
871.34174700000005
 21
3297.5774699999988
 31
0.0
  0
LINE
  5
7ABB
  8
1
  6
CONTINUOUS
 10
916.84174700000005
 20
3303.5774700000002
 30
0.0
 11
916.84174700000005
 21
3403.5774700000002
 31
0.0
  0
LINE
  5
7ABC
  8
1
  6
CONTINUOUS
 10
911.34174699999994
 20
3297.5774699999988
 30
0.0
 11
871.34174700000005
 21
3297.5774699999988
 31
0.0
  0
LINE
  5
7ABD
  8
1
  6
CONTINUOUS
 10
911.34174699999994
 20
3439.5774700000002
 30
0.0
 11
911.34174699999994
 21
3297.5774699999988
 31
0.0
  0
LINE
  5
7ABE
  8
1
  6
CONTINUOUS
 10
911.34174699999994
 20
3907.5774700000002
 30
0.0
 11
911.34174699999994
 21
3827.5774699999988
 31
0.0
  0
LINE
  5
7ABF
  8
1
  6
CONTINUOUS
 10
911.34174699999994
 20
3907.5774700000002
 30
0.0
 11
871.34174700000005
 21
3907.5774700000002
 31
0.0
  0
LINE
  5
7AC0
  8
1
  6
CONTINUOUS
 10
1180.4717470000001
 20
3471.1074699999999
 30
0.0
 11
1180.4717470000001
 21
3713.7874700000002
 31
0.0
  0
LINE
  5
7AC1
  8
1
  6
CONTINUOUS
 10
978.47174700000005
 20
3471.1074699999999
 30
0.0
 11
978.47174700000005
 21
3713.7874700000002
 31
0.0
  0
LINE
  5
7AC2
  8
1
  6
CONTINUOUS
 10
1271.3417469999999
 20
3483.5774700000002
 30
0.0
 11
1271.3417469999999
 21
3783.5774700000002
 31
0.0
  0
LINE
  5
7AC3
  8
1
  6
CONTINUOUS
 10
1180.4717470000001
 20
3471.1074699999999
 30
0.0
 11
978.47174700000005
 21
3471.1074699999999
 31
0.0
  0
LINE
  5
7AC4
  8
1
  6
CONTINUOUS
 10
1019.4717470000001
 20
3328.5774699999988
 30
0.0
 11
1139.4717470000001
 21
3328.5774699999988
 31
0.0
  0
LINE
  5
7AC5
  8
1
  6
CONTINUOUS
 10
1019.4717470000001
 20
3378.5774700000002
 30
0.0
 11
1139.4717470000001
 21
3378.5774700000002
 31
0.0
  0
LINE
  5
7AC6
  8
1
  6
CONTINUOUS
 10
1065.4717470000001
 20
3378.5774700000002
 30
0.0
 11
1065.4717470000001
 21
3471.1074699999999
 31
0.0
  0
LINE
  5
7AC7
  8
1
  6
CONTINUOUS
 10
1093.4717470000001
 20
3378.5774700000002
 30
0.0
 11
1093.4717470000001
 21
3471.1074699999999
 31
0.0
  0
LINE
  5
7AC8
  8
1
  6
CONTINUOUS
 10
1019.4717470000001
 20
3328.5774699999988
 30
0.0
 11
1019.4717470000001
 21
3378.5774700000002
 31
0.0
  0
LINE
  5
7AC9
  8
1
  6
CONTINUOUS
 10
1139.4717470000001
 20
3328.5774699999988
 30
0.0
 11
1139.4717470000001
 21
3378.5774700000002
 31
0.0
  0
LINE
  5
7ACA
  8
1
  6
CONTINUOUS
 10
1180.4717470000001
 20
3713.7874700000002
 30
0.0
 11
978.47174700000005
 21
3713.7874700000002
 31
0.0
  0
LINE
  5
7ACB
  8
1
  6
CONTINUOUS
 10
1507.821747
 20
3328.5774699999988
 30
0.0
 11
1507.821747
 21
3378.5774700000002
 31
0.0
  0
LINE
  5
7ACC
  8
1
  6
CONTINUOUS
 10
1871.341746999999
 20
3439.5774700000002
 30
0.0
 11
1625.3417469999999
 21
3439.5774700000002
 31
0.0
  0
LINE
  5
7ACD
  8
1
  6
CONTINUOUS
 10
1711.341746999999
 20
3328.5774699999988
 30
0.0
 11
1711.341746999999
 21
3378.5774700000002
 31
0.0
  0
LINE
  5
7ACE
  8
1
  6
CONTINUOUS
 10
1597.3417469999999
 20
3378.5774700000002
 30
0.0
 11
1597.3417469999999
 21
3483.5774700000002
 31
0.0
  0
LINE
  5
7ACF
  8
1
  6
CONTINUOUS
 10
1625.3417469999999
 20
3378.5774700000002
 30
0.0
 11
1625.3417469999999
 21
3483.5774700000002
 31
0.0
  0
LINE
  5
7AD0
  8
1
  6
CONTINUOUS
 10
1871.341746999999
 20
3483.5774700000002
 30
0.0
 11
1871.341746999999
 21
3297.5774699999988
 31
0.0
  0
LINE
  5
7AD1
  8
1
  6
CONTINUOUS
 10
1786.8417469999999
 20
3303.5774700000002
 30
0.0
 11
1786.8417469999999
 21
3403.5774700000002
 31
0.0
  0
LINE
  5
7AD2
  8
1
  6
CONTINUOUS
 10
1831.3417469999999
 20
3439.5774700000002
 30
0.0
 11
1831.3417469999999
 21
3297.5774699999988
 31
0.0
  0
LINE
  5
7AD3
  8
1
  6
CONTINUOUS
 10
1831.3417469999999
 20
3297.5774699999988
 30
0.0
 11
1871.341746999999
 21
3297.5774699999988
 31
0.0
  0
LINE
  5
7AD4
  8
1
  6
CONTINUOUS
 10
1871.341746999999
 20
3907.5774700000002
 30
0.0
 11
1871.341746999999
 21
3783.5774700000002
 31
0.0
  0
LINE
  5
7AD5
  8
1
  6
CONTINUOUS
 10
1831.3417469999999
 20
3907.5774700000002
 30
0.0
 11
1871.341746999999
 21
3907.5774700000002
 31
0.0
  0
LINE
  5
7AD6
  8
1
  6
CONTINUOUS
 10
1831.3417469999999
 20
3907.5774700000002
 30
0.0
 11
1831.3417469999999
 21
3827.5774699999988
 31
0.0
  0
LINE
  5
7AD7
  8
1
  6
CONTINUOUS
 10
1911.341746999999
 20
3456.5774700000002
 30
0.0
 11
1911.341746999999
 21
3810.5774700000002
 31
0.0
  0
LINE
  5
7AD8
  8
1
  6
CONTINUOUS
 10
1891.3417469999999
 20
3483.5774700000002
 30
0.0
 11
1891.3417469999999
 21
3783.5774700000002
 31
0.0
  0
LINE
  5
7AD9
  8
2
  6
CENTER
 10
793.71660699999995
 20
3633.5774700000002
 30
0.0
 11
2021.402742999999
 21
3633.5774700000002
 31
0.0
  0
LINE
  5
7ADA
  8
2
  6
CENTER
 10
3131.4277950000001
 20
2718.6389570000001
 30
0.0
 11
3131.4277950000001
 21
1739.889530136669
 31
0.0
  0
LINE
  5
7ADB
  8
2
  6
CENTER
 10
1611.3417469999999
 20
3186.00551
 30
0.0
 11
1611.3417469999999
 21
3890.8949870000001
 31
0.0
  0
LINE
  5
7ADC
  8
2
  6
CENTER
 10
2004.3957131172949
 20
2363.8074699999988
 30
0.0
 11
1146.2580058574929
 21
2363.8074699999988
 31
0.0
  0
LINE
  5
7ADD
  8
4
  6
CONTINUOUS
 10
3700.0
 20
1000.0
 30
0.0
 11
3700.0
 21
600.0
 31
0.0
  0
LINE
  5
7ADE
  8
4
  6
CONTINUOUS
 10
2300.0
 20
1000.0
 30
0.0
 11
2300.0
 21
600.0
 31
0.0
  0
LINE
  5
7ADF
  8
4
  6
CONTINUOUS
 10
1300.0
 20
1000.0
 30
0.0
 11
1300.0
 21
600.0
 31
0.0
  0
LINE
  5
7AE2
  8
4
  6
CONTINUOUS
 10
1300.0
 20
600.0
 30
0.0
 11
3700.0
 21
600.0
 31
0.0
  0
LINE
  5
7AE3
  8
4
  6
CONTINUOUS
 10
1300.0
 20
800.0
 30
0.0
 11
3700.0
 21
800.0
 31
0.0
  0
TEXT
  5
7AE4
  8
4
  6
CONTINUOUS
 10
1377.004162
 20
863.086052
 30
0.0
 40
100.0
  1
機器名称
  0
TEXT
  5
7AE5
  8
4
  6
CONTINUOUS
 10
1372.516212
 20
643.29031299999986
 30
0.0
 40
100.0
  1
機器型番
  0
TEXT
  5
7AE6
  8
4
  6
CONTINUOUS
 10
2355.3574910000002
 20
845.14353800000015
 30
0.0
 40
100.0
  1
ミツヤ多翼送風機
  0
TEXT
  5
7AE7
  8
4
  6
CONTINUOUS
 10
2373.3089909999999
 20
634.31916899999999
 30
0.0
 40
100.0
  1
MF#2 1/2-4
  0
TEXT
  5
7AE9
  8
4
  6
CONTINUOUS
 10
1659.646418999999
 20
4766.8576830000002
 30
0.0
 40
108.0
  1
天井吊ベット
  0
TEXT
  5
7AEA
  8
4
  6
CONTINUOUS
 10
632.33518700000002
 20
5067.7619520000007
 30
0.0
 40
144.0
  1
ベルト駆動式片吸込両持多翼ファン
  0
LINE
  5
7AEB
  8
4
  6
CONTINUOUS
 10
500.0
 20
4938.8175090000004
 30
0.0
 11
3700.0
 21
4938.8175090000004
 31
0.0
  0
LINE
  5
7AEC
  8
4
  6
CONTINUOUS
 10
500.0
 20
5338.8175090000004
 30
0.0
 11
3700.0
 21
5338.8175090000004
 31
0.0
  0
LINE
  5
7AED
  8
4
  6
CONTINUOUS
 10
1300.0
 20
1000.0
 30
0.0
 11
3700.0
 21
1000.0
 31
0.0
  0
LINE
  5
7AEE
  8
4
  6
CONTINUOUS
 10
500.0
 20
5338.8175090000004
 30
0.0
 11
500.0
 21
4938.8175090000004
 31
0.0
  0
TEXT
  5
7AEF
  8
4
  6
CONTINUOUS
 10
707.19983000000002
 20
4764.6389549999994
 30
0.0
 40
108.0
  1
左回転右横向
  0
TEXT
  5
7AF0
  8
4
  6
CONTINUOUS
 10
2937.9391179999998
 20
5412.122163
 30
0.0
 40
112.0
  1
No.
  0
TEXT
  5
7AF1
  8
4
  6
CONTINUOUS
 10
2622.5921250000001
 20
4766.8576830000002
 30
0.0
 40
108.0
  1
縮尺：1/20
  0
LINE
  5
7AF2
  8
4
  6
CONTINUOUS
 10
3700.0
 20
5338.8175090000004
 30
0.0
 11
3700.0
 21
4938.8175090000004
 31
0.0
  0
LINE
  5
7AF4
  8
4
  6
CONTINUOUS
 10
2881.234845
 20
5362.5271659999999
 30
0.0
 11
2881.234845
 21
5573.3045229999998
 31
0.0
  0
LINE
  5
7AF5
  8
4
  6
CONTINUOUS
 10
2881.234845
 20
5573.3045229999998
 30
0.0
 11
3700.0
 21
5573.3045229999998
 31
0.0
  0
LINE
  5
7AF6
  8
4
  6
CONTINUOUS
 10
3700.0
 20
5573.3045229999998
 30
0.0
 11
3700.0
 21
5362.5271659999999
 31
0.0
  0
LINE
  5
7AF7
  8
4
  6
CONTINUOUS
 10
3700.0
 20
5362.5271659999999
 30
0.0
 11
2881.234845
 21
5362.5271659999999
 31
0.0
  0
DIMENSION
  5
7B0F
  8
3
  6
CONTINUOUS
  2
*D1
 10
2087.563803
 20
1975.80747
 30
0.0
 11
2087.563803
 21
2203.522578999999
 31
0.0
 70
   128
 13
1911.341746999999
 23
2375.8074699999988
 33
0.0
 14
1911.341746999999
 24
1975.80747
 34
0.0
 50
90.0
1001
ACAD
1000
DSTYLE
1002
{
1070
   287
1070
     3
1070
    40
1040
20.0
1070
   143
1040
0.039
1070
   172
1070
     1
1070
   271
1070
     0
1070
   279
1070
     0
1070
   288
1070
     1
1002
}
  0
DIMENSION
  5
7B1C
  8
3
  6
CONTINUOUS
  2
*D2
 10
2191.4775540000001
 20
2363.8074699999988
 30
0.0
 11
2191.4775539999991
 21
2200.0615789999988
 31
0.0
 70
   128
 13
1911.341746999999
 23
1975.80747
 33
0.0
 14
2004.3957131172949
 24
2363.8074699999988
 34
0.0
 50
90.0
1001
ACAD
1000
DSTYLE
1002
{
1070
   287
1070
     3
1070
    40
1040
20.0
1070
   143
1040
0.039
1070
   172
1070
     1
1070
   271
1070
     0
1070
   279
1070
     0
1070
   288
1070
     1
1002
}
  0
DIMENSION
  5
7B29
  8
3
  6
CONTINUOUS
  2
*D3
 10
2312.710278
 20
2363.8074699999988
 30
0.0
 11
2312.710278
 21
2526.6646128571419
 31
0.0
 70
   128
 13
1881.3417469999999
 23
2663.8074700000002
 33
0.0
 14
2004.3957131172949
 24
2363.8074699999988
 34
0.0
 50
90.0
1001
ACAD
1000
DSTYLE
1002
{
1070
   287
1070
     3
1070
    40
1040
20.0
1070
   143
1040
0.039
1070
   172
1070
     1
1070
   271
1070
     0
1070
   279
1070
     0
1070
   288
1070
     1
1002
}
  0
DIMENSION
  5
7B35
  8
3
  6
CONTINUOUS
  2
*D4
 10
2312.710278
 20
1848.8074699999991
 30
0.0
 11
2262.7102779999991
 21
2106.3074700000002
 31
0.0
 70
     0
 13
2004.3957131172949
 23
2363.8074699999988
 33
0.0
 14
1871.341746999999
 24
1848.8074699999991
 34
0.0
 50
90.0
1001
ACAD
1000
DSTYLE
1002
{
1070
   287
1070
     4
1070
    40
1040
20.0
1070
    75
1070
     1
1070
   143
1040
0.039
1070
   172
1070
     1
1070
   271
1070
     0
1070
   279
1070
     1
1070
   288
1070
     1
1002
}
  0
DIMENSION
  5
7B45
  8
3
  6
CONTINUOUS
  2
*D5
 10
2312.4507490000001
 20
1808.8074699999991
 30
0.0
 11
2312.4507489999992
 21
1660.2360414285711
 31
0.0
 70
   128
 13
1871.341746999999
 23
1848.8074699999991
 33
0.0
 14
1871.341746999999
 24
1808.8074699999991
 34
0.0
 50
90.0
1001
ACAD
1000
DSTYLE
1002
{
1070
   287
1070
     3
1070
    40
1040
20.0
1070
   143
1040
0.039
1070
   172
1070
     1
1070
   271
1070
     0
1070
   279
1070
     0
1070
   288
1070
     1
1002
}
  0
DIMENSION
  5
7B52
  8
3
  6
CONTINUOUS
  2
*D6
 10
2433.5526810000001
 20
1808.8074699999991
 30
0.0
 11
2433.5526810000001
 21
2254.6885029999999
 31
0.0
 70
   128
 13
1881.3417469999999
 23
2663.8074700000002
 33
0.0
 14
1871.341746999999
 24
1808.8074699999991
 34
0.0
 50
90.0
1001
ACAD
1000
DSTYLE
1002
{
1070
   287
1070
     3
1070
    40
1040
20.0
1070
   143
1040
0.039
1070
   172
1070
     1
1070
   271
1070
     0
1070
   279
1070
     0
1070
   288
1070
     1
1002
}
  0
DIMENSION
  5
7B5F
  8
3
  6
CONTINUOUS
  2
*D7
 10
2981.4277950000001
 20
2730.2771050000001
 30
0.0
 11
3118.5706519999999
 21
2730.2771050000001
 31
0.0
 70
   128
 13
3281.4277950000001
 23
2663.8074700000002
 33
0.0
 14
2981.4277950000001
 24
2663.8074700000002
 34
0.0
1001
ACAD
1000
DSTYLE
1002
{
1070
   287
1070
     3
1070
    40
1040
20.0
1070
   143
1040
0.039
1070
   172
1070
     1
1070
   271
1070
     0
1070
   279
1070
     0
1070
   288
1070
     1
1002
}
  0
DIMENSION
  5
7B79
  8
3
  6
CONTINUOUS
  2
*D8
 10
2801.4277950000001
 20
2868.8766199999991
 30
0.0
 11
2966.4277950000001
 21
2968.8766199999991
 31
0.0
 70
     0
  1
MAX\P380
 13
3131.4277950000001
 23
2850.9967139999999
 33
0.0
 14
2801.4277950000001
 24
2583.8074699999988
 34
0.0
1001
ACAD
1000
DSTYLE
1002
{
1070
   287
1070
     4
1070
    40
1040
20.0
1070
    75
1070
     1
1070
   143
1040
0.039
1070
   172
1070
     1
1070
   271
1070
     0
1070
   279
1070
     1
1070
   288
1070
     1
1002
}
  0
DIMENSION
  5
7B86
  8
3
  6
CONTINUOUS
  2
*D9
 10
3131.4277950000001
 20
1650.294766
 30
0.0
 11
2959.9428830000002
 21
1650.294766
 31
0.0
 70
   128
 13
2795.4277950000001
 23
1808.8074699999991
 33
0.0
 14
3131.4277950000001
 24
1739.889530136669
 34
0.0
1001
ACAD
1000
DSTYLE
1002
{
1070
   287
1070
     3
1070
    40
1040
20.0
1070
   143
1040
0.039
1070
   172
1070
     1
1070
   271
1070
     0
1070
   279
1070
     0
1070
   288
1070
     1
1002
}
  0
DIMENSION
  5
7B94
  8
3
  6
CONTINUOUS
  2
*D10
 10
3405.4277950000001
 20
1650.294766
 30
0.0
 11
3271.1757010000001
 21
1650.969161
 31
0.0
 70
   128
 13
3131.4277950000001
 23
1739.889530136669
 33
0.0
 14
3405.4277950000001
 24
1808.8074699999991
 34
0.0
1001
ACAD
1000
DSTYLE
1002
{
1070
   287
1070
     4
1070
    40
1040
20.0
1070
    75
1070
     1
1070
   143
1040
0.039
1070
   172
1070
     1
1070
   271
1070
     0
1070
   279
1070
     1
1070
   288
1070
     1
1002
}
  0
DIMENSION
  5
7BA3
  8
3
  6
CONTINUOUS
  2
*D11
 10
3436.777967
 20
2148.8074699999988
 30
0.0
 11
3436.7779669999991
 21
2357.2746229999998
 31
0.0
 70
   128
 13
3281.4277950000001
 23
2578.8074700000002
 33
0.0
 14
3281.4277950000001
 24
2148.8074699999988
 34
0.0
 50
90.0
1001
ACAD
1000
DSTYLE
1002
{
1070
   287
1070
     3
1070
     3
1000
φ<>
1070
    40
1040
20.0
1070
   143
1040
0.039
1070
   172
1070
     1
1070
   271
1070
     0
1070
   279
1070
     0
1070
   288
1070
     1
1002
}
  0
DIMENSION
  5
7BB0
  8
3
  6
CONTINUOUS
  2
*D12
 10
1871.341746999999
 20
3982.4464459999999
 30
0.0
 11
1373.658899
 21
3982.4464459999999
 31
0.0
 70
   128
 13
871.34174700000005
 23
3907.5774700000002
 33
0.0
 14
1871.341746999999
 24
3907.5774700000002
 34
0.0
1001
ACAD
1000
DSTYLE
1002
{
1070
   287
1070
     3
1070
    40
1040
20.0
1070
   143
1040
0.039
1070
   172
1070
     1
1070
   271
1070
     0
1070
   279
1070
     0
1070
   288
1070
     1
1002
}
  0
DIMENSION
  5
7BBD
  8
3
  6
CONTINUOUS
  2
*D13
 10
752.89522400000044
 20
3297.5774699999988
 30
0.0
 11
752.89522399999987
 21
3653.1184990000002
 31
0.0
 70
   128
 13
871.34174700000005
 23
3907.5774700000002
 33
0.0
 14
871.34174700000005
 24
3297.5774699999988
 34
0.0
 50
90.0
1001
ACAD
1000
DSTYLE
1002
{
1070
   287
1070
     3
1070
    40
1040
20.0
1070
   143
1040
0.039
1070
   172
1070
     1
1070
   271
1070
     0
1070
   279
1070
     0
1070
   288
1070
     1
1002
}
  0
DIMENSION
  5
7C22
  8
3
  6
CONTINUOUS
  2
*D14
 10
1611.3417469999999
 20
1652.4955480000001
 30
0.0
 11
1246.66542
 21
1652.4955480000001
 31
0.0
 70
   128
 13
871.34174700000005
 23
1808.8074699999991
 33
0.0
 14
1611.3417469999999
 24
1720.197359886525
 34
0.0
1001
ACAD
1000
DSTYLE
1002
{
1070
   287
1070
     3
1070
    40
1040
20.0
1070
   143
1040
0.039
1070
   172
1070
     1
1070
   271
1070
     0
1070
   279
1070
     0
1070
   288
1070
     1
1002
}
  0
DIMENSION
  5
7C30
  8
3
  6
CONTINUOUS
  2
*D15
 10
1871.341746999999
 20
1652.4955480000001
 30
0.0
 11
1734.71585
 21
1652.4955480000001
 31
0.0
 70
   128
 13
1611.3417469999999
 23
1720.197359886525
 33
0.0
 14
1871.341746999999
 24
1808.8074699999991
 34
0.0
1001
ACAD
1000
DSTYLE
1002
{
1070
   287
1070
     4
1070
    40
1040
20.0
1070
    75
1070
     1
1070
   143
1040
0.039
1070
   172
1070
     1
1070
   271
1070
     0
1070
   279
1070
     1
1070
   288
1070
     1
1002
}
  0
DIMENSION
  5
7C53
  8
3
  6
CONTINUOUS
  2
*D16
 10
1611.3417469999999
 20
2762.3528899999992
 30
0.0
 11
1448.9769180000001
 21
2762.3528899999992
 31
0.0
 70
   128
 13
1279.3456470000001
 23
2363.8074699999988
 33
0.0
 14
1611.3417469999999
 24
2730.0726452828112
 34
0.0
1001
ACAD
1000
DSTYLE
1002
{
1070
   287
1070
     3
1070
    40
1040
20.0
1070
   143
1040
0.039
1070
   172
1070
     1
1070
   271
1070
     0
1070
   279
1070
     0
1070
   288
1070
     1
1002
}
  0
DIMENSION
  5
7C5F
  8
3
  6
CONTINUOUS
  2
*D17
 10
1911.341746999999
 20
2762.3528899999992
 30
0.0
 11
1761.341746999999
 21
2812.3528899999992
 31
0.0
 70
     0
 13
1611.3417469999999
 23
2737.0057090629762
 33
0.0
 14
1911.341746999999
 24
2402.8074699999988
 34
0.0
1001
ACAD
1000
DSTYLE
1002
{
1070
   287
1070
     4
1070
    40
1040
20.0
1070
    75
1070
     1
1070
   143
1040
0.039
1070
   172
1070
     1
1070
   271
1070
     0
1070
   279
1070
     1
1070
   288
1070
     1
1002
}
  0
LINE
  5
7CB0
  8
1
  6
CONTINUOUS
 10
3282.4236940000001
 20
2578.8074700000002
 30
0.0
 11
3282.4236940000001
 21
2148.8074699999988
 31
0.0
  0
DIMENSION
  5
7CC0
  8
3
  6
CONTINUOUS
  2
*D18
 10
3282.4236940000001
 20
2868.8766199999991
 30
0.0
 11
3203.1854504828621
 21
2920.7658361325839
 31
0.0
 70
   128
 13
3131.4277950000001
 23
2850.9967139999999
 33
0.0
 14
3282.4236940000001
 24
2578.8074700000002
 34
0.0
1001
ACAD
1000
DSTYLE
1002
{
1070
   288
1070
     1
1070
   172
1070
     1
1070
    40
1040
20.0
1070
   271
1070
     0
1070
   143
1040
0.039
1002
}
  0
DIMENSION
  5
7D7A
  8
3
  2
*D19
 10
871.34174700000005
 20
2891.0750698407128
 30
0.0
 11
1381.0375210739801
 21
2891.0750698407128
 31
0.0
 70
   128
 13
1911.341746999999
 23
2402.8074699999988
 33
0.0
 14
871.34174700000005
 24
1928.8074699999991
 34
0.0
1001
ACAD
1000
DSTYLE
1002
{
1070
   287
1070
     3
1070
    40
1040
20.0
1070
   143
1040
0.039
1070
   172
1070
     1
1070
   271
1070
     0
1070
   279
1070
     0
1070
   288
1070
     1
1002
}
  0
ENDSEC
  0
EOF
